osu file format v14

[General]
AudioFilename: audio.mp3
AudioLeadIn: 0
PreviewTime: 51435
Countdown: 0
SampleSet: Soft
StackLeniency: 0.3
Mode: 0
LetterboxInBreaks: 0
WidescreenStoryboard: 0

[Editor]
DistanceSpacing: 1.2
BeatDivisor: 4
GridSize: 32
TimelineZoom: 1.8

[Metadata]
Title:Fake
TitleUnicode:Fake
Artist:Imy
ArtistUnicode:Imy
Creator:Bellicose
Version:Dored's Expert
Source:
Tags:みゅー miyu myu mirin Beyond the despair Rock Japanese jrock featured artist fa mpg mappers' guild garden dored
BeatmapID:2637339
BeatmapSetID:1261105

[Difficulty]
HPDrainRate:6
CircleSize:4
OverallDifficulty:8.6
ApproachRate:9.3
SliderMultiplier:1.8
SliderTickRate:1

[Events]
//Background and Video events
0,0,"79639012_p0.jpg",0,0
//Break Periods
2,163109,169934
//Storyboard Layer 0 (Background)
//Storyboard Layer 1 (Fail)
//Storyboard Layer 2 (Pass)
//Storyboard Layer 3 (Foreground)
//Storyboard Layer 4 (Overlay)
//Storyboard Sound Samples

[TimingPoints]
1225,315.789473684211,4,2,1,40,1,0
1225,-111.111111111111,4,2,1,40,0,0
10382,-111.111111111111,4,2,1,50,0,0
11330,-99.9999999999999,4,2,1,60,0,0
40225,-100,4,2,1,65,0,0
42593,-100,4,2,1,50,0,0
42909,-100,4,2,1,35,0,0
43540,-100,4,2,1,40,0,0
44172,-100,4,2,1,45,0,0
44803,-100,4,2,1,50,0,0
45435,-100,4,2,1,55,0,0
46067,-100,4,2,1,60,0,0
46698,-90.9090909090909,4,2,1,65,0,0
51435,-166.666666666667,4,2,1,40,0,0
51672,-100,4,2,1,5,0,0
51751,-90.909090909091,4,2,1,70,0,0
59330,-90.9090909090909,4,2,1,75,0,0
60435,-90.9090909090909,4,2,1,70,0,0
61540,-166.666666666667,4,2,1,70,0,0
61856,-90.909090909091,4,2,1,70,0,0
66909,-100,4,2,1,60,0,0
71330,-100,4,2,1,70,0,0
71961,-90.9090909090909,4,2,1,70,0,0
74488,-90.9090909090909,4,2,1,75,0,0
76540,-100,4,2,1,75,0,0
77014,-100,4,2,1,60,0,0
87119,-100,4,2,1,50,0,0
92172,-100,4,2,1,50,0,0
92251,-100,4,2,2,50,0,0
92646,-100,4,2,1,50,0,0
92725,-100,4,2,2,50,0,0
93119,-100,4,2,1,50,0,0
93198,-100,4,2,2,50,0,0
93593,-100,4,2,1,50,0,0
93672,-100,4,2,2,50,0,0
94067,-100,4,2,1,50,0,0
94146,-100,4,2,2,50,0,0
94382,-100,4,2,1,50,0,0
94461,-100,4,2,2,50,0,0
94698,-100,4,2,1,50,0,0
96593,-100,4,2,1,60,0,0
105909,-100,4,2,1,65,0,0
106225,-100,4,2,1,65,0,0
107646,-100,4,2,1,40,0,0
108119,-100,4,2,2,35,0,0
108277,-100,4,2,1,35,0,0
108435,-100,4,2,2,35,0,0
108593,-100,4,2,1,35,0,0
108751,-100,4,2,2,35,0,0
108909,-100,4,2,1,35,0,0
108988,-100,4,2,2,35,0,0
109225,-100,4,2,1,40,0,0
109303,-100,4,2,2,40,0,0
109540,-100,4,2,1,40,0,0
109619,-100,4,2,2,40,0,0
109856,-100,4,2,1,45,0,0
109935,-100,4,2,2,45,0,0
110172,-100,4,2,1,45,0,0
110251,-100,4,2,2,45,0,0
110488,-100,4,2,1,50,0,0
110567,-100,4,2,2,50,0,0
110803,-100,4,2,1,50,0,0
110882,-100,4,2,2,50,0,0
111119,-100,4,2,1,55,0,0
111198,-100,4,2,2,55,0,0
111435,-100,4,2,1,55,0,0
111514,-100,4,2,2,55,0,0
111751,-100,4,2,1,60,0,0
111830,-100,4,2,2,60,0,0
112067,-100,4,2,1,60,0,0
112146,-100,4,2,2,60,0,0
112382,-90.9090909090909,4,2,1,65,0,0
117435,-90.9090909090909,4,2,1,70,0,0
125014,-90.9090909090909,4,2,1,70,0,0
126119,-90.9090909090909,4,2,1,70,0,0
127225,-166.666666666667,4,2,1,70,0,0
127540,-90.9090909090909,4,2,1,70,0,0
132593,-100,4,2,1,60,0,0
137014,-100,4,2,1,70,0,0
137646,-90.9090909090909,4,2,1,70,0,0
140172,-90.9090909090909,4,2,1,75,0,0
142619,-100,4,2,1,75,0,0
142698,-90.9090909090909,4,2,1,70,0,0
149961,-90.9090909090909,4,2,1,70,0,0
150277,-90.9090909090909,4,2,1,70,0,0
151540,-90.9090909090909,4,2,1,70,0,0
152803,-90.9090909090909,4,2,1,70,0,0
153119,-90.9090909090909,4,2,1,70,0,0
154067,-90.9090909090909,4,2,1,70,0,0
154382,-90.9090909090909,4,2,1,70,0,0
157856,-90.9090909090909,4,2,1,70,0,0
160382,-90.9090909090909,4,2,1,75,0,0
162909,-90.9090909090909,4,2,1,70,0,0
173014,-90.9090909090909,4,2,1,70,0,0
177751,-90.9090909090909,4,2,1,70,0,0
178067,-90.9090909090909,4,2,1,70,0,0
185646,-90.9090909090909,4,2,1,75,0,0
188172,-100,4,2,1,60,0,0

[Colours]
Combo1 : 219,100,240
Combo2 : 162,222,244
Combo3 : 123,147,255
Combo4 : 235,186,254

[HitObjects]
448,320,1225,5,2,1:2:0:0:
358,287,1382,1,0,0:0:0:0:
375,382,1540,1,0,0:0:0:0:
431,225,1698,1,2,0:0:0:0:
358,287,2014,5,2,0:0:0:0:
268,254,2330,1,2,0:0:0:0:
178,221,2646,5,2,0:0:0:0:
271,204,2803,1,2,0:0:0:0:
364,187,2961,1,2,0:0:0:0:
364,187,3277,5,2,0:0:0:0:
274,154,3593,1,2,0:0:0:0:
184,121,3909,5,2,0:0:0:0:
274,154,4067,1,2,0:0:0:0:
258,60,4225,1,2,0:0:0:0:
348,93,4382,1,2,0:0:0:0:
184,121,4540,1,2,0:0:0:0:
22,106,4856,6,0,P|102:113|183:120,1,161.999995056153,2|0,0:0|0:0,0:0:0:0:
268,254,5330,1,2,0:0:0:0:
178,221,5488,1,2,0:0:0:0:
120,376,5646,1,2,0:0:0:0:
194,315,5803,1,2,0:0:0:0:
104,282,5961,1,2,0:0:0:0:
30,343,6119,5,2,1:2:0:0:
178,221,6277,1,0,1:0:0:0:
194,315,6435,5,2,0:0:0:0:
284,348,6593,1,2,0:0:0:0:
358,287,6751,1,2,0:0:0:0:
268,254,6909,1,2,0:0:0:0:
374,381,7067,1,2,0:0:0:0:
448,320,7382,5,2,0:0:0:0:
431,225,7698,5,2,0:0:0:0:
341,192,7856,1,2,0:0:0:0:
251,159,8014,1,2,0:0:0:0:
251,159,8330,5,2,0:0:0:0:
345,142,8646,1,2,0:0:0:0:
439,125,8961,5,2,0:0:0:0:
349,92,9119,1,2,0:0:0:0:
259,59,9277,1,2,0:0:0:0:
353,42,9435,1,2,0:0:0:0:
169,26,9593,1,2,0:0:0:0:
183,187,9909,6,0,P|176:106|168:25,1,161.999995056153,2|0,0:0|0:0,0:0:0:0:
284,147,10382,2,0,P|344:142|404:136,1,121.499996292114,6|0,0:1|0:0,0:0:0:0:
439,125,10698,1,10,0:2:0:0:
238,276,10856,1,2,1:2:0:0:
238,276,11330,6,0,P|174:219|88:236,1,180,6|10,1:2|0:0,0:0:0:0:
16,318,11803,1,2,0:0:0:0:
183,187,11961,1,2,1:2:0:0:
3,112,12119,2,0,P|47:120|91:127,1,90,2|0,1:2|0:0,0:0:0:0:
256,58,12435,5,10,0:0:0:0:
329,187,12751,5,0,1:0:0:0:
509,112,12909,2,0,P|464:120|420:127,1,90,10|0,0:0|0:0,0:0:0:0:
240,171,13225,2,0,P|284:178|328:186,1,90,2|2,1:2|1:2,0:0:0:0:
409,260,13540,1,10,0:2:0:0:
339,53,13698,1,2,0:0:0:0:
317,320,14014,5,2,1:2:0:0:
409,260,14172,1,10,0:0:0:0:
209,308,14330,1,0,1:0:0:0:
317,320,14488,1,10,0:2:0:0:
127,236,14646,1,2,1:2:0:0:
409,260,14961,6,0,P|466:196|449:110,1,180,10|0,0:0|1:0,0:0:0:0:
304,98,15435,2,0,P|316:141|327:184,1,90,10|0,0:0|0:0,0:0:0:0:
408,25,15751,1,2,1:2:0:0:
328,185,15909,1,2,1:2:0:0:
193,67,16067,2,0,P|149:56|106:43,1,90,10|2,0:2|0:2,0:0:0:0:
221,172,16382,5,4,1:2:0:0:
25,117,16540,1,2,1:2:0:0:
99,235,16698,2,0,P|111:191|122:147,1,90,10|2,0:2|0:2,0:0:0:0:
2,286,17014,1,2,1:2:0:0:
199,277,17172,1,2,1:2:0:0:
256,58,17488,5,10,0:0:0:0:
313,277,17803,5,0,1:0:0:0:
390,147,17961,2,0,P|401:191|413:235,1,90,10|0,0:0|0:0,0:0:0:0:
291,364,18277,2,0,P|302:320|313:276,1,90,2|2,1:2|1:2,0:0:0:0:
270,176,18593,1,10,0:2:0:0:
454,334,18751,1,2,0:0:0:0:
467,71,19067,5,2,1:2:0:0:
390,147,19225,1,10,0:0:0:0:
257,13,19382,1,0,1:0:0:0:
362,42,19540,1,10,0:2:0:0:
180,89,19698,1,2,1:2:0:0:
467,71,20014,6,0,P|441:157|420:244,1,180,10|0,0:0|1:0,0:0:0:0:
351,319,20488,1,10,0:0:0:0:
285,118,20646,1,0,0:0:0:0:
143,275,20803,1,0,1:0:0:0:
260,237,20961,1,0,1:0:0:0:
290,234,21040,1,0,1:0:0:0:
318,247,21119,1,8,0:0:0:0:
234,357,21277,1,2,0:0:0:0:
57,325,21435,6,0,P|145:339|234:356,1,180,6|8,1:2|0:0,0:0:0:0:
182,124,21909,1,2,0:0:0:0:
143,275,22067,2,0,P|125:189|182:124,1,180,2|0,1:2|0:0,0:0:0:0:
318,247,22540,1,10,0:0:0:0:
287,69,22698,6,0,P|303:157|318:246,1,180,2|8,0:0|0:0,0:0:0:0:
495,110,23172,1,2,0:0:0:0:
345,149,23330,2,0,P|430:167|496:110,1,180,2|8,1:2|0:0,0:0:0:0:
356,337,23803,1,2,0:0:0:0:
506,377,23961,6,0,P|440:319|355:337,1,180,2|8,1:2|0:0,0:0:0:0:
167,180,24435,1,2,0:0:0:0:
345,149,24593,2,0,P|256:165|167:180,1,180,2|0,1:2|0:0,0:0:0:0:
423,208,25067,1,10,0:0:0:0:
383,58,25225,6,0,P|441:124|423:209,1,180,2|8,0:0|0:0,0:0:0:0:
224,257,25698,1,2,0:0:0:0:
345,149,25856,1,2,1:2:0:0:
207,66,26014,1,0,1:0:0:0:
196,59,26093,1,0,1:0:0:0:
185,52,26172,2,0,P|229:44|273:36,1,90,8|0,0:0|0:0,0:0:0:0:
40,178,26488,6,0,P|56:89|70:0,1,180,6|8,1:2|0:0,0:0:0:0:
252,167,26961,1,2,0:0:0:0:
102,127,27119,2,0,P|187:109|252:167,1,180,2|0,1:2|0:0,0:0:0:0:
117,320,27593,1,10,0:0:0:0:
295,351,27751,6,0,P|206:334|117:320,1,180,2|8,0:0|0:0,0:0:0:0:
173,107,28225,1,2,0:0:0:0:
212,258,28382,2,0,P|155:192|173:107,1,180,2|8,1:2|0:0,0:0:0:0:
372,48,28856,1,2,0:0:0:0:
265,26,29014,6,0,P|273:70|281:114,1,90,2|0,1:2|1:0,0:0:0:0:
433,220,29330,1,10,0:0:0:0:
372,48,29488,1,2,1:2:0:0:
288,205,29646,1,8,0:0:0:0:
483,100,29803,1,2,1:2:0:0:
483,100,30119,6,0,P|467:189|453:278,1,180,10|0,0:0|1:0,0:0:0:0:
288,205,30593,2,0,P|332:198|376:191,1,90,8|0,0:0|0:0,0:0:0:0:
453,277,30909,1,10,0:2:0:0:
227,111,31067,1,6,1:0:0:0:
227,111,31382,1,2,0:0:0:0:
110,234,31540,6,0,P|199:218|288:204,1,180,6|8,1:2|0:0,0:0:0:0:
167,31,32014,1,2,0:0:0:0:
227,111,32172,2,0,P|141:127|76:71,1,180,2|0,1:2|0:0,0:0:0:0:
0,189,32646,1,10,0:0:0:0:
125,322,32803,6,0,P|117:277|109:233,2,90,2|0|8,0:0|1:0|0:0,0:0:0:0:
287,204,33277,1,2,0:0:0:0:
318,310,33435,2,0,P|273:301|229:294,1,90,2|0,1:2|1:0,0:0:0:0:
394,229,33751,2,0,P|438:222|483:215,1,90,8|0,0:0|0:0,0:0:0:0:
327,52,34067,6,0,P|270:117|286:203,1,180,2|8,1:2|0:0,0:0:0:0:
491,302,34540,1,2,0:0:0:0:
395,321,34698,2,0,P|379:232|365:143,1,180,2|0,1:2|0:0,0:0:0:0:
418,14,35172,1,10,0:0:0:0:
239,110,35330,6,0,P|195:102|151:95,2,90,2|0|8,0:0|1:0|0:0,0:0:0:0:
94,14,35803,1,2,0:0:0:0:
182,198,35961,1,2,1:2:0:0:
313,51,36119,1,0,1:0:0:0:
321,40,36198,1,0,1:0:0:0:
329,29,36277,2,0,P|373:21|417:13,1,90,8|0,0:0|0:0,0:0:0:0:
437,243,36593,6,0,P|371:186|285:202,1,180,6|8,1:2|0:0,0:0:0:0:
112,119,37067,1,2,0:0:0:0:
181,197,37225,2,0,P|197:286|211:375,1,180,2|0,1:2|0:0,0:0:0:0:
285,201,37698,1,10,0:0:0:0:
108,301,37856,6,0,P|152:293|196:285,2,90,2|0|8,0:0|1:0|0:0,0:0:0:0:
306,337,38330,1,2,0:0:0:0:
181,197,38488,2,0,P|189:152|196:108,1,90,2|0,1:2|1:0,0:0:0:0:
321,248,38803,2,0,P|312:292|306:336,1,90,8|0,0:0|0:0,0:0:0:0:
275,48,39119,6,0,P|360:30|425:88,1,180,2|8,1:2|0:0,0:0:0:0:
476,257,39593,1,0,1:0:0:0:
335,128,39751,1,10,0:2:0:0:
476,257,39909,2,0,P|483:212|490:168,1,90,2|0,1:2|0:0,0:0:0:0:
275,48,40225,6,0,P|291:137|305:226,1,180,10|0,0:0|1:0,0:0:0:0:
190,323,40698,2,0,P|151:300|107:300,1,90,10|0,0:0|0:0,0:0:0:0:
22,220,41014,1,2,1:2:0:0:
194,191,41172,1,0,1:0:0:0:
22,220,41330,2,0,P|88:208|154:196,1,135,10|0,0:0|0:0,0:0:0:0:
194,191,41646,6,0,P|186:146|178:102,1,90,6|0,1:2|0:0,0:0:0:0:
298,6,41961,2,0,P|289:50|282:94,1,90,0|0,1:0|0:0,0:0:0:0:
399,201,42277,2,0,P|391:156|383:112,1,90,0|0,1:0|0:0,0:0:0:0:
503,16,42593,2,0,P|494:60|487:104,1,90,0|0,1:0|0:0,0:0:0:0:
310,216,42909,2,0,P|354:207|398:200,1,90,8|8,1:2|0:0,0:0:0:0:
282,94,43225,5,10,1:2:0:0:
278,134,43383,1,8,0:0:0:0:
168,70,43540,5,10,1:2:0:0:
187,147,43698,1,8,0:0:0:0:
47,104,43856,5,10,1:2:0:0:
114,203,44014,1,8,0:0:0:0:
269,170,44172,6,0,P|224:169|186:146,2,90,10|8|8,1:2|0:0|1:2,0:0:0:0:
31,226,44646,2,0,P|69:203|113:202,2,90,10|8|8,0:0|1:2|0:0,0:0:0:0:
209,339,45119,6,0,P|208:294|185:256,2,90,10|8|8,1:2|0:0|1:2,0:0:0:0:
398,199,45593,1,8,0:0:0:0:
319,312,45751,2,0,P|363:319|407:327,1,90,10|8,1:2|0:0,0:0:0:0:
307,139,46067,2,0,P|299:183|291:227,1,90,10|8,1:2|0:0,0:0:0:0:
405,91,46382,1,8,1:2:0:0:
186,146,46540,1,8,0:0:0:0:
404,91,46698,6,0,P|453:100|502:108,1,99.0000030212403,12|0,0:1|1:0,0:0:0:0:
314,31,47014,1,0,1:0:0:0:
495,216,47172,2,0,P|446:206|397:198,1,99.0000030212403,12|0,0:2|1:0,0:0:0:0:
307,139,47488,1,0,1:0:0:0:
209,338,47646,6,0,P|199:289|190:240,1,99.0000030212403,12|0,0:1|1:0,0:0:0:0:
307,139,47961,1,0,1:0:0:0:
63,144,48119,2,0,P|72:192|81:241,1,99.0000030212403,12|0,0:2|1:0,0:0:0:0:
179,42,48435,1,0,1:0:0:0:
300,247,48593,6,0,P|348:236|397:228,1,99.0000030212403,12|0,0:1|1:0,0:0:0:0:
160,161,48909,2,0,P|111:152|62:143,1,99.0000030212403,12|0,0:1|1:0,0:0:0:0:
171,295,49225,5,12,0:2:0:0:
307,139,49382,1,0,1:0:0:0:
179,42,49540,1,8,0:0:0:0:
300,247,49698,1,0,1:0:0:0:
394,33,49856,1,8,0:0:0:0:
160,161,50014,1,0,1:0:0:0:
413,165,50172,1,8,0:0:0:0:
171,295,50330,1,0,1:0:0:0:
285,31,50488,5,0,1:0:0:0:
322,355,50646,1,2,1:0:0:0:
285,31,50961,5,2,1:0:0:0:
284,31,51435,2,0,P|243:34|203:36,1,80.9999975280763,2|0,0:0|0:0,0:0:0:0:
296,63,51751,6,0,P|368:76|442:89,1,148.50000453186,4|0,1:2|0:0,0:0:0:0:
480,69,52067,1,8,0:0:0:0:
405,214,52225,2,0,P|356:204|307:196,1,99.0000030212403,2|0,0:2|1:0,0:0:0:0:
203,35,52540,2,0,P|212:81|220:132,1,99.0000030212403,2|8,0:2|0:0,0:0:0:0:
376,49,52856,1,2,0:0:0:0:
208,239,53014,6,0,P|115:261|46:196,1,198.000006042481,0|8,1:0|0:0,0:0:0:0:
203,36,53488,1,0,1:0:0:0:
307,196,53646,2,0,P|358:187|404:178,1,99.0000030212403,2|0,1:2|0:0,0:0:0:0:
122,116,53961,2,0,P|178:127|219:133,1,99.0000030212403,10|0,0:0|0:0,0:0:0:0:
487,123,54277,6,0,P|428:79|356:88,1,148.50000453186,2|0,1:2|0:0,0:0:0:0:
324,116,54593,1,10,0:0:0:0:
462,324,54751,2,0,P|470:275|478:226,1,99.0000030212403,2|0,0:2|1:0,0:0:0:0:
341,383,55067,2,0,P|331:334|323:285,1,99.0000030212403,2|8,0:2|0:0,0:0:0:0:
219,133,55382,6,0,P|123:160|27:184,1,198.000006042481,2|2,0:2|0:2,0:0:0:0:
213,261,55856,1,8,0:0:0:0:
301,46,56014,2,0,P|349:54|398:64,1,99.0000030212403,0|0,3:0|1:0,0:0:0:0:
299,211,56330,1,0,3:0:0:0:
110,87,56488,2,0,P|123:159|136:233,1,148.50000453186,10|0,0:0|0:0,0:0:0:0:
213,261,56803,6,0,P|285:252|342:296,1,148.50000453186,6|0,1:2|0:0,0:0:0:0:
348,341,57119,1,10,0:0:0:0:
486,214,57277,2,0,P|438:205|389:195,1,99.0000030212403,2|0,0:2|1:0,0:0:0:0:
251,360,57593,2,0,P|299:348|347:340,1,99.0000030212403,2|8,0:2|0:0,0:0:0:0:
275,137,57909,1,2,0:2:0:0:
104,329,58067,6,0,P|39:259|61:167,1,198.000006042481,0|10,1:0|0:0,0:0:0:0:
275,137,58540,1,0,1:0:0:0:
117,10,58698,2,0,P|126:58|134:107,1,99.0000030212403,2|0,1:2|0:0,0:0:0:0:
259,234,59014,2,0,P|267:185|275:136,1,99.0000030212403,10|0,0:0|0:0,0:0:0:0:
500,35,59330,6,0,P|445:83|372:81,1,148.50000453186,6|0,1:2|0:0,0:0:0:0:
326,25,59646,2,0,P|277:34|228:42,1,99.0000030212403,10|2,0:0|1:2,0:0:0:0:
61,166,59961,1,0,1:0:0:0:
228,42,60119,1,0,3:0:0:0:
167,278,60277,1,8,0:0:0:0:
117,10,60435,5,6,1:0:0:0:
457,112,60751,5,6,1:0:0:0:
343,263,60909,1,8,0:0:0:0:
496,213,61067,2,0,P|400:186|304:162,1,198.000006042481,6|4,1:0|1:2,0:0:0:0:
233,120,61461,5,0,1:0:0:0:
233,120,61540,2,0,P|222:81|228:42,1,80.9999975280763,8|0,0:0|0:0,0:0:0:0:
304,162,61856,6,0,P|234:141|169:174,1,148.50000453186,6|0,1:2|0:0,0:0:0:0:
146,211,62172,1,10,0:0:0:0:
130,24,62330,2,0,P|178:33|227:41,1,99.0000030212403,2|0,0:0|1:0,0:0:0:0:
43,174,62646,2,0,P|35:125|25:76,1,99.0000030212403,2|8,0:0|0:0,0:0:0:0:
233,120,62961,1,2,0:0:0:0:
85,313,63119,6,0,P|154:248|246:270,1,198.000006042481,0|10,1:0|0:0,0:0:0:0:
437,345,63593,1,0,1:0:0:0:
337,188,63751,2,0,P|346:236|354:285,1,99.0000030212403,2|0,1:2|0:0,0:0:0:0:
484,118,64067,2,0,P|476:166|466:215,1,99.0000030212403,10|0,0:0|0:0,0:0:0:0:
310,24,64382,6,0,P|357:77|356:149,1,148.50000453186,2|0,1:2|0:0,0:0:0:0:
337,188,64698,1,10,0:0:0:0:
165,130,64856,2,0,P|213:122|262:112,1,99.0000030212403,2|0,0:0|1:0,0:0:0:0:
97,238,65172,2,0,P|48:228|0:220,1,99.0000030212403,2|8,0:0|0:0,0:0:0:0:
197,314,65488,1,2,0:0:0:0:
165,130,65646,6,0,P|157:81|147:32,1,99.0000030212403,6|8,1:2|0:0,0:0:0:0:
119,7,65882,1,8,0:0:0:0:
119,7,65961,1,8,0:0:0:0:
297,103,66119,1,8,0:0:0:0:
97,238,66277,1,8,0:0:0:0:
354,285,66435,1,8,0:0:0:0:
97,238,66593,2,0,P|145:230|194:220,1,99.0000030212403,8|8,0:0|0:0,0:0:0:0:
447,143,66909,6,0,P|361:160|296:102,1,180,6|0,1:2|0:0,0:0:0:0:
388,63,67382,1,0,1:0:0:0:
288,214,67540,2,0,P|202:188|115:167,1,180,10|0,0:0|1:0,0:0:0:0:
11,330,68014,6,0,P|75:272|161:289,1,180,2|8,1:2|0:0,0:0:0:0:
288,214,68488,2,0,P|280:258|272:302,1,90,2|0,0:0|1:0,0:0:0:0:
363,369,68803,2,0,P|407:361|451:354,1,90,10|0,0:0|0:0,0:0:0:0:
497,251,69119,1,2,1:2:0:0:
288,214,69277,1,8,0:0:0:0:
402,190,69435,6,0,P|459:125|442:39,1,180,2|0,1:2|0:0,0:0:0:0:
333,33,69909,1,0,1:0:0:0:
288,214,70067,2,0,P|280:169|272:125,1,90,10|0,0:0|1:0,0:0:0:0:
402,190,70382,1,2,0:0:0:0:
333,33,70540,6,0,P|244:49|155:64,1,180,2|8,1:2|0:0,0:0:0:0:
5,165,71014,2,0,P|49:172|93:180,1,90,2|0,0:0|1:0,0:0:0:0:
214,293,71330,1,10,0:1:0:0:
33,347,71488,1,0,1:0:0:0:
93,180,71646,2,0,P|101:224|108:268,1,90,14|0,0:1|1:0,0:0:0:0:
288,214,71961,5,12,0:0:0:0:
155,63,72119,1,0,1:0:0:0:
368,112,72277,1,8,0:0:0:0:
184,178,72435,1,0,1:0:0:0:
342,314,72593,2,0,P|389:300|437:288,1,99.0000030212403,8|0,0:0|1:0,0:0:0:0:
498,150,72909,2,0,P|449:137|402:124,1,99.0000030212403,8|0,0:0|1:0,0:0:0:0:
274,63,73225,5,8,0:0:0:0:
342,314,73382,1,0,1:0:0:0:
184,178,73540,1,8,0:0:0:0:
402,124,73698,1,0,1:0:0:0:
202,275,73856,2,0,P|194:226|184:177,1,99.0000030212403,8|0,0:0|1:0,0:0:0:0:
332,23,74172,2,0,P|322:71|314:120,1,99.0000030212403,8|0,0:0|1:0,0:0:0:0:
155,63,74488,5,12,0:0:0:0:
202,275,74646,1,0,1:0:0:0:
314,120,74803,1,8,0:0:0:0:
66,175,74961,1,0,1:0:0:0:
242,332,75119,2,0,P|249:283|258:234,1,99.0000030212403,8|0,0:0|1:0,0:0:0:0:
155,63,75435,2,0,P|168:110|181:158,1,99.0000030212403,8|0,0:0|1:0,0:0:0:0:
87,292,75751,5,8,0:0:0:0:
314,120,75909,1,0,1:0:0:0:
46,59,76067,1,8,0:0:0:0:
258,234,76225,1,0,1:0:0:0:
67,176,76382,5,10,0:1:0:0:
332,23,76540,1,6,1:0:0:0:
332,23,77014,6,0,P|358:109|379:196,1,180,6|10,1:2|0:0,0:0:0:0:
446,78,77488,1,2,0:0:0:0:
256,162,77646,1,2,1:2:0:0:
372,292,77803,2,0,P|416:284|460:277,1,90,2|0,1:2|0:0,0:0:0:0:
256,370,78119,5,10,0:0:0:0:
256,162,78435,5,0,1:0:0:0:
140,292,78593,2,0,P|96:284|52:277,1,90,10|0,0:0|0:0,0:0:0:0:
145,105,78909,2,0,P|153:149|160:193,1,90,2|2,1:2|1:2,0:0:0:0:
34,141,79225,1,10,0:2:0:0:
224,24,79382,1,2,0:0:0:0:
478,141,79698,5,2,1:2:0:0:
373,182,79856,1,10,0:0:0:0:
495,30,80014,1,0,1:0:0:0:
461,252,80172,1,10,0:2:0:0:
285,112,80330,1,2,1:2:0:0:
285,112,80646,6,0,P|221:169|135:152,1,180,10|0,0:0|1:0,0:0:0:0:
29,45,81119,2,0,P|73:53|117:60,1,90,10|0,0:0|0:0,0:0:0:0:
230,202,81435,1,2,1:2:0:0:
117,60,81593,1,2,1:2:0:0:
48,231,81751,2,0,P|37:187|24:144,1,90,10|2,0:2|0:2,0:0:0:0:
1,335,82067,5,4,1:2:0:0:
134,151,82225,1,2,1:2:0:0:
179,298,82382,2,0,P|223:309|266:322,1,90,10|2,0:2|0:2,0:0:0:0:
375,363,82698,1,2,1:2:0:0:
230,202,82856,1,2,1:2:0:0:
512,40,83172,5,10,0:0:0:0:
378,151,83488,5,0,1:0:0:0:
227,94,83646,2,0,P|271:83|314:70,1,90,10|0,0:0|0:0,0:0:0:0:
465,174,83961,2,0,P|421:161|378:150,1,90,2|2,1:2|1:2,0:0:0:0:
313,70,84277,1,10,0:2:0:0:
420,269,84435,1,2,0:0:0:0:
179,298,84751,5,2,1:2:0:0:
230,202,84909,1,10,0:0:0:0:
71,302,85067,1,0,1:0:0:0:
275,349,85225,1,10,0:2:0:0:
122,206,85382,1,2,1:2:0:0:
122,206,85698,6,0,P|148:120|169:33,1,180,10|0,0:0|1:0,0:0:0:0:
230,202,86172,1,10,0:0:0:0:
30,148,86330,1,2,0:0:0:0:
169,32,86488,1,0,1:0:0:0:
104,232,86646,1,0,1:0:0:0:
78,250,86724,1,0,1:0:0:0:
47,258,86803,1,8,0:0:0:0:
148,120,86961,1,2,0:0:0:0:
179,298,87119,6,0,P|243:241|329:258,1,180,6|0,1:2|1:0,0:0:0:0:
265,113,87593,1,2,0:0:0:0:
383,340,87751,2,0,P|366:251|351:162,1,180,2|0,1:2|1:0,0:0:0:0:
413,60,88225,1,2,0:0:0:0:
230,202,88382,6,0,P|173:138|190:52,1,180,2|0,1:2|1:0,0:0:0:0:
351,162,88856,1,2,0:0:0:0:
273,4,89014,2,0,P|184:20|95:35,1,180,2|0,1:2|1:0,0:0:0:0:
13,182,89488,1,10,0:0:0:0:
190,51,89646,6,0,P|173:140|158:229,1,180,2|0,1:2|1:0,0:0:0:0:
16,368,90119,1,2,0:0:0:0:
214,323,90277,2,0,P|148:265|63:283,1,180,2|0,1:2|1:0,0:0:0:0:
13,182,90751,1,2,0:0:0:0:
133,381,90909,6,0,P|221:364|310:349,1,180,2|0,1:2|1:0,0:0:0:0:
342,169,91382,1,2,0:0:0:0:
445,280,91540,2,0,P|356:265|267:248,1,180,2|0,1:2|1:0,0:0:0:0:
158,228,92014,1,2,0:0:0:0:
226,113,92172,6,0,P|232:134|237:156,3,45,4|0|0|0,1:0|1:0|1:0|1:0,0:0:0:0:
322,79,92488,2,0,P|327:57|333:35,3,45,0|0|0|0,1:0|1:0|1:0|1:0,0:0:0:0:
385,180,92803,2,0,P|363:173|341:168,3,45,0|0|0|0,1:0|1:0|1:0|1:0,0:0:0:0:
457,115,93119,2,0,P|478:109|500:103,3,45,0|0|0|0,1:0|1:0|1:0|1:0,0:0:0:0:
485,271,93435,5,0,1:0:0:0:
455,261,93514,1,0,1:0:0:0:
423,264,93593,1,0,1:0:0:0:
396,280,93672,1,0,1:0:0:0:
377,306,93751,2,0,P|355:299|333:294,1,45,0|0,1:0|1:0,0:0:0:0:
237,244,93909,2,0,P|215:250|193:255,1,45,0|0,1:0|1:0,0:0:0:0:
101,314,94067,5,0,1:0:0:0:
80,289,94146,1,0,1:0:0:0:
71,257,94225,1,0,1:0:0:0:
76,224,94303,1,0,1:0:0:0:
95,197,94382,2,0,P|101:175|106:153,1,45,0|0,1:0|1:0,0:0:0:0:
33,71,94540,2,0,P|28:49|20:28,1,45,0|0,1:0|1:0,0:0:0:0:
140,123,94698,5,8,0:0:0:0:
172,132,94777,1,8,0:0:0:0:
205,129,94856,1,8,0:3:0:0:
235,115,94935,1,8,0:3:0:0:
257,91,95014,2,0,P|279:83|301:77,1,45,4|4,0:3|0:3,0:0:0:0:
411,34,95172,5,8,0:0:0:0:
420,43,95251,1,8,0:0:0:0:
430,53,95330,2,0,L|418:96,3,45,8|8|4|4,0:3|0:3|0:3|0:3,0:0:0:0:
345,156,95646,1,8,0:0:0:0:
336,165,95725,1,8,0:0:0:0:
326,175,95804,2,0,L|337:218,3,45,8|8|4|4,0:3|0:3|0:3|0:3,0:0:0:0:
482,212,96119,5,8,0:0:0:0:
473,203,96198,1,8,0:0:0:0:
463,193,96277,2,0,P|441:200|419:206,1,45,8|8,0:3|0:3,0:0:0:0:
245,302,96435,1,4,0:3:0:0:
254,293,96514,1,4,0:3:0:0:
264,283,96593,2,0,P|285:288|307:295,1,45,10|0,0:1|0:0,0:0:0:0:
494,371,96751,5,14,0:1:0:0:
494,371,97067,1,2,0:0:0:0:
419,205,97225,6,0,P|405:293|389:382,1,180,6|8,1:2|0:0,0:0:0:0:
307,295,97698,1,2,0:0:0:0:
508,245,97856,2,0,P|501:158|429:109,1,180,2|0,1:2|0:0,0:0:0:0:
257,61,98330,1,10,0:0:0:0:
319,201,98488,6,0,P|326:156|334:112,2,90,2|0|8,0:0|1:0|0:0,0:0:0:0:
405,21,98961,1,2,0:0:0:0:
257,61,99119,2,0,P|212:53|168:45,1,90,2|0,1:2|1:0,0:0:0:0:
40,110,99435,2,0,P|32:65|24:21,1,90,8|0,0:0|3:0,0:0:0:0:
183,143,99751,6,0,P|125:208|142:294,1,180,2|8,1:2|0:0,0:0:0:0:
319,201,100225,1,2,0:0:0:0:
202,369,100382,2,0,P|116:385|50:328,1,180,2|0,1:2|0:0,0:0:0:0:
183,143,100856,1,10,0:0:0:0:
35,237,101014,6,0,P|80:229|124:221,2,90,2|0|8,0:0|1:0|0:0,0:0:0:0:
238,279,101488,1,2,0:0:0:0:
86,131,101646,1,2,1:2:0:0:
291,74,101803,1,0,1:0:0:0:
86,131,101961,2,0,P|79:86|71:42,1,90,8|0,0:0|0:0,0:0:0:0:
255,165,102277,6,0,P|198:98|214:13,1,180,6|8,1:2|0:0,0:0:0:0:
367,147,102751,1,2,0:0:0:0:
468,44,102909,2,0,P|379:60|290:74,1,180,2|0,1:2|0:0,0:0:0:0:
444,221,103382,1,10,0:0:0:0:
255,165,103540,6,0,P|263:209|271:253,2,90,2|0|8,0:0|1:0|0:0,0:0:0:0:
376,32,104014,1,2,0:0:0:0:
255,165,104172,2,0,P|211:173|167:181,1,90,2|0,1:2|1:0,0:0:0:0:
393,247,104488,2,0,P|437:255|481:263,1,90,8|0,0:0|0:0,0:0:0:0:
272,380,104803,6,0,P|205:323|120:339,1,180,2|8,1:2|0:0,0:0:0:0:
166,181,105277,1,0,1:0:0:0:
16,310,105435,1,10,0:2:0:0:
166,181,105593,2,0,P|122:173|78:165,1,90,2|0,1:2|0:0,0:0:0:0:
244,296,105909,6,0,P|301:229|285:144,1,180,10|0,0:0|1:0,0:0:0:0:
149,92,106382,2,0,P|157:136|165:180,1,90,10|0,0:0|0:0,0:0:0:0:
13,40,106698,1,2,1:2:0:0:
45,212,106856,1,0,1:0:0:0:
13,40,107014,2,0,P|26:106|38:172,1,135,10|0,0:0|0:0,0:0:0:0:
45,212,107330,6,0,P|89:203|133:196,1,90,6|0,1:2|0:0,0:0:0:0:
237,108,107646,2,0,P|192:100|148:91,1,90,8|0,0:0|0:0,0:0:0:0:
245,292,107961,2,0,P|237:247|228:203,1,90,8|0,0:0|1:0,0:0:0:0:
331,75,108277,2,0,P|321:119|314:163,1,90,8|0,0:0|1:0,0:0:0:0:
442,232,108593,2,0,P|397:239|353:248,1,90,8|0,0:0|1:0,0:0:0:0:
245,292,108909,6,0,P|223:285|201:280,3,45,10|0|0|0,0:0|1:0|1:0|1:0,0:0:0:0:
142,214,109225,2,0,P|122:224|103:236,3,45,10|0|0|0,0:0|1:0|1:0|1:0,0:0:0:0:
14,231,109540,2,0,P|7:252|2:274,3,45,10|0|0|0,0:0|1:0|1:0|1:0,0:0:0:0:
56,368,109856,5,10,0:0:0:0:
91,361,109935,1,0,1:0:0:0:
126,355,110014,1,0,1:0:0:0:
162,349,110093,1,0,1:0:0:0:
197,342,110172,2,0,L|241:334,1,45,8|0,0:0|1:0,0:0:0:0:
327,247,110330,5,2,1:2:0:0:
292,240,110409,1,0,1:0:0:0:
257,234,110488,1,8,0:0:0:0:
221,228,110567,1,0,1:0:0:0:
186,221,110646,2,0,L|141:213,1,45,0|0,1:0|1:0,0:0:0:0:
56,126,110803,5,10,0:0:0:0:
91,119,110882,1,0,1:0:0:0:
126,113,110961,1,0,1:0:0:0:
162,107,111040,1,0,1:0:0:0:
197,100,111119,2,0,L|241:92,3,45,8|0|0|0,0:0|1:0|1:0|1:0,0:0:0:0:
319,31,111435,6,0,P|326:53|331:75,3,45,10|0|0|0,0:0|1:0|1:0|1:0,0:0:0:0:
403,146,111751,2,0,P|408:124|414:102,3,45,10|0|0|0,0:0|1:0|1:0|1:0,0:0:0:0:
333,217,112067,2,0,P|311:211|290:206,1,45,8|0,0:0|1:0,0:0:0:0:
437,146,112225,2,0,P|442:124|449:102,1,45,0|0,1:0|1:0,0:0:0:0:
490,262,112382,6,0,P|455:296|443:343,1,99.0000030212403,12|0,0:1|1:0,0:0:0:0:
459,384,112619,1,0,1:0:0:0:
459,384,112698,1,0,1:0:0:0:
283,371,112856,2,0,P|270:323|235:289,1,99.0000030212403,12|0,0:0|1:0,0:0:0:0:
193,283,113093,1,0,1:0:0:0:
193,283,113172,1,0,1:0:0:0:
292,137,113330,6,0,P|339:150|386:136,1,99.0000030212403,12|0,0:1|1:0,0:0:0:0:
413,102,113567,1,0,1:0:0:0:
413,102,113646,1,0,1:0:0:0:
243,210,113803,2,0,P|211:173|203:125,1,99.0000030212403,12|0,0:0|1:0,0:0:0:0:
211,83,114040,1,0,1:0:0:0:
211,83,114119,1,0,1:0:0:0:
96,224,114277,6,0,P|105:270|113:321,1,99.0000030212403,12|0,0:1|1:0,0:0:0:0:
292,137,114593,2,0,P|282:88|274:39,1,99.0000030212403,12|0,0:1|1:0,0:0:0:0:
119,11,114909,5,12,0:0:0:0:
243,210,115067,1,0,1:0:0:0:
413,102,115225,1,8,0:0:0:0:
181,111,115382,1,0,1:0:0:0:
181,111,115461,1,0,1:0:0:0:
181,111,115540,1,8,0:0:0:0:
375,268,115698,1,0,1:0:0:0:
113,321,115856,1,8,0:0:0:0:
292,137,116014,1,0,1:0:0:0:
252,384,116172,5,2,1:0:0:0:
274,39,116330,1,6,1:0:0:0:
60,146,116646,5,6,1:0:0:0:
394,185,116961,5,6,1:0:0:0:
113,321,117277,5,6,1:0:0:0:
64,237,117435,6,0,P|137:228|195:270,1,148.50000453186,4|0,1:2|0:0,0:0:0:0:
210,311,117751,1,8,0:0:0:0:
292,137,117909,2,0,P|283:183|275:234,1,99.0000030212403,2|0,0:2|1:0,0:0:0:0:
176,56,118225,2,0,P|224:48|273:38,1,99.0000030212403,2|8,0:2|0:0,0:0:0:0:
178,191,118540,1,2,0:0:0:0:
14,45,118698,6,0,P|40:140|64:236,1,198.000006042481,0|8,1:0|0:0,0:0:0:0:
274,234,119172,1,0,1:0:0:0:
112,327,119330,2,0,P|160:319|209:310,1,99.0000030212403,2|0,1:2|0:0,0:0:0:0:
382,358,119646,2,0,P|333:365|284:374,1,99.0000030212403,10|0,0:0|0:0,0:0:0:0:
478,231,119961,6,0,P|486:158|442:101,1,148.50000453186,2|0,1:2|0:0,0:0:0:0:
404,83,120277,1,10,0:0:0:0:
274,234,120435,2,0,P|225:225|176:216,1,99.0000030212403,2|0,0:2|1:0,0:0:0:0:
306,100,120751,2,0,P|354:91|403:82,1,99.0000030212403,2|8,0:2|0:0,0:0:0:0:
131,25,121067,6,0,P|66:94|88:186,1,198.000006042481,2|2,0:2|0:2,0:0:0:0:
306,100,121540,1,8,0:0:0:0:
176,216,121698,2,0,P|167:167|158:118,1,99.0000030212403,0|0,3:0|1:0,0:0:0:0:
284,7,122014,1,0,3:0:0:0:
382,216,122172,2,0,P|323:173|251:182,1,148.50000453186,10|0,0:0|0:0,0:0:0:0:
176,216,122488,6,0,P|104:229|30:242,1,148.50000453186,6|0,1:2|0:0,0:0:0:0:
3,276,122803,1,10,0:0:0:0:
61,100,122961,2,0,P|110:109|159:118,1,99.0000030212403,2|0,0:2|1:0,0:0:0:0:
269,279,123277,2,0,P|260:230|251:181,1,99.0000030212403,2|8,0:2|0:0,0:0:0:0:
284,7,123593,1,2,0:2:0:0:
468,142,123751,6,0,P|375:163|305:99,1,198.000006042481,0|10,1:0|0:0,0:0:0:0:
176,216,124225,1,0,1:0:0:0:
369,193,124382,2,0,P|360:242|351:291,1,99.0000030212403,2|0,1:2|0:0,0:0:0:0:
199,123,124698,2,0,P|150:122|108:147,1,99.0000030212403,10|0,0:0|0:0,0:0:0:0:
58,357,125014,6,0,P|50:283|94:226,1,148.50000453186,6|0,1:2|0:0,0:0:0:0:
175,215,125330,2,0,P|224:224|273:233,1,99.0000030212403,10|2,0:0|1:2,0:0:0:0:
438,354,125646,1,0,1:0:0:0:
272,232,125803,1,0,3:0:0:0:
493,176,125961,1,8,0:0:0:0:
293,369,126119,5,6,1:0:0:0:
199,123,126435,5,6,1:0:0:0:
407,108,126593,1,8,0:0:0:0:
322,40,126751,2,0,P|295:136|271:232,1,198.000006042481,6|4,1:0|1:2,0:0:0:0:
195,293,127146,5,0,1:0:0:0:
195,293,127225,2,0,P|185:253|174:214,1,80.9999975280763,8|0,0:0|0:0,0:0:0:0:
137,358,127540,6,0,P|198:320|269:335,1,148.50000453186,6|0,1:2|0:0,0:0:0:0:
293,369,127856,1,10,0:0:0:0:
368,212,128014,2,0,P|319:221|270:230,1,99.0000030212403,2|0,0:0|1:0,0:0:0:0:
460,314,128330,2,0,P|469:265|479:216,1,99.0000030212403,2|8,0:0|0:0,0:0:0:0:
295,136,128646,1,2,0:0:0:0:
509,3,128803,6,0,P|413:30|317:54,1,198.000006042481,0|10,1:0|0:0,0:0:0:0:
368,212,129277,1,0,1:0:0:0:
199,123,129435,2,0,P|191:74|181:25,1,99.0000030212403,2|0,1:2|0:0,0:0:0:0:
265,264,129751,2,0,P|272:215|282:166,1,99.0000030212403,10|0,0:0|0:0,0:0:0:0:
172,348,130067,6,0,P|100:357|41:315,1,148.50000453186,2|0,1:2|0:0,0:0:0:0:
25,276,130382,1,10,0:0:0:0:
199,123,130540,2,0,P|150:116|101:106,1,99.0000030212403,2|0,0:0|1:0,0:0:0:0:
265,264,130856,2,0,P|216:254|167:247,1,99.0000030212403,2|8,0:0|0:0,0:0:0:0:
365,342,131172,1,2,0:0:0:0:
282,166,131330,6,0,P|330:157|379:148,1,99.0000030212403,6|8,1:2|0:0,0:0:0:0:
419,130,131567,1,8,0:0:0:0:
419,130,131646,1,8,0:0:0:0:
265,264,131803,1,8,0:0:0:0:
492,234,131961,1,8,0:0:0:0:
317,53,132119,1,8,0:0:0:0:
492,234,132277,2,0,P|482:282|473:331,1,99.0000030212403,8|8,0:0|0:0,0:0:0:0:
204,340,132593,6,0,P|290:357|355:299,1,180,6|0,1:2|0:0,0:0:0:0:
265,264,133067,1,0,1:0:0:0:
86,350,133225,2,0,P|112:264|133:177,1,180,10|0,0:0|1:0,0:0:0:0:
55,4,133698,6,0,P|-2:69|15:154,1,180,2|8,1:2|0:0,0:0:0:0:
178,77,134172,2,0,P|134:85|90:93,1,90,2|0,0:0|1:0,0:0:0:0:
256,14,134488,2,0,P|300:22|344:30,1,90,10|0,0:0|0:0,0:0:0:0:
442,87,134803,1,2,1:2:0:0:
241,165,134961,1,8,0:0:0:0:
372,236,135119,6,0,P|350:148|324:62,1,180,2|0,1:2|0:0,0:0:0:0:
241,165,135593,1,0,1:0:0:0:
442,87,135751,2,0,P|454:129|465:173,1,90,10|0,0:0|1:0,0:0:0:0:
435,329,136067,1,2,0:0:0:0:
372,236,136225,6,0,P|285:226|225:288,1,180,2|8,1:2|0:0,0:0:0:0:
58,350,136698,2,0,P|102:357|146:365,1,90,2|0,0:0|1:0,0:0:0:0:
225,287,137014,1,10,0:1:0:0:
37,239,137172,1,0,1:0:0:0:
164,132,137330,2,0,P|155:176|148:220,1,90,14|0,0:1|1:0,0:0:0:0:
291,25,137646,5,12,0:0:0:0:
58,78,137803,1,0,1:0:0:0:
270,186,137961,1,8,0:0:0:0:
37,239,138119,1,0,1:0:0:0:
235,92,138277,2,0,P|282:105|330:117,1,99.0000030212403,8|0,0:0|1:0,0:0:0:0:
173,316,138593,2,0,P|161:267|147:220,1,99.0000030212403,8|0,0:0|1:0,0:0:0:0:
376,240,138909,5,8,0:0:0:0:
164,132,139067,1,0,1:0:0:0:
367,11,139225,1,8,0:0:0:0:
270,186,139382,1,0,1:0:0:0:
262,199,139461,1,0,1:0:0:0:
254,212,139540,2,0,P|267:259|279:307,1,99.0000030212403,8|0,0:0|1:0,0:0:0:0:
498,171,139856,2,0,P|484:123|472:75,1,99.0000030212403,8|0,0:0|1:0,0:0:0:0:
266,72,140172,5,12,0:0:0:0:
462,248,140330,1,0,1:0:0:0:
367,11,140488,1,8,0:0:0:0:
254,212,140646,1,0,1:0:0:0:
74,52,140803,2,0,P|122:40|169:26,1,99.0000030212403,8|0,0:0|1:0,0:0:0:0:
369,157,141119,2,0,P|355:204|343:252,1,99.0000030212403,8|0,0:0|1:0,0:0:0:0:
139,267,141435,5,8,0:0:0:0:
266,72,141593,1,0,1:0:0:0:
36,182,141751,1,8,0:0:0:0:
254,212,141909,1,0,1:0:0:0:
74,52,142067,1,8,0:0:0:0:
139,267,142225,1,8,0:0:0:0:
149,299,142303,1,8,0:0:0:0:
169,325,142382,1,8,0:0:0:0:
197,343,142461,1,8,0:0:0:0:
229,350,142540,1,8,0:0:0:0:
261,342,142619,1,8,0:0:0:0:
289,325,142698,6,0,P|331:300|379:301,1,99.0000030212403,6|2,1:2|0:0,0:0:0:0:
503,370,143014,1,10,0:0:0:0:
448,177,143172,2,0,P|350:195|253:211,1,198.000006042481,2|0,0:0|0:0,0:0:0:0:
297,100,143646,1,8,0:0:0:0:
379,301,143803,1,2,0:0:0:0:
153,276,143961,5,0,1:0:0:0:
252,211,144119,2,0,P|261:259|270:308,1,99.0000030212403,2|8,0:0|0:0,0:0:0:0:
49,293,144435,2,0,P|40:244|30:195,1,99.0000030212403,2|0,0:0|1:0,0:0:0:0:
171,373,144751,2,0,P|161:324|152:275,1,99.0000030212403,2|8,0:0|0:0,0:0:0:0:
252,211,145067,1,2,0:0:0:0:
63,100,145225,6,0,P|104:124|153:123,1,99.0000030212403,2|0,1:2|0:0,0:0:0:0:
192,105,145461,1,2,0:0:0:0:
192,105,145540,1,8,0:0:0:0:
152,275,145698,1,2,0:0:0:0:
314,107,145856,1,2,1:2:0:0:
110,16,146014,1,2,0:0:0:0:
252,211,146172,2,0,P|300:202|349:193,1,99.0000030212403,10|2,0:0|0:0,0:0:0:0:
427,35,146488,6,0,P|435:83|447:131,2,99.0000030212403,2|2|8,1:2|0:0|0:0,0:0:0:0:
510,235,146961,2,0,P|441:170|349:192,1,198.000006042481,2|0,0:0|0:0,0:0:0:0:
294,337,147435,2,0,P|342:344|391:353,1,99.0000030212403,10|0,0:0|0:0,0:0:0:0:
143,310,147751,5,6,1:2:0:0:
348,192,147909,1,0,0:0:0:0:
241,123,148067,5,10,0:0:0:0:
146,193,148225,1,0,0:0:0:0:
76,97,148382,5,2,1:2:0:0:
159,110,148540,1,0,0:0:0:0:
5,195,148698,5,10,0:0:0:0:
241,123,148856,2,0,P|337:98|432:72,1,198.000006042481,2|0,0:0|0:0,0:0:0:0:
411,170,149330,5,10,0:0:0:0:
272,34,149488,1,0,0:0:0:0:
315,141,149646,5,2,1:2:0:0:
361,56,149803,1,0,0:0:0:0:
375,283,149961,6,0,P|315:240|244:250,1,148.50000453186,10|0,0:0|0:0,0:0:0:0:
217,344,150277,6,0,P|151:274|174:182,1,198.000006042481,6|8,1:2|0:0,0:0:0:0:
361,56,150751,1,2,0:0:0:0:
367,70,150830,1,2,0:0:0:0:
368,85,150909,2,0,P|277:114|202:55,1,198.000006042481,2|8,1:2|0:0,0:0:0:0:
244,249,151382,1,0,0:0:0:0:
102,115,151540,6,0,P|53:123|4:131,2,99.0000030212403,0|0|8,1:0|0:0|0:0,0:0:0:0:
202,55,152014,1,0,1:0:0:0:
80,210,152172,2,0,P|93:283|106:356,1,148.50000453186,2|0,1:2|0:0,0:0:0:0:
137,384,152488,1,10,0:0:0:0:
277,114,152803,6,0,P|373:141|469:165,1,198.000006042481,6|8,1:2|0:0,0:0:0:0:
512,358,153277,2,0,P|443:292|350:314,1,198.000006042481,2|0,0:0|0:0,0:0:0:0:
195,270,153751,2,0,P|203:319|210:368,1,99.0000030212403,8|0,0:0|0:0,0:0:0:0:
346,182,154067,6,0,P|367:89|302:20,1,198.000006042481,2|8,1:2|0:0,0:0:0:0:
128,108,154540,1,2,0:0:0:0:
195,270,154698,2,0,P|243:261|292:254,1,99.0000030212403,2|0,1:2|0:0,0:0:0:0:
374,98,155014,2,0,P|325:106|276:113,1,99.0000030212403,10|0,0:0|0:0,0:0:0:0:
102,15,155330,6,0,P|150:13|192:38,2,99.0000030212403,2|0|8,1:2|0:0|0:0,0:0:0:0:
113,205,155803,2,0,P|121:156|128:107,1,99.0000030212403,2|0,0:0|1:0,0:0:0:0:
22,313,156119,2,0,P|15:263|7:215,1,99.0000030212403,2|8,0:0|0:0,0:0:0:0:
139,377,156435,6,0,P|208:311|301:332,1,198.000006042481,2|2,0:0|0:0,0:0:0:0:
415,384,156909,2,0,P|463:376|512:369,1,99.0000030212403,10|0,0:0|0:0,0:0:0:0:
465,248,157225,1,0,1:0:0:0:
300,331,157382,1,0,3:0:0:0:
346,182,157540,2,0,P|352:205|358:229,3,49.5000015106202,8|0|0|0,0:0|3:0|3:0|3:0,0:0:0:0:
276,112,157856,5,6,1:2:0:0:
239,99,157935,1,2,0:0:0:0:
199,102,158014,1,2,0:0:0:0:
165,121,158093,1,2,0:0:0:0:
141,154,158172,5,8,0:0:0:0:
122,172,158251,1,0,3:0:0:0:
97,180,158330,1,0,3:0:0:0:
70,177,158409,1,0,3:0:0:0:
48,162,158488,6,0,P|41:113|33:65,1,99.0000030212403,0|0,1:0|3:0,0:0:0:0:
199,102,158803,1,8,0:0:0:0:
167,256,158961,2,0,P|172:280|179:303,1,49.5000015106202,0|2,3:0|3:2,0:0:0:0:
300,331,159119,5,2,1:2:0:0:
332,306,159198,1,0,3:0:0:0:
350,269,159277,1,0,3:0:0:0:
351,228,159356,1,0,3:0:0:0:
334,190,159435,5,8,0:0:0:0:
316,171,159514,1,0,3:0:0:0:
307,146,159593,1,0,3:0:0:0:
309,119,159672,1,0,3:0:0:0:
323,97,159751,6,0,P|372:90|420:82,1,99.0000030212403,0|0,1:0|3:0,0:0:0:0:
351,228,160067,1,8,0:0:0:0:
206,165,160225,2,0,P|182:158|158:152,1,49.5000015106202,2|2,3:2|0:0,0:0:0:0:
102,42,160382,5,6,1:2:0:0:
130,14,160461,1,2,0:0:0:0:
168,2,160540,1,2,0:0:0:0:
207,6,160619,1,2,0:0:0:0:
240,27,160698,2,0,P|246:50|251:74,1,49.5000015106202,10|2,0:0|0:0,0:0:0:0:
345,142,160856,2,0,P|338:165|333:189,1,49.5000015106202,2|2,0:0|0:0,0:0:0:0:
248,286,161014,5,2,1:2:0:0:
211,276,161093,1,2,0:0:0:0:
174,266,161172,1,2,0:0:0:0:
137,256,161251,1,2,0:0:0:0:
100,247,161330,2,0,P|76:240|52:234,1,49.5000015106202,10|2,0:0|0:0,0:0:0:0:
206,165,161488,2,0,P|229:171|253:177,1,49.5000015106202,2|2,0:0|0:0,0:0:0:0:
142,367,161646,5,6,1:2:0:0:
256,192,161725,12,4,162909,0:0:0:0:
75,160,170488,5,12,0:1:0:0:
94,257,170646,1,0,1:0:0:0:
55,62,170803,1,0,1:0:0:0:
196,220,170961,5,12,0:0:0:0:
216,113,171119,1,0,1:0:0:0:
174,327,171276,1,0,1:0:0:0:
330,152,171435,5,12,0:1:0:0:
352,268,171593,1,0,1:0:0:0:
306,34,171750,1,0,1:0:0:0:
473,226,171909,5,12,0:0:0:0:
498,98,172067,1,0,1:0:0:0:
448,352,172224,1,0,1:0:0:0:
330,152,172382,6,0,P|306:158|282:164,1,49.5000015106202,8|8,0:0|0:0,0:0:0:0:
170,137,172540,2,0,P|163:160|157:184,1,49.5000015106202,8|8,0:3|0:3,0:0:0:0:
52,234,172698,1,0,1:0:0:0:
41,195,172777,1,0,1:0:0:0:
31,156,172856,1,8,0:0:0:0:
20,118,172935,1,8,0:0:0:0:
9,79,173014,6,0,P|82:65|155:51,1,148.50000453186,6|0,1:2|0:0,0:0:0:0:
191,32,173330,1,10,0:0:0:0:
281,164,173488,2,0,P|290:115|297:66,1,99.0000030212403,2|0,0:0|1:0,0:0:0:0:
156,184,173803,2,0,P|165:232|173:281,1,99.0000030212403,2|8,0:0|0:0,0:0:0:0:
301,376,174119,1,2,0:0:0:0:
442,206,174277,6,0,P|349:228|280:163,1,198.000006042481,0|10,1:0|0:0,0:0:0:0:
173,281,174751,1,0,1:0:0:0:
199,49,174909,2,0,P|247:58|296:66,1,99.0000030212403,2|0,1:2|0:0,0:0:0:0:
65,181,175225,2,0,P|113:171|162:163,1,99.0000030212403,10|0,0:0|0:0,0:0:0:0:
374,136,175540,6,0,P|359:208|346:281,1,148.50000453186,2|0,1:2|0:0,0:0:0:0:
359,322,175856,1,10,0:0:0:0:
211,222,176014,2,0,P|220:270|229:319,1,99.0000030212403,2|0,0:0|1:0,0:0:0:0:
43,352,176330,2,0,P|91:350|133:375,1,99.0000030212403,2|8,0:0|0:0,0:0:0:0:
211,222,176646,1,2,0:0:0:0:
65,181,176803,6,0,P|56:132|46:83,2,99.0000030212403,0|0|8,1:0|0:0|0:0,0:0:0:0:
199,49,177277,1,0,3:0:0:0:
211,222,177435,2,0,P|259:212|308:204,1,99.0000030212403,0|0,1:0|3:0,0:0:0:0:
458,106,177751,2,0,P|385:108|330:60,1,148.50000453186,10|0,0:0|0:0,0:0:0:0:
322,20,178067,5,14,0:0:0:0:
132,115,178225,1,0,1:0:0:0:
308,203,178382,1,8,0:0:0:0:
118,298,178540,1,0,1:0:0:0:
283,107,178698,2,0,P|296:154|308:202,1,99.0000030212403,8|0,0:0|1:0,0:0:0:0:
458,106,179014,1,8,0:0:0:0:
380,331,179172,1,0,1:0:0:0:
375,317,179251,1,0,1:0:0:0:
370,303,179330,6,0,P|300:238|207:260,1,198.000006042481,8|8,0:0|0:0,0:0:0:0:
29,337,179803,1,0,1:0:0:0:
222,372,179961,1,8,0:0:0:0:
125,206,180119,1,0,1:0:0:0:
117,193,180198,1,0,1:0:0:0:
109,180,180277,2,0,P|62:193|14:205,1,99.0000030212403,8|0,0:0|1:0,0:0:0:0:
68,89,180593,5,14,0:0:0:0:
207,259,180751,1,0,1:0:0:0:
13,205,180909,1,8,0:0:0:0:
199,49,181067,1,0,1:0:0:0:
111,284,181225,2,0,P|158:271|206:259,1,99.0000030212403,8|0,0:0|1:0,0:0:0:0:
322,309,181540,1,8,0:0:0:0:
193,166,181698,1,0,1:0:0:0:
183,155,181777,1,0,1:0:0:0:
173,144,181856,6,0,P|186:97|198:49,1,99.0000030212403,14|0,0:1|1:0,0:0:0:0:
296,213,182172,2,0,P|307:261|321:308,1,99.0000030212403,8|0,0:0|1:0,0:0:0:0:
389,88,182488,2,0,P|341:101|293:113,1,99.0000030212403,14|0,0:1|1:0,0:0:0:0:
111,233,182803,2,0,P|159:244|206:258,1,99.0000030212403,10|0,0:1|1:0,0:0:0:0:
391,188,183119,5,12,0:1:0:0:
173,144,183277,1,0,1:0:0:0:
321,308,183435,1,0,1:0:0:0:
106,333,183593,5,12,0:0:0:0:
296,213,183751,1,0,1:0:0:0:
64,134,183909,1,0,1:0:0:0:
254,14,184067,5,12,0:1:0:0:
206,258,184225,1,0,1:0:0:0:
127,45,184382,1,0,1:0:0:0:
22,279,184540,5,12,0:0:0:0:
173,144,184698,1,0,1:0:0:0:
221,383,184856,1,0,1:0:0:0:
391,238,185014,6,0,P|343:224|295:212,1,99.0000030212403,12|0,0:1|1:0,0:0:0:0:
127,45,185330,2,0,P|175:33|222:19,1,99.0000030212403,12|0,0:0|1:0,0:0:0:0:
389,130,185646,5,12,0:1:0:0:
173,144,185803,1,0,1:0:0:0:
387,22,185961,1,0,1:0:0:0:
470,254,186119,5,12,0:0:0:0:
272,113,186277,1,0,1:0:0:0:
346,335,186435,1,0,1:0:0:0:
111,233,186593,5,12,0:1:0:0:
343,224,186751,1,0,1:0:0:0:
148,366,186909,1,0,1:0:0:0:
64,134,187067,5,12,0:0:0:0:
249,283,187225,1,0,1:0:0:0:
175,33,187382,1,0,1:0:0:0:
111,233,187540,6,0,P|125:280|137:328,1,99.0000030212403,12|0,0:0|1:0,0:0:0:0:
272,113,187856,2,0,P|284:64|298:17,1,99.0000030212403,12|0,0:0|1:0,0:0:0:0:
493,184,188172,6,0,P|427:241|342:223,1,180,6|10,1:2|0:0,0:0:0:0:
272,113,188646,1,2,0:0:0:0:
417,26,188803,1,2,1:2:0:0:
342,223,188961,2,0,P|297:214|253:207,1,90,2|0,1:2|0:0,0:0:0:0:
64,134,189277,5,10,0:0:0:0:
297,17,189593,5,0,1:0:0:0:
158,170,189751,2,0,P|150:125|142:81,1,90,10|0,0:0|0:0,0:0:0:0:
268,296,190067,2,0,P|259:251|252:207,1,90,2|2,1:2|1:2,0:0:0:0:
272,113,190382,1,10,0:2:0:0:
98,252,190540,1,2,0:0:0:0:
374,323,190856,5,2,1:2:0:0:
268,296,191014,1,10,0:0:0:0:
469,268,191172,1,0,1:0:0:0:
374,323,191330,1,10,0:2:0:0:
497,161,191488,1,2,1:2:0:0:
297,17,191803,6,0,P|383:43|470:64,1,180,10|0,0:0|1:0,0:0:0:0:
383,229,192277,2,0,P|382:184|359:146,1,90,10|0,0:0|0:0,0:0:0:0:
183,128,192593,1,2,1:2:0:0:
297,17,192751,1,2,1:2:0:0:
183,128,192909,2,0,P|226:115|269:104,1,90,10|2,0:2|0:2,0:0:0:0:
78,176,193225,5,4,1:2:0:0:
291,213,193382,1,2,1:2:0:0:
78,176,193540,2,0,P|86:220|93:264,1,90,10|2,0:2|0:2,0:0:0:0:
37,364,193856,1,2,1:2:0:0:
192,239,194014,1,2,1:2:0:0:
475,364,194330,5,10,0:0:0:0:
291,213,194646,5,0,1:0:0:0:
357,368,194803,2,0,P|364:323|372:279,1,90,10|0,0:0|0:0,0:0:0:0:
489,161,195119,2,0,P|496:205|504:249,1,90,2|2,1:2|1:2,0:0:0:0:
475,364,195435,1,10,0:2:0:0:
390,187,195593,1,2,0:0:0:0:
148,343,195909,5,2,1:2:0:0:
192,239,196067,1,10,0:0:0:0:
37,364,196225,1,0,1:0:0:0:
259,322,196382,1,10,0:2:0:0:
81,224,196540,1,2,1:2:0:0:
81,224,196856,6,0,P|24:160|41:74,1,180,10|0,0:0|1:0,0:0:0:0:
248,11,197330,1,10,0:0:0:0:
116,134,197488,1,2,0:0:0:0:
329,120,197646,2,0,P|284:113|240:105,1,90,0|0,1:0|1:0,0:0:0:0:
204,95,197882,1,0,1:0:0:0:
204,95,197961,1,8,0:0:0:0:
303,254,198119,1,2,0:0:0:0:
396,34,198277,5,6,1:2:0:0:
218,179,198435,1,2,1:2:0:0:
434,190,198593,2,0,P|425:235|418:279,1,90,10|2,0:0|0:0,0:0:0:0:
329,120,198909,1,2,1:2:0:0:
259,322,199067,1,2,1:2:0:0:
127,50,199383,5,10,0:0:0:0:
88,292,199698,5,0,1:0:0:0:
218,179,199856,2,0,P|173:187|129:194,1,90,10|0,0:0|0:0,0:0:0:0:
0,278,200172,2,0,P|44:285|88:292,1,90,2|2,1:2|1:2,0:0:0:0:
161,384,200488,1,10,0:0:0:0:
129,193,200646,1,2,0:0:0:0:
419,279,200961,5,2,1:2:0:0:
487,192,201119,1,10,0:0:0:0:
320,129,201277,1,0,1:0:0:0:
426,100,201435,1,10,0:0:0:0:
315,239,201593,1,2,1:0:0:0:
173,62,201909,6,0,P|260:40|346:14,1,180,10|0,0:0|1:0,0:0:0:0:
510,129,202382,2,0,P|469:114|427:100,1,90,10|0,0:0|0:0,0:0:0:0:
218,179,202698,1,2,1:2:0:0:
346,14,202856,1,2,1:2:0:0:
330,190,203014,2,0,P|337:234|344:278,1,90,10|2,0:0|0:0,0:0:0:0:
432,364,203330,5,4,1:2:0:0:
233,301,203488,1,2,1:2:0:0:
412,213,203646,2,0,P|367:212|329:189,1,90,10|2,0:0|0:0,0:0:0:0:
282,97,203961,1,2,1:2:0:0:
350,312,204119,1,2,1:2:0:0:
100,213,204435,5,10,0:0:0:0:
386,103,204751,5,0,1:0:0:0:
297,8,204909,2,0,P|288:52|281:96,1,90,10|0,0:0|0:0,0:0:0:0:
206,242,205225,2,0,P|198:197|189:153,1,90,2|2,1:2|1:2,0:0:0:0:
83,146,205540,1,10,0:0:0:0:
280,96,205698,1,2,0:0:0:0:
216,341,206014,5,2,1:2:0:0:
206,242,206172,1,14,0:0:0:0:
315,382,206330,1,2,1:2:0:0:
117,300,206488,1,14,0:0:0:0:
295,184,206646,2,0,P|287:139|279:95,1,90,2|12,1:2|0:0,0:0:0:0:
197,2,206961,5,6,1:0:0:0:
315,382,207277,5,6,1:0:0:0:
59,211,207593,5,6,1:0:0:0:
453,173,207909,5,6,1:0:0:0:
206,102,208225,6,0,B|261:97|288:43|288:43|259:133|241:209|225:289,1,360,6|0,1:2|0:0,0:0:0:0:
