osu file format v14

[General]
AudioFilename: audio.mp3
AudioLeadIn: 0
PreviewTime: 59970
Countdown: 0
SampleSet: Soft
StackLeniency: 0.2
Mode: 0
LetterboxInBreaks: 0
WidescreenStoryboard: 1

[Editor]
Bookmarks: 47842,61247,91885,102098,116140,136566,160821,181247,191459
DistanceSpacing: 2.1
BeatDivisor: 4
GridSize: 4
TimelineZoom: 2.1

[Metadata]
Title:Fade:Alone
TitleUnicode:Fade:Alone
Artist:Imy
ArtistUnicode:Imy
Creator:iBell
Version:Pro:mise
Source:
Tags:jrock bellicose AuroraE アイミー みゅー miyu myu Meteora 藍月なくる aitsuki nakuru featured artist fa mappers' guild mpg japanese rock
BeatmapID:4477210
BeatmapSetID:1304195

[Difficulty]
HPDrainRate:5
CircleSize:4
OverallDifficulty:9
ApproachRate:9.5
SliderMultiplier:2
SliderTickRate:1

[Events]
//Background and Video events
0,0,"a.jpg",0,0
//Break Periods
2,84425,90722
2,139319,146253
//Storyboard Layer 0 (Background)
//Storyboard Layer 1 (Fail)
//Storyboard Layer 2 (Pass)
//Storyboard Layer 3 (Foreground)
//Storyboard Layer 4 (Overlay)
//Storyboard Sound Samples

[TimingPoints]
1247,319.148936170213,4,2,1,30,1,0
1247,-166.666666666667,4,2,1,30,0,0
6353,-133.333333333333,4,2,1,30,0,0
7310,-166.666666666667,4,2,1,30,0,0
8906,-250.000000000001,4,2,1,30,0,0
10183,-111.111111111111,4,2,1,50,0,0
11140,-66.6666666666667,4,2,1,50,0,0
11459,-76.9230769230769,4,2,1,60,0,0
15927,-125,4,2,1,60,0,0
16566,-76.9230769230769,4,2,1,60,0,0
24225,-125,4,2,1,50,0,0
25183,-125,4,2,1,40,0,0
25502,-200,4,2,1,40,0,0
26778,-200,4,2,1,30,0,0
33161,-133.333333333333,4,2,1,30,0,0
33481,-200,4,2,1,30,0,0
34438,-133.333333333333,4,2,1,40,0,0
35076,-200,4,2,1,40,0,0
36991,-100,4,2,1,50,0,0
42098,-100,4,2,1,50,0,0
44651,-100,4,2,1,60,0,0
45927,-100,4,2,1,60,0,0
46247,-83.3333333333333,4,2,1,60,0,0
47204,-133.333333333333,4,2,1,50,0,0
47842,-200,4,2,1,50,0,0
48640,-142.857142857143,4,2,1,50,0,0
48959,-111.111111111111,4,2,1,50,0,0
50236,-83.3333333333333,4,2,1,50,0,0
50715,-133.333333333333,4,2,1,50,0,0
51353,-200,4,2,1,50,0,0
51672,-111.111111111111,4,2,1,50,0,0
52151,-83.3333333333333,4,2,1,50,0,0
52629,-133.333333333333,4,2,1,50,0,0
52949,-90.9090909090908,4,2,1,50,0,0
53268,-111.111111111111,4,2,1,50,0,0
53587,-200,4,2,1,50,0,0
53906,-111.111111111111,4,2,1,50,0,0
56140,-333.333333333332,4,2,1,50,0,0
56778,-249.999999999999,4,2,1,40,0,0
57417,-250.000000000001,4,2,1,40,0,0
57895,-99.9999999999999,4,2,1,40,0,0
58374,-76.9230769230769,4,2,1,40,0,0
58693,-100,4,2,1,60,0,0
59970,-166.666666666667,4,2,1,40,0,0
61247,-76.9230769230769,4,2,1,70,0,0
64917,-83.3333333333333,4,2,1,70,0,0
65236,-76.9230769230769,4,2,1,70,0,0
66034,-100,4,2,1,70,0,0
66353,-76.9230769230769,4,2,1,70,0,0
68268,-133.333333333333,4,2,1,70,0,0
68587,-76.9230769230769,4,2,1,70,0,0
68906,-66.6666666666667,4,2,1,70,0,0
69066,-100,4,2,1,70,0,0
69225,-66.6666666666667,4,2,1,70,0,0
69544,-100,4,2,1,70,0,0
69864,-66.6666666666667,4,2,1,70,0,0
70023,-100,4,2,1,70,0,0
70183,-66.6666666666667,4,2,1,70,0,0
70342,-200,4,2,1,70,0,0
70661,-66.6666666666667,4,2,1,70,0,0
76247,-200,4,2,1,70,0,0
79119,-76.9230769230769,4,2,1,70,0,0
81353,-200,4,2,1,70,0,0
81672,-200,4,2,1,70,0,0
91247,-200,4,2,1,50,0,0
92204,-125,4,2,1,50,0,0
96991,-100,4,2,1,50,0,0
99544,-100,4,2,1,60,0,0
102098,-133.333333333333,4,2,1,50,0,0
102736,-200,4,2,1,50,0,0
104012,-111.111111111111,4,2,1,50,0,0
105129,-83.3333333333333,4,2,1,50,0,0
105608,-133.333333333333,4,2,1,50,0,0
106247,-200,4,2,1,50,0,0
106566,-111.111111111111,4,2,1,50,0,0
107044,-83.3333333333333,4,2,1,50,0,0
107523,-133.333333333333,4,2,1,50,0,0
107842,-90.9090909090909,4,2,1,50,0,0
108481,-200,4,2,1,50,0,0
109119,-111.111111111111,4,2,1,50,0,0
111672,-249.999999999999,4,2,1,40,0,0
113587,-100,4,2,1,60,0,0
114864,-100,4,2,1,40,0,0
116140,-76.9230769230769,4,2,1,70,0,0
120927,-100,4,2,1,70,0,0
121247,-76.9230769230769,4,2,1,70,0,0
123161,-133.333333333333,4,2,1,70,0,0
123481,-76.9230769230769,4,2,1,70,0,0
123800,-66.6666666666667,4,2,1,70,0,0
123959,-100,4,2,1,70,0,0
124119,-66.6666666666667,4,2,1,70,0,0
124438,-100,4,2,1,70,0,0
124757,-66.6666666666667,4,2,1,70,0,0
124917,-100,4,2,1,70,0,0
125077,-66.6666666666667,4,2,1,70,0,0
125236,-200,4,2,1,70,0,0
125555,-66.6666666666667,4,2,1,70,0,0
131140,-200,4,2,1,70,0,0
134012,-76.9230769230769,4,2,1,70,0,0
136566,-76.9230769230769,4,2,1,70,0,0
146778,-133.333333333333,4,2,1,50,0,0
147417,-200,4,2,1,50,0,0
148693,-111.111111111111,4,2,1,50,0,0
149810,-83.3333333333333,4,2,1,50,0,0
150289,-133.333333333333,4,2,1,50,0,0
150927,-200,4,2,1,50,0,0
151247,-133.333333333333,4,2,1,50,0,0
152523,-90.9090909090909,4,2,1,50,0,0
153161,-200,4,2,1,50,0,0
153481,-111.111111111111,4,2,1,50,0,0
156034,-249.999999999999,4,2,1,40,0,0
158268,-249.999999999999,4,2,1,60,0,0
158906,-58.8235294117647,4,2,1,60,0,0
160821,-58.8235294117647,4,2,1,60,0,0
161300,-58.8235294117647,4,2,1,40,0,0
164810,-333.333333333333,4,2,1,40,0,0
165927,-333.333333333333,4,2,1,70,0,0
167842,-66.6666666666667,4,2,1,70,0,0
168481,-66.6666666666667,4,2,1,70,0,0
168640,-100,4,2,1,70,0,0
169438,-66.6666666666667,4,2,1,70,0,0
169598,-100,4,2,1,70,0,0
169917,-200,4,2,1,70,0,0
170236,-66.6666666666667,4,2,1,70,0,0
174704,-83.3333333333333,4,2,1,70,0,0
175183,-200,4,2,1,70,0,0
176140,-100,4,2,1,70,0,0
178693,-76.9230769230769,4,2,1,70,0,0
181247,-76.9230769230769,4,2,1,65,0,0
185715,-125,4,2,1,65,0,0
186353,-76.9230769230769,4,2,1,65,0,0
190183,-200,4,2,1,65,0,0
190502,-76.9230769230769,4,2,1,65,0,0
192257,-66.6666666666667,4,2,1,65,0,0
192576,-76.9230769230769,4,2,1,65,0,0
204225,-125,4,2,1,55,0,0
205183,-125,4,2,1,45,0,0
205502,-200,4,2,1,45,0,0
212044,-200,4,2,1,25,0,0

[Colours]
Combo1 : 202,115,244
Combo2 : 149,223,251
Combo3 : 81,159,255
Combo4 : 219,172,251

[HitObjects]
255,178,1247,5,2,0:0:0:0:
42,79,1566,5,2,0:0:0:0:
111,94,1725,2,0,P|185:90|248:78,1,119.999996337891,2|0,0:0|0:0,0:0:0:0:
346,23,2204,2,0,P|321:20|270:13,1,59.9999981689454,2|0,0:0|0:0,0:0:0:0:
493,194,2683,5,2,0:0:0:0:
420,217,2842,2,0,P|371:229|294:233,1,119.999996337891,2|0,0:0|0:0,0:0:0:0:
264,295,3321,1,2,0:0:0:0:
264,295,3481,2,0,P|274:337|276:370,1,59.9999981689454,2|0,0:0|0:0,0:0:0:0:
350,381,3800,5,2,0:0:0:0:
273,150,4278,1,2,0:0:0:0:
17,73,4757,2,0,P|21:51|23:7,1,59.9999981689454,2|0,0:0|0:0,0:0:0:0:
101,1,5076,5,2,0:0:0:0:
105,76,5236,2,0,P|91:163|91:218,1,119.999996337891,2|0,0:0|0:0,0:0:0:0:
184,151,5715,2,0,P|275:139|339:209,1,179.999994506836,2|0,0:0|0:0,0:0:0:0:
352,11,6353,6,0,P|357:95|381:391,1,375.000014305115,2|0,0:0|0:0,0:0:0:0:
416,314,7310,2,0,P|423:253|434:194,1,119.999996337891,2|0,0:0|0:0,0:0:0:0:
127,327,7949,5,2,0:0:0:0:
120,249,8108,2,0,P|114:185|100:121,1,119.999996337891,2|0,0:0|0:0,0:0:0:0:
214,202,8587,5,2,0:0:0:0:
196,150,8693,5,2,0:0:0:0:
213,90,8800,5,2,0:0:0:0:
281,66,8906,5,2,0:0:0:0:
256,192,8986,12,0,10103,0:0:0:0:
324,320,10183,5,8,0:0:0:0:
276,339,10262,1,8,3:0:0:0:
228,330,10342,1,8,3:0:0:0:
196,294,10422,1,4,0:3:0:0:
153,299,10502,2,0,L|104:291,1,44.999998626709,4|4,0:3|0:3,0:0:0:0:
141,76,10661,5,8,0:0:0:0:
189,95,10740,1,8,0:3:0:0:
237,86,10820,1,8,0:3:0:0:
269,50,10900,1,4,0:3:0:0:
312,55,10980,2,0,L|361:47,1,44.999998626709,4|4,0:3|0:3,0:0:0:0:
263,237,11140,6,0,B|238:215|238:215|263:180|263:180|293:212|293:212|269:243,1,150.000005722046,8|0,0:0|3:0,0:0:0:0:
37,42,11459,5,6,3:2:0:0:
126,202,11619,1,0,3:2:0:0:
104,6,11778,5,10,0:0:0:0:
52,220,11938,1,0,3:2:0:0:
4,117,12098,6,0,P|76:120|151:130,1,129.999994049073,10|0,0:0|3:0,0:0:0:0:
499,142,12417,5,10,0:2:0:0:
307,66,12576,1,0,3:2:0:0:
484,72,12736,5,10,0:2:0:0:
352,228,12895,1,0,3:2:0:0:
399,25,13055,6,0,P|406:117|419:182,1,129.999994049073,10|0,0:0|3:0,0:0:0:0:
500,307,13374,1,10,0:2:0:0:
486,234,13534,1,0,3:2:0:0:
288,154,13693,1,14,0:2:0:0:
191,364,13853,1,4,3:1:0:0:
269,376,14012,6,0,P|225:267|81:275,1,259.999988098145,2|8,3:2|0:0,0:0:0:0:
24,241,14491,1,0,3:0:0:0:
304,285,14651,5,10,0:0:0:0:
330,212,14810,1,0,3:0:0:0:
315,10,14970,1,10,0:0:0:0:
384,40,15129,1,0,3:0:0:0:
484,147,15289,5,10,0:0:0:0:
238,101,15449,2,0,P|170:94|93:80,1,129.999994049073,6|8,3:1|0:0,0:0:0:0:
204,12,15768,1,0,3:0:0:0:
23,263,15927,2,0,P|23:217|122:181,1,160,10|8,0:1|0:0,0:0:0:0:
189,197,16406,1,0,3:0:0:0:
142,375,16566,5,6,3:2:0:0:
204,355,16725,1,0,3:0:0:0:
272,351,16885,1,10,0:0:0:0:
390,310,17044,5,0,3:0:0:0:
321,284,17204,1,10,0:0:0:0:
248,274,17364,1,0,3:0:0:0:
109,225,17523,5,10,0:0:0:0:
181,190,17683,1,0,3:0:0:0:
258,187,17842,1,2,3:2:0:0:
322,129,18002,5,8,0:0:0:0:
308,111,18082,1,8,0:0:0:0:
283,108,18161,1,8,0:0:0:0:
241,42,18321,1,0,3:0:0:0:
306,4,18481,5,10,0:0:0:0:
390,200,18640,1,8,0:3:0:0:
512,83,18800,5,10,0:0:0:0:
442,340,18959,1,4,0:3:0:0:
409,57,19119,5,6,3:2:0:0:
307,10,19278,5,10,0:0:0:0:
266,0,19358,1,8,0:0:0:0:
231,20,19438,1,2,3:2:0:0:
216,145,19598,5,10,0:0:0:0:
259,175,19677,1,8,0:0:0:0:
308,162,19757,1,2,3:2:0:0:
273,89,19917,1,8,0:0:0:0:
4,29,20076,5,6,3:2:0:0:
154,75,20236,1,8,0:0:0:0:
136,151,20395,5,10,0:0:0:0:
33,184,20555,1,4,3:1:0:0:
0,262,20715,5,10,0:0:0:0:
81,286,20874,1,0,3:0:0:0:
165,234,21034,5,8,0:0:0:0:
241,210,21140,5,8,0:0:0:0:
314,231,21247,5,8,0:0:0:0:
392,215,21353,5,4,0:3:0:0:
369,288,21459,5,4,0:3:0:0:
399,355,21566,5,4,0:3:0:0:
475,375,21672,6,0,P|487:295|492:234,2,129.999994049073,6|0|0,3:1|3:0|3:0,0:0:0:0:
236,380,22151,5,10,0:1:0:0:
40,296,22310,1,2,3:1:0:0:
93,284,22470,1,0,3:0:0:0:
143,265,22629,1,8,0:1:0:0:
312,176,22789,5,2,3:1:0:0:
503,50,22948,1,2,3:1:0:0:
436,33,23108,1,8,0:1:0:0:
370,12,23267,1,0,3:0:0:0:
398,215,23427,5,2,3:1:0:0:
244,18,23587,1,10,0:1:0:0:
258,95,23747,1,0,3:0:0:0:
233,169,23906,1,8,0:1:0:0:
256,358,24066,5,2,3:1:0:0:
331,128,24225,2,0,B|225:73|225:73|121:143,1,240,6|0,3:1|0:0,0:0:0:0:
125,140,25183,2,0,P|126:93|120:41,1,80,2|0,0:0|0:0,0:0:0:0:
124,211,25502,2,0,P|116:290|118:377,2,150,6|0|0,0:0|0:0|0:0,0:0:0:0:
0,124,26778,6,0,P|51:132|105:131,1,100,2|0,0:0|0:0,0:0:0:0:
167,121,27257,1,2,0:0:0:0:
174,34,27576,1,2,0:0:0:0:
260,3,27895,1,2,0:0:0:0:
260,3,28215,5,2,0:0:0:0:
287,15,28374,1,0,0:0:0:0:
312,28,28534,1,0,0:0:0:0:
340,44,28693,2,0,P|388:35|451:36,1,100,2|0,0:0|0:0,0:0:0:0:
503,171,29332,6,0,P|480:124|429:119,1,100,2|0,0:0|0:0,0:0:0:0:
368,136,29810,1,2,0:0:0:0:
408,220,30129,1,2,0:0:0:0:
380,307,30449,1,2,0:0:0:0:
380,307,30768,5,2,0:0:0:0:
390,357,30927,2,0,P|339:360|277:358,1,100,2|0,0:0|0:0,0:0:0:0:
222,377,31406,1,0,0:0:0:0:
211,350,31566,1,2,0:0:0:0:
202,328,31725,1,0,0:0:0:0:
191,305,31885,6,0,P|197:243|202:191,1,100,2|0,0:0|0:0,0:0:0:0:
272,221,32364,2,0,L|278:275,1,50,2|0,0:0|0:0,0:0:0:0:
259,151,32683,2,0,L|252:92,1,50,2|0,0:0|0:0,0:0:0:0:
330,171,33002,1,2,0:0:0:0:
193,204,33161,6,0,P|117:197|37:191,1,150.000005722046,2|0,0:0|0:0,0:0:0:0:
10,263,33640,1,0,0:0:0:0:
10,263,33800,2,0,P|41:275|66:286,1,50,2|0,0:0|0:0,0:0:0:0:
6,121,34119,2,0,P|43:109|69:103,1,50,2|0,0:0|0:0,0:0:0:0:
126,188,34438,6,0,B|267:159|183:278|345:263,1,225.000008583069,2|0,0:0|0:0,0:0:0:0:
300,188,35076,2,0,P|291:117|283:31,1,150,2|0,0:0|0:0,0:0:0:0:
346,6,35715,5,2,0:0:0:0:
369,43,35874,1,0,0:0:0:0:
367,84,36034,1,2,0:0:0:0:
383,123,36193,1,0,0:0:0:0:
320,171,36353,5,2,0:0:0:0:
308,194,36512,1,0,0:0:0:0:
318,218,36672,1,2,0:0:0:0:
304,239,36832,1,0,0:0:0:0:
286,349,36991,6,0,B|380:303|380:303|494:357,1,200,4|8,3:2|0:0,0:0:0:0:
509,278,37470,1,2,0:0:0:0:
389,120,37629,1,2,3:2:0:0:
464,142,37789,2,0,P|469:60|471:20,1,100,2|0,3:2|0:0,0:0:0:0:
356,193,38108,6,0,P|253:205|133:223,1,200,10|0,0:0|3:0,0:0:0:0:
220,47,38587,2,0,P|283:56|337:66,1,100,10|0,0:0|0:0,0:0:0:0:
171,133,38906,5,2,3:2:0:0:
9,103,39066,1,0,3:0:0:0:
106,2,39225,2,0,P|98:65|91:123,1,100,10|0,0:0|0:0,0:0:0:0:
152,317,39544,6,0,B|199:228|199:228|167:121,1,200,6|8,3:2|0:0,0:0:0:0:
229,82,40023,1,2,0:0:0:0:
21,273,40183,1,2,3:2:0:0:
14,196,40342,2,0,P|70:204|121:210,1,100,2|0,3:2|0:0,0:0:0:0:
306,335,40661,6,0,B|408:375|408:375|497:305,1,200,10|0,0:0|3:0,0:0:0:0:
199,380,41140,2,0,L|226:180,1,200,10|2,0:0|3:2,0:0:0:0:
370,264,41619,1,0,3:0:0:0:
304,60,41778,1,10,0:0:0:0:
304,60,42098,6,0,P|240:90|131:18,1,200,2|8,3:2|0:0,0:0:0:0:
378,0,42576,2,0,P|386:55|393:110,2,100,2|0|0,0:0|3:0|0:0,0:0:0:0:
403,183,43055,1,8,0:0:0:0:
403,183,43294,1,8,0:0:0:0:
403,183,43374,5,2,3:2:0:0:
481,224,43534,1,2,0:0:0:0:
430,316,43693,1,10,0:0:0:0:
306,248,43853,1,2,0:0:0:0:
386,96,44012,1,2,3:2:0:0:
237,5,44172,5,8,0:0:0:0:
106,24,44332,5,10,0:3:0:0:
68,126,44491,5,4,0:3:0:0:
117,210,44651,5,6,3:1:0:0:
151,195,44810,1,0,3:0:0:0:
192,202,44970,1,0,3:0:0:0:
36,199,45129,5,2,3:2:0:0:
260,247,45289,1,10,0:0:0:0:
334,224,45449,1,0,3:0:0:0:
363,212,45528,1,0,3:0:0:0:
394,224,45608,1,0,3:0:0:0:
469,217,45768,1,0,3:0:0:0:
353,328,45927,5,10,0:0:0:0:
160,323,46087,1,0,3:0:0:0:
254,384,46247,2,0,P|259:275|266:136,1,239.999992675781,8|2,0:2|3:2,0:0:0:0:
499,32,46725,5,8,0:0:0:0:
451,54,46805,1,8,0:0:0:0:
401,34,46885,1,8,0:0:0:0:
375,229,47044,1,8,0:0:0:0:
301,18,47204,6,0,P|240:56|159:21,1,150.000005722046,4|0,3:1|3:0,0:0:0:0:
103,10,47683,1,0,3:0:0:0:
301,18,47842,6,0,P|315:72|301:126,1,100,10|0,0:0|3:0,0:0:0:0:
219,384,48321,5,0,3:0:0:0:
219,384,48481,2,0,P|205:330|223:220,1,150,2|0,0:0|3:0,0:0:0:0:
297,241,49119,6,0,L|405:267,1,89.9999972534181,10|0,0:0|3:0,0:0:0:0:
376,183,49438,2,0,L|198:146,1,179.999994506836,2|0,3:2|3:0,0:0:0:0:
130,141,49917,5,0,3:0:0:0:
102,41,50076,1,8,0:0:0:0:
39,210,50236,2,0,B|31:90|31:90|62:207,1,239.999992675781,0|0,3:0|3:0,0:0:0:0:
46,374,50715,2,0,P|54:334|59:289,1,75.0000028610231,10|0,0:0|3:0,0:0:0:0:
104,27,51034,5,14,0:0:0:0:
254,69,51193,1,10,0:0:0:0:
432,15,51353,2,0,P|430:67|424:116,1,100,6|0,3:1|3:0,0:0:0:0:
439,188,51832,5,0,3:0:0:0:
395,366,51991,1,8,0:0:0:0:
481,251,52151,2,0,B|493:371|493:371|451:260,1,239.999992675781,0|0,3:0|3:0,0:0:0:0:
512,162,52629,2,0,P|474:172|426:183,1,75.0000028610231,0|0,0:0|3:0,0:0:0:0:
363,289,52949,6,0,B|252:286|345:173|165:199,1,220.000006713867,10|2,0:0|3:2,0:0:0:0:
26,224,53427,1,4,3:1:0:0:
108,262,53587,2,0,P|104:212|96:144,1,100,6|0,3:2|3:0,0:0:0:0:
164,124,54066,1,2,3:2:0:0:
107,0,54225,2,0,P|100:66|97:108,1,89.9999972534181,8|0,0:0|0:0,0:0:0:0:
84,337,54544,5,2,3:2:0:0:
84,337,54704,1,0,3:0:0:0:
116,257,54864,5,8,0:0:0:0:
167,234,54970,5,8,0:0:0:0:
218,262,55076,5,8,0:3:0:0:
229,318,55183,5,8,0:3:0:0:
267,361,55289,5,4,0:3:0:0:
327,360,55395,5,4,0:3:0:0:
366,320,55502,5,10,0:0:0:0:
449,319,55661,5,8,0:3:0:0:
475,324,55741,1,8,0:3:0:0:
500,309,55821,1,4,0:3:0:0:
511,231,55981,1,0,3:0:0:0:
444,188,56140,1,4,3:1:0:0:
444,188,56778,6,0,L|317:201,1,120,2|0,0:0|0:0,0:0:0:0:
279,145,57417,2,0,B|263:88|263:88|289:32,2,120,2|2|2,0:0|0:0|0:0,0:0:0:0:
177,8,58693,5,10,0:0:0:0:
155,49,58773,1,8,0:3:0:0:
168,93,58853,1,8,0:3:0:0:
146,131,58933,1,4,0:3:0:0:
164,172,59012,2,0,L|174:230,1,50,4|4,0:3|0:3,0:0:0:0:
335,376,59172,5,8,0:0:0:0:
357,335,59252,1,8,0:3:0:0:
344,291,59332,1,8,0:3:0:0:
366,253,59412,1,4,0:3:0:0:
348,212,59491,2,0,L|338:154,1,50,4|4,0:3|0:3,0:0:0:0:
257,197,59651,5,8,0:0:0:0:
250,195,59731,1,8,0:0:0:0:
250,188,59810,1,0,3:0:0:0:
257,186,59890,1,0,3:0:0:0:
262,192,59970,1,2,3:2:0:0:
29,92,60289,5,2,0:0:0:0:
483,292,60608,5,2,0:0:0:0:
115,206,60927,5,2,0:0:0:0:
397,178,61247,6,0,P|405:98|413:27,1,129.999994049073,6|0,3:2|3:0,0:0:0:0:
287,163,61566,1,8,0:0:0:0:
509,275,61725,2,0,B|380:313|380:313|237:223,1,259.999988098145,2|0,3:2|3:0,0:0:0:0:
55,313,62204,2,0,L|187:337,1,129.999994049073,10|0,0:0|3:0,0:0:0:0:
275,372,62523,5,0,3:0:0:0:
169,228,62683,1,0,3:0:0:0:
281,384,62842,1,8,0:0:0:0:
419,205,63002,5,0,3:0:0:0:
419,205,63082,1,0,3:0:0:0:
419,205,63161,1,0,3:0:0:0:
279,291,63321,1,0,3:0:0:0:
368,94,63481,2,0,P|300:63|234:76,1,129.999994049073,10|0,0:0|3:0,0:0:0:0:
116,265,63800,6,0,P|119:185|126:119,1,129.999994049073,2|0,3:2|3:0,0:0:0:0:
191,0,64119,1,8,0:0:0:0:
1,148,64278,2,0,B|159:113|86:261|223:233,1,259.999988098145,2|0,3:2|3:0,0:0:0:0:
468,160,64757,2,0,P|412:172|327:182,1,129.999994049073,10|0,0:0|3:0,0:0:0:0:
311,384,65076,5,0,3:0:0:0:
298,357,65156,1,0,3:0:0:0:
300,329,65236,2,0,L|314:255,1,64.9999970245363,8|0,0:0|0:0,0:0:0:0:
256,83,65395,2,0,L|243:148,1,64.9999970245363,8|0,0:0|0:0,0:0:0:0:
339,181,65555,5,8,0:3:0:0:
378,143,65635,1,8,0:3:0:0:
361,93,65715,1,8,0:0:0:0:
162,20,65874,5,4,0:3:0:0:
123,58,65954,1,4,0:3:0:0:
140,108,66034,2,0,P|89:115|31:117,1,100,8|0,0:0|3:0,0:0:0:0:
429,265,66353,5,6,3:2:0:0:
429,265,66512,1,2,0:0:0:0:
475,97,66672,1,10,0:0:0:0:
256,382,66991,1,2,3:2:0:0:
83,265,67310,5,10,0:2:0:0:
83,265,67469,1,2,0:2:0:0:
37,97,67629,1,2,3:2:0:0:
256,382,67949,1,10,0:0:0:0:
264,13,68268,6,0,P|259:59|257:140,1,112.500004291535,2|0,3:2|0:0,0:0:0:0:
259,147,68587,6,0,P|258:220|253:296,1,129.999994049073,10|2,0:0|0:0,0:0:0:0:
55,140,68906,6,0,P|97:140|141:159,1,75.0000028610231,2|0,3:0|0:0,0:0:0:0:
138,220,69066,2,0,P|93:243|25:219,1,100,2|0,3:0|0:0,0:0:0:0:
382,121,69385,5,0,3:0:0:0:
382,121,69465,1,0,3:0:0:0:
372,195,69544,2,0,P|420:219|478:203,1,100,10|0,0:0|0:0,0:0:0:0:
281,384,69864,6,0,P|293:339|291:310,1,75.0000028610231,2|0,3:0|0:0,0:0:0:0:
268,248,70023,2,0,P|226:284|227:335,1,100,2|0,3:0|0:0,0:0:0:0:
275,0,70342,6,0,P|239:2|206:6,1,50,2|8,3:1|0:0,0:0:0:0:
183,164,70661,6,0,P|313:172|364:179,1,150.000005722046,2|0,0:1|3:0,0:0:0:0:
448,88,70981,5,8,0:0:0:0:
384,81,71060,1,8,0:0:0:0:
320,88,71140,1,8,0:0:0:0:
254,83,71220,1,8,0:0:0:0:
189,82,71300,1,8,0:0:0:0:
125,91,71379,1,8,0:0:0:0:
60,90,71459,1,4,3:1:0:0:
263,381,71778,5,10,0:0:0:0:
272,302,71938,1,0,3:0:0:0:
498,270,72098,5,10,0:0:0:0:
473,159,72257,1,0,3:0:0:0:
121,188,72417,5,10,0:0:0:0:
108,248,72576,1,2,3:2:0:0:
60,212,72736,1,8,0:0:0:0:
2,318,72895,5,2,3:2:0:0:
127,352,73055,1,8,0:0:0:0:
222,235,73215,1,2,3:2:0:0:
352,384,73374,1,8,0:0:0:0:
503,320,73534,1,0,3:0:0:0:
463,330,73614,1,0,3:0:0:0:
423,311,73693,1,10,0:0:0:0:
468,260,73853,1,0,3:0:0:0:
471,44,74012,5,10,0:0:0:0:
406,6,74172,1,0,3:0:0:0:
225,49,74332,5,10,0:0:0:0:
483,131,74491,5,2,3:2:0:0:
397,155,74651,1,8,0:0:0:0:
307,158,74810,1,2,3:2:0:0:
305,5,74970,5,8,0:0:0:0:
315,241,75129,5,2,3:2:0:0:
201,233,75289,1,8,0:0:0:0:
150,134,75449,1,0,3:0:0:0:
122,328,75608,5,14,0:0:0:0:
3,107,75768,1,0,3:0:0:0:
33,358,75927,5,14,0:0:0:0:
114,48,76087,1,0,3:0:0:0:
1,229,76247,6,0,P|70:239|108:244,1,100,10|4,0:0|3:1,0:0:0:0:
105,248,76885,5,10,0:0:0:0:
256,377,77204,1,2,3:2:0:0:
423,253,77523,1,10,0:0:0:0:
423,253,77842,5,2,3:2:0:0:
497,241,78002,1,2,3:2:0:0:
483,168,78161,1,8,0:0:0:0:
348,198,78321,5,2,3:2:0:0:
243,220,78481,1,0,3:0:0:0:
222,116,78640,1,0,3:0:0:0:
260,107,78720,1,0,3:0:0:0:
298,99,78800,1,10,0:0:0:0:
412,76,78959,1,0,3:0:0:0:
100,160,79119,6,0,P|107:77|118:-3,1,129.999994049073,10|0,0:0|3:0,0:0:0:0:
412,224,79438,2,0,P|405:307|394:387,1,129.999994049073,8|0,0:0|3:0,0:0:0:0:
133,243,79757,6,0,P|50:250|-30:261,1,129.999994049073,8|0,0:0|3:0,0:0:0:0:
379,141,80076,2,0,P|462:134|542:123,1,129.999994049073,10|0,0:0|3:0,0:0:0:0:
257,247,80395,6,0,P|255:202|251:166,1,64.9999970245363,10|0,0:3|0:0,0:0:0:0:
189,125,80555,5,4,0:3:0:0:
232,82,80635,1,4,0:3:0:0:
289,104,80715,1,8,0:0:0:0:
357,63,80874,1,4,0:3:0:0:
510,134,81034,5,10,0:0:0:0:
338,265,81193,1,0,3:0:0:0:
110,164,81353,2,0,P|35:158|-2:152,1,100,8|6,0:3|3:2,0:0:0:0:
256,192,81752,12,4,84225,0:1:0:0:
190,31,91247,5,10,0:0:0:0:
256,1,91353,5,10,0:0:0:0:
323,33,91459,5,10,0:3:0:0:
298,105,91566,5,10,0:3:0:0:
257,83,91672,5,6,0:3:0:0:
218,101,91778,5,6,0:3:0:0:
252,171,91885,5,4,3:1:0:0:
252,171,92204,2,0,B|329:197|329:197|426:174,1,160,2|0,0:3|0:0,0:0:0:0:
466,135,92683,2,0,L|454:46,1,80,2|0,0:3|0:0,0:0:0:0:
475,209,93002,2,0,L|489:296,1,80,2|0,0:3|0:0,0:0:0:0:
405,178,93321,5,2,0:3:0:0:
352,148,93481,1,2,0:3:0:0:
351,210,93640,1,2,0:3:0:0:
277,183,93800,5,8,0:0:0:0:
230,187,93879,1,8,0:0:0:0:
183,177,93959,1,0,3:0:0:0:
138,187,94039,1,0,3:0:0:0:
119,189,94119,1,8,0:0:0:0:
47,13,94438,5,4,3:2:0:0:
0,196,94677,1,4,3:1:0:0:
49,366,94917,1,4,3:2:0:0:
27,271,95076,5,8,0:0:0:0:
0,196,95236,1,0,3:0:0:0:
30,123,95395,5,0,3:0:0:0:
256,181,95635,1,0,3:0:0:0:
470,262,95874,1,0,3:0:0:0:
444,335,96034,5,8,0:0:0:0:
370,359,96193,1,0,3:0:0:0:
286,381,96353,5,8,0:0:0:0:
203,341,96512,1,0,3:0:0:0:
149,273,96672,5,8,0:0:0:0:
180,55,96832,1,8,0:0:0:0:
240,8,96991,6,0,B|275:94|275:94|241:199,1,200,6|8,3:2|0:0,0:0:0:0:
101,127,97470,2,0,B|88:78|88:78|112:30,1,100,2|0,0:0|3:0,0:0:0:0:
111,205,97789,2,0,L|2:221,1,100,2|0,3:2|0:0,0:0:0:0:
183,95,98108,2,0,L|400:113,1,200,10|0,0:0|3:0,0:0:0:0:
504,93,98587,5,8,0:0:0:0:
504,93,98906,5,2,3:2:0:0:
417,3,99066,1,0,3:0:0:0:
299,41,99225,2,0,P|290:109|292:162,1,100,10|0,0:0|0:0,0:0:0:0:
496,230,99544,5,2,3:2:0:0:
448,293,99704,1,0,3:0:0:0:
402,301,99784,1,0,3:0:0:0:
364,275,99864,2,0,P|373:207|371:154,1,100,8|2,0:0|3:2,0:0:0:0:
223,0,100183,5,10,0:0:0:0:
395,28,100342,1,8,0:0:0:0:
309,90,100502,5,0,3:0:0:0:
128,113,100661,1,8,0:0:0:0:
53,63,100821,5,10,0:3:0:0:
244,157,100981,1,0,3:0:0:0:
256,192,101060,1,0,3:0:0:0:
244,223,101140,1,8,0:3:0:0:
269,296,101300,1,4,0:3:0:0:
254,381,101459,5,2,3:2:0:0:
164,227,101619,1,0,3:0:0:0:
250,52,101778,1,8,0:0:0:0:
250,52,102098,6,0,B|351:62|294:118|402:109,1,150.000005722046,4|0,3:1|3:0,0:0:0:0:
437,59,102576,1,0,3:0:0:0:
250,52,102736,6,0,B|204:74|204:74|144:63,1,100,10|0,0:0|3:0,0:0:0:0:
255,333,103215,5,0,3:0:0:0:
255,333,103374,2,0,B|324:365|324:365|407:349,1,150,2|0,0:0|3:0,0:0:0:0:
293,186,104012,6,0,P|313:244|306:284,1,89.9999972534181,10|0,0:0|3:0,0:0:0:0:
235,251,104332,2,0,P|214:189|222:66,1,179.999994506836,2|0,3:2|3:0,0:0:0:0:
254,9,104810,5,0,3:0:0:0:
121,156,104970,1,8,0:0:0:0:
307,63,105129,2,0,B|367:65|449:17|449:17|403:81|451:104,1,239.999992675781,0|0,3:0|3:0,0:0:0:0:
223,79,105608,2,0,P|186:71|151:58,1,75.0000028610231,10|0,0:0|3:0,0:0:0:0:
371,154,105927,5,14,0:0:0:0:
252,322,106087,1,10,0:0:0:0:
134,152,106247,2,0,P|70:151|17:169,1,100,6|0,3:1|3:0,0:0:0:0:
0,99,106725,5,0,3:0:0:0:
184,209,106885,1,8,0:0:0:0:
0,298,107044,2,0,B|60:296|142:344|142:344|96:280|144:257,1,239.999992675781,0|0,3:0|3:0,0:0:0:0:
298,271,107523,2,0,P|261:277|225:287,1,75.0000028610231,0|0,0:0|3:0,0:0:0:0:
378,382,107842,6,0,B|385:312|432:265|432:265|423:212|397:160,1,220.000006713867,10|2,0:0|3:2,0:0:0:0:
386,0,108321,1,4,3:1:0:0:
321,74,108481,2,0,P|386:86|426:89,1,100,6|0,3:2|3:0,0:0:0:0:
492,65,108959,1,2,3:2:0:0:
303,0,109119,2,0,P|242:7|204:15,1,89.9999972534181,8|0,0:0|0:0,0:0:0:0:
314,171,109438,5,2,3:2:0:0:
314,171,109598,1,0,3:0:0:0:
276,98,109757,5,8,0:0:0:0:
216,96,109864,5,8,0:0:0:0:
183,147,109970,5,8,0:3:0:0:
203,204,110076,5,8,0:3:0:0:
259,227,110183,5,4,0:3:0:0:
279,282,110289,5,4,0:3:0:0:
244,331,110395,5,10,0:0:0:0:
88,286,110635,5,8,0:3:0:0:
396,370,110874,5,0,3:0:0:0:
466,334,111034,1,4,3:1:0:0:
466,334,111672,6,0,P|474:269|464:207,1,120,2|0,0:0|0:0,0:0:0:0:
414,160,112310,2,0,B|356:180|356:180|291:162,2,120,2|2|2,0:0|0:0|0:0,0:0:0:0:
134,159,113587,5,10,0:0:0:0:
99,121,113667,1,8,0:3:0:0:
100,76,113747,1,8,0:3:0:0:
136,46,113826,1,4,0:3:0:0:
182,45,113906,2,0,L|235:54,1,50,4|4,0:3|0:3,0:0:0:0:
378,225,114066,5,8,0:0:0:0:
413,263,114146,1,8,0:3:0:0:
412,308,114226,1,8,0:3:0:0:
376,338,114305,1,4,0:3:0:0:
330,339,114385,2,0,L|276:329,1,50,4|4,0:3|0:3,0:0:0:0:
214,199,114544,5,8,0:0:0:0:
225,187,114624,1,8,0:0:0:0:
244,193,114704,1,0,3:0:0:0:
275,174,114784,1,0,3:0:0:0:
298,189,114864,1,2,3:2:0:0:
190,363,115183,5,2,0:0:0:0:
322,21,115502,5,2,0:0:0:0:
445,244,115821,5,2,0:0:0:0:
67,140,116140,6,0,P|67:201|71:280,1,129.999994049073,6|0,3:2|3:0,0:0:0:0:
208,184,116459,1,8,0:0:0:0:
12,38,116619,2,0,P|100:109|228:48,1,259.999988098145,2|0,3:2|3:0,0:0:0:0:
430,160,117098,2,0,P|365:147|281:137,1,129.999994049073,10|0,0:0|3:0,0:0:0:0:
331,20,117417,5,0,3:0:0:0:
208,176,117576,1,0,3:0:0:0:
340,7,117736,1,8,0:0:0:0:
130,76,117895,5,0,3:0:0:0:
130,76,117975,1,0,3:0:0:0:
130,76,118055,1,0,3:0:0:0:
301,138,118215,1,0,3:0:0:0:
210,294,118374,2,0,B|182:232|182:232|213:164,1,129.999994049073,10|0,0:0|3:0,0:0:0:0:
414,52,118693,6,0,B|442:114|442:114|411:182,1,129.999994049073,2|0,3:2|3:0,0:0:0:0:
245,19,119012,1,8,0:0:0:0:
283,233,119172,2,0,B|439:211|357:350|502:330,1,259.999988098145,2|0,3:2|3:0,0:0:0:0:
323,133,119651,2,0,P|263:132|189:169,1,129.999994049073,10|0,0:0|3:0,0:0:0:0:
393,71,119970,5,0,3:0:0:0:
195,247,120129,2,0,P|149:241|116:228,1,64.9999970245363,8|0,0:0|0:0,0:0:0:0:
32,46,120289,2,0,P|78:40|111:27,1,64.9999970245363,8|0,0:0|0:0,0:0:0:0:
128,120,120449,5,8,0:3:0:0:
85,149,120529,1,8,0:3:0:0:
35,137,120608,1,8,0:0:0:0:
100,320,120768,5,4,0:3:0:0:
143,349,120848,1,4,0:3:0:0:
193,337,120927,2,0,P|199:283|195:221,1,100,8|0,0:0|3:0,0:0:0:0:
202,9,121247,5,6,3:2:0:0:
202,9,121406,1,2,0:0:0:0:
34,143,121566,1,10,0:0:0:0:
96,192,121725,1,2,0:0:0:0:
165,160,121885,1,2,3:2:0:0:
310,375,122204,5,10,0:2:0:0:
310,375,122363,1,2,0:2:0:0:
478,241,122523,1,2,3:2:0:0:
416,192,122682,1,2,0:0:0:0:
347,224,122842,1,10,0:0:0:0:
213,15,123161,6,0,L|254:137,1,112.500004291535,2|0,3:2|0:0,0:0:0:0:
254,139,123481,6,0,L|295:15,1,129.999994049073,10|2,0:0|0:0,0:0:0:0:
470,242,123800,6,0,B|489:209|489:209|454:146,1,75.0000028610231,2|0,3:0|0:0,0:0:0:0:
399,161,123959,2,0,B|380:204|380:204|397:259,1,100,2|0,3:0|0:0,0:0:0:0:
45,184,124278,5,0,3:0:0:0:
45,184,124358,1,0,3:0:0:0:
114,169,124438,2,0,B|129:118|129:118|110:75,1,100,10|0,0:0|0:0,0:0:0:0:
220,290,124757,6,0,L|304:301,1,75.0000028610231,2|0,3:0|0:0,0:0:0:0:
292,373,124917,2,0,B|250:365|250:365|228:375|228:375|181:365,1,100,2|0,3:0|0:0,0:0:0:0:
354,117,125236,6,0,P|357:143|358:183,1,50,2|8,3:1|0:0,0:0:0:0:
135,231,125555,6,0,P|138:160|146:78,1,150.000005722046,2|0,0:1|3:0,0:0:0:0:
245,16,125874,5,8,0:0:0:0:
237,76,125954,1,8,0:0:0:0:
265,130,126034,1,8,0:0:0:0:
238,187,126114,1,8,0:0:0:0:
241,245,126193,1,8,0:0:0:0:
269,296,126273,1,8,0:0:0:0:
254,353,126353,1,4,3:1:0:0:
0,128,126672,5,10,0:0:0:0:
73,149,126832,1,0,3:0:0:0:
134,2,126991,5,10,0:0:0:0:
167,117,127151,1,0,3:0:0:0:
456,30,127310,5,10,0:0:0:0:
413,76,127470,1,2,3:2:0:0:
394,16,127629,1,8,0:0:0:0:
512,141,127789,5,2,3:2:0:0:
377,191,127948,1,8,0:0:0:0:
294,68,128108,1,2,3:2:0:0:
148,13,128268,1,8,0:0:0:0:
10,131,128427,1,0,3:0:0:0:
49,108,128507,1,0,3:0:0:0:
91,123,128587,1,10,0:0:0:0:
57,187,128747,1,0,3:0:0:0:
175,357,128906,5,10,0:0:0:0:
243,384,129066,1,0,3:0:0:0:
274,314,129225,1,10,0:0:0:0:
219,122,129385,5,2,3:2:0:0:
349,309,129544,1,8,0:0:0:0:
289,164,129704,5,2,3:2:0:0:
303,241,129864,1,8,0:0:0:0:
193,44,130023,5,2,3:2:0:0:
327,13,130183,1,8,0:0:0:0:
385,143,130342,1,0,3:0:0:0:
262,316,130502,5,14,0:0:0:0:
457,181,130661,1,0,3:0:0:0:
355,380,130821,5,14,0:0:0:0:
88,268,130981,1,0,3:0:0:0:
341,300,131140,6,0,P|335:250|328:201,1,100,10|4,0:0|3:1,0:0:0:0:
325,195,131778,5,10,0:0:0:0:
255,2,132098,1,2,3:2:0:0:
194,195,132417,1,10,0:0:0:0:
194,195,132736,5,2,3:2:0:0:
192,122,132895,1,2,3:2:0:0:
128,90,133055,1,8,0:0:0:0:
23,126,133215,5,2,3:2:0:0:
2,217,133374,1,0,3:0:0:0:
80,268,133534,1,0,3:0:0:0:
109,279,133614,1,0,3:0:0:0:
141,265,133693,1,10,0:0:0:0:
207,188,133853,1,0,3:0:0:0:
94,42,134012,6,0,P|107:135|115:181,1,129.999994049073,10|0,0:0|3:0,0:0:0:0:
418,42,134332,2,0,P|405:135|397:181,1,129.999994049073,8|0,0:0|3:0,0:0:0:0:
71,370,134651,6,0,P|55:307|34:245,1,129.999994049073,8|0,0:0|3:0,0:0:0:0:
441,370,134970,2,0,P|456:307|477:245,1,129.999994049073,10|0,0:0|3:0,0:0:0:0:
253,192,135289,5,10,0:3:0:0:
159,247,135449,1,8,0:0:0:0:
112,218,135528,1,8,0:0:0:0:
89,167,135608,1,8,0:0:0:0:
102,113,135688,1,8,0:0:0:0:
146,79,135768,1,8,0:0:0:0:
201,78,135848,1,8,0:0:0:0:
246,108,135927,1,10,0:0:0:0:
247,120,136007,1,8,0:3:0:0:
248,132,136087,1,8,0:3:0:0:
249,144,136167,1,8,0:3:0:0:
250,156,136247,1,8,0:3:0:0:
251,168,136326,1,4,0:3:0:0:
252,180,136406,1,4,0:3:0:0:
253,192,136486,1,4,0:3:0:0:
254,204,136566,1,6,3:2:0:0:
256,192,136645,12,4,139119,0:1:0:0:
205,359,146778,6,0,P|153:308|81:318,1,150.000005722046,4|0,3:1|3:0,0:0:0:0:
31,372,147257,1,0,3:0:0:0:
205,359,147417,6,0,P|191:328|204:251,1,100,10|0,0:0|3:0,0:0:0:0:
307,25,147895,5,0,3:0:0:0:
307,25,148055,2,0,P|332:87|309:175,1,150,2|0,0:0|3:0,0:0:0:0:
241,158,148693,6,0,L|217:65,1,89.9999972534181,10|0,0:0|3:0,0:0:0:0:
267,229,149012,2,0,L|289:316,1,89.9999972534181,6|0,3:2|0:0,0:0:0:0:
314,166,149332,5,0,3:0:0:0:
342,150,149411,1,0,3:0:0:0:
361,164,149491,1,0,3:0:0:0:
396,167,149571,1,0,3:0:0:0:
415,218,149651,1,8,0:0:0:0:
203,316,149810,2,0,B|159:318|132:361|132:361|86:268|-4:293,1,239.999992675781,0|0,3:0|3:0,0:0:0:0:
48,193,150289,2,0,P|88:200|157:205,1,75.0000028610231,10|0,0:0|3:0,0:0:0:0:
272,381,150608,5,14,0:0:0:0:
205,221,150768,1,10,0:0:0:0:
256,30,150927,2,0,B|275:73|275:73|260:127,1,100,6|0,3:1|3:0,0:0:0:0:
322,174,151406,1,0,3:0:0:0:
361,185,151486,1,0,3:0:0:0:
394,166,151566,1,8,0:0:0:0:
469,184,151725,5,0,3:0:0:0:
512,116,152044,5,0,3:0:0:0:
457,54,152364,5,0,3:0:0:0:
384,86,152523,6,0,P|314:79|268:76,1,110.000003356934,10|0,0:0|0:0,0:0:0:0:
211,5,152842,1,2,3:2:0:0:
247,156,153002,1,4,3:1:0:0:
81,75,153161,2,0,P|162:87|199:87,1,100,6|0,3:2|3:0,0:0:0:0:
250,251,153640,1,2,3:2:0:0:
355,295,153800,2,0,B|339:342|339:342|357:402,1,89.9999972534181,8|0,0:0|0:0,0:0:0:0:
136,306,154119,5,2,3:2:0:0:
198,369,154278,1,0,3:0:0:0:
198,369,154358,1,0,3:0:0:0:
198,369,154438,5,8,0:0:0:0:
246,341,154544,5,8,0:0:0:0:
252,284,154651,5,8,0:3:0:0:
212,243,154757,5,8,0:3:0:0:
201,187,154864,5,4,0:3:0:0:
244,148,154970,5,4,0:3:0:0:
301,158,155076,5,10,0:0:0:0:
352,98,155236,5,8,0:3:0:0:
335,73,155316,1,8,0:3:0:0:
344,45,155395,1,4,0:3:0:0:
283,0,155555,1,0,3:0:0:0:
215,34,155715,1,4,3:1:0:0:
215,34,156353,6,0,P|219:78|224:159,1,120,2|0,0:0|0:0,0:0:0:0:
152,182,156991,2,0,P|87:189|29:167,2,120,2|2|2,0:0|0:0|0:0,0:0:0:0:
394,20,158268,5,8,0:0:0:0:
318,39,158374,5,8,0:0:0:0:
311,119,158481,5,8,0:3:0:0:
381,168,158587,5,8,0:3:0:0:
430,155,158693,5,4,0:3:0:0:
437,107,158800,5,4,0:3:0:0:
355,89,158906,6,0,P|371:166|392:261,1,170.000003242493,8|0,0:0|0:0,0:0:0:0:
175,312,159145,2,0,P|233:259|305:193,1,170.000003242493,8|0,0:0|0:0,0:0:0:0:
458,358,159385,2,0,P|383:333|290:304,1,170.000003242493,8|4,0:0|3:1,0:0:0:0:
256,192,159624,12,4,160821,0:0:0:0:
83,167,161300,5,2,0:0:0:0:
83,167,161778,1,2,0:0:0:0:
18,221,162257,5,0,0:0:0:0:
18,221,162736,1,2,0:0:0:0:
29,226,162895,1,0,0:0:0:0:
40,231,163055,1,0,0:0:0:0:
51,236,163215,1,0,0:0:0:0:
134,226,163374,5,2,0:0:0:0:
129,198,163534,1,0,0:0:0:0:
125,173,163693,1,0,0:0:0:0:
120,143,163853,1,2,0:0:0:0:
78,76,164012,5,0,0:0:0:0:
127,59,164172,1,0,0:0:0:0:
178,47,164332,1,2,0:0:0:0:
227,36,164491,1,0,0:0:0:0:
198,124,164651,5,2,0:0:0:0:
198,124,164810,2,2,B|289:108|240:186|339:180,1,149.999995422363,0|0,0:0|0:0,0:1:0:0:
2,254,165927,5,6,3:2:0:0:
34,120,166087,1,10,0:0:0:0:
30,132,166167,1,8,0:0:0:0:
27,144,166247,1,10,0:0:0:0:
178,0,166406,5,0,3:2:0:0:
215,185,166566,1,10,0:0:0:0:
209,161,166645,1,8,0:0:0:0:
204,137,166725,1,8,0:0:0:0:
507,19,166885,5,2,3:2:0:0:
299,78,167044,1,10,0:0:0:0:
329,70,167124,1,8,0:0:0:0:
360,63,167204,1,10,0:2:0:0:
392,267,167364,5,0,3:0:0:0:
512,232,167523,1,10,0:0:0:0:
421,131,167683,1,0,3:0:0:0:
252,367,167842,2,0,B|264:290|264:290|244:237|244:237|257:135,2,225.000008583069,10|8|8,0:0|0:0|0:0,0:0:0:0:
68,81,168481,6,0,P|81:115|91:155,1,75.0000028610231,2|0,3:0|0:0,0:0:0:0:
141,33,168640,2,0,P|168:126|173:171,1,100,2|0,3:0|0:0,0:0:0:0:
422,368,168959,5,0,3:0:0:0:
422,368,169039,1,0,3:0:0:0:
348,342,169119,2,0,P|358:293|375:246,1,100,10|0,0:0|0:0,0:0:0:0:
159,222,169438,6,0,P|199:205|245:193,1,75.0000028610231,2|0,3:0|0:0,0:0:0:0:
333,175,169598,2,0,P|282:196|202:211,1,100,2|0,3:0|0:0,0:0:0:0:
347,48,169917,6,0,P|361:79|366:106,1,50,2|8,3:1|0:0,0:0:0:0:
132,384,170236,6,0,P|95:303|82:234,1,150.000005722046,2|0,0:1|3:0,0:0:0:0:
167,59,170555,5,8,0:0:0:0:
222,73,170635,1,8,0:0:0:0:
253,124,170715,1,8,0:0:0:0:
247,180,170795,1,8,0:0:0:0:
203,217,170874,1,8,0:0:0:0:
218,275,170954,1,8,0:0:0:0:
268,302,171034,1,4,3:1:0:0:
457,27,171353,5,10,0:0:0:0:
484,101,171512,1,0,3:0:0:0:
424,341,171672,5,10,0:0:0:0:
441,213,171832,1,0,3:0:0:0:
244,325,171991,5,10,0:0:0:0:
258,384,172151,1,2,3:2:0:0:
302,343,172310,1,8,0:0:0:0:
500,279,172470,5,2,3:2:0:0:
405,119,172629,1,8,0:0:0:0:
278,162,172789,1,2,3:2:0:0:
251,2,172949,1,8,0:0:0:0:
63,57,173108,1,0,3:0:0:0:
97,94,173188,1,0,3:0:0:0:
145,83,173268,1,10,0:0:0:0:
124,9,173427,1,0,3:0:0:0:
223,226,173587,5,10,0:0:0:0:
148,248,173747,1,0,3:0:0:0:
283,286,173906,5,10,0:0:0:0:
74,212,174066,5,2,3:2:0:0:
126,380,174225,1,8,0:0:0:0:
0,264,174385,5,2,3:2:0:0:
261,380,174544,1,8,0:0:0:0:
425,163,174704,1,2,3:2:0:0:
155,23,174864,2,0,P|136:46|131:75,3,59.9999981689454,8|0|0|0,0:0|3:0|3:0|3:0,0:0:0:0:
168,41,175183,5,14,3:2:0:0:
222,68,175262,1,0,3:0:0:0:
280,86,175342,1,0,3:0:0:0:
339,91,175422,1,0,3:0:0:0:
344,107,175502,5,14,3:2:0:0:
335,166,175581,1,0,3:0:0:0:
335,227,175661,1,0,3:0:0:0:
349,285,175741,1,0,3:0:0:0:
357,299,175821,5,14,3:2:0:0:
298,308,175900,1,0,3:0:0:0:
240,327,175980,1,0,3:0:0:0:
189,358,176060,1,0,3:0:0:0:
171,346,176140,6,0,P|178:275|186:222,1,100,4|0,3:1|0:0,0:0:0:0:
0,138,176459,2,0,B|89:184|89:184|209:144,1,200,10|2,0:0|3:2,0:0:0:0:
351,60,176938,1,0,3:0:0:0:
255,10,177098,2,0,P|263:84|271:139,1,100,10|0,0:0|0:0,0:0:0:0:
304,369,177417,5,2,3:2:0:0:
319,291,177576,1,2,3:2:0:0:
394,266,177736,1,8,0:0:0:0:
472,278,177895,1,2,3:2:0:0:
491,242,177975,1,0,3:0:0:0:
484,200,178055,1,0,3:0:0:0:
418,154,178215,1,0,3:0:0:0:
373,167,178294,1,0,3:0:0:0:
328,159,178374,1,10,0:0:0:0:
254,190,178534,1,0,3:0:0:0:
205,167,178614,1,0,3:0:0:0:
153,179,178693,6,0,P|74:175|5:164,1,129.999994049073,10|0,0:0|3:0,0:0:0:0:
347,18,179012,2,0,P|426:22|495:33,1,129.999994049073,8|0,0:0|3:0,0:0:0:0:
173,88,179332,6,0,P|108:79|43:76,1,129.999994049073,8|0,0:0|3:0,0:0:0:0:
330,297,179651,2,0,P|394:305|459:308,1,129.999994049073,10|0,0:0|3:0,0:0:0:0:
174,71,179970,5,10,0:3:0:0:
261,18,180129,1,4,0:3:0:0:
317,12,180209,1,4,0:3:0:0:
372,24,180289,1,8,0:0:0:0:
417,59,180369,1,8,0:0:0:0:
439,115,180449,1,4,0:3:0:0:
435,126,180528,1,4,0:3:0:0:
432,135,180608,5,10,0:0:0:0:
379,105,180688,1,8,0:0:0:0:
321,96,180768,1,8,3:3:0:0:
263,111,180848,1,8,0:3:0:0:
214,143,180927,1,8,0:3:0:0:
191,199,181007,1,4,0:3:0:0:
191,260,181087,1,4,0:3:0:0:
212,317,181167,1,4,0:3:0:0:
260,349,181247,5,6,3:2:0:0:
311,222,181406,1,0,3:0:0:0:
151,383,181566,5,10,0:0:0:0:
82,200,181725,1,0,3:0:0:0:
0,318,181885,6,0,P|91:309|161:301,1,129.999994049073,10|0,0:0|3:0,0:0:0:0:
296,133,182204,5,10,0:0:0:0:
343,300,182364,1,0,3:0:0:0:
510,182,182523,5,10,0:0:0:0:
433,384,182683,1,0,3:0:0:0:
430,207,182842,6,0,P|333:216|269:224,1,129.999994049073,10|0,0:0|3:0,0:0:0:0:
88,119,183161,1,10,0:0:0:0:
163,101,183321,1,0,3:0:0:0:
329,9,183481,1,14,0:0:0:0:
221,245,183640,1,4,3:1:0:0:
244,317,183800,1,2,3:2:0:0:
37,377,183959,5,0,3:0:0:0:
26,348,184039,1,0,3:0:0:0:
42,315,184119,1,10,0:0:0:0:
111,283,184278,1,0,3:0:0:0:
15,170,184438,5,10,0:0:0:0:
7,94,184598,1,0,3:0:0:0:
184,0,184757,1,10,0:0:0:0:
211,74,184917,1,0,3:0:0:0:
179,87,184997,1,0,3:0:0:0:
146,67,185076,5,10,0:0:0:0:
360,165,185236,2,0,P|429:171|516:182,1,129.999994049073,6|8,3:1|0:0,0:0:0:0:
315,275,185555,1,0,3:0:0:0:
425,73,185715,2,0,B|408:42|408:42|423:0,1,80,10|0,0:1|3:0,0:0:0:0:
307,28,186034,5,14,0:2:0:0:
416,359,186193,1,4,3:1:0:0:
183,222,186353,2,0,B|94:177|94:177|-17:254,1,194.999991073609,6|0,3:2|0:0,0:0:0:0:
1,251,186672,1,10,0:0:0:0:
80,54,186832,2,0,L|206:26,1,129.999994049073,2|8,3:2|3:2,0:0:0:0:
119,357,187151,2,0,L|245:384,1,129.999994049073,2|8,3:2|0:0,0:0:0:0:
467,133,187470,2,0,B|503:183|503:183|456:282,1,129.999994049073,2|8,3:2|0:0,0:0:0:0:
467,49,187789,5,10,0:0:0:0:
414,29,187869,1,8,0:0:0:0:
367,61,187949,1,10,0:0:0:0:
461,335,188108,5,0,3:0:0:0:
358,295,188268,2,0,P|365:220|375:155,1,129.999994049073,10|4,0:3|0:3,0:0:0:0:
153,381,188587,2,0,P|146:306|136:241,1,129.999994049073,10|4,0:3|0:3,0:0:0:0:
255,6,188906,5,6,3:1:0:0:
109,71,189066,5,8,0:0:0:0:
137,111,189145,1,8,0:0:0:0:
183,112,189225,1,4,3:2:0:0:
410,155,189385,5,8,0:0:0:0:
374,195,189465,1,8,0:0:0:0:
322,184,189544,1,4,3:2:0:0:
265,128,189704,1,8,0:0:0:0:
427,73,189864,5,12,0:0:0:0:
82,189,190023,1,4,3:1:0:0:
389,367,190183,2,0,L|396:286,1,75,4|0,3:1|0:0,0:0:0:0:
393,276,190502,6,0,B|453:253|453:253|511:290,1,129.999994049073,12|0,0:0|3:0,0:0:0:0:
252,381,190821,5,8,0:0:0:0:
208,326,190927,5,8,0:0:0:0:
242,264,191034,5,8,0:0:0:0:
307,221,191140,5,4,0:3:0:0:
270,181,191246,5,4,0:3:0:0:
217,190,191353,5,4,0:3:0:0:
175,128,191459,5,6,3:2:0:0:
425,44,191619,5,8,0:0:0:0:
425,44,191699,1,8,0:0:0:0:
86,42,191858,1,8,0:0:0:0:
86,42,191938,1,8,0:0:0:0:
260,0,192098,5,4,3:1:0:0:
237,375,192257,2,0,P|241:325|245:294,1,75.0000028610231,12|0,0:0|0:0,0:0:0:0:
332,124,192417,5,8,0:0:0:0:
157,223,192576,2,0,B|332:207|234:349|383:331,1,259.999988098145,4|0,3:1|3:0,0:0:0:0:
475,243,193055,5,10,0:0:0:0:
454,320,193215,1,0,3:0:0:0:
307,382,193374,5,10,0:0:0:0:
203,381,193534,1,0,3:0:0:0:
50,341,193693,5,10,0:0:0:0:
29,208,193853,1,0,3:0:0:0:
153,147,194012,5,2,3:2:0:0:
376,161,194172,1,0,3:0:0:0:
154,157,194332,1,10,0:0:0:0:
374,152,194491,1,0,3:0:0:0:
256,295,194651,5,10,0:0:0:0:
284,225,194810,1,0,3:0:0:0:
250,150,194970,5,10,0:0:0:0:
222,75,195129,1,0,3:0:0:0:
265,7,195289,1,10,0:0:0:0:
501,84,195449,5,2,3:2:0:0:
491,117,195528,1,0,3:0:0:0:
494,151,195608,1,8,0:0:0:0:
366,14,195768,5,0,3:0:0:0:
356,55,195848,1,0,3:0:0:0:
358,102,195927,1,10,0:0:0:0:
133,26,196087,5,4,3:1:0:0:
120,79,196167,1,0,3:0:0:0:
128,130,196247,2,0,P|136:175|145:210,1,64.9999970245363,8|8,0:0|0:0,0:0:0:0:
294,257,196406,5,0,3:0:0:0:
298,250,196486,1,0,3:0:0:0:
303,259,196566,1,6,3:2:0:0:
413,366,196725,1,0,3:0:0:0:
391,212,196885,1,10,0:0:0:0:
316,351,197044,1,0,3:0:0:0:
457,287,197204,1,10,0:0:0:0:
230,384,197364,5,0,3:0:0:0:
230,384,197443,1,8,0:0:0:0:
215,191,197683,5,8,3:2:0:0:
259,3,197922,5,8,0:0:0:0:
259,3,198002,1,0,3:0:0:0:
287,86,198161,5,10,0:0:0:0:
332,24,198321,1,8,0:0:0:0:
289,169,198481,5,2,3:2:0:0:
197,63,198640,1,8,0:0:0:0:
293,255,198800,5,10,0:0:0:0:
382,109,198959,1,0,3:0:0:0:
11,229,199119,5,6,3:2:0:0:
91,294,199278,5,8,0:0:0:0:
131,307,199358,1,8,0:0:0:0:
165,287,199438,1,2,3:2:0:0:
159,137,199598,5,8,0:0:0:0:
110,114,199677,1,8,0:0:0:0:
67,146,199757,1,2,3:2:0:0:
119,208,199917,1,8,0:0:0:0:
255,25,200076,5,14,0:0:0:0:
227,212,200236,1,0,3:0:0:0:
324,61,200395,5,2,3:2:0:0:
316,209,200555,1,0,3:0:0:0:
402,79,200715,5,10,0:0:0:0:
409,188,200874,1,0,3:0:0:0:
505,156,201034,5,8,0:0:0:0:
490,231,201140,5,8,0:0:0:0:
507,301,201247,5,8,0:0:0:0:
482,371,201353,5,4,0:3:0:0:
415,336,201459,5,4,0:3:0:0:
341,337,201566,5,4,0:3:0:0:
276,292,201672,6,0,B|216:264|216:264|143:291,2,129.999994049073,6|0|0,3:1|3:0|3:0,0:0:0:0:
113,381,202151,5,10,0:1:0:0:
19,198,202310,1,2,3:1:0:0:
32,251,202470,1,0,3:0:0:0:
52,302,202629,1,8,0:1:0:0:
35,91,202789,5,2,3:1:0:0:
267,4,202949,1,2,3:1:0:0:
200,24,203108,1,8,0:1:0:0:
131,33,203268,1,0,3:0:0:0:
389,26,203427,5,2,3:1:0:0:
456,298,203587,1,10,0:1:0:0:
462,221,203747,1,0,3:0:0:0:
486,150,203906,1,8,0:1:0:0:
258,376,204066,5,2,3:1:0:0:
352,148,204225,2,0,B|206:106|266:249|134:232,1,240,6|0,3:1|0:0,0:0:0:0:
148,233,205183,2,0,P|220:245|243:251,1,80,2|0,0:0|0:0,0:0:0:0:
73,159,205502,2,0,P|143:145|219:124,2,150,6|0|0,3:2|0:0|0:0,0:0:0:0:
256,192,206778,12,2,212044,0:0:0:0:
