osu file format v14

[General]
AudioFilename: audio.mp3
AudioLeadIn: 0
PreviewTime: 59970
Countdown: 0
SampleSet: Soft
StackLeniency: 0.7
Mode: 0
LetterboxInBreaks: 0
WidescreenStoryboard: 0

[Editor]
Bookmarks: 61247,91885,102098,116140,136566,160821,181247,191459
DistanceSpacing: 2.1
BeatDivisor: 4
GridSize: 4
TimelineZoom: 2.1

[Metadata]
Title:Fade:Alone
TitleUnicode:Fade:Alone
Artist:Imy
ArtistUnicode:Imy
Creator:iBell
Version:Normal
Source:
Tags:jrock bellicose AuroraE アイミー みゅー miyu myu Meteora 藍月なくる aitsuki nakuru featured artist fa mappers' guild mpg japanese rock
BeatmapID:2704334
BeatmapSetID:1304195

[Difficulty]
HPDrainRate:3
CircleSize:3.2
OverallDifficulty:4
ApproachRate:5.5
SliderMultiplier:0.999999999999999
SliderTickRate:1

[Events]
//Background and Video events
0,0,"a.jpg",0,0
//Break Periods
2,26778,35866
2,84425,90760
2,139319,146292
2,161021,164802
//Storyboard Layer 0 (Background)
//Storyboard Layer 1 (Fail)
//Storyboard Layer 2 (Pass)
//Storyboard Layer 3 (Foreground)
//Storyboard Layer 4 (Overlay)
//Storyboard Sound Samples

[TimingPoints]
1247,319.148936170213,4,2,1,30,1,0
1247,-100,4,2,1,30,0,0
10183,-100,4,2,1,50,0,0
11459,-100,4,2,1,60,0,0
24225,-111.111111111111,4,2,1,50,0,0
25183,-111.111111111111,4,2,1,40,0,0
26778,-111.111111111111,4,2,1,30,0,0
34438,-111.111111111111,4,2,1,40,0,0
36991,-111.111111111111,4,2,1,50,0,0
39544,-111.111111111111,4,2,1,50,0,0
39864,-111.111111111111,4,2,1,50,0,0
42098,-111.111111111111,4,2,1,50,0,0
42417,-111.111111111111,4,2,1,50,0,0
44651,-111.111111111111,4,2,1,60,0,0
46247,-111.111111111111,4,2,1,60,0,0
46566,-111.111111111111,4,2,1,60,0,0
47204,-111.111111111111,4,2,1,50,0,0
47842,-111.111111111111,4,2,1,50,0,0
48161,-111.111111111111,4,2,1,50,0,0
48640,-111.111111111111,4,2,1,50,0,0
48959,-111.111111111111,4,2,1,50,0,0
51353,-111.111111111111,4,2,1,50,0,0
51672,-111.111111111111,4,2,1,50,0,0
52949,-111.111111111111,4,2,1,50,0,0
53268,-111.111111111111,4,2,1,50,0,0
53587,-111.111111111111,4,2,1,50,0,0
53906,-111.111111111111,4,2,1,50,0,0
56778,-111.111111111111,4,2,1,40,0,0
57417,-111.111111111111,4,2,1,40,0,0
57895,-111.111111111111,4,2,1,40,0,0
58374,-111.111111111111,4,2,1,40,0,0
58693,-100,4,2,1,60,0,0
59970,-111.111111111111,4,2,1,40,0,0
61247,-95.2380952380952,4,2,1,70,0,1
64917,-95.2380952380952,4,2,1,70,0,1
65236,-95.2380952380952,4,2,1,70,0,1
81672,-100,4,2,1,70,0,0
91247,-100,4,2,1,50,0,0
91885,-111.111111111111,4,2,1,50,0,0
99544,-111.111111111111,4,2,1,60,0,0
102098,-111.111111111111,4,2,1,50,0,0
111672,-111.111111111111,4,2,1,40,0,0
113587,-100,4,2,1,60,0,0
114864,-111.111111111111,4,2,1,40,0,0
116140,-95.2380952380952,4,2,1,70,0,1
136566,-95.2380952380952,4,2,1,70,0,0
146778,-95.2380952380952,4,2,1,50,0,0
147417,-111.111111111111,4,2,1,50,0,0
156034,-111.111111111111,4,2,1,40,0,0
158268,-100,4,2,1,60,0,0
161300,-100,4,2,1,40,0,0
165927,-95.2380952380952,4,2,1,70,0,1
181247,-100,4,2,1,65,0,0
204225,-100,4,2,1,55,0,0
205183,-100,4,2,1,45,0,0
212044,-100,4,2,1,25,0,0

[Colours]
Combo1 : 202,115,244
Combo2 : 149,223,251
Combo3 : 81,159,255
Combo4 : 219,172,251

[HitObjects]
100,7,10183,6,0,P|107:56|116:118,1,99.9999999999999,8|4,0:0|0:3,0:0:0:0:
76,129,10661,2,0,P|29:168|30:212,1,99.9999999999999,8|4,0:0|0:3,0:0:0:0:
41,246,11140,1,8,0:0:0:0:
125,276,11459,6,0,P|110:342|99:396,2,99.9999999999999,6|10|10,3:2|0:0|0:0,0:0:0:0:
189,213,12417,1,10,0:2:0:0:
242,285,12736,2,0,P|266:319|333:319,1,99.9999999999999,10|10,0:2|0:0,0:0:0:0:
364,246,13374,2,0,P|350:168|345:128,1,99.9999999999999,10|14,0:2|0:2,0:0:0:0:
288,79,14012,6,0,B|247:105|247:105|192:91,2,99.9999999999999,2|8|10,3:2|0:0|0:0,0:0:0:0:
363,29,14970,1,10,0:0:0:0:
451,47,15289,1,10,0:0:0:0:
451,47,15449,2,0,P|477:71|494:187,1,150,6|10,3:1|0:1,0:0:0:0:
476,266,16247,1,8,0:0:0:0:
416,333,16566,6,0,P|485:354|519:356,2,99.9999999999999,6|10|10,3:2|0:0|0:0,0:0:0:0:
331,364,17523,1,10,0:0:0:0:
245,334,17842,2,0,P|256:255|259:228,1,99.9999999999999,2|8,3:2|0:0,0:0:0:0:
305,226,18321,1,0,3:0:0:0:
305,226,18481,2,0,P|345:172|326:132,1,99.9999999999999,10|10,0:0|0:0,0:0:0:0:
328,57,19119,5,6,3:2:0:0:
240,77,19438,1,2,3:2:0:0:
153,100,19757,1,2,3:2:0:0:
65,120,20076,2,0,B|47:72|47:72|81:15,2,99.9999999999999,6|10|10,3:2|0:0|0:0,0:0:0:0:
127,184,21034,2,0,B|82:280|177:266|103:382,1,200,8|6,0:0|3:1,0:0:0:0:
24,267,22151,5,10,0:1:0:0:
24,267,22310,1,2,3:1:0:0:
127,184,22789,1,2,3:1:0:0:
127,184,22949,1,2,3:1:0:0:
240,256,23427,1,2,3:1:0:0:
240,256,23587,1,10,0:1:0:0:
352,180,24066,1,2,3:1:0:0:
352,180,24225,6,0,P|374:108|331:58,1,134.999995880127,6|0,3:1|0:0,0:0:0:0:
228,20,25183,1,2,0:0:0:0:
148,35,25502,2,0,P|164:104|175:179,1,134.999995880127,6|0,0:0|0:0,0:0:0:0:
173,329,36991,6,0,P|208:300|267:312,1,89.999997253418,4|8,3:2|0:0,0:0:0:0:
320,350,37629,2,0,L|380:340,1,44.999998626709,2|2,3:2|3:2,0:0:0:0:
448,358,38108,2,0,B|490:301|490:301|455:228,1,134.999995880127,10|10,0:0|0:0,0:0:0:0:
422,167,38906,1,2,3:2:0:0:
454,88,39225,1,10,0:0:0:0:
397,23,39544,6,0,P|336:42|301:48,1,89.999997253418,6|8,3:2|0:0,0:0:0:0:
225,56,40183,2,0,L|238:115,1,44.999998626709,2|2,3:2|3:2,0:0:0:0:
312,135,40661,2,0,P|361:173|345:251,1,134.999995880127,10|10,0:0|0:0,0:0:0:0:
315,316,41459,1,2,3:2:0:0:
231,298,41778,1,10,0:0:0:0:
169,357,42098,6,0,B|131:348|131:348|117:334|117:334|71:321,1,89.999997253418,2|8,3:2|0:0,0:0:0:0:
44,330,42576,2,0,P|32:255|91:215,1,134.999995880127,2|8,0:0|0:0,0:0:0:0:
155,235,43374,2,0,P|148:181|144:133,1,89.999997253418,2|10,3:2|0:0,0:0:0:0:
170,63,44012,1,2,3:2:0:0:
99,14,44332,1,10,0:3:0:0:
15,31,44651,6,0,P|30:82|45:175,1,134.999995880127,6|2,3:1|3:2,0:0:0:0:
14,193,45289,1,10,0:0:0:0:
31,276,45608,1,0,3:0:0:0:
115,263,45927,2,0,P|182:280|209:283,1,89.999997253418,10|8,0:0|0:2,0:0:0:0:
246,356,46566,2,0,B|360:336|290:287|418:272,1,179.999994506836,2|4,3:2|3:1,0:0:0:0:
485,126,47842,6,0,P|480:81|397:43,1,134.999995880127,10|0,0:0|3:0,0:0:0:0:
371,66,48481,2,0,P|286:43|219:32,1,134.999995880127,2|0,0:0|3:0,0:0:0:0:
200,51,49119,1,10,0:0:0:0:
137,109,49438,1,2,3:2:0:0:
189,176,49757,6,0,P|231:156|289:172,1,89.999997253418,0|8,3:0|0:0,0:0:0:0:
315,156,50236,2,0,P|310:210|380:258,1,134.999995880127,0|10,3:0|0:0,0:0:0:0:
438,306,51034,2,0,L|423:368,1,44.999998626709,14|10,0:0|0:0,0:0:0:0:
392,375,51353,2,0,P|320:351|242:335,1,134.999995880127,6|0,3:1|3:0,0:0:0:0:
225,360,51991,1,8,0:0:0:0:
225,360,52151,2,0,P|148:340|134:319,1,89.999997253418,0|0,3:0|3:0,0:0:0:0:
216,229,52949,5,10,0:0:0:0:
183,150,53268,1,2,3:2:0:0:
98,136,53587,2,0,B|78:73|78:73|131:19,2,134.999995880127,6|2|2,3:2|3:2|3:2,0:0:0:0:
25,182,54864,2,0,B|33:229|33:229|58:251|58:251|70:322,1,134.999995880127,8|0,0:0|0:0,0:0:0:0:
64,347,55502,2,0,P|123:365|182:314,1,134.999995880127,10|0,0:0|3:0,0:0:0:0:
201,288,56140,1,4,3:1:0:0:
214,117,56778,6,0,B|339:143|245:177|376:208,1,179.999994506836,2|2,0:0|0:0,0:0:0:0:
482,155,57895,1,2,0:0:0:0:
466,27,58374,1,2,0:0:0:0:
372,11,58693,6,0,P|392:95|393:119,1,99.9999999999999,10|4,0:0|0:3,0:0:0:0:
351,131,59172,2,0,P|325:157|334:235,1,99.9999999999999,8|4,0:0|0:3,0:0:0:0:
362,244,59651,2,0,L|431:254,1,50,8|0,0:0|3:0,0:0:0:0:
453,257,59970,5,2,3:2:0:0:
488,334,60289,1,2,0:0:0:0:
413,375,60608,2,0,P|345:360|308:354,1,89.999997253418,2|2,0:0|0:0,0:0:0:0:
230,361,61247,6,0,B|254:312|254:312|226:255,1,104.999996795654,6|8,3:2|0:0,0:0:0:0:
194,237,61725,2,0,P|224:159|233:116,1,104.999996795654,2|0,3:2|3:0,0:0:0:0:
245,96,62204,1,10,0:0:0:0:
245,96,62364,2,0,P|242:39|151:13,1,157.499995193481,0|8,3:0|0:0,0:0:0:0:
66,35,63161,1,0,3:0:0:0:
24,120,63481,1,10,0:0:0:0:
73,200,63800,6,0,P|150:187|178:184,1,104.999996795654,2|8,3:2|0:0,0:0:0:0:
220,202,64278,2,0,P|192:256|205:309,1,104.999996795654,2|0,3:2|3:0,0:0:0:0:
233,337,64757,1,10,0:0:0:0:
233,337,64917,1,0,3:0:0:0:
149,381,65236,1,8,0:0:0:0:
149,381,65395,2,0,L|97:372,1,52.4999983978271,8|8,0:0|0:3,0:0:0:0:
49,377,65715,2,0,P|64:310|72:262,1,104.999996795654,8|8,0:0|0:0,0:0:0:0:
11,201,66353,6,0,P|49:160|48:100,1,104.999996795654,6|10,3:2|0:0,0:0:0:0:
111,39,66991,1,2,3:2:0:0:
200,67,67310,2,0,P|252:81|307:83,1,104.999996795654,10|2,0:2|3:2,0:0:0:0:
387,41,67949,1,10,0:0:0:0:
428,125,68268,2,0,P|408:204|400:246,1,104.999996795654,2|10,3:2|0:0,0:0:0:0:
441,255,68747,2,0,P|472:283|466:351,1,104.999996795654,2|2,0:0|3:0,0:0:0:0:
331,361,69544,6,0,P|255:344|223:340,2,104.999996795654,10|2|0,0:0|3:0|0:0,0:0:0:0:
376,349,70342,1,2,3:1:0:0:
450,291,70661,1,2,0:1:0:0:
407,206,70981,2,0,P|430:127|445:42,1,157.499995193481,8|4,0:0|3:1,0:0:0:0:
355,18,71778,5,10,0:0:0:0:
261,31,72098,2,0,P|249:91|296:122,1,104.999996795654,10|10,0:0|0:0,0:0:0:0:
320,136,72576,1,2,3:2:0:0:
361,220,72895,1,2,3:2:0:0:
312,301,73215,2,0,P|251:319|210:344,1,104.999996795654,2|0,3:2|3:0,0:0:0:0:
182,372,73693,1,10,0:0:0:0:
88,361,74012,6,0,P|110:291|124:244,1,104.999996795654,10|10,0:0|0:0,0:0:0:0:
107,214,74491,1,2,3:2:0:0:
38,148,74810,1,2,3:2:0:0:
86,67,75129,2,0,B|175:79|127:121|247:125,1,157.499995193481,2|14,3:2|0:0,0:0:0:0:
319,152,75927,1,14,0:0:0:0:
405,112,76247,2,0,P|429:65|396:12,1,104.999996795654,10|4,0:0|3:1,0:0:0:0:
315,5,76885,5,10,0:0:0:0:
252,76,77204,2,0,P|266:134|276:194,1,104.999996795654,2|10,3:2|0:0,0:0:0:0:
245,271,77842,1,2,3:2:0:0:
245,271,78002,1,2,3:2:0:0:
338,284,78321,2,0,P|330:331|433:371,1,157.499995193481,2|10,3:2|0:0,0:0:0:0:
496,335,79119,2,0,P|491:255|480:227,2,104.999996795654,10|8|8,0:0|0:0|0:0,0:0:0:0:
412,380,80076,1,10,0:0:0:0:
346,311,80395,6,0,L|358:253,2,52.4999983978271,10|4|8,0:3|0:3|0:0,0:0:0:0:
253,332,81034,2,0,L|262:387,2,52.4999983978271,10|0|8,0:0|3:0|0:3,0:0:0:0:
187,269,81672,1,6,3:2:0:0:
256,192,81832,12,4,84225,0:1:0:0:
420,20,91885,6,0,P|384:83|276:80,1,179.999994506836,4|0,3:1|0:0,0:0:0:0:
249,62,92683,1,2,0:3:0:0:
163,61,93002,2,0,P|180:131|186:202,1,134.999995880127,2|2,0:3|0:3,0:0:0:0:
256,242,93800,2,0,P|290:207|329:203,1,89.999997253418,8|8,0:0|0:0,0:0:0:0:
411,180,94438,6,0,P|430:254|443:285,1,89.999997253418,6|0,3:2|0:0,0:0:0:0:
458,302,94917,1,6,3:2:0:0:
403,367,95236,1,2,3:2:0:0:
317,373,95555,2,0,P|253:350|175:335,1,134.999995880127,2|8,0:0|0:0,0:0:0:0:
105,360,96353,1,10,0:0:0:0:
31,316,96672,1,10,0:0:0:0:
31,230,96991,6,0,P|51:207|117:216,1,89.999997253418,6|8,3:2|0:0,0:0:0:0:
143,229,97470,1,2,0:0:0:0:
223,199,97789,1,2,3:2:0:0:
304,173,98108,2,0,B|313:128|313:128|283:83,1,89.999997253418,10|0,0:0|3:0,0:0:0:0:
245,95,98587,2,0,P|252:42|251:0,1,89.999997253418,8|2,0:0|3:2,0:0:0:0:
167,20,99225,1,10,0:0:0:0:
81,15,99544,6,0,P|26:46|21:85,1,89.999997253418,2|8,3:2|0:0,0:0:0:0:
32,114,100023,1,2,3:2:0:0:
32,114,100183,2,0,P|79:125|131:126,1,89.999997253418,10|0,0:0|3:0,0:0:0:0:
204,144,100821,2,0,P|193:198|189:235,1,89.999997253418,10|8,0:3|0:3,0:0:0:0:
200,274,101300,1,4,0:3:0:0:
200,274,101459,2,0,P|194:318|142:353,2,89.999997253418,2|8|4,3:2|0:0|3:1,0:0:0:0:
28,277,102736,6,0,P|44:211|50:132,1,134.999995880127,10|0,0:0|3:0,0:0:0:0:
44,101,103374,2,0,B|136:94|75:142|170:147,1,134.999995880127,2|0,0:0|3:0,0:0:0:0:
206,149,104012,1,10,0:0:0:0:
264,86,104332,1,2,3:2:0:0:
319,20,104651,6,0,P|366:25|412:41,1,89.999997253418,0|8,3:0|0:0,0:0:0:0:
448,29,105129,2,0,P|413:84|405:166,1,134.999995880127,0|10,3:0|0:0,0:0:0:0:
473,201,105927,2,0,L|457:262,1,44.999998626709,14|10,0:0|0:0,0:0:0:0:
446,284,106247,2,0,P|365:258|313:248,1,134.999995880127,6|0,3:1|3:0,0:0:0:0:
273,256,106885,1,8,0:0:0:0:
273,256,107044,2,0,B|237:284|237:284|243:343,1,89.999997253418,0|0,3:0|3:0,0:0:0:0:
361,373,107842,5,10,0:0:0:0:
414,306,108161,1,2,3:2:0:0:
366,234,108481,2,0,P|379:160|395:96,1,134.999995880127,6|2,3:2|3:2,0:0:0:0:
406,61,109119,1,8,0:0:0:0:
332,16,109438,2,0,P|297:65|257:72,1,89.999997253418,2|8,3:2|0:0,0:0:0:0:
227,69,109917,2,0,P|248:132|251:155,1,89.999997253418,2|0,0:0|0:0,0:0:0:0:
238,195,110395,2,0,P|298:213|313:218,2,67.4999979400635,10|8|0,0:0|0:3|3:0,0:0:0:0:
197,210,111034,1,4,3:1:0:0:
78,153,113587,6,0,P|64:193|37:258,1,99.9999999999999,10|4,0:0|0:3,0:0:0:0:
16,286,114066,2,0,P|30:328|93:356,1,99.9999999999999,8|4,0:0|0:3,0:0:0:0:
121,366,114544,2,0,L|139:307,1,50,8|0,0:0|3:0,0:0:0:0:
162,284,114864,5,2,3:2:0:0:
230,334,115183,1,2,0:0:0:0:
313,317,115502,2,0,P|384:330|405:337,1,89.999997253418,2|2,0:0|0:0,0:0:0:0:
481,287,116140,6,0,B|451:247|451:247|466:181,1,104.999996795654,6|8,3:2|0:0,0:0:0:0:
477,148,116619,2,0,P|410:163|357:170,1,104.999996795654,2|0,3:2|3:0,0:0:0:0:
337,197,117098,1,10,0:0:0:0:
337,197,117257,2,0,B|251:192|301:150|180:130,1,157.499995193481,0|8,3:0|0:0,0:0:0:0:
106,159,118055,1,0,3:0:0:0:
72,70,118374,1,10,0:0:0:0:
143,8,118693,6,0,P|191:30|242:27,1,104.999996795654,2|8,3:2|0:0,0:0:0:0:
277,58,119172,2,0,P|347:44|385:44,1,104.999996795654,2|0,3:2|3:0,0:0:0:0:
426,52,119651,1,10,0:0:0:0:
426,52,119810,1,0,3:0:0:0:
494,117,120129,2,0,L|481:171,1,52.4999983978271,8|8,0:0|0:0,0:0:0:0:
446,199,120449,1,8,0:3:0:0:
446,199,120608,2,0,B|483:236|483:236|457:308,1,104.999996795654,8|8,0:0|0:0,0:0:0:0:
402,356,121247,6,0,P|340:342|280:334,1,104.999996795654,6|10,3:2|0:0,0:0:0:0:
212,372,121885,1,2,3:2:0:0:
141,308,122204,2,0,P|168:227|194:219,1,104.999996795654,10|2,0:2|3:2,0:0:0:0:
272,231,122842,1,10,0:0:0:0:
346,173,123161,2,0,P|332:103|329:67,1,104.999996795654,2|10,3:2|0:0,0:0:0:0:
289,43,123640,2,0,B|248:79|248:79|189:71,1,104.999996795654,2|2,0:0|3:0,0:0:0:0:
91,165,124438,6,0,P|105:221|111:283,2,104.999996795654,10|2|0,0:0|3:0|0:0,0:0:0:0:
59,129,125236,1,2,3:1:0:0:
98,43,125555,1,2,0:1:0:0:
191,52,125874,2,0,P|263:41|363:12,1,157.499995193481,8|4,0:0|3:1,0:0:0:0:
426,66,126672,5,10,0:0:0:0:
361,134,126991,2,0,P|296:149|241:165,1,104.999996795654,10|10,0:0|0:0,0:0:0:0:
214,175,127470,1,2,3:2:0:0:
149,244,127789,1,2,3:2:0:0:
175,334,128108,2,0,P|226:371|280:361,1,104.999996795654,2|0,3:2|3:0,0:0:0:0:
312,363,128587,1,10,0:0:0:0:
406,365,128906,6,0,P|391:286|392:257,1,104.999996795654,10|10,0:0|0:0,0:0:0:0:
402,215,129385,1,2,3:2:0:0:
479,160,129704,1,2,3:2:0:0:
462,67,130023,2,0,B|440:32|395:34|395:34|377:75|324:77,1,157.499995193481,2|14,3:2|0:0,0:0:0:0:
241,52,130821,1,14,0:0:0:0:
219,144,131140,2,0,P|242:203|250:256,1,104.999996795654,10|4,0:0|3:1,0:0:0:0:
197,323,131778,5,10,0:0:0:0:
115,370,132098,2,0,P|102:323|49:297,1,104.999996795654,2|10,3:2|0:0,0:0:0:0:
5,223,132736,1,2,3:2:0:0:
5,223,132895,1,2,3:2:0:0:
77,162,133215,2,0,P|88:102|118:3,1,157.499995193481,2|10,3:2|0:0,0:0:0:0:
198,55,134012,2,0,P|244:95|297:90,2,104.999996795654,10|8|8,0:0|0:0|0:0,0:0:0:0:
115,9,134970,1,10,0:0:0:0:
53,80,135289,6,0,L|-1:69,2,52.4999983978271,10|8|8,0:3|0:0|0:0,0:0:0:0:
73,122,135768,1,8,0:0:0:0:
73,122,135927,2,0,L|56:185,2,52.4999983978271,10|8|8,0:0|0:3|0:3,0:0:0:0:
160,158,136566,1,6,3:2:0:0:
256,192,136725,12,4,139119,0:1:0:0:
103,350,147417,6,0,P|141:299|219:297,1,134.999995880127,10|0,0:0|3:0,0:0:0:0:
243,317,148055,2,0,P|333:294|391:284,1,134.999995880127,2|0,0:0|3:0,0:0:0:0:
413,303,148693,1,10,0:0:0:0:
478,248,149012,1,6,3:2:0:0:
492,163,149332,6,0,P|480:96|480:69,1,89.999997253418,0|8,3:0|0:0,0:0:0:0:
446,48,149810,2,0,P|418:91|333:107,1,134.999995880127,0|10,3:0|0:0,0:0:0:0:
277,50,150608,2,0,L|215:37,1,44.999998626709,14|10,0:0|0:0,0:0:0:0:
191,49,150927,2,0,P|215:136|222:187,1,134.999995880127,6|0,3:1|3:0,0:0:0:0:
228,222,151566,1,8,0:0:0:0:
228,222,151725,2,0,P|273:218|320:254,1,89.999997253418,0|0,3:0|3:0,0:0:0:0:
281,365,152523,5,10,0:0:0:0:
201,333,152842,1,2,3:2:0:0:
123,368,153161,2,0,B|61:343|61:343|-8:374,2,134.999995880127,6|2|2,3:2|3:2|3:2,0:0:0:0:
201,333,154438,2,0,B|207:289|207:289|234:265|234:265|240:203,1,134.999995880127,8|0,0:0|0:0,0:0:0:0:
220,172,155076,2,0,P|144:193|78:204,1,134.999995880127,10|0,0:0|3:0,0:0:0:0:
45,207,155715,1,4,3:1:0:0:
30,36,156353,6,0,B|39:83|87:100|87:100|124:63|178:73,1,179.999994506836,2|2,0:0|0:0,0:0:0:0:
286,122,157470,1,2,0:0:0:0:
390,48,157949,1,2,0:0:0:0:
484,43,158268,6,0,P|465:118|460:152,1,99.9999999999999,8|8,0:0|0:3,0:0:0:0:
429,229,158906,2,0,B|468:227|468:227|498:259,2,74.9999999999999,8|8|8,0:0|0:0|0:0,0:0:0:0:
384,246,159544,1,4,3:1:0:0:
256,64,160821,5,4,0:0:0:0:
118,112,165927,6,0,L|109:37,2,52.4999983978271,6|10|10,3:2|0:0|0:0,0:0:0:0:
178,185,166566,1,10,0:0:0:0:
112,253,166885,2,0,L|47:266,2,52.4999983978271,2|10|10,3:2|0:0|0:2,0:0:0:0:
165,330,167523,1,10,0:0:0:0:
254,359,167842,2,0,P|283:318|348:312,1,104.999996795654,10|0,0:0|0:0,0:0:0:0:
378,324,168321,2,0,P|406:247|435:211,1,104.999996795654,10|2,0:0|3:0,0:0:0:0:
382,91,169119,6,0,P|432:58|435:11,2,104.999996795654,10|2|0,0:0|3:0|0:0,0:0:0:0:
337,75,169917,1,2,3:1:0:0:
252,33,170236,1,2,0:1:0:0:
171,81,170555,2,0,B|209:137|209:137|180:223,1,157.499995193481,8|4,0:0|3:1,0:0:0:0:
141,308,171353,5,10,0:0:0:0:
57,351,171672,2,0,P|40:278|23:245,1,104.999996795654,10|10,0:0|0:0,0:0:0:0:
3,210,172151,1,2,3:2:0:0:
57,133,172470,1,2,3:2:0:0:
143,171,172789,2,0,P|184:194|244:173,1,104.999996795654,2|0,3:2|3:0,0:0:0:0:
278,155,173268,1,10,0:0:0:0:
333,231,173587,6,0,P|412:206|446:204,1,104.999996795654,10|10,0:0|0:0,0:0:0:0:
480,207,174066,1,2,3:2:0:0:
500,114,174385,1,2,3:2:0:0:
470,24,174704,2,0,B|376:8|418:68|319:51,1,157.499995193481,2|14,3:2|3:2,0:0:0:0:
226,43,175502,1,14,3:2:0:0:
198,133,175821,2,0,P|267:146|324:162,1,104.999996795654,14|4,3:2|3:1,0:0:0:0:
394,145,176459,5,10,0:0:0:0:
477,188,176778,2,0,P|501:227|486:292,1,104.999996795654,2|10,3:2|0:0,0:0:0:0:
440,363,177417,1,2,3:2:0:0:
440,363,177576,1,2,3:2:0:0:
354,322,177895,2,0,P|264:340|196:346,1,157.499995193481,2|10,3:2|0:0,0:0:0:0:
107,372,178693,2,0,P|93:307|56:264,2,104.999996795654,10|8|8,0:0|0:0|0:0,0:0:0:0:
198,345,179651,1,10,0:0:0:0:
253,268,179970,6,0,L|313:275,2,52.4999983978271,10|4|8,0:3|0:3|0:0,0:0:0:0:
230,226,180449,1,4,0:3:0:0:
230,226,180608,2,0,L|240:164,2,52.4999983978271,10|8|8,0:0|3:3|0:3,0:0:0:0:
149,266,181247,6,0,P|104:303|50:290,2,99.9999999999999,6|10|10,3:2|0:0|0:0,0:0:0:0:
112,183,182204,1,10,0:0:0:0:
25,158,182523,2,0,P|42:74|45:43,1,99.9999999999999,10|10,0:0|0:0,0:0:0:0:
122,16,183161,2,0,B|158:50|158:50|212:35,1,99.9999999999999,10|14,0:0|0:0,0:0:0:0:
294,13,183800,6,0,P|335:28|351:94,2,99.9999999999999,2|10|10,3:2|0:0|0:0,0:0:0:0:
206,36,184757,1,10,0:0:0:0:
190,124,185076,1,10,0:0:0:0:
190,124,185236,2,0,P|214:185|225:284,1,150,6|10,3:1|0:1,0:0:0:0:
276,342,186034,1,14,0:2:0:0:
362,366,186353,6,0,P|403:331|469:327,1,99.9999999999999,6|10,3:2|0:0,0:0:0:0:
492,325,186832,1,2,3:2:0:0:
507,236,187151,1,2,3:2:0:0:
455,162,187470,2,0,P|382:180|337:190,1,99.9999999999999,2|10,3:2|0:0,0:0:0:0:
314,198,187949,1,10,0:0:0:0:
237,149,188268,1,10,0:3:0:0:
249,59,188587,1,10,0:3:0:0:
331,23,188906,6,0,P|372:52|434:41,2,99.9999999999999,6|4|4,3:1|3:2|3:2,0:0:0:0:
249,59,189864,1,12,0:0:0:0:
159,55,190183,2,0,B|149:140|205:95|189:196,1,150,4|0,3:1|3:0,0:0:0:0:
172,237,190821,2,0,P|247:248|319:287,1,150,8|0,0:0|0:0,0:0:0:0:
352,302,191459,6,0,P|365:248|393:203,2,99.9999999999999,6|0|4,3:2|0:0|3:1,0:0:0:0:
295,372,192417,1,8,0:0:0:0:
211,337,192736,2,0,B|174:367|174:367|104:351,1,99.9999999999999,0|10,3:0|0:0,0:0:0:0:
33,347,193374,2,0,P|53:247|53:229,1,99.9999999999999,10|10,0:0|0:0,0:0:0:0:
76,162,194012,6,0,P|57:116|8:107,2,99.9999999999999,2|10|10,3:2|0:0|0:0,0:0:0:0:
139,226,194970,1,10,0:0:0:0:
219,185,195289,1,10,0:0:0:0:
219,185,195449,2,0,P|292:211|376:222,1,150,2|10,3:2|0:0,0:0:0:0:
444,262,196247,2,0,L|462:196,1,50,8|0,0:0|3:0,0:0:0:0:
470,170,196566,5,6,3:2:0:0:
256,192,196725,12,2,198481,3:2:0:0:
248,26,199119,5,6,3:2:0:0:
280,109,199438,1,2,3:2:0:0:
241,190,199757,1,2,3:2:0:0:
284,268,200076,2,0,B|257:309|257:309|274:359,2,99.9999999999999,14|2|10,0:0|3:2|0:0,0:0:0:0:
241,190,201034,2,0,B|166:210|166:210|146:243|146:243|61:266,1,200,8|6,0:0|3:1,0:0:0:0:
24,141,202151,5,10,0:1:0:0:
24,141,202310,1,2,3:1:0:0:
122,49,202789,1,2,3:1:0:0:
122,49,202949,1,2,3:1:0:0:
260,63,203427,1,2,3:1:0:0:
260,63,203587,1,10,0:1:0:0:
398,82,204066,1,2,3:1:0:0:
398,82,204225,6,0,P|430:121|401:213,1,150,6|0,3:1|0:0,0:0:0:0:
270,224,205183,1,2,0:0:0:0:
181,207,205502,2,0,P|196:296|199:361,1,150,6|0,3:2|0:0,0:0:0:0:
256,192,206778,12,2,212044,0:0:0:0:
