osu file format v14

[General]
AudioFilename: audio.mp3
AudioLeadIn: 0
PreviewTime: 59970
Countdown: 0
SampleSet: Soft
StackLeniency: 0.7
Mode: 0
LetterboxInBreaks: 0
WidescreenStoryboard: 1

[Editor]
Bookmarks: 47842,61247,91885,102098,116140,136566,160821,181247,191459
DistanceSpacing: 0.2
BeatDivisor: 4
GridSize: 4
TimelineZoom: 2.1

[Metadata]
Title:Fade:Alone
TitleUnicode:Fade:Alone
Artist:Imy
ArtistUnicode:Imy
Creator:iBell
Version:Insane
Source:
Tags:jrock bellicose AuroraE アイミー みゅー miyu myu Meteora 藍月なくる aitsuki nakuru featured artist fa mappers' guild mpg japanese rock
BeatmapID:4500650
BeatmapSetID:1304195

[Difficulty]
HPDrainRate:5
CircleSize:4
OverallDifficulty:8
ApproachRate:9
SliderMultiplier:1.6
SliderTickRate:1

[Events]
//Background and Video events
0,0,"a.jpg",0,0
//Break Periods
2,84425,90647
2,139319,146178
2,161021,164210
2,184000,185434
//Storyboard Layer 0 (Background)
//Storyboard Layer 1 (Fail)
//Storyboard Layer 2 (Pass)
//Storyboard Layer 3 (Foreground)
//Storyboard Layer 4 (Overlay)
//Storyboard Sound Samples

[TimingPoints]
1247,319.148936170213,4,2,1,30,1,0
1247,-133.333333333333,4,2,1,30,0,0
6353,-133.333333333333,4,2,1,30,0,0
7310,-133.333333333333,4,2,1,30,0,0
8906,-100,4,2,1,30,0,0
10183,-100,4,2,1,50,0,0
11140,-100,4,2,1,50,0,0
11459,-100,4,2,1,60,0,0
15927,-100,4,2,1,60,0,0
16566,-100,4,2,1,60,0,0
24225,-133.333333333333,4,2,1,50,0,0
25183,-133.333333333333,4,2,1,40,0,0
25502,-133.333333333333,4,2,1,40,0,0
26778,-133.333333333333,4,2,1,30,0,0
33161,-133.333333333333,4,2,1,30,0,0
33481,-133.333333333333,4,2,1,30,0,0
34438,-133.333333333333,4,2,1,40,0,0
35076,-133.333333333333,4,2,1,40,0,0
36991,-111.111111111111,4,2,1,50,0,0
42098,-111.111111111111,4,2,1,50,0,0
44651,-111.111111111111,4,2,1,60,0,0
45927,-100,4,2,1,60,0,0
46247,-100,4,2,1,60,0,0
47204,-133.333333333333,4,2,1,50,0,0
47842,-133.333333333333,4,2,1,50,0,0
48640,-133.333333333333,4,2,1,50,0,0
48959,-133.333333333333,4,2,1,50,0,0
50236,-133.333333333333,4,2,1,50,0,0
50715,-133.333333333333,4,2,1,50,0,0
51353,-133.333333333333,4,2,1,50,0,0
51672,-133.333333333333,4,2,1,50,0,0
52151,-133.333333333333,4,2,1,50,0,0
52629,-133.333333333333,4,2,1,50,0,0
52949,-133.333333333333,4,2,1,50,0,0
53268,-133.333333333333,4,2,1,50,0,0
53587,-133.333333333333,4,2,1,50,0,0
53906,-133.333333333333,4,2,1,50,0,0
56140,-133.333333333333,4,2,1,50,0,0
56778,-200,4,2,1,40,0,0
57417,-200,4,2,1,40,0,0
57895,-200,4,2,1,40,0,0
58374,-200,4,2,1,40,0,0
58693,-100,4,2,1,60,0,0
59970,-100,4,2,1,40,0,0
61247,-90.9090909090909,4,2,1,70,0,0
64917,-90.9090909090909,4,2,1,70,0,0
65236,-90.9090909090909,4,2,1,70,0,0
66034,-90.9090909090909,4,2,1,70,0,0
66353,-90.9090909090909,4,2,1,70,0,0
68268,-90.9090909090909,4,2,1,70,0,0
68587,-90.9090909090909,4,2,1,70,0,0
68906,-90.9090909090909,4,2,1,70,0,0
69066,-90.9090909090909,4,2,1,70,0,0
69225,-90.9090909090909,4,2,1,70,0,0
69544,-90.9090909090909,4,2,1,70,0,0
69864,-90.9090909090909,4,2,1,70,0,0
70023,-90.9090909090909,4,2,1,70,0,0
70183,-90.9090909090909,4,2,1,70,0,0
70342,-90.9090909090909,4,2,1,70,0,0
70661,-90.9090909090909,4,2,1,70,0,0
76247,-90.9090909090909,4,2,1,70,0,0
79119,-90.9090909090909,4,2,1,70,0,0
81353,-90.9090909090909,4,2,1,70,0,0
81672,-100,4,2,1,70,0,0
91247,-100,4,2,1,50,0,0
91885,-111.111111111111,4,2,1,50,0,0
96991,-111.111111111111,4,2,1,50,0,0
99544,-111.111111111111,4,2,1,60,0,0
102098,-133.333333333333,4,2,1,50,0,0
102736,-133.333333333333,4,2,1,50,0,0
104012,-133.333333333333,4,2,1,50,0,0
105129,-133.333333333333,4,2,1,50,0,0
105608,-133.333333333333,4,2,1,50,0,0
106247,-133.333333333333,4,2,1,50,0,0
106566,-133.333333333333,4,2,1,50,0,0
107044,-133.333333333333,4,2,1,50,0,0
107523,-133.333333333333,4,2,1,50,0,0
107842,-133.333333333333,4,2,1,50,0,0
108481,-133.333333333333,4,2,1,50,0,0
109119,-133.333333333333,4,2,1,50,0,0
109757,-100,4,2,1,50,0,0
111672,-200,4,2,1,40,0,0
113587,-100,4,2,1,60,0,0
114864,-100,4,2,1,40,0,0
116140,-90.9090909090909,4,2,1,70,0,0
120927,-90.9090909090909,4,2,1,70,0,0
121247,-90.9090909090909,4,2,1,70,0,0
123161,-90.9090909090909,4,2,1,70,0,0
123481,-90.9090909090909,4,2,1,70,0,0
123800,-90.9090909090909,4,2,1,70,0,0
123959,-90.9090909090909,4,2,1,70,0,0
124119,-90.9090909090909,4,2,1,70,0,0
124438,-90.9090909090909,4,2,1,70,0,0
124757,-90.9090909090909,4,2,1,70,0,0
124917,-90.9090909090909,4,2,1,70,0,0
125077,-90.9090909090909,4,2,1,70,0,0
125236,-90.9090909090909,4,2,1,70,0,0
125555,-90.9090909090909,4,2,1,70,0,0
131140,-90.9090909090909,4,2,1,70,0,0
134012,-90.9090909090909,4,2,1,70,0,0
136566,-100,4,2,1,70,0,0
146778,-133.333333333333,4,2,1,50,0,0
147417,-133.333333333333,4,2,1,50,0,0
148693,-133.333333333333,4,2,1,50,0,0
149810,-133.333333333333,4,2,1,50,0,0
150289,-133.333333333333,4,2,1,50,0,0
150927,-133.333333333333,4,2,1,50,0,0
151247,-133.333333333333,4,2,1,50,0,0
152523,-133.333333333333,4,2,1,50,0,0
153161,-133.333333333333,4,2,1,50,0,0
153481,-133.333333333333,4,2,1,50,0,0
154438,-100,4,2,1,50,0,0
156034,-200,4,2,1,40,0,0
158268,-100,4,2,1,60,0,0
158906,-76.9230769230769,4,2,1,60,0,0
160821,-100,4,2,1,60,0,0
161300,-100,4,2,1,40,0,0
164810,-133.333333333333,4,2,1,40,0,0
165927,-90.9090909090909,4,2,1,70,0,0
167842,-90.9090909090909,4,2,1,70,0,0
168481,-90.9090909090909,4,2,1,70,0,0
168640,-90.9090909090909,4,2,1,70,0,0
169438,-90.9090909090909,4,2,1,70,0,0
169598,-90.9090909090909,4,2,1,70,0,0
169917,-90.9090909090909,4,2,1,70,0,0
170236,-90.9090909090909,4,2,1,70,0,0
174704,-90.9090909090909,4,2,1,70,0,0
176140,-90.9090909090909,4,2,1,70,0,0
178693,-90.9090909090909,4,2,1,70,0,0
181247,-100,4,2,1,65,0,0
185715,-100,4,2,1,65,0,0
186353,-100,4,2,1,65,0,0
190183,-100,4,2,1,65,0,0
190502,-100,4,2,1,65,0,0
192257,-100,4,2,1,65,0,0
192576,-100,4,2,1,65,0,0
204225,-133.333333333333,4,2,1,55,0,0
205183,-133.333333333333,4,2,1,45,0,0
205502,-133.333333333333,4,2,1,45,0,0
212044,-100,4,2,1,25,0,0

[Colours]
Combo1 : 202,115,244
Combo2 : 149,223,251
Combo3 : 81,159,255
Combo4 : 219,172,251

[HitObjects]
248,180,1247,6,0,P|184:185|120:195,1,120.000004577637,2|2,0:0|0:0,0:0:0:0:
55,178,1725,1,2,0:0:0:0:
261,257,2204,5,2,0:0:0:0:
261,257,2364,2,0,P|355:247|402:246,1,120.000004577637,0|2,0:0|0:0,0:0:0:0:
380,246,3161,6,0,P|385:303|388:321,1,60.0000022888184,0|2,0:0|0:0,0:0:0:0:
393,375,3481,1,2,0:0:0:0:
162,329,3800,6,0,P|216:369|320:341,2,180.000006866455,2|2|2,0:0|0:0|0:0,0:0:0:0:
247,274,5076,5,2,0:0:0:0:
247,274,5236,2,0,P|258:189|261:136,1,120.000004577637,2|0,0:0|0:0,0:0:0:0:
338,167,5715,2,0,P|342:94|195:54,1,240.000009155274,2|2,0:0|0:0,0:0:0:0:
205,46,7151,5,0,0:0:0:0:
205,46,7310,2,0,P|269:41|342:36,1,120.000004577637,2|0,0:0|0:0,0:0:0:0:
187,136,7949,5,2,0:0:0:0:
187,136,8108,2,0,P|265:141|330:143,1,120.000004577637,2|0,0:0|0:0,0:0:0:0:
365,204,8587,5,2,0:0:0:0:
392,187,8693,5,2,0:0:0:0:
407,146,8800,5,2,0:0:0:0:
378,107,8906,5,2,0:0:0:0:
256,192,8986,12,0,10103,0:0:0:0:
88,180,10183,5,8,0:0:0:0:
86,172,10262,1,8,3:0:0:0:
84,164,10342,1,8,3:0:0:0:
82,156,10422,1,4,0:3:0:0:
80,148,10502,2,0,L|87:94,1,40,4|4,0:3|0:3,0:0:0:0:
172,70,10661,5,8,0:0:0:0:
174,78,10740,1,8,0:3:0:0:
176,86,10820,1,8,0:3:0:0:
178,94,10900,1,4,0:3:0:0:
180,102,10980,2,0,L|173:156,1,40,4|4,0:3|0:3,0:0:0:0:
168,227,11140,6,0,B|207:242|207:242|239:221,1,80,8|0,0:0|3:0,0:0:0:0:
384,184,11459,6,0,P|423:191|462:197,1,80,6|0,3:2|3:2,0:0:0:0:
293,126,11778,1,10,0:0:0:0:
432,92,11938,1,0,3:2:0:0:
334,277,12098,2,0,P|342:320|358:366,1,80,10|0,0:0|3:0,0:0:0:0:
143,242,12417,6,0,P|88:231|46:217,1,80,10|0,0:2|3:2,0:0:0:0:
112,353,12736,1,10,0:2:0:0:
227,293,12895,1,0,3:2:0:0:
153,145,13055,2,0,P|138:103|143:57,1,80,10|0,0:0|3:0,0:0:0:0:
336,84,13374,6,0,P|261:102|249:103,1,80,10|0,0:2|3:2,0:0:0:0:
313,0,13693,1,14,0:2:0:0:
278,196,13853,1,4,3:1:0:0:
149,131,14012,6,0,P|61:154|60:227,1,160,2|8,3:2|0:0,0:0:0:0:
11,89,14491,1,0,3:0:0:0:
143,224,14651,2,0,P|134:299|127:323,1,80,10|0,0:0|3:0,0:0:0:0:
249,176,14970,2,0,P|253:247|255:270,1,80,10|0,0:0|3:0,0:0:0:0:
339,379,15289,5,10,0:0:0:0:
339,379,15449,2,0,B|331:280|392:335|378:220,1,160,6|0,3:1|3:0,0:0:0:0:
485,211,15927,2,0,P|403:209|352:127,1,160,10|8,0:1|0:0,0:0:0:0:
440,340,16406,2,0,P|487:338|517:363,1,80,0|6,3:0|3:2,0:0:0:0:
260,369,16885,6,0,P|256:319|249:281,1,80,10|0,0:0|3:0,0:0:0:0:
236,119,17204,1,10,0:0:0:0:
344,219,17364,2,0,P|279:209|182:189,1,160,0|0,3:0|3:0,0:0:0:0:
40,275,17842,5,2,3:2:0:0:
88,189,18002,1,8,0:0:0:0:
88,189,18082,1,8,0:0:0:0:
88,189,18161,2,0,P|82:135|72:102,1,80,8|0,0:0|3:0,0:0:0:0:
181,191,18481,2,0,P|169:252|164:283,1,80,10|8,0:0|0:3,0:0:0:0:
326,117,18800,2,0,P|401:108|425:101,1,80,10|4,0:0|0:3,0:0:0:0:
259,24,19119,5,6,3:2:0:0:
405,106,19278,1,10,0:0:0:0:
290,221,19438,2,0,P|288:263|315:298,1,80,2|10,3:2|0:0,0:0:0:0:
392,384,19757,2,0,P|423:333|420:305,1,80,2|8,3:2|0:0,0:0:0:0:
490,174,20076,5,6,3:2:0:0:
422,314,20236,1,8,0:0:0:0:
283,226,20395,2,0,P|226:220|181:210,1,80,10|4,0:0|3:1,0:0:0:0:
37,298,20715,2,0,P|88:283|120:281,1,80,10|0,0:0|3:0,0:0:0:0:
220,320,21034,5,8,0:0:0:0:
201,326,21140,2,0,P|192:351|190:383,1,53.3333333333333,8|8,0:0|0:0,0:0:0:0:
184,221,21353,5,4,0:3:0:0:
203,215,21459,2,0,P|212:190|214:158,1,53.3333333333333,4|4,0:3|0:3,0:0:0:0:
132,61,21672,6,0,P|124:117|147:156,2,80,6|0|0,3:1|3:0|3:0,0:0:0:0:
101,220,22151,5,10,0:1:0:0:
221,166,22310,2,0,P|281:183|319:187,2,80,2|0|8,3:1|3:0|0:1,0:0:0:0:
394,152,22789,5,2,3:1:0:0:
223,66,22949,2,0,P|175:83|128:87,2,80,2|8|0,3:1|0:1|3:0,0:0:0:0:
272,281,23427,5,2,3:1:0:0:
305,24,23587,2,0,P|322:81|319:133,2,80,10|0|8,0:1|3:0|0:1,0:0:0:0:
441,230,24066,5,2,3:1:0:0:
191,168,24225,2,0,B|301:135|262:244|361:224,1,180.000006866455,6|0,3:1|0:0,0:0:0:0:
347,226,25183,2,0,P|357:282|358:302,1,60.0000022888184,2|0,0:0|0:0,0:0:0:0:
306,367,25502,2,0,P|350:325|468:351,2,180.000006866455,6|0|0,0:0|0:0|0:0,0:0:0:0:
208,323,26778,6,0,P|138:309|80:305,1,120.000004577637,2|0,0:0|0:0,0:0:0:0:
19,296,27257,2,0,P|22:259|107:209,2,120.000004577637,2|2|2,0:0|0:0|0:0,0:0:0:0:
158,187,28215,5,2,0:0:0:0:
158,187,28374,2,0,P|201:195|232:197,1,60.0000022888184
88,210,28693,2,0,P|44:155|74:95,1,120.000004577637,2|0,0:0|0:0,0:0:0:0:
222,17,29332,6,0,P|258:76|238:135,1,120.000004577637,2|0,0:0|0:0,0:0:0:0:
177,101,29810,2,0,P|167:160|161:230,2,120.000004577637,2|2|2,0:0|0:0|0:0,0:0:0:0:
311,34,30768,5,2,0:0:0:0:
311,34,30927,2,0,P|322:100|322:117,1,60.0000022888184,2|0,0:0|0:0,0:0:0:0:
256,134,31247,2,0,P|323:172|378:149,1,120.000004577637,0|2,0:0|0:0,0:0:0:0:
511,224,31885,6,0,P|453:231|390:234,1,120.000004577637,2|0,0:0|0:0,0:0:0:0:
367,161,32364,2,0,P|389:81|375:38,2,120.000004577637,2|2|2,0:0|0:0|0:0,0:0:0:0:
291,167,33161,2,0,P|248:161|251:233,1,120.000004577637,2|0,0:0|0:0,0:0:0:0:
304,264,33640,1,0,0:0:0:0:
304,264,33800,2,0,P|333:302|321:325,1,60.0000022888184,2|0,0:0|0:0,0:0:0:0:
402,337,34119,2,0,P|431:311|462:316,1,60.0000022888184,2|0,0:0|0:0,0:0:0:0:
330,315,34438,6,0,P|266:325|151:319,1,180.000006866455,2|0,0:0|0:0,0:0:0:0:
94,375,35076,2,0,P|131:302|137:202,1,180.000006866455,2|0,0:0|0:0,0:0:0:0:
119,131,35715,5,2,0:0:0:0:
119,131,35874,1,0,0:0:0:0:
66,187,36034,1,2,0:0:0:0:
66,187,36193,1,0,0:0:0:0:
137,205,36353,2,0,P|180:222|261:210,1,120.000004577637,2|2,0:0|0:0,0:0:0:0:
468,75,36991,6,0,B|427:27|427:27|352:65,1,143.999995605469,4|8,3:2|0:0,0:0:0:0:
304,11,37470,1,2,0:0:0:0:
406,129,37629,1,2,3:2:0:0:
406,129,37789,2,0,P|394:190|392:220,1,71.9999978027344,2|0,3:2|0:0,0:0:0:0:
227,58,38108,6,0,P|230:122|316:140,1,143.999995605469,10|0,0:0|3:0,0:0:0:0:
261,321,38587,2,0,P|322:283|281:236,1,143.999995605469,10|2,0:0|3:2,0:0:0:0:
93,314,39066,1,0,3:0:0:0:
173,374,39225,2,0,P|179:313|187:284,1,71.9999978027344,10|0,0:0|0:0,0:0:0:0:
204,195,39544,6,0,B|110:173|146:251|57:225,1,143.999995605469,6|8,3:2|0:0,0:0:0:0:
4,204,40023,1,2,0:0:0:0:
149,113,40183,1,2,3:2:0:0:
149,113,40342,2,0,P|139:56|137:33,1,71.9999978027344,2|0,3:2|0:0,0:0:0:0:
282,125,40661,6,0,P|280:171|188:176,1,143.999995605469,10|0,0:0|3:0,0:0:0:0:
17,106,41140,2,0,B|80:80|80:80|153:115,1,143.999995605469,10|2,0:0|3:2,0:0:0:0:
237,48,41619,1,0,3:0:0:0:
184,257,41778,2,0,P|194:200|202:170,1,71.9999978027344,10|0,0:0|0:0,0:0:0:0:
356,230,42098,6,0,P|366:305|378:399,1,143.999995605469,2|8,3:2|0:0,0:0:0:0:
203,361,42576,2,0,B|330:367|265:271|423:295,1,215.999993408203,2|8,0:0|0:0,0:0:0:0:
125,370,43294,5,8,0:0:0:0:
125,370,43374,2,0,P|119:314|112:288,1,71.9999978027344,2|2,3:2|0:0,0:0:0:0:
191,241,43693,2,0,P|237:253|271:258,1,71.9999978027344,10|2,0:0|0:0,0:0:0:0:
243,358,44012,5,2,3:2:0:0:
370,289,44172,1,8,0:0:0:0:
254,165,44332,2,0,P|245:119|241:82,1,71.9999978027344,10|4,0:3|0:3,0:0:0:0:
187,248,44651,6,0,P|137:193|60:210,1,143.999995605469,6|0,3:1|3:0,0:0:0:0:
0,248,45129,1,2,3:2:0:0:
15,126,45289,2,0,P|80:111|99:109,1,71.9999978027344,10|0,0:0|3:0,0:0:0:0:
92,112,45528,1,0,3:0:0:0:
98,114,45608,2,0,P|108:65|113:33,1,71.9999978027344,0|0,3:0|3:0,0:0:0:0:
303,0,45927,5,10,0:0:0:0:
184,111,46087,1,0,3:0:0:0:
319,194,46247,2,0,P|278:203|228:206,1,80,8|0,0:2|0:0,0:0:0:0:
401,276,46566,5,2,3:2:0:0:
495,188,46725,1,8,0:0:0:0:
495,188,46805,1,8,0:0:0:0:
495,188,46885,1,8,0:0:0:0:
380,112,47044,1,8,0:0:0:0:
240,206,47204,6,0,B|236:277|271:243|264:332,1,120.000004577637,4|0,3:1|3:0,0:0:0:0:
228,383,47683,1,0,3:0:0:0:
14,339,47842,2,0,P|137:320|203:305,1,180.000006866455,10|0,0:0|3:0,0:0:0:0:
264,320,48481,2,0,P|288:220|280:137,1,180.000006866455,2|0,0:0|3:0,0:0:0:0:
352,115,49119,2,0,P|365:69|374:39,1,60.0000022888184,10|0,0:0|3:0,0:0:0:0:
308,14,49438,2,0,P|251:39|183:25,1,120.000004577637,2|0,3:2|3:0,0:0:0:0:
125,13,49917,5,0,3:0:0:0:
197,124,50076,1,8,0:0:0:0:
83,179,50236,2,0,P|72:116|137:91,1,120.000004577637,0|0,3:0|3:0,0:0:0:0:
285,21,50715,2,0,P|294:80|293:103,1,60.0000022888184,10|0,0:0|3:0,0:0:0:0:
379,185,51034,5,14,0:0:0:0:
205,114,51193,1,10,0:0:0:0:
260,267,51353,2,0,B|250:194|291:229|292:143,1,120.000004577637,6|0,3:1|3:0,0:0:0:0:
293,80,51832,1,0,3:0:0:0:
173,207,51991,1,8,0:0:0:0:
352,271,52151,2,0,P|405:284|458:247,2,120.000004577637,0|0|0,3:0|3:0|3:0,0:0:0:0:
509,186,52949,6,0,P|483:125|436:141,1,120.000004577637,10|2,0:0|3:2,0:0:0:0:
464,13,53427,1,4,3:1:0:0:
351,63,53587,2,0,P|353:112|365:192,1,120.000004577637,6|0,3:2|3:0,0:0:0:0:
286,7,54066,2,0,P|228:31|255:92,1,120.000004577637,2|0,3:2|0:0,0:0:0:0:
267,158,54544,2,0,P|212:170|184:179,1,60.0000022888184,2|0,3:2|3:0,0:0:0:0:
108,86,54864,5,8,0:0:0:0:
124,99,54970,2,0,L|110:150,1,40.000001525879,8|8,0:0|0:3,0:0:0:0:
146,270,55183,5,8,0:3:0:0:
130,257,55289,2,0,L|144:206,1,40.000001525879,4|4,0:3|0:3,0:0:0:0:
52,202,55502,5,10,0:0:0:0:
208,171,55661,1,8,0:3:0:0:
208,171,55741,1,8,0:3:0:0:
208,171,55821,2,0,P|253:179|275:185,1,60.0000022888184,4|0,0:3|3:0,0:0:0:0:
342,252,56140,1,4,3:1:0:0:
424,34,56778,6,0,B|377:65|377:65|314:50,1,120,2|0,0:0|0:0,0:0:0:0:
259,9,57417,2,0,B|184:-1|214:49|141:45,2,120,2|2|2,0:0|0:0|0:0,0:0:0:0:
442,112,58693,5,10,0:0:0:0:
441,119,58773,1,8,0:3:0:0:
440,126,58853,1,8,0:3:0:0:
439,133,58933,1,4,0:3:0:0:
438,140,59012,2,0,L|389:151,1,40,4|4,0:3|0:3,0:0:0:0:
469,250,59172,5,8,0:0:0:0:
470,243,59252,1,8,0:3:0:0:
471,236,59332,1,8,0:3:0:0:
472,229,59412,1,4,0:3:0:0:
473,222,59491,2,0,L|522:211,1,40,4|4,0:3|0:3,0:0:0:0:
341,279,59651,5,8,0:0:0:0:
348,277,59731,1,8,0:0:0:0:
355,275,59810,1,0,3:0:0:0:
362,273,59890,1,0,3:0:0:0:
369,271,59970,2,0,P|384:217|300:167,1,160,2|2,3:2|0:0,0:0:0:0:
167,375,60608,2,0,P|152:321|236:271,1,160,2|2,0:0|0:0,0:0:0:0:
205,32,61247,6,0,B|107:78|107:78|41:26,1,176.000005371094,6|8,3:2|0:0,0:0:0:0:
264,111,61725,2,0,P|338:122|445:140,1,176.000005371094,2|0,3:2|3:0,0:0:0:0:
376,25,62204,1,10,0:0:0:0:
282,214,62364,2,0,B|273:326|337:269|320:384,1,176.000005371094,0|0,3:0|3:0,0:0:0:0:
184,265,62842,2,0,P|125:276|80:282,1,88.000002685547,8|0,0:0|3:0,0:0:0:0:
138,366,63161,5,0,3:0:0:0:
14,257,63321,1,0,3:0:0:0:
155,182,63481,2,0,P|164:112|174:80,1,88.000002685547,10|0,0:0|3:0,0:0:0:0:
278,237,63800,6,0,P|357:266|429:204,1,176.000005371094,2|8,3:2|0:0,0:0:0:0:
306,25,64278,2,0,P|399:43|488:52,1,176.000005371094,2|0,3:2|3:0,0:0:0:0:
346,161,64757,1,10,0:0:0:0:
202,34,64917,2,0,B|237:110|237:110|185:204,1,176.000005371094,0|8,3:0|0:0,0:0:0:0:
309,33,65395,5,8,0:0:0:0:
136,105,65555,1,8,0:3:0:0:
136,105,65635,1,8,0:3:0:0:
136,105,65715,1,8,0:0:0:0:
325,169,65874,1,4,0:3:0:0:
325,169,65954,1,4,0:3:0:0:
325,169,66034,2,0,B|299:213|299:213|317:249,1,88.000002685547,8|0,0:0|3:0,0:0:0:0:
355,371,66353,5,6,3:2:0:0:
420,282,66512,1,2,0:0:0:0:
254,328,66672,2,0,P|137:313|75:302,1,176.000005371094,10|2,0:0|3:2,0:0:0:0:
79,302,67310,5,10,0:2:0:0:
29,222,67470,1,2,0:2:0:0:
172,275,67629,2,0,P|167:200|160:91,1,176.000005371094,2|10,3:2|0:0,0:0:0:0:
160,99,68268,6,0,P|80:123|35:75,1,132.00000402832,2|0,3:2|0:0,0:0:0:0:
38,86,68587,2,0,P|50:31|61:0,1,88.000002685547,10|2,0:0|0:0,0:0:0:0:
167,7,68906,5,2,3:0:0:0:
167,7,69066,2,0,B|272:6|210:70|331:75,1,176.000005371094,2|0,3:0|3:0,0:0:0:0:
349,77,69465,1,0,3:0:0:0:
339,96,69544,2,0,P|278:99|234:113,1,88.000002685547,10|0,0:0|0:0,0:0:0:0:
310,220,69864,2,0,P|243:210|197:195,1,88.000002685547,2|2,3:0|3:0,0:0:0:0:
172,137,70183,5,0,0:0:0:0:
386,176,70342,2,0,P|412:216|374:264,1,88.000002685547,2|8,3:1|0:0,0:0:0:0:
268,383,70661,2,0,B|250:272|325:340|307:193,1,176.000005371094,2|8,0:1|0:0,0:0:0:0:
303,226,71060,1,8,0:0:0:0:
297,232,71140,1,8,0:0:0:0:
293,239,71220,1,8,0:0:0:0:
290,247,71300,1,8,0:0:0:0:
288,255,71379,1,8,0:0:0:0:
287,263,71459,1,4,3:1:0:0:
73,196,71778,6,0,P|124:226|178:201,1,88.000002685547,10|0,0:0|3:0,0:0:0:0:
250,58,72098,2,0,B|209:43|209:43|165:78,1,88.000002685547,10|0,0:0|3:0,0:0:0:0:
227,169,72417,1,10,0:0:0:0:
78,99,72576,2,0,P|84:45|93:10,1,88.000002685547,2|8,3:2|0:0,0:0:0:0:
235,176,72895,2,0,P|247:247|248:279,1,88.000002685547,2|8,3:2|0:0,0:0:0:0:
348,105,73215,2,0,P|407:106|437:135,1,88.000002685547,2|8,3:2|0:0,0:0:0:0:
254,85,73534,1,0,3:0:0:0:
254,85,73614,1,0,3:0:0:0:
254,85,73693,2,0,B|236:40|236:40|269:-2,1,88.000002685547,10|0,0:0|3:0,0:0:0:0:
469,39,74012,6,0,P|458:113|445:234,1,176.000005371094,10|10,0:0|0:0,0:0:0:0:
374,343,74491,2,0,P|367:292|361:242,1,88.000002685547,2|8,3:2|0:0,0:0:0:0:
480,372,74810,2,0,P|506:302|519:279,1,88.000002685547,2|8,3:2|0:0,0:0:0:0:
368,158,75129,2,0,B|254:144|312:234|189:212,1,176.000005371094,2|0,3:2|3:0,0:0:0:0:
359,250,75608,5,14,0:0:0:0:
299,67,75768,1,0,3:0:0:0:
125,110,75927,2,0,P|168:121|216:126,1,88.000002685547,14|0,0:0|3:0,0:0:0:0:
242,301,76247,2,0,P|185:310|133:326,1,88.000002685547,10|0,0:0|0:0,0:0:0:0:
16,220,76566,6,0,B|53:242|53:242|103:226,1,88.000002685547,4|0,3:1|0:0,0:0:0:0:
197,384,76885,2,0,P|207:263|216:208,1,176.000005371094,10|2,0:0|3:2,0:0:0:0:
285,105,77364,1,0,3:0:0:0:
143,142,77523,2,0,P|127:109|156:57,1,88.000002685547,10|0,0:0|0:0,0:0:0:0:
246,17,77842,5,2,3:2:0:0:
215,209,78002,2,0,P|228:261|231:321,1,88.000002685547,2|8,3:2|0:0,0:0:0:0:
295,99,78321,2,0,B|405:75|348:169|471:156,1,176.000005371094,2|0,3:2|3:0,0:0:0:0:
466,170,78720,1,0,3:0:0:0:
482,185,78800,2,0,P|491:121|497:91,1,88.000002685547,10|0,0:0|3:0,0:0:0:0:
508,271,79119,6,0,P|469:296|415:279,1,88.000002685547,10|0,0:0|3:0,0:0:0:0:
365,121,79438,2,0,P|329:96|286:102,1,88.000002685547,8|0,0:0|3:0,0:0:0:0:
362,368,79757,2,0,P|304:358|253:348,1,88.000002685547,8|0,0:0|3:0,0:0:0:0:
214,166,80076,2,0,P|138:182|102:190,1,88.000002685547,10|0,0:0|3:0,0:0:0:0:
36,288,80395,5,10,0:3:0:0:
160,378,80555,1,4,0:3:0:0:
160,378,80635,1,4,0:3:0:0:
160,378,80715,2,0,B|177:332|177:332|155:282,1,88.000002685547,8|4,0:0|0:3,0:0:0:0:
332,195,81034,2,0,B|316:230|316:230|333:276,1,88.000002685547,10|0,0:0|3:0,0:0:0:0:
214,166,81353,2,0,B|126:196|126:196|43:146,1,176.000005371094,8|6,0:3|3:2,0:0:0:0:
256,192,81752,12,4,84225,0:1:0:0:
321,38,91247,5,10,0:0:0:0:
321,60,91353,2,0,P|294:68|260:70,1,53.3333333333333,10|10,0:0|0:3,0:0:0:0:
394,133,91566,5,10,0:3:0:0:
394,111,91672,2,0,P|421:103|455:101,1,53.3333333333333,6|6,0:3|0:3,0:0:0:0:
501,186,91885,6,0,P|435:240|368:206,1,143.999995605469,4|2,3:1|0:3,0:0:0:0:
322,256,92364,2,0,P|326:296|333:330,1,71.9999978027344
266,372,92683,2,0,B|223:316|223:316|251:236,1,143.999995605469,2|2,0:3|0:3,0:0:0:0:
46,198,93321,5,2,0:3:0:0:
46,198,93481,2,0,P|76:192|125:187,1,71.9999978027344,2|2,0:3|0:3,0:0:0:0:
73,71,93800,1,8,0:0:0:0:
74,77,93879,1,8,0:0:0:0:
74,84,93959,2,0,L|130:93,1,35.9999989013672,0|0,3:0|3:0,0:0:0:0:
181,140,94119,2,0,P|193:45|201:15,1,107.999996704102,8|0,0:0|0:0,0:0:0:0:
214,16,94438,6,0,P|254:19|272:86,2,107.999996704102,4|4|4,3:2|3:1|3:2,0:0:0:0:
348,110,95076,2,0,P|397:97|432:94,1,71.9999978027344,8|0,0:0|3:0,0:0:0:0:
298,174,95395,2,0,B|272:218|272:218|321:267,2,107.999996704102,0|0|0,3:0|3:0|3:0,0:0:0:0:
239,307,96034,6,0,P|202:299|159:293,1,71.9999978027344,8|0,0:0|3:0,0:0:0:0:
78,183,96353,2,0,P|13:199|-14:208,1,71.9999978027344,8|0,0:0|3:0,0:0:0:0:
62,305,96672,5,8,0:0:0:0:
189,195,96832,1,8,0:0:0:0:
59,88,96991,6,0,B|117:44|117:44|205:81,1,143.999995605469,6|8,3:2|0:0,0:0:0:0:
308,22,97470,2,0,P|277:6|240:16,1,71.9999978027344,2|0,0:0|3:0,0:0:0:0:
173,153,97789,2,0,P|178:188|180:224,1,71.9999978027344,2|0,3:2|0:0,0:0:0:0:
270,114,98108,2,0,B|365:100|324:168|410:157,1,143.999995605469,10|0,0:0|3:0,0:0:0:0:
477,120,98587,1,8,0:0:0:0:
477,120,98906,2,0,P|487:61|493:37,1,71.9999978027344,2|0,3:2|3:0,0:0:0:0:
512,232,99225,2,0,B|482:249|482:249|425:228,1,71.9999978027344,10|0,0:0|0:0,0:0:0:0:
359,376,99544,6,0,P|355:314|347:281,1,71.9999978027344,2|0,3:2|3:0,0:0:0:0:
350,297,99784,1,0,3:0:0:0:
348,289,99864,2,0,P|304:278|254:271,1,71.9999978027344,8|2,0:0|3:2,0:0:0:0:
351,195,100183,5,10,0:0:0:0:
196,240,100342,1,8,0:0:0:0:
250,88,100502,2,0,P|256:145|266:182,1,71.9999978027344,0|8,3:0|0:0,0:0:0:0:
44,18,100821,6,0,P|27:73|23:100,1,71.9999978027344,10|0,0:3|3:0,0:0:0:0:
28,93,101060,1,0,3:0:0:0:
34,96,101140,2,0,P|95:83|119:84,1,71.9999978027344,8|4,0:3|0:3,0:0:0:0:
205,9,101459,1,2,3:2:0:0:
113,172,101619,1,0,3:0:0:0:
280,236,101778,1,8,0:0:0:0:
280,236,102098,6,0,P|222:225|223:149,1,120.000004577637,4|0,3:1|3:0,0:0:0:0:
236,107,102576,1,0,3:0:0:0:
426,187,102736,2,0,B|383:167|366:118|366:118|326:158|273:158,1,180.000006866455,10|0,0:0|3:0,0:0:0:0:
280,236,103374,2,0,P|190:235|97:210,1,180.000006866455,2|0,0:0|3:0,0:0:0:0:
59,146,104012,2,0,P|26:171|33:200,1,60.0000022888184,10|0,0:0|3:0,0:0:0:0:
33,264,104332,2,0,P|73:313|139:301,1,120.000004577637,2|0,3:2|3:0,0:0:0:0:
195,290,104810,5,0,3:0:0:0:
147,115,104970,1,8,0:0:0:0:
233,188,105129,2,0,P|177:196|112:213,1,120.000004577637,0|0,3:0|3:0,0:0:0:0:
299,247,105608,2,0,P|348:259|378:264,1,60.0000022888184,10|0,0:0|3:0,0:0:0:0:
281,343,105927,5,14,0:0:0:0:
411,188,106087,1,10,0:0:0:0:
412,384,106247,2,0,B|452:331|452:331|436:262,1,120.000004577637,6|0,3:1|3:0,0:0:0:0:
327,162,106725,1,0,3:0:0:0:
327,162,106805,1,0,3:0:0:0:
327,162,106885,1,8,0:0:0:0:
412,194,107044,2,0,P|425:129|441:60,2,120.000004577637,0|0|0,3:0|3:0|3:0,0:0:0:0:
369,14,107842,6,0,P|322:49|259:22,1,120.000004577637,10|2,0:0|3:2,0:0:0:0:
229,178,108321,1,4,3:1:0:0:
86,116,108481,2,0,P|134:103|208:97,1,120.000004577637,6|0,3:2|3:0,0:0:0:0:
122,278,108959,2,0,P|101:217|155:190,1,120.000004577637,2|0,3:2|0:0,0:0:0:0:
236,181,109438,2,0,P|221:229|217:265,1,60.0000022888184,2|0,3:2|3:0,0:0:0:0:
256,345,109757,5,8,0:0:0:0:
259,319,109864,2,0,P|228:324|200:334,1,53.3333333333333,8|8,0:0|0:3,0:0:0:0:
310,223,110076,5,8,0:3:0:0:
307,249,110183,2,0,P|338:244|366:234,1,53.3333333333333,4|4,0:3|0:3,0:0:0:0:
452,229,110395,6,0,B|464:164|407:205|442:90,2,120,10|8|0,0:0|0:3|3:0,0:0:0:0:
415,358,111034,1,4,3:1:0:0:
149,321,111672,6,0,P|188:353|262:346,1,120,2|0,0:0|0:0,0:0:0:0:
329,369,112310,2,0,P|338:303|350:234,2,120,2|2|2,0:0|0:0|0:0,0:0:0:0:
80,332,113587,5,10,0:0:0:0:
81,325,113667,1,8,0:3:0:0:
82,318,113747,1,8,0:3:0:0:
83,311,113827,1,4,0:3:0:0:
84,304,113906,2,0,L|133:293,1,40,4|4,0:3|0:3,0:0:0:0:
53,194,114066,5,8,0:0:0:0:
52,201,114146,1,8,0:3:0:0:
51,208,114226,1,8,0:3:0:0:
50,215,114306,1,4,0:3:0:0:
49,222,114385,2,0,L|0:233,1,40,4|4,0:3|0:3,0:0:0:0:
181,165,114545,5,8,0:0:0:0:
174,167,114625,1,8,0:0:0:0:
167,169,114704,1,0,3:0:0:0:
160,171,114784,1,0,3:0:0:0:
153,173,114864,2,0,P|138:227|222:277,1,160,2|2,3:2|0:0,0:0:0:0:
359,39,115502,2,0,P|374:93|290:143,1,160,2|2,0:0|0:0,0:0:0:0:
477,314,116140,6,0,B|476:263|426:208|426:208|466:214|484:168,1,176.000005371094,6|8,3:2|0:0,0:0:0:0:
329,264,116619,2,0,P|250:249|152:238,1,176.000005371094,2|0,3:2|3:0,0:0:0:0:
232,355,117098,1,10,0:0:0:0:
58,301,117257,2,0,B|21:226|21:226|81:146,1,176.000005371094,0|0,3:0|3:0,0:0:0:0:
173,62,117736,2,0,P|183:129|184:162,1,88.000002685547,8|0,0:0|3:0,0:0:0:0:
80,61,118055,5,0,3:0:0:0:
274,120,118215,1,0,3:0:0:0:
143,233,118374,2,0,B|187:252|187:252|235:230,1,88.000002685547,10|0,0:0|3:0,0:0:0:0:
318,15,118693,6,0,B|346:132|270:81|318:210,1,176.000005371094,2|8,3:2|0:0,0:0:0:0:
494,244,119172,2,0,P|486:168|378:166,1,176.000005371094,2|0,3:2|3:0,0:0:0:0:
332,335,119651,1,10,0:0:0:0:
216,221,119810,2,0,P|301:232|389:248,1,176.000005371094,0|8,3:0|0:0,0:0:0:0:
251,126,120289,5,8,0:0:0:0:
162,307,120449,1,8,0:3:0:0:
162,307,120528,1,8,0:3:0:0:
162,307,120608,1,8,0:0:0:0:
6,216,120768,1,4,0:3:0:0:
6,216,120848,1,4,0:3:0:0:
6,216,120927,2,0,B|23:174|23:174|1:126,1,88.000002685547,8|0,0:0|3:0,0:0:0:0:
125,9,121247,6,0,P|110:50|105:94,1,88.000002685547,6|2,3:2|0:0,0:0:0:0:
289,38,121566,2,0,P|241:66|213:53,1,88.000002685547,10|2,0:0|0:0,0:0:0:0:
106,194,121885,1,2,3:2:0:0:
106,194,122204,2,0,P|154:222|182:209,1,88.000002685547,10|2,0:2|0:2,0:0:0:0:
350,171,122523,2,0,P|288:162|234:149,1,88.000002685547,2|2,3:2|0:0,0:0:0:0:
207,348,122842,1,10,0:0:0:0:
207,348,123161,6,0,B|291:314|291:314|344:349,1,132.00000402832,2|0,3:2|0:0,0:0:0:0:
340,351,123481,2,0,B|368:370|368:370|443:339,1,88.000002685547,10|2,0:0|0:0,0:0:0:0:
376,270,123800,5,2,3:0:0:0:
376,270,123959,2,0,B|382:164|325:222|330:65,1,176.000005371094,2|0,3:0|3:0,0:0:0:0:
342,84,124358,1,0,3:0:0:0:
367,86,124438,2,0,P|428:101|461:107,1,88.000002685547,10|0,0:0|0:0,0:0:0:0:
284,240,124757,2,0,P|235:249|184:263,1,88.000002685547,2|2,3:0|3:0,0:0:0:0:
405,191,125076,5,0,0:0:0:0:
240,93,125236,2,0,P|234:51|265:12,1,88.000002685547,2|8,3:1|0:0,0:0:0:0:
20,139,125555,2,0,B|87:148|129:189|129:189|163:161|186:165,1,176.000005371094,2|8,0:1|0:0,0:0:0:0:
184,166,125954,1,8,0:0:0:0:
192,168,126034,1,8,0:0:0:0:
200,170,126114,1,8,0:0:0:0:
208,172,126193,1,8,0:0:0:0:
216,174,126273,1,8,0:0:0:0:
224,176,126353,1,4,3:1:0:0:
375,372,126672,6,0,P|399:338|389:288,1,88.000002685547,10|0,0:0|3:0,0:0:0:0:
296,98,126991,2,0,B|342:90|342:90|397:128,1,88.000002685547,10|0,0:0|3:0,0:0:0:0:
453,19,127310,1,10,0:0:0:0:
512,183,127470,2,0,P|459:189|403:200,1,88.000002685547,2|8,3:2|0:0,0:0:0:0:
297,320,127789,2,0,P|227:311|199:302,1,88.000002685547,2|8,3:2|0:0,0:0:0:0:
80,148,128108,2,0,B|53:183|53:183|69:240,1,88.000002685547,2|8,3:2|0:0,0:0:0:0:
186,86,128427,1,0,3:0:0:0:
186,86,128507,1,0,3:0:0:0:
186,86,128587,2,0,P|194:133|200:190,1,88.000002685547,10|0,0:0|3:0,0:0:0:0:
338,0,128906,6,0,P|354:83|255:93,1,176.000005371094,10|10,0:0|0:0,0:0:0:0:
338,277,129385,2,0,P|317:221|278:219,1,88.000002685547,2|8,3:2|0:0,0:0:0:0:
186,80,129704,2,0,P|136:95|122:129,1,88.000002685547,2|8,3:2|0:0,0:0:0:0:
150,340,130023,2,0,B|138:245|229:295|197:170,1,176.000005371094,2|0,3:2|3:0,0:0:0:0:
102,26,130502,5,14,0:0:0:0:
275,124,130661,1,0,3:0:0:0:
107,211,130821,2,0,P|50:223|2:238,1,88.000002685547,14|0,0:0|3:0,0:0:0:0:
247,326,131140,2,0,P|302:340|345:347,1,88.000002685547,10|0,0:0|0:0,0:0:0:0:
136,377,131459,6,0,B|124:332|124:332|157:288,1,88.000002685547,4|0,3:1|0:0,0:0:0:0:
276,116,131778,2,0,P|201:191|246:237,1,176.000005371094,10|2,0:0|3:2,0:0:0:0:
84,141,132257,1,0,3:0:0:0:
173,37,132417,2,0,P|117:45|76:56,1,88.000002685547,10|0,0:0|0:0,0:0:0:0:
260,4,132736,5,2,3:2:0:0:
363,144,132895,2,0,B|376:102|376:102|349:57,1,88.000002685547,2|8,3:2|0:0,0:0:0:0:
195,129,133215,2,0,B|203:189|171:235|171:235|216:249|226:285,1,176.000005371094,2|0,3:2|3:0,0:0:0:0:
235,293,133614,1,0,3:0:0:0:
234,317,133693,2,0,P|224:355|179:377,1,88.000002685547,10|0,0:0|3:0,0:0:0:0:
3,281,134012,6,0,B|39:308|39:308|87:294,1,88.000002685547,10|0,0:0|3:0,0:0:0:0:
52,99,134332,2,0,B|88:72|88:72|129:84,1,88.000002685547,8|0,0:0|3:0,0:0:0:0:
331,258,134651,2,0,P|324:214|315:171,1,88.000002685547,8|0,0:0|3:0,0:0:0:0:
159,244,134970,2,0,P|179:178|193:141,1,88.000002685547,10|0,0:0|3:0,0:0:0:0:
257,90,135289,5,10,0:3:0:0:
235,301,135449,1,8,0:0:0:0:
234,309,135528,1,8,0:0:0:0:
233,317,135608,1,8,0:0:0:0:
232,325,135688,1,8,0:0:0:0:
231,333,135768,1,8,0:0:0:0:
231,341,135848,1,8,0:0:0:0:
231,349,135927,2,0,L|283:341,3,44.0000013427735,10|8|8|8,0:0|0:3|0:3|0:3,0:0:0:0:
347,376,136247,2,0,L|353:332,3,44.0000013427735,8|4|4|4,0:3|0:3|0:3|0:3,0:0:0:0:
317,263,136566,5,6,3:2:0:0:
256,192,136645,12,4,139119,0:1:0:0:
487,237,146778,6,0,P|395:240|371:214,1,120.000004577637,4|0,3:1|3:0,0:0:0:0:
380,153,147257,1,0,3:0:0:0:
330,368,147417,2,0,B|335:264|287:300|311:185,1,180.000006866455,10|0,0:0|3:0,0:0:0:0:
380,153,148055,2,0,P|410:72|328:14,1,180.000006866455,2|0,0:0|3:0,0:0:0:0:
276,16,148693,2,0,P|265:49|261:77,1,60.0000022888184,10|0,0:0|3:0,0:0:0:0:
250,147,149012,1,6,3:2:0:0:
115,28,149332,5,0,3:0:0:0:
116,34,149411,1,0,3:0:0:0:
117,40,149491,1,0,3:0:0:0:
118,46,149571,1,0,3:0:0:0:
119,52,149651,1,8,0:0:0:0:
76,116,149810,2,0,P|138:85|212:98,1,120.000004577637,0|0,3:0|3:0,0:0:0:0:
254,213,150289,2,0,P|249:166|244:140,1,60.0000022888184,10|0,0:0|3:0,0:0:0:0:
287,313,150608,5,14,0:0:0:0:
358,156,150768,1,10,0:0:0:0:
173,245,150927,2,0,B|97:249|148:197|47:204,1,120.000004577637,6|0,3:1|3:0,0:0:0:0:
0,308,151406,1,0,3:0:0:0:
0,308,151486,1,0,3:0:0:0:
0,308,151566,1,8,0:0:0:0:
99,367,151725,2,0,P|154:370|223:386,2,120.000004577637,0|0|0,3:0|3:0|3:0,0:0:0:0:
68,207,152523,6,0,P|63:164|51:124,1,60.0000022888184,10|0,0:0|0:0,0:0:0:0:
0,308,152842,1,2,3:2:0:0:
160,168,153002,1,4,3:1:0:0:
264,284,153161,2,0,P|203:276|142:260,1,120.000004577637,6|0,3:2|3:0,0:0:0:0:
213,379,153640,1,2,3:2:0:0:
156,160,153800,2,0,P|167:111|180:76,1,60.0000022888184,8|0,0:0|0:0,0:0:0:0:
340,215,154119,2,0,P|352:253|357:288,1,60.0000022888184,2|0,3:2|3:0,0:0:0:0:
252,166,154438,5,8,0:0:0:0:
262,142,154544,2,0,P|290:138|327:129,1,53.3333333333333,8|8,0:0|0:3,0:0:0:0:
401,20,154757,5,8,0:3:0:0:
391,44,154863,2,0,P|363:48|326:57,1,53.3333333333333,4|4,0:3|0:3,0:0:0:0:
509,69,155076,5,10,0:0:0:0:
429,201,155236,1,8,0:3:0:0:
429,201,155316,1,8,0:3:0:0:
429,201,155395,2,0,B|439:159|439:159|410:114,1,80,4|0,0:3|3:0,0:0:0:0:
252,58,155715,1,4,3:1:0:0:
4,212,156353,6,0,P|59:229|113:204,1,120,2|0,0:0|0:0,0:0:0:0:
130,132,156991,2,0,B|131:57|98:101|104:10,2,120,2|2|2,0:0|0:0|0:0,0:0:0:0:
177,378,158268,5,8,0:0:0:0:
156,358,158374,2,0,P|168:309|174:292,1,53.3333333333333,8|8,0:0|0:3,0:0:0:0:
331,358,158587,5,8,0:3:0:0:
352,338,158693,2,0,P|340:289|334:272,1,53.3333333333333,4|4,0:3|0:3,0:0:0:0:
198,200,158906,6,0,B|240:231|240:231|321:207,1,103.999995239258,8|0,0:0|0:0,0:0:0:0:
323,185,159145,2,0,B|328:133|328:133|267:74,1,103.999995239258,8|0,0:0|0:0,0:0:0:0:
242,90,159385,2,0,B|194:110|194:110|174:193,1,103.999995239258,8|4,0:0|3:1,0:0:0:0:
256,192,159624,12,4,160821,0:0:0:0:
483,56,164810,6,2,B|434:62|406:174|406:174|411:52|356:24,1,300.000011444092,0|0,0:0|0:0,0:1:0:0:
366,31,165927,5,6,3:2:0:0:
311,114,166087,1,10,0:0:0:0:
311,114,166167,1,8,0:0:0:0:
311,114,166247,2,0,P|261:109|211:95,1,88.000002685547,10|0,0:0|3:2,0:0:0:0:
119,210,166566,5,10,0:0:0:0:
119,210,166645,1,8,0:0:0:0:
119,210,166725,2,0,P|182:198|219:195,1,88.000002685547,8|2,0:0|3:2,0:0:0:0:
318,257,167044,5,10,0:0:0:0:
318,257,167124,1,8,0:0:0:0:
318,257,167204,2,0,P|252:283|222:300,1,88.000002685547,10|0,0:2|3:0,0:0:0:0:
305,129,167523,2,0,P|311:74|273:41,1,88.000002685547,10|0,0:0|3:0,0:0:0:0:
86,164,167842,2,0,B|149:156|149:156|211:199,2,132.00000402832,10|8|8,0:0|0:0|0:0,0:0:0:0:
2,156,168481,5,2,3:0:0:0:
2,156,168640,2,0,B|-9:262|53:190|34:346,1,176.000005371094,2|0,3:0|3:0,0:0:0:0:
34,349,169039,1,0,3:0:0:0:
57,366,169119,2,0,P|103:347|150:341,1,88.000002685547,10|0,0:0|0:0,0:0:0:0:
231,206,169438,2,0,P|293:215|326:234,1,88.000002685547,2|2,3:0|3:0,0:0:0:0:
265,364,169757,5,0,0:0:0:0:
136,230,169917,2,0,B|122:187|122:187|161:135,1,88.000002685547,2|8,3:1|0:0,0:0:0:0:
351,311,170236,2,0,B|355:289|371:269|371:269|350:201|357:137,1,176.000005371094,2|8,0:1|0:0,0:0:0:0:
359,133,170635,1,8,0:0:0:0:
361,124,170715,1,8,0:0:0:0:
363,115,170794,1,8,0:0:0:0:
365,106,170874,1,8,0:0:0:0:
367,97,170954,1,8,0:0:0:0:
370,88,171034,1,4,3:1:0:0:
512,215,171353,6,0,B|478:186|478:186|423:207,1,88.000002685547,10|0,0:0|3:0,0:0:0:0:
315,17,171672,2,0,P|252:23|239:55,1,88.000002685547,10|0,0:0|3:0,0:0:0:0:
210,229,171991,1,10,0:0:0:0:
312,142,172151,2,0,P|377:126|421:126,1,88.000002685547,2|8,3:2|0:0,0:0:0:0:
156,94,172470,2,0,P|129:49|115:10,1,88.000002685547,2|8,3:2|0:0,0:0:0:0:
198,235,172789,2,0,P|174:297|168:337,1,88.000002685547,2|8,3:2|0:0,0:0:0:0:
22,208,173108,1,0,3:0:0:0:
22,208,173188,1,0,3:0:0:0:
22,208,173268,2,0,P|58:181|108:193,1,88.000002685547,10|0,0:0|3:0,0:0:0:0:
254,372,173587,6,0,B|340:390|306:289|417:320,1,176.000005371094,10|10,0:0|0:0,0:0:0:0:
483,176,174066,2,0,B|499:217|499:217|476:262,1,88.000002685547,2|8,3:2|0:0,0:0:0:0:
380,121,174385,2,0,P|365:47|359:9,1,88.000002685547,2|8,3:2|0:0,0:0:0:0:
320,219,174704,2,0,P|239:243|165:186,1,176.000005371094,2|0,3:2|0:0,0:0:0:0:
197,6,175183,5,14,3:2:0:0:
197,6,175262,1,0,3:0:0:0:
197,6,175342,2,0,P|236:15|263:20,1,44.0000013427735,0|0,3:0|3:0,0:0:0:0:
281,110,175502,5,14,3:2:0:0:
281,110,175581,1,0,3:0:0:0:
281,110,175661,2,0,P|253:139|235:160,1,44.0000013427735,0|0,3:0|3:0,0:0:0:0:
132,112,175821,5,14,3:2:0:0:
132,112,175900,1,0,3:0:0:0:
132,112,175980,2,0,P|120:73|111:47,1,44.0000013427735,0|0,3:0|3:0,0:0:0:0:
172,196,176140,5,4,3:1:0:0:
172,196,176459,2,0,B|132:297|208:266|161:372,1,176.000005371094,10|2,0:0|3:2,0:0:0:0:
254,245,176938,1,0,3:0:0:0:
70,325,177098,2,0,P|62:255|63:220,1,88.000002685547,10|0,0:0|0:0,0:0:0:0:
22,102,177417,5,2,3:2:0:0:
172,196,177576,2,0,B|193:156|193:156|175:112,1,88.000002685547,2|8,3:2|0:0,0:0:0:0:
315,2,177895,2,0,B|276:81|276:81|312:185,1,176.000005371094,2|0,3:2|3:0,0:0:0:0:
328,158,178294,1,0,3:0:0:0:
353,153,178374,2,0,P|342:207|335:242,1,88.000002685547,10|0,0:0|3:0,0:0:0:0:
100,134,178693,6,0,P|140:107|189:127,1,88.000002685547,10|0,0:0|3:0,0:0:0:0:
270,298,179012,2,0,P|309:334|346:328,1,88.000002685547,8|0,0:0|3:0,0:0:0:0:
448,146,179332,6,0,P|397:159|352:166,1,88.000002685547,8|0,0:0|3:0,0:0:0:0:
150,357,179651,2,0,P|86:342|53:330,1,88.000002685547,10|0,0:0|3:0,0:0:0:0:
0,213,179970,5,10,0:3:0:0:
149,257,180129,1,4,0:3:0:0:
157,259,180209,1,4,0:3:0:0:
165,262,180289,1,8,0:0:0:0:
173,265,180369,1,8,0:0:0:0:
181,267,180449,2,0,P|178:237|171:213,1,44.0000013427735,4|4,0:3|0:3,0:0:0:0:
116,126,180608,5,10,0:0:0:0:
108,124,180688,1,8,0:0:0:0:
100,121,180768,1,8,3:3:0:0:
92,118,180848,1,8,0:3:0:0:
84,116,180928,2,0,P|87:146|94:170,3,44.0000013427735,8|4|4|4,0:3|0:3|0:3|0:3,0:0:0:0:
15,221,181247,5,6,3:2:0:0:
256,192,181326,12,0,183800,3:2:0:0:
393,81,186034,6,0,B|430:68|430:68|461:95,1,80,14|4,0:2|3:1,0:0:0:0:
226,12,186353,1,6,3:2:0:0:
226,12,186672,1,10,0:0:0:0:
299,173,186832,2,0,P|294:122|289:75,1,80,2|8,3:2|3:2,0:0:0:0:
86,163,187151,2,0,P|75:225|69:268,1,80,2|8,3:2|0:0,0:0:0:0:
199,378,187470,2,0,P|222:324|206:293,1,80,2|8,3:2|0:0,0:0:0:0:
371,281,187789,5,10,0:0:0:0:
371,281,187869,1,8,0:0:0:0:
371,281,187949,2,0,P|442:265|475:260,1,80,10|0,0:0|3:0,0:0:0:0:
388,78,188268,2,0,P|455:91|498:101,1,80,10|4,0:3|0:3,0:0:0:0:
242,170,188587,2,0,B|205:156|205:156|152:185,1,80,10|4,0:3|0:3,0:0:0:0:
254,30,188906,5,6,3:1:0:0:
366,188,189066,1,8,0:0:0:0:
366,188,189145,1,8,0:0:0:0:
366,188,189225,2,0,P|371:239|343:270,1,80,4|8,3:2|0:0,0:0:0:0:
481,190,189544,1,4,3:2:0:0:
395,82,189704,1,8,0:0:0:0:
257,268,189864,2,0,P|265:333|272:363,1,80,12|4,0:0|3:1,0:0:0:0:
74,384,190183,6,0,B|55:292|127:328|102:209,1,160,4|12,3:1|0:0,0:0:0:0:
3,172,190661,1,0,3:0:0:0:
78,61,190821,5,8,0:0:0:0:
86,89,190927,2,0,P|118:97|151:100,1,53.3333333333333,8|8,0:0|0:0,0:0:0:0:
189,184,191140,5,4,0:3:0:0:
217,176,191246,2,0,P|225:144|228:111,1,53.3333333333333,4|4,0:3|0:3,0:0:0:0:
245,18,191459,5,6,3:2:0:0:
357,120,191619,5,8,0:0:0:0:
357,120,191699,1,8,0:0:0:0:
489,94,191858,5,8,0:0:0:0:
489,94,191938,1,8,0:0:0:0:
452,220,192098,6,0,P|413:228|375:208,1,80,4|12,3:1|0:0,0:0:0:0:
434,9,192417,1,8,0:0:0:0:
212,107,192576,2,0,B|287:147|287:147|359:120,1,160,4|0,3:1|3:0,0:0:0:0:
443,298,193055,2,0,P|456:233|463:207,1,80,10|0,0:0|3:0,0:0:0:0:
287,363,193374,2,0,P|275:298|265:262,1,80,10|0,0:0|3:0,0:0:0:0:
398,383,193693,1,10,0:0:0:0:
343,216,193853,1,0,3:0:0:0:
182,351,194012,6,0,P|139:357|94:323,1,80,2|0,3:2|3:0,0:0:0:0:
229,163,194332,2,0,P|286:205|265:290,1,160,10|10,0:0|0:0,0:0:0:0:
132,151,194810,1,0,3:0:0:0:
63,259,194970,2,0,P|121:246|161:235,1,80,10|0,0:0|3:0,0:0:0:0:
264,82,195289,5,10,0:0:0:0:
163,26,195449,1,2,3:2:0:0:
163,26,195528,1,0,3:0:0:0:
163,26,195608,2,0,P|104:15|68:11,1,80,8|0,0:0|3:0,0:0:0:0:
2,154,195927,2,0,B|96:170|34:91|167:126,1,160,10|8,0:0|0:0,0:0:0:0:
150,129,196326,1,8,0:0:0:0:
151,136,196406,1,0,3:0:0:0:
152,143,196486,1,0,3:0:0:0:
155,150,196566,6,0,P|214:172|239:163,1,80,6|0,3:2|3:0,0:0:0:0:
421,52,196885,2,0,P|358:77|329:63,1,80,10|0,0:0|3:0,0:0:0:0:
236,7,197204,1,10,0:0:0:0:
334,187,197364,1,0,3:0:0:0:
334,187,197443,2,0,B|354:243|354:243|301:315,1,120,8|8,0:0|3:2,0:0:0:0:
481,152,197922,5,8,0:0:0:0:
481,152,198002,2,0,P|473:193|464:251,1,80,0|10,3:0|0:0,0:0:0:0:
339,83,198321,1,8,0:0:0:0:
219,286,198481,2,0,P|225:325|233:364,1,80,2|8,3:2|0:0,0:0:0:0:
20,240,198800,2,0,B|54:262|54:262|99:248,1,80,10|0,0:0|3:0,0:0:0:0:
75,82,199119,5,6,3:2:0:0:
172,203,199278,1,8,0:0:0:0:
172,203,199358,1,8,0:0:0:0:
172,203,199438,2,0,P|177:154|188:113,1,80,2|8,3:2|0:0,0:0:0:0:
192,105,199677,1,8,0:0:0:0:
202,87,199757,2,0,P|200:39|166:19,1,80,2|8,3:2|0:0,0:0:0:0:
290,187,200076,6,0,P|329:209|380:187,1,80,14|0,0:0|3:0,0:0:0:0:
276,367,200395,2,0,P|274:315|302:284,1,80,2|0,3:2|3:0,0:0:0:0:
448,102,200715,2,0,P|453:135|459:180,1,80,10|0,0:0|3:0,0:0:0:0:
507,313,201034,5,8,0:0:0:0:
500,283,201140,2,0,P|469:273|441:269,1,53.3333333333333,8|8,0:0|0:0,0:0:0:0:
422,384,201353,5,4,0:3:0:0:
392,377,201459,2,0,P|382:346|378:318,1,53.3333333333333,4|4,0:3|0:3,0:0:0:0:
218,206,201672,6,0,P|259:188|312:202,2,80,6|0|0,3:1|3:0|3:0,0:0:0:0:
372,144,202151,5,10,0:1:0:0:
231,88,202310,2,0,P|218:39|215:4,2,80,2|0|8,3:1|3:0|0:1,0:0:0:0:
349,46,202789,5,2,3:1:0:0:
219,210,202949,2,0,P|204:277|201:309,2,80,2|8|0,3:1|0:1|3:0,0:0:0:0:
261,350,203427,5,2,3:1:0:0:
80,169,203587,2,0,P|145:161|189:150,2,80,10|0|8,0:1|3:0|0:1,0:0:0:0:
435,121,204066,5,2,3:1:0:0:
278,265,204225,2,0,B|287:158|221:216|246:75,1,180.000006866455,6|0,3:1|0:0,0:0:0:0:
243,94,205183,2,0,P|257:58|251:25,1,60.0000022888184,2|0,0:0|0:0,0:0:0:0:
175,0,205502,2,0,P|131:50|169:169,2,180.000006866455,6|0|0,3:2|0:0|0:0,0:0:0:0:
256,192,206778,12,2,212044,0:0:0:0:
