osu file format v14

[General]
AudioFilename: audio.mp3
AudioLeadIn: 0
PreviewTime: 59970
Countdown: 0
SampleSet: Soft
StackLeniency: 0.6
Mode: 0
LetterboxInBreaks: 0
WidescreenStoryboard: 0

[Editor]
Bookmarks: 61247,91885,102098,116140,136566,160821,181247,191459
DistanceSpacing: 1.3
BeatDivisor: 4
GridSize: 4
TimelineZoom: 2.1

[Metadata]
Title:Fade:Alone
TitleUnicode:Fade:Alone
Artist:Imy
ArtistUnicode:Imy
Creator:iBell
Version:Hard
Source:
Tags:jrock bellicose AuroraE アイミー みゅー miyu myu Meteora 藍月なくる aitsuki nakuru featured artist fa mappers' guild mpg japanese rock
BeatmapID:2704333
BeatmapSetID:1304195

[Difficulty]
HPDrainRate:5
CircleSize:3.6
OverallDifficulty:6
ApproachRate:8
SliderMultiplier:1.4
SliderTickRate:1

[Events]
//Background and Video events
0,0,"a.jpg",0,0
//Break Periods
2,26778,36241
2,84425,90497
2,139319,146028
2,161021,164858
//Storyboard Layer 0 (Background)
//Storyboard Layer 1 (Fail)
//Storyboard Layer 2 (Pass)
//Storyboard Layer 3 (Foreground)
//Storyboard Layer 4 (Overlay)
//Storyboard Sound Samples

[TimingPoints]
1247,319.148936170213,4,2,1,30,1,0
1247,-100,4,2,1,30,0,0
10183,-100,4,2,1,50,0,0
11459,-100,4,2,1,60,0,0
24225,-111.111111111111,4,2,1,50,0,0
25183,-111.111111111111,4,2,1,40,0,0
26778,-111.111111111111,4,2,1,30,0,0
34438,-111.111111111111,4,2,1,40,0,0
36991,-111.111111111111,4,2,1,50,0,0
39544,-111.111111111111,4,2,1,50,0,0
39864,-111.111111111111,4,2,1,50,0,0
42098,-111.111111111111,4,2,1,50,0,0
42417,-111.111111111111,4,2,1,50,0,0
44651,-111.111111111111,4,2,1,60,0,0
46247,-111.111111111111,4,2,1,60,0,0
46566,-111.111111111111,4,2,1,60,0,0
47204,-111.111111111111,4,2,1,50,0,0
47842,-111.111111111111,4,2,1,50,0,0
48161,-111.111111111111,4,2,1,50,0,0
48640,-111.111111111111,4,2,1,50,0,0
48959,-111.111111111111,4,2,1,50,0,0
51353,-111.111111111111,4,2,1,50,0,0
51672,-111.111111111111,4,2,1,50,0,0
52949,-111.111111111111,4,2,1,50,0,0
53268,-111.111111111111,4,2,1,50,0,0
53587,-111.111111111111,4,2,1,50,0,0
53906,-111.111111111111,4,2,1,50,0,0
56778,-111.111111111111,4,2,1,40,0,0
57417,-111.111111111111,4,2,1,40,0,0
57895,-111.111111111111,4,2,1,40,0,0
58374,-111.111111111111,4,2,1,40,0,0
58693,-100,4,2,1,60,0,0
59970,-111.111111111111,4,2,1,40,0,0
61247,-95.2380952380952,4,2,1,70,0,1
64917,-95.2380952380952,4,2,1,70,0,1
65236,-95.2380952380952,4,2,1,70,0,1
81672,-100,4,2,1,70,0,0
91247,-100,4,2,1,50,0,0
91885,-111.111111111111,4,2,1,50,0,0
99544,-111.111111111111,4,2,1,60,0,0
102098,-111.111111111111,4,2,1,50,0,0
111672,-111.111111111111,4,2,1,40,0,0
113587,-100,4,2,1,60,0,0
114864,-111.111111111111,4,2,1,40,0,0
116140,-95.2380952380952,4,2,1,70,0,1
136566,-95.2380952380952,4,2,1,70,0,0
146778,-111.111111111111,4,2,1,50,0,0
147417,-111.111111111111,4,2,1,50,0,0
156034,-111.111111111111,4,2,1,40,0,0
158268,-100,4,2,1,60,0,0
161300,-100,4,2,1,40,0,0
165608,-111.111111111111,4,2,1,40,0,0
165927,-95.2380952380952,4,2,1,70,0,1
181247,-100,4,2,1,65,0,0
204225,-100,4,2,1,55,0,0
205183,-100,4,2,1,45,0,0
212044,-100,4,2,1,25,0,0

[Colours]
Combo1 : 202,115,244
Combo2 : 149,223,251
Combo3 : 81,159,255
Combo4 : 219,172,251

[HitObjects]
101,93,10183,6,0,L|139:102,5,35,8|8|8|4|4|4,0:0|3:0|3:0|0:3|0:3|0:3,0:0:0:0:
180,95,10661,2,0,L|227:84,5,35,8|8|8|4|4|4,0:0|0:3|0:3|0:3|0:3|0:3,0:0:0:0:
255,67,11140,2,0,P|318:87|327:108,1,70,8|0,0:0|3:0,0:0:0:0:
347,172,11459,6,0,P|399:159|494:143,1,140,6|10,3:2|0:0,0:0:0:0:
488,235,11938,1,0,3:2:0:0:
472,324,12098,2,0,P|418:370|354:317,1,140,10|10,0:0|0:2,0:0:0:0:
302,275,12576,1,0,3:2:0:0:
227,328,12736,2,0,P|172:314|153:309,2,70,10|0|10,0:2|3:2|0:0,0:0:0:0:
349,193,13374,2,0,P|344:126|339:101,1,70,10|0,0:2|3:2,0:0:0:0:
342,32,13693,2,0,P|292:47|196:59,1,140,14|2,0:2|3:2,0:0:0:0:
119,27,14172,5,0,3:0:0:0:
75,107,14332,2,0,P|17:95|0:86,2,70,8|0|10,0:0|3:0|0:0,0:0:0:0:
157,145,14810,1,0,3:0:0:0:
157,145,14970,2,0,P|163:185|80:253,1,140,10|10,0:0|0:0,0:0:0:0:
25,305,15449,2,0,P|66:335|180:354,1,140,6|0,3:1|3:0,0:0:0:0:
229,309,15927,1,10,0:1:0:0:
402,364,16247,2,0,P|411:301|423:275,1,70,8|0,0:0|3:0,0:0:0:0:
329,259,16566,6,0,P|365:163|365:98,1,140,6|10,3:2|0:0,0:0:0:0:
457,116,17044,1,0,3:0:0:0:
470,25,17204,2,0,P|413:33|371:29,1,70,10|0,0:0|3:0,0:0:0:0:
310,18,17523,1,10,0:0:0:0:
132,56,17842,6,0,P|165:108|169:124,1,70,2|8,3:2|0:0,0:0:0:0:
174,135,18082,1,8,0:0:0:0:
175,155,18161,2,0,P|220:169|258:172,1,70,8|0,0:0|3:0,0:0:0:0:
297,245,18481,2,0,P|249:264|206:362,1,140,10|10,0:0|0:0,0:0:0:0:
26,366,19119,5,6,3:2:0:0:
89,301,19278,1,10,0:0:0:0:
89,301,19358,1,8,0:0:0:0:
89,301,19438,2,0,P|84:242|76:225,1,70,2|10,3:2|0:0,0:0:0:0:
17,166,19757,2,0,P|43:118|45:90,1,70,2|8,3:2|0:0,0:0:0:0:
33,12,20076,5,6,3:2:0:0:
121,33,20236,1,8,0:0:0:0:
137,122,20395,2,0,P|197:111|210:110,1,70,10|4,0:0|3:1,0:0:0:0:
256,186,20715,2,0,P|238:247|237:268,1,70,10|0,0:0|3:0,0:0:0:0:
230,344,21034,6,0,L|282:337,2,46.6666666666667,8|8|8,0:0|0:0|0:0,0:0:0:0:
314,321,21353,2,0,L|379:339,2,46.6666666666667,4|4|4,0:3|0:3|0:3,0:0:0:0:
402,344,21672,5,6,3:1:0:0:
487,84,22151,1,10,0:1:0:0:
487,84,22310,2,0,P|417:118|337:123,1,140,2|8,3:1|0:1,0:0:0:0:
271,152,22789,1,2,3:1:0:0:
271,152,22949,2,0,P|312:120|291:17,1,140,2|0,3:1|3:0,0:0:0:0:
229,11,23427,1,2,3:1:0:0:
229,11,23587,2,0,P|188:43|209:146,1,140,10|8,0:1|0:1,0:0:0:0:
271,152,24066,1,2,3:1:0:0:
271,152,24225,6,0,B|221:243|316:243|237:352,1,188.999994232178,6|0,3:1|0:0,0:0:0:0:
7,372,25183,2,0,P|28:318|28:301,1,62.9999980773926,2|0,0:0|0:0,0:0:0:0:
15,232,25502,2,0,P|57:217|189:283,1,188.999994232178,6|0,0:0|0:0,0:0:0:0:
420,102,36991,6,0,P|397:149|380:225,2,125.999996154785,4|8|2,3:2|0:0|3:2,0:0:0:0:
375,33,37789,1,2,3:2:0:0:
211,19,38108,2,0,P|178:63|240:118,1,125.999996154785,10|0,0:0|3:0,0:0:0:0:
268,175,38587,2,0,P|242:214|153:243,1,125.999996154785,10|2,0:0|3:2,0:0:0:0:
104,195,39066,1,0,3:0:0:0:
35,238,39225,1,10,0:0:0:0:
149,354,39544,6,0,P|84:340|8:335,2,125.999996154785,6|8|2,3:2|0:0|3:2,0:0:0:0:
229,371,40342,1,2,3:2:0:0:
390,341,40661,2,0,P|410:287|351:240,1,125.999996154785,10|0,0:0|3:0,0:0:0:0:
285,234,41140,2,0,P|308:140|315:85,1,125.999996154785,10|2,0:0|3:2,0:0:0:0:
374,57,41619,1,0,3:0:0:0:
451,84,41778,1,10,0:0:0:0:
394,238,42098,6,0,P|459:242|515:273,2,125.999996154785,2|8|0,3:2|0:0|3:0,0:0:0:0:
241,178,43055,2,0,P|256:248|262:293,1,94.499997116089,8|8,0:0|0:0,0:0:0:0:
259,311,43374,2,0,P|311:342|394:346,2,125.999996154785,2|10|2,3:2|0:0|3:2,0:0:0:0:
191,358,44172,1,8,0:0:0:0:
125,308,44332,2,0,P|46:327|38:328,1,62.9999980773926,10|4,0:3|0:3,0:0:0:0:
8,219,44651,6,0,P|93:213|148:207,1,125.999996154785,6|0,3:1|3:0,0:0:0:0:
189,149,45129,1,2,3:2:0:0:
222,74,45289,2,0,P|212:15|194:5,1,62.9999980773926,10|0,0:0|3:0,0:0:0:0:
195,9,45528,1,0,3:0:0:0:
176,11,45608,2,0,P|131:20|109:22,1,62.9999980773926,0|0,3:0|3:0,0:0:0:0:
22,74,45927,5,10,0:0:0:0:
72,138,46087,1,0,3:0:0:0:
151,115,46247,2,0,P|230:127|282:135,1,125.999996154785,8|2,0:2|3:2,0:0:0:0:
380,89,46725,1,8,0:0:0:0:
380,89,46805,1,8,0:0:0:0:
380,89,46885,1,8,0:0:0:0:
443,167,47044,1,8,0:0:0:0:
344,206,47204,6,0,P|307:241|320:329,1,125.999996154785,4|0,3:1|3:0,0:0:0:0:
372,363,47683,1,0,3:0:0:0:
453,363,47842,2,0,P|490:328|477:240,1,125.999996154785,10|0,0:0|3:0,0:0:0:0:
478,92,48481,1,2,0:0:0:0:
424,30,48640,2,0,P|356:61|280:71,1,125.999996154785,8|0,0:0|3:0,0:0:0:0:
223,70,49119,2,0,P|240:126|243:143,1,62.9999980773926,10|0,0:0|3:0,0:0:0:0:
311,171,49438,1,2,3:2:0:0:
265,328,49757,6,0,P|215:313|191:313,1,62.9999980773926,0|0,3:0|3:0,0:0:0:0:
136,357,50076,1,8,0:0:0:0:
54,367,50236,2,0,P|17:307|52:236,1,125.999996154785,0|0,3:0|3:0,0:0:0:0:
104,221,50715,2,0,P|118:161|111:140,1,62.9999980773926,10|0,0:0|3:0,0:0:0:0:
45,88,51034,5,14,0:0:0:0:
106,33,51193,1,10,0:0:0:0:
182,63,51353,2,0,P|218:104|216:190,1,125.999996154785,6|0,3:1|3:0,0:0:0:0:
198,251,51832,1,0,3:0:0:0:
279,243,51991,1,8,0:0:0:0:
248,319,52151,1,0,3:0:0:0:
403,371,52470,6,0,P|416:293|443:244,1,125.999996154785,0|0,3:0|3:0,0:0:0:0:
482,183,52949,2,0,P|511:138|477:69,1,125.999996154785,10|2,0:0|3:2,0:0:0:0:
421,25,53427,1,4,3:1:0:0:
357,77,53587,2,0,P|297:59|221:52,1,125.999996154785,6|0,3:2|3:0,0:0:0:0:
156,79,54066,1,2,3:2:0:0:
211,142,54225,2,0,P|271:160|347:167,1,125.999996154785,8|2,0:0|3:2,0:0:0:0:
368,241,54704,1,0,3:0:0:0:
312,301,54864,6,0,L|255:287,2,41.9999987182618,8|8|8,0:0|0:0|0:3,0:0:0:0:
236,280,55183,2,0,L|188:289,2,41.9999987182618,8|4|4,0:3|0:3|0:3,0:0:0:0:
147,281,55502,6,0,P|158:318|148:362,1,62.9999980773926,10|8,0:0|0:3,0:0:0:0:
148,359,55741,1,8,0:3:0:0:
131,367,55821,2,0,P|73:355|54:347,1,62.9999980773926,4|0,0:3|3:0,0:0:0:0:
26,284,56140,1,4,3:1:0:0:
196,4,56778,6,0,P|216:39|118:116,1,188.999994232178,2|0,0:0|0:0,0:0:0:0:
42,128,57417,2,0,P|62:214|67:263,1,125.999996154785,2|0,0:0|0:0,0:0:0:0:
24,321,57895,2,0,P|89:354|166:346,1,125.999996154785,2|0,0:0|0:0,0:0:0:0:
185,285,58374,1,2,0:0:0:0:
295,140,58693,6,0,L|313:197,5,35,10|8|8|4|4|4,0:0|0:3|0:3|0:3|0:3|0:3,0:0:0:0:
295,217,59172,2,0,L|289:269,5,35,8|8|8|4|4|4,0:0|0:3|0:3|0:3|0:3|0:3,0:0:0:0:
281,297,59651,1,8,0:0:0:0:
281,297,59731,1,8,0:0:0:0:
281,297,59810,2,0,L|292:344,1,35,0|0,3:0|3:0,0:0:0:0:
322,355,59970,6,0,P|391:326|462:320,1,125.999996154785,2|2,3:2|0:0,0:0:0:0:
502,167,60608,2,0,P|439:157|382:131,1,125.999996154785,2|2,0:0|0:0,0:0:0:0:
220,28,61247,6,0,P|282:63|272:159,1,146.999995513916,6|8,3:2|0:0,0:0:0:0:
252,220,61725,2,0,P|180:181|110:159,1,146.999995513916,2|0,3:2|3:0,0:0:0:0:
25,186,62204,1,10,0:0:0:0:
25,281,62364,2,0,B|115:301|67:340|154:356,1,146.999995513916,0|0,3:0|3:0,0:0:0:0:
241,370,62842,2,0,P|232:304|231:289,1,73.4999977569581,8|0,0:0|3:0,0:0:0:0:
248,282,63082,1,0,3:0:0:0:
264,268,63161,2,0,P|279:217|258:171,1,73.4999977569581,0|0,3:0|3:0,0:0:0:0:
241,107,63481,1,10,0:0:0:0:
68,25,63800,6,0,P|50:98|18:197,1,146.999995513916,2|8,3:2|0:0,0:0:0:0:
81,245,64278,2,0,P|142:252|179:170,1,146.999995513916,2|0,3:2|3:0,0:0:0:0:
146,97,64757,1,10,0:0:0:0:
199,17,64917,2,0,P|263:34|282:35,1,73.4999977569581,0|0,3:0|3:0,0:0:0:0:
360,84,65236,5,8,0:0:0:0:
449,36,65395,1,8,0:0:0:0:
512,129,65555,1,8,0:3:0:0:
512,129,65635,1,8,0:3:0:0:
512,129,65715,2,0,P|490:187|485:209,1,73.4999977569581,8|4,0:0|0:3,0:0:0:0:
385,217,66034,2,0,P|350:245|351:295,1,73.4999977569581,8|0,0:0|3:0,0:0:0:0:
459,308,66353,5,6,3:2:0:0:
397,380,66512,1,2,0:0:0:0:
305,351,66672,2,0,P|235:327|152:315,1,146.999995513916,10|2,0:0|3:2,0:0:0:0:
11,199,67310,5,10,0:2:0:0:
73,127,67469,1,2,0:2:0:0:
165,156,67629,2,0,P|235:180|318:192,1,146.999995513916,2|10,3:2|0:0,0:0:0:0:
486,124,68268,6,0,P|491:49|427:20,1,146.999995513916,2|10,3:2|0:0,0:0:0:0:
351,66,68747,1,2,0:0:0:0:
264,25,68906,5,2,3:0:0:0:
178,67,69066,2,0,P|191:132|191:156,1,73.4999977569581,2|0,3:0|0:0,0:0:0:0:
294,142,69385,1,0,3:0:0:0:
294,142,69465,1,0,3:0:0:0:
294,142,69544,2,0,P|277:203|269:297,1,146.999995513916,10|2,0:0|3:0,0:0:0:0:
216,366,70023,1,2,3:0:0:0:
121,348,70183,5,2,0:0:0:0:
170,266,70342,2,0,P|120:247|101:252,1,73.4999977569581,2|8,3:1|0:0,0:0:0:0:
23,306,70661,2,0,P|14:243|7:217,1,73.4999977569581,2|0,0:1|3:0,0:0:0:0:
49,144,70981,1,8,0:0:0:0:
49,144,71060,1,8,0:0:0:0:
49,144,71140,2,0,L|61:79,3,36.749998878479,8|8|8|8,0:0|0:0|0:0|0:0,0:0:0:0:
72,62,71459,1,4,3:1:0:0:
258,20,71778,6,0,P|286:59|280:97,1,73.4999977569581,10|0,0:0|3:0,0:0:0:0:
193,110,72098,2,0,P|206:177|210:199,1,73.4999977569581,10|0,0:0|3:0,0:0:0:0:
297,212,72417,1,10,0:0:0:0:
377,160,72576,2,0,P|444:175|467:179,1,73.4999977569581,2|8,3:2|0:0,0:0:0:0:
453,271,72895,2,0,P|386:256|363:252,1,73.4999977569581,2|8,3:2|0:0,0:0:0:0:
297,212,73215,2,0,P|284:279|280:301,1,73.4999977569581,2|8,3:2|0:0,0:0:0:0:
224,359,73534,1,0,3:0:0:0:
224,359,73614,1,0,3:0:0:0:
224,359,73693,2,0,P|180:352|160:328,1,73.4999977569581,10|0,0:0|3:0,0:0:0:0:
122,244,74012,5,10,0:0:0:0:
235,89,74332,1,10,0:0:0:0:
176,13,74491,2,0,P|115:33|85:38,1,73.4999977569581,2|8,3:2|0:0,0:0:0:0:
12,56,74810,2,0,P|30:113|38:161,1,73.4999977569581,2|8,3:2|0:0,0:0:0:0:
46,228,75129,2,0,P|112:195|127:124,1,146.999995513916,2|0,3:2|3:0,0:0:0:0:
217,94,75608,2,0,P|287:119|368:122,1,146.999995513916,14|14,0:0|0:0,0:0:0:0:
435,65,76087,1,0,3:0:0:0:
435,65,76167,1,0,3:0:0:0:
435,65,76247,2,0,P|456:121|467:142,1,73.4999977569581,10|0,0:0|0:0,0:0:0:0:
500,221,76566,5,4,3:1:0:0:
381,370,76885,2,0,P|422:299|391:220,1,146.999995513916,10|2,0:0|3:2,0:0:0:0:
326,187,77364,1,0,3:0:0:0:
254,249,77523,2,0,P|189:240|96:221,1,146.999995513916,10|2,0:0|3:2,0:0:0:0:
74,313,78002,2,0,P|117:324|148:335,1,73.4999977569581,2|8,3:2|0:0,0:0:0:0:
227,381,78321,2,0,B|313:365|274:323|368:318,1,146.999995513916,2|0,3:2|3:0,0:0:0:0:
450,334,78800,1,10,0:0:0:0:
484,146,79119,5,10,0:0:0:0:
447,57,79278,1,0,3:0:0:0:
351,55,79438,2,0,P|372:133|391:231,1,146.999995513916,8|8,0:0|0:0,0:0:0:0:
290,182,79917,1,0,3:0:0:0:
256,92,80076,2,0,P|191:113|158:116,1,73.4999977569581,10|0,0:0|3:0,0:0:0:0:
94,187,80395,5,10,0:3:0:0:
178,231,80555,1,4,0:3:0:0:
178,231,80635,1,4,0:3:0:0:
178,231,80715,2,0,P|168:280|161:318,1,73.4999977569581,8|4,0:0|0:3,0:0:0:0:
84,356,81034,2,0,P|30:342|2:336,2,73.4999977569581,10|0|8,0:0|3:0|0:3,0:0:0:0:
255,186,81672,5,6,3:2:0:0:
256,192,81752,12,4,84225,0:1:0:0:
102,54,91247,6,0,L|110:112,2,46.6666666666667,10|10|10,0:0|0:0|0:3,0:0:0:0:
131,127,91566,2,0,L|123:185,2,46.6666666666667,10|6|6,0:3|0:3|0:3,0:0:0:0:
105,212,91885,6,0,P|196:218|220:249,1,125.999996154785,4|2,3:1|0:3,0:0:0:0:
220,321,92364,2,0,P|316:332|371:347,1,125.999996154785,0|2,0:0|0:3,0:0:0:0:
504,375,93002,2,0,P|493:299|433:284,1,125.999996154785,2|2,0:3|0:3,0:0:0:0:
376,256,93481,2,0,P|387:203|389:182,1,62.9999980773926,2|2,0:3|0:3,0:0:0:0:
458,149,93800,1,8,0:0:0:0:
458,149,93879,2,0,P|447:96|445:75,1,62.9999980773926,8|0,0:0|3:0,0:0:0:0:
442,45,94119,1,8,0:0:0:0:
301,129,94438,6,0,B|328:95|328:95|305:39,2,94.499997116089,4|4|4,3:2|3:1|3:2,0:0:0:0:
219,140,95076,2,0,P|176:136|143:127,1,62.9999980773926,8|0,0:0|3:0,0:0:0:0:
125,214,95395,2,0,P|181:223|239:239,2,94.499997116089,0|0|0,3:0|3:0|3:0,0:0:0:0:
54,256,96034,1,8,0:0:0:0:
1,193,96193,1,0,3:0:0:0:
68,146,96353,2,0,P|74:96|77:76,1,62.9999980773926,8|0,0:0|3:0,0:0:0:0:
128,20,96672,1,8,0:0:0:0:
196,65,96832,1,8,0:0:0:0:
269,28,96991,5,6,3:2:0:0:
185,168,97310,1,8,0:0:0:0:
185,168,97470,2,0,P|201:231|201:235,1,62.9999980773926,2|0,0:0|3:0,0:0:0:0:
131,271,97789,1,2,3:2:0:0:
256,376,98108,2,0,P|280:305|334:292,1,125.999996154785,10|0,0:0|3:0,0:0:0:0:
401,316,98587,2,0,P|419:239|441:198,1,125.999996154785,8|2,0:0|3:2,0:0:0:0:
504,145,99066,1,0,3:0:0:0:
476,68,99225,1,10,0:0:0:0:
321,14,99544,6,0,P|342:57|347:85,1,62.9999980773926,2|0,3:2|3:0,0:0:0:0:
347,90,99784,1,0,3:0:0:0:
344,108,99864,2,0,P|291:111|262:108,1,62.9999980773926,8|2,0:0|3:2,0:0:0:0:
206,182,100183,2,0,P|221:239|225:266,1,62.9999980773926,10|8,0:0|0:0,0:0:0:0:
307,293,100502,2,0,P|292:350|288:377,1,62.9999980773926,0|8,3:0|0:0,0:0:0:0:
198,333,100821,5,10,0:3:0:0:
118,381,100981,1,0,3:0:0:0:
118,381,101060,1,0,3:0:0:0:
118,381,101140,2,0,P|107:326|101:301,1,62.9999980773926,8|4,0:3|0:3,0:0:0:0:
69,229,101459,2,0,P|16:242|-2:248,2,62.9999980773926,2|0|8,3:2|3:0|0:0,0:0:0:0:
219,162,102098,6,0,P|250:102|227:39,1,125.999996154785,4|0,3:1|3:0,0:0:0:0:
167,2,102576,1,0,3:0:0:0:
88,26,102736,2,0,P|57:86|80:149,1,125.999996154785,10|0,0:0|3:0,0:0:0:0:
199,242,103374,1,2,0:0:0:0:
279,227,103534,2,0,P|267:303|261:364,1,125.999996154785,8|0,0:0|3:0,0:0:0:0:
182,331,104012,2,0,P|149:322|117:317,1,62.9999980773926,10|0,0:0|3:0,0:0:0:0:
45,351,104332,1,2,3:2:0:0:
8,191,104651,6,0,P|41:200|73:205,1,62.9999980773926,0|0,3:0|3:0,0:0:0:0:
88,207,104890,1,0,3:0:0:0:
106,207,104970,1,8,0:0:0:0:
182,236,105129,2,0,P|220:192|206:115,1,125.999996154785,0|0,3:0|3:0,0:0:0:0:
143,86,105608,2,0,P|161:30|165:12,1,62.9999980773926,10|0,0:0|3:0,0:0:0:0:
280,70,105927,5,14,0:0:0:0:
352,31,106087,1,10,0:0:0:0:
422,72,106247,2,0,P|401:120|390:213,1,125.999996154785,6|0,3:1|3:0,0:0:0:0:
434,260,106725,2,0,L|423:301,2,31.4999990386963,0|0|8,3:0|3:0|0:0,0:0:0:0:
508,225,107044,1,0,3:0:0:0:
399,368,107364,6,0,B|341:339|341:339|271:360,1,125.999996154785,0|0,3:0|3:0,0:0:0:0:
201,362,107842,2,0,P|162:316|180:245,1,125.999996154785,10|2,0:0|3:2,0:0:0:0:
253,265,108321,1,4,3:1:0:0:
314,210,108481,2,0,P|323:132|339:76,1,125.999996154785,6|0,3:2|3:0,0:0:0:0:
288,19,108959,1,2,3:2:0:0:
212,50,109119,2,0,P|203:128|187:184,1,125.999996154785,8|2,0:0|3:2,0:0:0:0:
153,249,109598,1,0,3:0:0:0:
153,249,109677,1,0,3:0:0:0:
153,249,109757,6,0,L|110:239,2,41.9999987182618,8|8|8,0:0|0:0|0:3,0:0:0:0:
76,258,110076,2,0,L|85:298,2,41.9999987182618,8|4|4,0:3|0:3|0:3,0:0:0:0:
90,343,110395,5,10,0:0:0:0:
212,355,110635,1,8,0:3:0:0:
333,368,110874,1,0,3:0:0:0:
393,312,111034,5,4,3:1:0:0:
369,14,111672,6,0,P|286:48|317:144,1,188.999994232178,2|0,0:0|0:0,0:0:0:0:
382,136,112310,2,0,P|445:144|510:163,1,125.999996154785,2|0,0:0|0:0,0:0:0:0:
488,241,112789,2,0,P|425:233|360:214,1,125.999996154785,2|0,0:0|0:0,0:0:0:0:
282,218,113268,1,2,0:0:0:0:
115,145,113587,6,0,L|129:86,5,35,10|8|8|4|4|4,0:0|0:3|0:3|0:3|0:3|0:3,0:0:0:0:
154,77,114066,2,0,L|140:18,5,35,8|8|8|4|4|4,0:0|0:3|0:3|0:3|0:3|0:3,0:0:0:0:
183,16,114544,1,8,0:0:0:0:
183,16,114624,1,8,0:0:0:0:
183,16,114704,2,0,L|240:25,1,35,0|0,3:0|3:0,0:0:0:0:
259,20,114864,6,0,B|294:37|294:37|312:127,1,125.999996154785,2|2,3:2|0:0,0:0:0:0:
199,242,115502,2,0,B|216:327|216:327|251:344,1,125.999996154785,2|2,0:0|0:0,0:0:0:0:
440,366,116140,6,0,P|425:295|349:273,1,146.999995513916,6|8,3:2|0:0,0:0:0:0:
286,210,116619,2,0,P|211:232|139:238,1,146.999995513916,2|0,3:2|3:0,0:0:0:0:
59,286,117098,1,10,0:0:0:0:
0,210,117257,2,0,B|10:154|10:154|40:140|40:140|60:57,1,146.999995513916,0|0,3:0|3:0,0:0:0:0:
118,14,117736,2,0,P|158:36|155:90,1,73.4999977569581,8|0,0:0|3:0,0:0:0:0:
167,82,117975,1,0,3:0:0:0:
162,103,118055,2,0,P|206:114|243:117,1,73.4999977569581,0|0,3:0|3:0,0:0:0:0:
321,77,118374,1,10,0:0:0:0:
179,204,118693,6,0,P|251:216|331:244,1,146.999995513916,2|8,3:2|0:0,0:0:0:0:
410,204,119172,2,0,B|446:293|374:265|416:367,1,146.999995513916,2|0,3:2|3:0,0:0:0:0:
318,379,119651,1,10,0:0:0:0:
225,355,119810,2,0,P|238:290|241:263,1,73.4999977569581,0|0,3:0|3:0,0:0:0:0:
306,196,120129,5,8,0:0:0:0:
241,115,120289,1,8,0:0:0:0:
154,168,120449,1,8,0:3:0:0:
154,168,120528,1,8,0:3:0:0:
154,168,120608,2,0,P|84:151|64:147,1,73.4999977569581,8|4,0:0|0:3,0:0:0:0:
17,224,120927,2,0,B|-1:257|-1:257|14:292,1,73.4999977569581,8|0,0:0|3:0,0:0:0:0:
94,360,121247,5,6,3:2:0:0:
277,308,121566,2,0,P|226:292|195:286,1,73.4999977569581,10|2,0:0|0:0,0:0:0:0:
112,267,121885,1,2,3:2:0:0:
202,98,122204,6,0,P|213:33|216:1,1,73.4999977569581,10|2,0:2|0:2,0:0:0:0:
307,4,122523,2,0,P|296:69|293:101,1,73.4999977569581,2|2,3:2|0:0,0:0:0:0:
283,171,122842,1,10,0:0:0:0:
266,361,123161,6,0,P|323:303|397:319,1,146.999995513916,2|10,3:2|0:0,0:0:0:0:
472,345,123640,1,2,0:0:0:0:
495,252,123800,5,2,3:0:0:0:
405,219,123959,2,0,P|411:182|416:146,1,73.4999977569581,2|0,3:0|0:0,0:0:0:0:
491,86,124278,1,0,3:0:0:0:
491,86,124358,1,0,3:0:0:0:
491,86,124438,2,0,P|428:52|337:96,1,146.999995513916,10|2,0:0|3:0,0:0:0:0:
285,133,124917,1,2,3:0:0:0:
268,39,125076,5,2,0:0:0:0:
194,100,125236,2,0,P|126:117|94:120,1,73.4999977569581,2|8,3:1|0:0,0:0:0:0:
36,76,125555,2,0,P|1:110|1:150,1,73.4999977569581,2|0,0:1|3:0,0:0:0:0:
72,220,125874,1,8,0:0:0:0:
72,220,125954,1,8,0:0:0:0:
72,220,126034,2,0,L|58:287,3,36.749998878479,8|8|8|8,0:0|0:0|0:0|0:0,0:0:0:0:
57,303,126353,1,4,3:1:0:0:
234,372,126672,6,0,P|256:328|241:286,1,73.4999977569581,10|0,0:0|3:0,0:0:0:0:
220,215,126991,2,0,P|267:223|316:228,1,73.4999977569581,10|0,0:0|3:0,0:0:0:0:
372,279,127310,1,10,0:0:0:0:
451,225,127470,2,0,P|444:162|444:142,1,73.4999977569581,2|8,3:2|0:0,0:0:0:0:
500,74,127789,2,0,P|499:20|476:0,1,73.4999977569581,2|8,3:2|0:0,0:0:0:0:
409,63,128108,2,0,P|346:70|326:70,1,73.4999977569581,2|8,3:2|0:0,0:0:0:0:
241,43,128427,1,0,3:0:0:0:
241,43,128507,1,0,3:0:0:0:
241,43,128587,2,0,P|253:91|258:142,1,73.4999977569581,10|0,0:0|3:0,0:0:0:0:
264,210,128906,5,10,0:0:0:0:
416,325,129225,1,10,0:0:0:0:
329,367,129385,2,0,P|270:367|256:357,1,73.4999977569581,2|8,3:2|0:0,0:0:0:0:
164,369,129704,2,0,P|180:303|184:277,1,73.4999977569581,2|8,3:2|0:0,0:0:0:0:
76,288,130023,2,0,B|93:199|131:246|144:161,1,146.999995513916,2|0,3:2|3:0,0:0:0:0:
239,176,130502,2,0,P|254:88|201:36,1,146.999995513916,14|14,0:0|0:0,0:0:0:0:
128,33,130981,1,0,3:0:0:0:
128,33,131060,1,0,3:0:0:0:
128,33,131140,2,0,P|80:51|47:52,1,73.4999977569581,10|0,0:0|0:0,0:0:0:0:
21,140,131459,5,4,3:1:0:0:
177,250,131778,2,0,P|117:254|58:335,1,146.999995513916,10|2,0:0|3:2,0:0:0:0:
136,375,132257,1,0,3:0:0:0:
223,335,132417,2,0,P|325:316|394:316,1,146.999995513916,10|2,0:0|3:2,0:0:0:0:
284,235,132895,2,0,P|299:179|303:152,1,73.4999977569581,2|8,3:2|0:0,0:0:0:0:
305,67,133215,2,0,B|361:77|361:77|383:110|383:110|461:121,1,146.999995513916,2|0,3:2|3:0,0:0:0:0:
497,47,133693,1,10,0:0:0:0:
389,204,134012,5,10,0:0:0:0:
484,197,134172,1,0,3:0:0:0:
491,292,134332,2,0,P|427:300|338:317,1,146.999995513916,8|8,0:0|0:0,0:0:0:0:
271,374,134810,1,0,3:0:0:0:
247,281,134970,2,0,P|258:220|263:193,1,73.4999977569581,10|0,0:0|3:0,0:0:0:0:
328,141,135289,5,10,0:3:0:0:
278,59,135449,1,8,0:0:0:0:
278,59,135528,1,8,0:0:0:0:
278,59,135608,2,0,L|218:70,3,36.749998878479,8|8|8|8,0:0|0:0|0:0|0:0,0:0:0:0:
197,83,135927,2,0,L|160:76,3,36.749998878479,10|8|8|8,0:0|0:3|0:3|0:3,0:0:0:0:
114,90,136247,2,0,L|120:126,3,36.749998878479,8|4|4|4,0:3|0:3|0:3|0:3,0:0:0:0:
129,173,136566,5,6,3:2:0:0:
256,192,136645,12,4,139119,0:1:0:0:
189,245,146778,6,0,B|193:307|193:307|144:363,1,125.999996154785,4|0,3:1|3:0,0:0:0:0:
70,367,147257,1,0,3:0:0:0:
8,312,147417,2,0,B|3:249|3:249|52:193,1,125.999996154785,10|0,0:0|3:0,0:0:0:0:
202,155,148055,1,2,0:0:0:0:
280,132,148215,2,0,P|272:56|264:-13,1,125.999996154785,8|0,0:0|3:0,0:0:0:0:
186,23,148693,2,0,P|131:38|107:38,1,62.9999980773926,10|0,0:0|3:0,0:0:0:0:
43,35,149012,1,6,3:2:0:0:
43,199,149332,6,0,L|56:156,3,31.4999990386963,0|0|0|0,3:0|3:0|3:0|3:0,0:0:0:0:
65,130,149651,1,8,0:0:0:0:
154,128,149810,2,0,P|129:218|118:274,1,125.999996154785,0|0,3:0|3:0,0:0:0:0:
95,327,150289,2,0,P|135:353|162:346,1,62.9999980773926,10|0,0:0|3:0,0:0:0:0:
264,352,150608,5,14,0:0:0:0:
221,281,150768,1,10,0:0:0:0:
261,209,150927,2,0,P|321:195|365:260,1,125.999996154785,6|0,3:1|3:0,0:0:0:0:
375,317,151406,2,0,L|364:368,2,31.4999990386963,0|0|8,3:0|3:0|0:0,0:0:0:0:
457,318,151725,1,0,3:0:0:0:
483,156,152044,6,0,P|496:75|502:1,1,125.999996154785,0|0,3:0|3:0,0:0:0:0:
421,6,152523,2,0,B|339:15|394:53|287:64,1,125.999996154785,10|2,0:0|3:2,0:0:0:0:
232,37,153002,1,4,3:1:0:0:
251,116,153161,2,0,P|267:176|271:249,1,125.999996154785,6|0,3:2|3:0,0:0:0:0:
240,315,153640,1,2,3:2:0:0:
182,256,153800,2,0,P|166:196|162:123,1,125.999996154785,8|2,0:0|3:2,0:0:0:0:
124,48,154278,1,0,3:0:0:0:
124,48,154358,1,0,3:0:0:0:
124,48,154438,6,0,L|64:63,2,41.9999987182618,8|8|8,0:0|0:0|0:3,0:0:0:0:
45,72,154757,2,0,L|60:132,2,41.9999987182618,8|4|4,0:3|0:3|0:3,0:0:0:0:
42,158,155076,6,0,P|16:188|19:223,1,62.9999980773926,10|8,0:0|0:3,0:0:0:0:
20,228,155316,1,8,0:3:0:0:
27,245,155395,2,0,P|81:234|100:231,1,62.9999980773926,4|0,0:3|3:0,0:0:0:0:
169,248,155715,1,4,3:1:0:0:
468,379,156353,6,0,P|497:328|400:232,1,188.999994232178,2|0,0:0|0:0,0:0:0:0:
369,288,156991,2,0,P|295:296|232:295,1,125.999996154785,2|0,0:0|0:0,0:0:0:0:
230,214,157470,2,0,P|304:206|367:207,1,125.999996154785,2|0,0:0|0:0,0:0:0:0:
414,149,157949,1,2,0:0:0:0:
279,27,158268,6,0,L|290:77,2,46.6666666666667,8|8|8,0:0|0:0|0:3,0:0:0:0:
263,106,158587,2,0,L|252:156,2,46.6666666666667,8|4|4,0:3|0:3|0:3,0:0:0:0:
269,195,158906,5,8,0:0:0:0:
311,324,159145,1,8,0:0:0:0:
180,365,159385,1,8,0:0:0:0:
101,320,159544,6,0,P|51:319|2:246,1,140,4|0,3:1|0:0,0:0:0:0:
113,106,160183,2,0,P|100:162|81:249,1,140
256,188,160821,5,4,0:0:0:0:
474,33,165608,6,0,P|422:52|374:56,1,94.499997116089,2|0,0:0|0:0,0:0:0:0:
336,46,165927,5,6,3:2:0:0:
252,92,166087,1,10,0:0:0:0:
252,92,166167,1,8,0:0:0:0:
252,92,166247,2,0,P|261:163|263:192,1,73.4999977569581,10|0,0:0|3:2,0:0:0:0:
348,204,166566,2,0,L|361:134,2,36.749998878479,10|8|8,0:0|0:0|0:0,0:0:0:0:
328,297,166885,5,2,3:2:0:0:
256,357,167044,1,10,0:0:0:0:
256,357,167124,1,8,0:0:0:0:
256,357,167204,2,0,P|185:348|156:346,1,73.4999977569581,10|0,0:2|3:0,0:0:0:0:
87,347,167523,2,0,L|93:383,2,36.749998878479,10|8|0,0:0|0:0|3:0,0:0:0:0:
116,256,167842,2,0,P|60:249|15:283,2,110.249996635437,10|8|8,0:0|0:0|0:0,0:0:0:0:
212,262,168481,5,2,3:0:0:0:
269,186,168640,2,0,P|264:117|257:91,1,73.4999977569581,2|0,3:0|0:0,0:0:0:0:
236,21,168959,1,0,3:0:0:0:
236,21,169039,1,0,3:0:0:0:
236,21,169119,2,0,B|179:40|179:40|169:66|169:66|108:85,1,146.999995513916,10|2,0:0|3:0,0:0:0:0:
18,66,169598,1,2,3:0:0:0:
18,161,169757,5,2,0:0:0:0:
112,177,169917,2,0,P|94:244|88:269,1,73.4999977569581,2|8,3:1|0:0,0:0:0:0:
40,328,170236,2,0,B|71:347|71:347|119:341,1,73.4999977569581,2|0,0:1|3:0,0:0:0:0:
203,352,170555,1,8,0:0:0:0:
203,352,170635,1,8,0:0:0:0:
203,352,170715,2,0,L|200:283,3,36.749998878479,8|8|8|8,0:0|0:0|0:0|0:0,0:0:0:0:
200,267,171034,1,4,3:1:0:0:
365,363,171353,6,0,P|386:325|378:287,1,73.4999977569581,10|0,0:0|3:0,0:0:0:0:
304,241,171672,2,0,P|318:168|321:139,1,73.4999977569581,10|0,0:0|3:0,0:0:0:0:
379,95,171991,1,10,0:0:0:0:
318,20,172151,2,0,L|277:28,2,36.749998878479,2|0|8,3:2|3:0|0:0,0:0:0:0:
412,5,172470,2,0,P|462:18|493:21,1,73.4999977569581,2|8,3:2|0:0,0:0:0:0:
379,95,172789,2,0,P|415:100|450:110,1,73.4999977569581,2|8,3:2|0:0,0:0:0:0:
500,204,173108,1,0,3:0:0:0:
500,204,173188,1,0,3:0:0:0:
500,204,173268,2,0,P|485:264|478:295,1,73.4999977569581,10|0,0:0|3:0,0:0:0:0:
455,367,173587,5,10,0:0:0:0:
325,226,173906,1,10,0:0:0:0:
263,299,174066,2,0,P|224:307|181:330,1,73.4999977569581,2|8,3:2|0:0,0:0:0:0:
109,367,174385,2,0,P|87:320|62:294,1,73.4999977569581,2|8,3:2|0:0,0:0:0:0:
144,239,174704,1,2,3:2:0:0:
216,176,174864,6,0,L|208:117,3,36.749998878479,0|0|0|0,3:0|3:0|3:0|3:0,3:0:0:0:
233,97,175183,2,0,L|228:60,3,36.749998878479,14|0|0|0,3:2|3:0|3:0|3:0,0:0:0:0:
194,26,175502,2,0,L|129:37,3,36.749998878479,14|0|0|0,3:2|3:0|3:0|3:0,0:0:0:0:
117,57,175821,2,0,L|52:68,3,36.749998878479,14|0|0|0,3:2|3:0|3:0|3:0,0:0:0:0:
42,92,176140,5,4,3:1:0:0:
16,281,176459,2,0,P|70:217|132:223,1,146.999995513916,10|2,0:0|3:2,0:0:0:0:
171,305,176938,1,0,3:0:0:0:
252,354,177098,2,0,P|254:283|243:203,1,146.999995513916,10|2,0:0|3:2,0:0:0:0:
232,113,177576,2,0,P|283:129|314:134,1,73.4999977569581,2|8,3:2|0:0,0:0:0:0:
392,99,177895,2,0,L|384:42,2,36.749998878479,2|0|0,3:2|3:0|3:0,0:0:0:0:
481,135,178215,1,0,3:0:0:0:
481,135,178294,1,0,3:0:0:0:
481,135,178374,2,0,B|497:168|497:168|479:223,1,73.4999977569581,10|0,0:0|3:0,0:0:0:0:
376,241,178693,5,10,0:0:0:0:
385,336,178853,1,0,3:0:0:0:
299,378,179012,2,0,B|263:302|326:313|276:211,1,146.999995513916,8|8,0:0|0:0,0:0:0:0:
200,276,179491,1,0,3:0:0:0:
210,180,179651,2,0,P|217:136|232:86,1,73.4999977569581,10|0,0:0|3:0,0:0:0:0:
172,21,179970,5,10,0:3:0:0:
66,27,180129,1,4,0:3:0:0:
66,27,180209,1,4,0:3:0:0:
66,27,180289,2,0,L|77:77,3,36.749998878479,8|8|4|4,0:0|0:0|0:3|0:3,0:0:0:0:
91,107,180608,2,0,L|80:157,3,36.749998878479,10|8|8|8,0:0|0:0|3:3|0:3,0:0:0:0:
54,181,180927,2,0,L|65:231,3,36.749998878479,8|4|4|4,0:3|0:3|0:3|0:3,0:0:0:0:
89,254,181247,6,0,P|179:225|233:252,1,140,6|10,3:2|0:0,0:0:0:0:
279,306,181725,1,0,3:0:0:0:
207,362,181885,2,0,P|121:370|61:365,1,140,10|10,0:0|0:0,0:0:0:0:
7,296,182364,1,0,3:0:0:0:
38,211,182523,2,0,P|47:149|49:122,2,70,10|0|10,0:0|3:0|0:0,0:0:0:0:
217,240,183161,2,0,P|276:232|293:232,1,70,10|0,0:0|3:0,0:0:0:0:
294,251,183401,1,0,3:0:0:0:
300,271,183481,2,0,P|344:341|410:324,1,140,14|2,0:0|3:2,0:0:0:0:
481,355,183959,5,0,3:0:0:0:
496,265,184119,2,0,P|486:203|481:167,2,70,10|0|10,0:0|3:0|0:0,0:0:0:0:
405,252,184598,1,0,3:0:0:0:
405,252,184757,2,0,P|385:180|440:110,1,140,10|10,0:0|0:0,0:0:0:0:
483,66,185236,2,0,B|426:29|426:29|355:45,1,140,6|0,3:1|3:0,0:0:0:0:
267,69,185715,1,10,0:1:0:0:
95,9,186034,2,0,P|105:57|109:81,1,70,14|4,0:2|3:1,0:0:0:0:
170,144,186353,6,0,P|210:179|311:172,1,140,6|10,3:2|0:0,0:0:0:0:
349,253,186832,2,0,P|292:281|272:298,1,70,2|8,3:2|3:2,0:0:0:0:
237,361,187151,2,0,P|193:337|156:334,1,70,2|8,3:2|0:0,0:0:0:0:
88,365,187470,2,0,P|74:330|35:301,1,70,2|8,3:2|0:0,0:0:0:0:
43,210,187789,5,10,0:0:0:0:
43,210,187869,1,8,0:0:0:0:
43,210,187949,2,0,P|105:225|130:229,1,70,10|0,0:0|3:0,0:0:0:0:
201,237,188268,2,0,B|215:204|215:204|198:165,1,70,10|4,0:3|0:3,0:0:0:0:
160,91,188587,1,10,0:3:0:0:
326,17,188906,5,6,3:1:0:0:
282,97,189066,1,8,0:0:0:0:
282,97,189145,1,8,0:0:0:0:
282,97,189225,2,0,P|299:160|302:184,1,70,4|8,3:2|0:0,0:0:0:0:
299,185,189465,1,8,0:0:0:0:
296,205,189544,2,0,P|346:222|379:227,1,70,4|8,3:2|0:0,0:0:0:0:
430,163,189864,2,0,P|489:164|498:199,1,70,12|4,0:0|3:1,0:0:0:0:
474,256,190183,6,0,P|441:313|421:390,1,140,4|12,3:1|0:0,0:0:0:0:
347,332,190661,1,0,3:0:0:0:
261,363,190821,6,0,L|251:309,2,46.6666666666667,8|8|8,0:0|0:0|0:0,0:0:0:0:
229,283,191140,2,0,L|239:229,2,46.6666666666667,4|4|4,0:3|0:3|0:3,0:0:0:0:
258,195,191459,5,6,3:2:0:0:
335,130,191619,1,8,0:0:0:0:
335,130,191699,2,0,L|319:48,1,70,8|8,0:0|0:0,0:0:0:0:
311,16,191938,2,0,P|275:11|230:44,1,70,8|4,0:0|3:1,0:0:0:0:
183,92,192257,1,12,0:0:0:0:
96,62,192417,1,8,0:0:0:0:
23,137,192576,6,0,P|147:176|179:193,1,140,4|0,3:1|3:0,0:0:0:0:
246,177,193055,2,0,P|226:234|220:270,1,70,10|0,0:0|3:0,0:0:0:0:
138,274,193374,2,0,P|158:330|161:359,1,70,10|0,0:0|3:0,0:0:0:0:
244,372,193693,2,0,P|274:327|309:316,1,70,10|0,0:0|3:0,0:0:0:0:
374,346,194012,5,2,3:2:0:0:
483,200,194332,2,0,P|467:130|464:112,2,70,10|0|10,0:0|3:0|0:0,0:0:0:0:
411,255,194810,1,0,3:0:0:0:
411,255,194970,2,0,B|318:241|386:211|281:191,1,140,10|10,0:0|0:0,0:0:0:0:
317,105,195449,2,0,L|327:55,2,35,2|0|8,3:2|3:0|0:0,0:0:0:0:
234,66,195768,2,0,L|227:31,2,35,0|0|10,3:0|3:0|0:0,0:0:0:0:
162,122,196087,1,4,3:1:0:0:
162,122,196167,1,0,3:0:0:0:
162,122,196247,2,0,L|170:175,3,35,8|8|0|0,0:0|0:0|3:0|3:0,0:0:0:0:
173,201,196566,5,6,3:2:0:0:
291,339,196885,2,0,P|264:302|241:296,1,70,10|0,0:0|3:0,0:0:0:0:
176,359,197204,2,0,P|123:347|97:342,1,70,10|0,0:0|3:0,0:0:0:0:
67,365,197443,2,0,P|45:275|29:235,1,105,8|8,0:0|3:2,0:0:0:0:
16,128,197922,5,8,0:0:0:0:
16,128,198002,2,0,P|81:143|105:143,1,70,0|10,3:0|0:0,0:0:0:0:
173,160,198321,2,0,P|187:124|175:83,1,70,8|2,0:0|3:2,0:0:0:0:
144,10,198640,1,8,0:0:0:0:
234,20,198800,2,0,P|268:24|301:35,1,70,10|0,0:0|3:0,0:0:0:0:
396,71,199119,5,6,3:2:0:0:
330,134,199278,1,8,0:0:0:0:
330,134,199358,1,8,0:0:0:0:
330,134,199438,2,0,P|340:182|347:215,1,70,2|8,3:2|0:0,0:0:0:0:
262,243,199757,2,0,P|252:291|245:324,1,70,2|8,3:2|0:0,0:0:0:0:
316,370,200076,5,14,0:0:0:0:
398,330,200236,1,0,3:0:0:0:
482,364,200395,2,0,P|499:320|484:287,1,70,2|0,3:2|3:0,0:0:0:0:
433,229,200715,2,0,P|446:151|449:135,1,70,10|0,0:0|3:0,0:0:0:0:
480,76,201034,6,0,L|420:62,2,46.6666666666667,8|8|8,0:0|0:0|0:0,0:0:0:0:
393,47,201353,2,0,L|347:57,2,46.6666666666667,4|4|4,0:3|0:3|0:3,0:0:0:0:
302,77,201672,5,6,3:1:0:0:
234,344,202151,1,10,0:1:0:0:
234,344,202310,2,0,P|281:294|259:207,1,140,2|8,3:1|0:1,0:0:0:0:
227,148,202789,1,2,3:1:0:0:
227,148,202949,2,0,P|141:162|67:169,1,140,2|0,3:1|3:0,0:0:0:0:
44,263,203427,1,2,3:1:0:0:
44,263,203587,2,0,P|130:249|204:242,1,140,10|8,0:1|0:1,0:0:0:0:
259,302,204066,1,2,3:1:0:0:
259,302,204225,6,0,B|316:189|208:222|275:84,1,210,6|0,3:1|0:0,0:0:0:0:
6,18,205183,2,0,P|21:76|24:102,1,70,2|0,0:0|0:0,0:0:0:0:
31,176,205502,2,0,P|113:172|146:47,1,210,6|0,3:2|0:0,0:0:0:0:
256,192,206778,12,2,212044,0:0:0:0:
