osu file format v14

[General]
AudioFilename: audio.mp3
AudioLeadIn: 0
PreviewTime: 59970
Countdown: 0
SampleSet: Soft
StackLeniency: 0.7
Mode: 0
LetterboxInBreaks: 0
WidescreenStoryboard: 0

[Editor]
Bookmarks: 61247,91885,102098,116140,136566,160821,181247,191459
DistanceSpacing: 1.1
BeatDivisor: 4
GridSize: 4
TimelineZoom: 2.1

[Metadata]
Title:Fade:Alone
TitleUnicode:Fade:Alone
Artist:Imy
ArtistUnicode:Imy
Creator:iBell
Version:Easy
Source:
Tags:jrock bellicose AuroraE アイミー みゅー miyu myu Meteora 藍月なくる aitsuki nakuru featured artist fa mappers' guild mpg japanese rock
BeatmapID:2704332
BeatmapSetID:1304195

[Difficulty]
HPDrainRate:2.5
CircleSize:3
OverallDifficulty:3.5
ApproachRate:4.5
SliderMultiplier:0.799999999999999
SliderTickRate:1

[Events]
//Background and Video events
0,0,"a.jpg",0,0
//Break Periods
2,26778,35731
2,84425,90625
2,139319,146157
2,161021,164667
//Storyboard Layer 0 (Background)
//Storyboard Layer 1 (Fail)
//Storyboard Layer 2 (Pass)
//Storyboard Layer 3 (Foreground)
//Storyboard Layer 4 (Overlay)
//Storyboard Sound Samples

[TimingPoints]
1247,319.148936170213,4,2,1,30,1,0
1247,-100,4,2,1,30,0,0
10183,-100,4,2,1,50,0,0
11459,-100,4,2,1,60,0,0
24225,-111.111111111111,4,2,1,50,0,0
25183,-111.111111111111,4,2,1,40,0,0
26778,-111.111111111111,4,2,1,30,0,0
34438,-111.111111111111,4,2,1,40,0,0
36991,-111.111111111111,4,2,1,50,0,0
39544,-111.111111111111,4,2,1,50,0,0
39864,-111.111111111111,4,2,1,50,0,0
42098,-111.111111111111,4,2,1,50,0,0
42417,-111.111111111111,4,2,1,50,0,0
44651,-111.111111111111,4,2,1,60,0,0
46247,-111.111111111111,4,2,1,60,0,0
46566,-111.111111111111,4,2,1,60,0,0
47204,-111.111111111111,4,2,1,50,0,0
47842,-111.111111111111,4,2,1,50,0,0
48161,-111.111111111111,4,2,1,50,0,0
48640,-111.111111111111,4,2,1,50,0,0
48959,-111.111111111111,4,2,1,50,0,0
51353,-111.111111111111,4,2,1,50,0,0
51672,-111.111111111111,4,2,1,50,0,0
52949,-111.111111111111,4,2,1,50,0,0
53268,-111.111111111111,4,2,1,50,0,0
53587,-111.111111111111,4,2,1,50,0,0
53906,-111.111111111111,4,2,1,50,0,0
56778,-111.111111111111,4,2,1,40,0,0
57417,-111.111111111111,4,2,1,40,0,0
57895,-111.111111111111,4,2,1,40,0,0
58374,-111.111111111111,4,2,1,40,0,0
58693,-100,4,2,1,60,0,0
59970,-111.111111111111,4,2,1,40,0,0
61247,-95.2380952380952,4,2,1,70,0,1
64917,-95.2380952380952,4,2,1,70,0,1
65236,-95.2380952380952,4,2,1,70,0,1
81672,-100,4,2,1,70,0,0
91247,-100,4,2,1,50,0,0
91885,-111.111111111111,4,2,1,50,0,0
99544,-111.111111111111,4,2,1,60,0,0
102098,-111.111111111111,4,2,1,50,0,0
111672,-111.111111111111,4,2,1,40,0,0
113587,-100,4,2,1,60,0,0
114864,-111.111111111111,4,2,1,40,0,0
116140,-95.2380952380952,4,2,1,70,0,1
136566,-95.2380952380952,4,2,1,70,0,0
146778,-95.2380952380952,4,2,1,50,0,0
147417,-111.111111111111,4,2,1,50,0,0
156034,-111.111111111111,4,2,1,40,0,0
158268,-100,4,2,1,60,0,0
161300,-100,4,2,1,40,0,0
165927,-95.2380952380952,4,2,1,70,0,1
181247,-100,4,2,1,65,0,0
204225,-111.111111111111,4,2,1,55,0,0
205183,-111.111111111111,4,2,1,45,0,0
212044,-111.111111111111,4,2,1,25,0,0

[Colours]
Combo1 : 202,115,244
Combo2 : 149,223,251
Combo3 : 81,159,255
Combo4 : 219,172,251

[HitObjects]
61,56,11459,6,0,P|96:113|191:119,1,160,6|10,3:2|0:0,0:0:0:0:
240,55,12417,2,0,P|340:40|411:29,1,160,10|10,0:2|0:0,0:0:0:0:
482,55,13374,1,10,0:2:0:0:
488,230,14012,6,0,B|401:222|436:287|343:288,1,160,2|10,3:2|0:0,0:0:0:0:
276,341,14970,1,10,0:0:0:0:
149,378,15449,1,6,3:1:0:0:
38,306,15927,1,10,0:1:0:0:
187,213,16566,6,0,P|201:141|222:47,1,160,6|10,3:2|0:0,0:0:0:0:
147,6,17523,1,10,0:0:0:0:
60,19,17842,2,0,P|6:45|16:138,1,160,2|10,3:2|0:0,0:0:0:0:
167,217,19119,2,0,B|233:200|233:200|244:177|244:177|312:159,1,160,6|2,3:2|3:2,0:0:0:0:
393,137,20076,1,6,3:2:0:0:
504,273,20715,1,10,0:0:0:0:
466,352,21034,6,0,P|391:332|309:325,1,160,8|6,0:0|3:1,0:0:0:0:
177,325,22151,2,0,L|187:276,1,40,10|2,0:1|3:1,0:0:0:0:
288,203,22789,2,0,L|283:150,1,40,2|2,3:1|3:1,0:0:0:0:
185,75,23427,2,0,L|195:22,1,40,2|10,3:1|0:1,0:0:0:0:
34,50,24225,2,0,B|51:126|51:126|14:173|14:173|31:264,1,215.999993408203,6|2,3:1|0:0,0:0:0:0:
47,327,25502,2,0,B|158:295|132:382|255:345,1,215.999993408203,6|0,0:0|0:0,0:0:0:0:
446,64,36991,6,0,P|380:78|295:94,1,143.999995605469,4|2,3:2|3:2,0:0:0:0:
208,22,38108,2,0,P|160:52|157:105,1,107.999996704102,10|10,0:0|0:0,0:0:0:0:
174,176,38906,1,2,3:2:0:0:
250,195,39225,1,10,0:0:0:0:
326,213,39544,2,0,P|368:252|347:328,1,143.999995605469,6|2,3:2|3:2,0:0:0:0:
234,368,40661,6,0,P|177:362|119:341,1,107.999996704102,10|10,0:0|0:0,0:0:0:0:
51,329,41459,2,0,P|66:258|69:251,1,71.9999978027344,2|10,3:2|0:0,0:0:0:0:
54,180,42098,1,2,3:2:0:0:
28,64,42576,2,0,B|131:62|93:124|207:113,1,179.999994506836,2|2,0:0|3:2,0:0:0:0:
351,86,44012,6,0,P|360:25|365:0,2,71.9999978027344,2|10|6,3:2|0:3|3:1,0:0:0:0:
475,184,45289,1,10,0:0:0:0:
432,336,45927,1,10,0:0:0:0:
275,363,46566,2,0,P|249:305|283:232,1,143.999995605469,2|4,3:2|3:1,0:0:0:0:
346,91,47842,5,10,0:0:0:0:
207,13,48481,2,0,P|155:17|106:88,1,143.999995605469,2|10,0:0|0:0,0:0:0:0:
42,135,49438,2,0,P|63:198|83:316,1,179.999994506836,2|0,3:2|3:0,0:0:0:0:
185,372,50715,1,10,0:0:0:0:
264,369,51034,1,14,0:0:0:0:
309,303,51353,2,0,B|241:156|350:197|288:52,1,251.99999230957,6|0,3:1|3:0,0:0:0:0:
181,16,52949,5,10,0:0:0:0:
190,94,53268,1,2,3:2:0:0:
139,154,53587,2,0,P|74:149|40:111,2,107.999996704102,6|2|2,3:2|3:2|3:2,0:0:0:0:
228,232,55023,1,2,0:0:0:0:
336,183,55502,2,0,P|399:197|493:214,1,143.999995605469,10|4,0:0|3:1,0:0:0:0:
265,373,58693,6,0,B|293:323|293:323|266:211,1,160,10|4,0:0|0:3,0:0:0:0:
208,158,59651,1,8,0:0:0:0:
237,80,59970,1,2,3:2:0:0:
92,14,60608,1,2,0:0:0:0:
11,180,61247,6,0,P|76:195|131:227,1,125.999996154785,6|2,3:2|3:2,0:0:0:0:
160,358,62204,2,0,B|267:345|190:301|326:297,1,167.999994873047,10|8,0:0|0:0,0:0:0:0:
395,335,63161,1,0,3:0:0:0:
469,279,63481,1,10,0:0:0:0:
447,189,63800,6,0,P|464:110|466:52,1,125.999996154785,2|2,3:2|3:2,0:0:0:0:
338,11,64757,2,0,P|287:25|290:133,1,167.999994873047,10|8,0:0|0:0,0:0:0:0:
337,199,65715,1,8,0:0:0:0:
295,281,66034,1,8,0:0:0:0:
202,276,66353,6,0,P|196:216|183:180,2,83.9999974365234,6|10|2,3:2|0:0|3:2,0:0:0:0:
142,346,67310,2,0,P|95:360|50:355,2,83.9999974365234,10|2|10,0:2|3:2|0:0,0:0:0:0:
202,276,68268,1,2,3:2:0:0:
300,374,68747,2,0,P|332:328|409:318,1,125.999996154785,2|0,0:0|0:0,0:0:0:0:
459,245,69544,2,0,P|470:168|475:149,1,83.9999974365234,10|2,0:0|3:0,0:0:0:0:
494,72,70183,1,2,0:0:0:0:
373,16,70661,2,0,P|306:52|167:56,1,209.999993591309,2|4,0:1|3:1,0:0:0:0:
88,23,71778,5,10,0:0:0:0:
22,88,72098,2,0,P|42:154|44:221,1,125.999996154785,10|2,0:0|3:2,0:0:0:0:
21,300,72895,1,2,3:2:0:0:
86,366,73215,1,2,3:2:0:0:
222,343,73693,5,10,0:0:0:0:
182,259,74012,2,0,P|182:198|208:133,1,125.999996154785,10|2,0:0|3:2,0:0:0:0:
283,89,74810,2,0,P|280:46|267:4,1,83.9999974365234,2|2,3:2|3:2,0:0:0:0:
404,29,75608,1,14,0:0:0:0:
473,89,75927,1,14,0:0:0:0:
470,181,76247,2,0,P|443:238|441:265,1,83.9999974365234,10|4,0:0|3:1,0:0:0:0:
440,350,76885,5,10,0:0:0:0:
348,359,77204,2,0,P|342:292|335:274,1,83.9999974365234,2|10,3:2|0:0,0:0:0:0:
279,204,77842,1,2,3:2:0:0:
321,72,78321,2,0,P|280:35|205:52,1,125.999996154785,2|10,3:2|0:0,0:0:0:0:
123,62,79119,2,0,P|160:133|184:223,1,167.999994873047,10|8,0:0|0:0,0:0:0:0:
128,291,80076,1,10,0:0:0:0:
185,363,80395,2,0,P|284:323|349:319,2,167.999994873047,10|10|6,0:3|0:0|3:2,0:0:0:0:
256,192,81832,12,4,84225,0:1:0:0:
145,40,91885,6,0,P|77:43|38:142,1,179.999994506836,4|2,3:1|0:3,0:0:0:0:
53,213,93002,1,2,0:3:0:0:
229,123,93800,2,0,P|317:134|386:146,1,143.999995605469,8|4,0:0|3:2,0:0:0:0:
470,209,94917,1,4,3:2:0:0:
411,356,95555,2,0,P|367:349|347:287,1,107.999996704102,2|8,0:0|0:0,0:0:0:0:
357,216,96353,2,0,P|369:171|374:134,2,71.9999978027344,8|8|6,0:0|0:0|3:2,0:0:0:0:
254,275,97470,5,2,0:0:0:0:
180,303,97789,1,2,3:2:0:0:
102,318,98108,2,0,P|82:250|63:204,1,107.999996704102,10|8,0:0|0:0,0:0:0:0:
76,136,98906,6,0,P|35:110|0:112,2,71.9999978027344,2|10|2,3:2|0:0|3:2,0:0:0:0:
210,51,100183,1,10,0:0:0:0:
346,131,100821,1,10,0:3:0:0:
306,284,101459,2,0,B|393:296|358:345|451:340,1,143.999995605469,2|4,3:2|3:1,0:0:0:0:
500,196,102736,5,10,0:0:0:0:
434,51,103374,2,0,P|356:81|291:100,1,143.999995605469,2|10,0:0|0:0,0:0:0:0:
243,40,104332,2,0,P|188:31|142:137,1,179.999994506836,2|0,3:2|3:0,0:0:0:0:
225,206,105608,1,10,0:0:0:0:
169,262,105927,1,14,0:0:0:0:
173,342,106247,2,0,P|97:361|35:218,1,251.99999230957,6|0,3:1|3:0,0:0:0:0:
44,111,107842,5,10,0:0:0:0:
120,130,108161,1,2,3:2:0:0:
197,148,108481,2,0,P|222:68|241:42,2,107.999996704102,6|2|2,3:2|3:2|3:2,0:0:0:0:
311,180,109917,1,2,0:0:0:0:
373,280,110395,2,0,P|361:342|279:375,1,143.999995605469,10|4,0:0|3:1,0:0:0:0:
210,27,113587,6,0,P|251:56|246:171,1,160,10|4,0:0|0:3,0:0:0:0:
339,186,114544,1,8,0:0:0:0:
404,132,114864,1,2,3:2:0:0:
496,260,115502,1,2,0:0:0:0:
349,371,116140,6,0,B|300:358|300:358|285:330|285:330|237:312,1,125.999996154785,6|2,3:2|3:2,0:0:0:0:
110,351,117098,2,0,B|82:275|82:275|144:190,1,167.999994873047,10|8,0:0|0:0,0:0:0:0:
223,223,118055,1,0,3:0:0:0:
297,169,118374,1,10,0:0:0:0:
305,77,118693,6,0,P|288:31|211:22,1,125.999996154785,2|2,3:2|3:2,0:0:0:0:
80,32,119651,2,0,B|95:134|148:71|167:177,1,167.999994873047,10|8,0:0|0:0,0:0:0:0:
75,189,120608,1,8,0:0:0:0:
46,276,120927,1,8,0:0:0:0:
137,263,121247,6,0,P|125:324|122:345,2,83.9999974365234,6|10|2,3:2|0:0|3:2,0:0:0:0:
224,233,122204,2,0,P|235:177|240:143,2,83.9999974365234,10|2|10,0:2|3:2|0:0,0:0:0:0:
284,303,123161,1,2,3:2:0:0:
383,205,123640,2,0,P|353:154|365:83,1,125.999996154785,2|0,0:0|0:0,0:0:0:0:
428,25,124438,2,0,P|485:36|503:66,1,83.9999974365234,10|2,0:0|3:0,0:0:0:0:
504,146,125076,1,2,0:0:0:0:
500,284,125555,2,0,B|363:285|449:355|304:367,1,209.999993591309,2|4,0:1|3:1,0:0:0:0:
230,330,126672,5,10,0:0:0:0:
264,244,126991,2,0,P|289:184|272:119,1,125.999996154785,10|2,0:0|3:2,0:0:0:0:
350,69,127789,1,2,3:2:0:0:
280,8,128108,1,2,3:2:0:0:
141,31,128587,5,10,0:0:0:0:
51,6,128906,2,0,P|35:69|79:116,1,125.999996154785,10|2,0:0|3:2,0:0:0:0:
117,192,129704,2,0,P|72:207|25:217,1,83.9999974365234,2|2,3:2|3:2,0:0:0:0:
28,353,130502,1,14,0:0:0:0:
119,358,130821,1,14,0:0:0:0:
209,374,131140,2,0,P|221:297|222:276,1,83.9999974365234,10|4,0:0|3:1,0:0:0:0:
227,198,131778,5,10,0:0:0:0:
208,107,132098,2,0,P|221:83|281:60,1,83.9999974365234,2|10,3:2|0:0,0:0:0:0:
359,34,132736,1,2,3:2:0:0:
486,89,133215,2,0,B|456:143|510:153|471:218,1,125.999996154785,2|10,3:2|0:0,0:0:0:0:
388,243,134012,2,0,P|409:289|316:356,1,167.999994873047,10|8,0:0|0:0,0:0:0:0:
243,347,134970,1,10,0:0:0:0:
273,259,135289,2,0,P|290:154|294:85,2,167.999994873047,10|10|6,0:3|0:0|3:2,0:0:0:0:
256,192,136725,12,4,139119,0:1:0:0:
127,368,147417,5,10,0:0:0:0:
37,237,148055,2,0,P|68:141|73:89,1,143.999995605469,2|10,0:0|0:0,0:0:0:0:
122,37,149012,2,0,P|182:18|269:85,1,179.999994506836,6|0,3:2|3:0,0:0:0:0:
204,184,150289,1,10,0:0:0:0:
189,261,150608,1,14,0:0:0:0:
219,333,150927,2,0,B|396:325|273:252|463:250,1,251.99999230957,6|0,3:1|3:0,0:0:0:0:
501,144,152523,5,10,0:0:0:0:
486,66,152842,1,2,3:2:0:0:
420,22,153161,2,0,P|369:42|351:94,2,107.999996704102,6|2|2,3:2|3:2|3:2,0:0:0:0:
495,113,154598,1,2,0:0:0:0:
431,213,155076,2,0,P|421:286|408:363,1,143.999995605469,10|4,0:0|3:1,0:0:0:0:
48,209,158268,6,0,B|82:229|82:229|131:220,1,79.9999999999999,8|8,0:0|0:3,0:0:0:0:
207,200,158906,2,0,P|197:279|186:358,1,160,8|4,0:0|3:1,0:0:0:0:
256,106,160821,1,4,0:0:0:0:
113,118,165927,6,0,P|102:62|103:29,2,83.9999974365234,6|10|10,3:2|0:0|0:0,0:0:0:0:
199,152,166885,2,0,P|262:122|279:104,2,83.9999974365234,2|10|10,3:2|0:2|0:0,0:0:0:0:
124,206,167842,1,10,0:0:0:0:
16,293,168321,2,0,B|91:304|51:338|140:350,1,125.999996154785,8|0,0:0|0:0,0:0:0:0:
216,368,169119,2,0,P|225:292|227:271,1,83.9999974365234,10|2,0:0|3:0,0:0:0:0:
283,212,169757,1,2,0:0:0:0:
419,240,170236,2,0,B|487:184|487:184|457:57,1,209.999993591309,2|4,0:1|3:1,0:0:0:0:
377,20,171353,5,10,0:0:0:0:
287,43,171672,2,0,B|226:26|226:26|163:71,1,125.999996154785,10|2,0:0|3:2,0:0:0:0:
145,150,172470,1,2,3:2:0:0:
236,165,172789,1,2,3:2:0:0:
344,251,173268,5,10,0:0:0:0:
292,327,173587,2,0,P|270:361|189:367,1,125.999996154785,10|2,0:0|3:2,0:0:0:0:
99,350,174385,2,0,P|110:294|122:263,1,83.9999974365234,2|2,3:2|3:2,0:0:0:0:
231,187,175183,1,14,3:2:0:0:
220,95,175502,1,14,3:2:0:0:
209,3,175821,2,0,P|137:24|117:27,1,83.9999974365234,14|4,3:2|3:1,0:0:0:0:
45,66,176459,5,10,0:0:0:0:
106,134,176778,2,0,P|119:189|108:219,1,83.9999974365234,2|10,3:2|0:0,0:0:0:0:
49,282,177417,1,2,3:2:0:0:
155,370,177895,2,0,P|173:308|231:287,1,125.999996154785,2|10,3:2|0:0,0:0:0:0:
316,305,178693,2,0,P|306:215|286:134,1,167.999994873047,10|8,0:0|0:0,0:0:0:0:
248,56,179651,1,10,0:0:0:0:
331,16,179970,2,0,P|353:60|473:93,2,167.999994873047,10|10|6,0:3|0:0|3:2,0:0:0:0:
256,192,181406,12,2,183800,3:2:0:0:
118,27,186034,6,0,P|128:71|136:116,1,79.9999999999999,14|6,0:2|3:2,0:0:0:0:
36,194,186832,1,2,3:2:0:0:
51,280,187151,1,2,3:2:0:0:
67,366,187470,2,0,P|123:377|188:348,1,120,2|10,3:2|0:0,0:0:0:0:
268,359,188268,2,0,P|271:297|277:264,1,79.9999999999999,10|10,0:3|0:3,0:0:0:0:
211,217,188906,2,0,P|251:165|258:94,1,120,6|8,3:1|0:0,0:0:0:0:
368,36,189864,5,12,0:0:0:0:
455,30,190183,2,0,P|486:62|447:169,2,160,4|8|6,3:1|0:0|3:2,0:0:0:0:
256,192,191619,12,0,194012,3:0:0:0:
455,304,195927,5,10,0:0:0:0:
327,276,196406,1,2,3:2:0:0:
256,192,196566,12,6,199119,3:2:0:0:
67,359,201034,6,0,P|119:367|183:283,1,160,8|6,0:0|3:1,0:0:0:0:
314,278,202151,2,0,L|323:230,1,40,10|2,0:1|3:1,0:0:0:0:
208,170,202789,2,0,L|202:117,1,40,2|2,3:1|3:1,0:0:0:0:
314,58,203427,2,0,L|320:5,1,40,2|10,3:1|0:1,0:0:0:0:
494,31,204225,2,0,B|434:142|524:133|474:245,1,215.999993408203,6|2,3:1|0:0,0:0:0:0:
474,318,205502,2,0,B|392:324|392:324|363:361|363:361|265:368,1,215.999993408203,6|0,3:2|0:0,0:0:0:0:
256,192,206778,12,2,212044,0:0:0:0:
