osu file format v14

[General]
AudioFilename: audio.mp3
AudioLeadIn: 0
PreviewTime: 59970
Countdown: 0
SampleSet: Soft
StackLeniency: 0.3
Mode: 0
LetterboxInBreaks: 0
WidescreenStoryboard: 1

[Editor]
Bookmarks: 61247,91885,102098,116140,136566,160821,181247,191459
DistanceSpacing: 0.9
BeatDivisor: 4
GridSize: 4
TimelineZoom: 2.1

[Metadata]
Title:Fade:Alone
TitleUnicode:Fade:Alone
Artist:Imy
ArtistUnicode:Imy
Creator:iBell
Version:AuroraE's Expert
Source:
Tags:jrock bellicose AuroraE アイミー みゅー miyu myu Meteora 藍月なくる aitsuki nakuru featured artist fa mappers' guild mpg japanese rock
BeatmapID:4501623
BeatmapSetID:1304195

[Difficulty]
HPDrainRate:5
CircleSize:4
OverallDifficulty:8.5
ApproachRate:9.2
SliderMultiplier:1.8
SliderTickRate:1

[Events]
//Background and Video events
0,0,"a.jpg",0,0
//Break Periods
2,26978,35145
2,84425,90677
2,139319,146208
2,161140,165038
//Storyboard Layer 0 (Background)
//Storyboard Layer 1 (Fail)
//Storyboard Layer 2 (Pass)
//Storyboard Layer 3 (Foreground)
//Storyboard Layer 4 (Overlay)
//Storyboard Sound Samples

[TimingPoints]
1247,319.148936170213,4,2,1,30,1,0
1247,-133.333333333333,4,2,1,30,0,0
10183,-133.333333333333,4,2,1,50,0,0
11140,-100,4,2,1,50,0,0
11459,-83.3333333333333,4,2,1,60,0,0
20395,-100,4,2,1,60,0,0
21672,-83.3333333333333,4,2,1,60,0,0
24225,-133.333333333333,4,2,1,50,0,0
25183,-133.333333333333,4,2,1,40,0,0
26778,-133.333333333333,4,2,1,30,0,0
34438,-133.333333333333,4,2,1,40,0,0
35715,-100,4,2,1,40,0,0
36991,-90.9090909090909,4,2,1,50,0,0
44651,-90.9090909090909,4,2,1,60,0,0
46247,-83.3333333333333,4,2,1,60,0,0
47204,-83.3333333333333,4,2,1,50,0,0
47523,-100,4,2,1,50,0,0
56778,-100,4,2,1,40,0,0
58693,-100,4,2,1,60,0,0
59970,-100,4,2,1,40,0,0
61247,-71.4285714285714,4,2,1,70,0,0
76885,-83.3333333333333,4,2,1,70,0,0
79119,-71.4285714285714,4,2,1,70,0,0
91247,-71.4285714285714,4,2,1,50,0,0
94438,-83.3333333333333,4,2,1,50,0,0
99544,-83.3333333333333,4,2,1,60,0,0
102098,-133.333333333333,4,2,1,50,0,0
102417,-100,4,2,1,50,0,0
110395,-83.3333333333333,4,2,1,50,0,0
111672,-83.3333333333333,4,2,1,40,0,0
113587,-83.3333333333333,4,2,1,60,0,0
114864,-83.3333333333333,4,2,1,40,0,0
116140,-71.4285714285714,4,2,1,70,0,0
131778,-83.3333333333333,4,2,1,70,0,0
134012,-71.4285714285714,4,2,1,70,0,0
136566,-83.3333333333333,4,2,1,70,0,0
146778,-100,4,2,1,50,0,0
156034,-100,4,2,1,40,0,0
158268,-100,4,2,1,60,0,0
158906,-76.9230769230769,4,2,1,60,0,0
161300,-76.9230769230769,4,2,1,40,0,0
165927,-76.9230769230769,4,2,1,70,0,0
167842,-71.4285714285714,4,2,1,70,0,0
176459,-83.3333333333333,4,2,1,70,0,0
178693,-71.4285714285714,4,2,1,70,0,0
181247,-71.4285714285714,4,2,1,65,0,0
183800,-71.4285714285714,4,2,1,65,0,0
191778,-133.333333333333,4,2,1,65,0,0
191938,-50,4,2,1,65,0,0
193055,-83.3333333333333,4,2,1,65,0,0
197204,-62.5,4,2,1,65,0,0
200395,-71.4285714285714,4,2,1,65,0,0
204225,-100,4,2,1,55,0,0
205183,-100,4,2,1,45,0,0
212044,-100,4,2,1,25,0,0

[Colours]
Combo1 : 202,115,244
Combo2 : 149,223,251
Combo3 : 81,159,255
Combo4 : 219,172,251

[HitObjects]
18,294,1247,5,2,0:0:0:0:
93,310,1406,2,0,P|168:303|198:228,1,135.000005149842,2|0,0:0|0:0,0:0:0:0:
216,134,1885,1,2,0:0:0:0:
216,134,2204,5,2,0:0:0:0:
265,201,2364,2,0,P|314:221|344:202,1,67.5000025749208,2|0,0:0|0:0,0:0:0:0:
471,220,2683,2,0,P|405:173|402:113,1,135.000005149842,2|0,0:0|0:0,0:0:0:0:
498,57,3161,1,2,0:0:0:0:
487,140,3321,1,2,0:0:0:0:
471,220,3481,2,0,P|463:265|452:303,1,67.5000025749208,2|0,0:0|0:0,0:0:0:0:
319,316,3800,6,0,B|420:306|420:306|512:356,2,202.500007724762,2|2|2,0:0|0:0|0:0,0:0:0:0:
304,138,5076,1,2,0:0:0:0:
237,195,5236,2,0,P|188:108|228:20,1,202.500007724762,2|0,0:0|0:0,0:0:0:0:
226,20,6034,6,0,P|231:66|237:105,1,67.5000025749208,2|0,0:0|0:0,0:0:0:0:
237,195,6353,2,0,P|170:297|28:307,1,270.000010299683,2|0,0:0|0:0,0:0:0:0:
31,308,7151,2,0,P|24:268|16:220,2,67.5000025749208,0|2|0,0:0|0:0|0:0,0:0:0:0:
88,365,7629,1,0,0:0:0:0:
248,311,7949,1,2,0:0:0:0:
88,365,8108,2,0,P|118:298|187:277,1,135.000005149842,2|0,0:0|0:0,0:0:0:0:
295,207,8587,5,2,0:0:0:0:
298,194,8693,5,2,0:0:0:0:
301,181,8800,5,2,0:0:0:0:
285,141,8906,5,2,0:0:0:0:
256,192,8986,12,0,10103,0:0:0:0:
56,20,10183,5,8,0:0:0:0:
43,50,10262,1,8,3:0:0:0:
33,82,10342,1,8,3:0:0:0:
53,109,10422,1,4,0:3:0:0:
78,131,10502,2,0,L|127:121,1,33.7500012874604,4|4,0:3|0:3,0:0:0:0:
194,172,10661,5,8,0:0:0:0:
213,199,10741,1,8,0:3:0:0:
229,228,10821,1,8,0:3:0:0:
216,259,10901,1,4,0:3:0:0:
199,288,10981,2,0,L|143:303,1,33.7500012874604,4|4,0:3|0:3,0:0:0:0:
47,341,11140,2,0,P|46:288|110:279,1,90,8|0,0:0|3:0,0:0:0:0:
281,264,11459,5,6,3:2:0:0:
213,308,11619,1,0,3:2:0:0:
160,249,11778,1,10,0:0:0:0:
304,383,11938,2,0,P|319:277|344:150,1,215.999993408203,0|0,3:2|3:0,0:0:0:0:
391,38,12417,5,10,0:2:0:0:
462,177,12576,1,0,3:2:0:0:
459,21,12736,1,10,0:2:0:0:
441,93,12895,1,0,3:2:0:0:
312,4,13055,2,0,P|303:58|292:111,1,107.999996704102,10|0,0:0|3:0,0:0:0:0:
205,180,13374,5,10,0:2:0:0:
128,205,13534,1,0,3:2:0:0:
68,149,13693,1,14,0:2:0:0:
45,156,13853,1,4,3:1:0:0:
0,279,14012,6,0,P|40:308|114:292,1,107.999996704102,2|0,3:2|0:0,0:0:0:0:
188,260,14332,1,8,0:0:0:0:
206,336,14491,1,0,3:0:0:0:
195,266,14651,1,10,0:0:0:0:
280,363,14810,1,0,3:0:0:0:
411,294,14970,1,10,0:0:0:0:
339,305,15129,1,0,3:0:0:0:
289,248,15289,1,10,0:0:0:0:
456,170,15449,2,0,P|437:286|419:396,1,215.999993408203,6|0,3:1|3:0,0:0:0:0:
369,227,15927,5,10,0:1:0:0:
354,308,16087,1,0,3:0:0:0:
289,248,16247,2,0,P|276:319|266:371,1,107.999996704102,8|0,0:0|3:0,0:0:0:0:
92,328,16566,5,6,3:2:0:0:
183,345,16725,1,0,3:0:0:0:
205,229,16885,5,10,0:0:0:0:
62,259,17044,1,0,3:0:0:0:
44,125,17204,5,10,0:0:0:0:
230,159,17364,1,0,3:0:0:0:
292,40,17523,2,0,P|248:35|218:86,1,107.999996704102,10|0,0:0|3:0,0:0:0:0:
357,170,17842,6,0,P|370:111|380:54,1,107.999996704102,2|8,3:2|0:0,0:0:0:0:
382,47,18082,1,8,0:0:0:0:
382,47,18161,1,8,0:0:0:0:
444,95,18321,1,0,3:0:0:0:
393,252,18481,5,10,0:0:0:0:
504,218,18640,1,8,0:3:0:0:
282,235,18800,1,10,0:0:0:0:
192,152,18959,1,4,0:3:0:0:
314,384,19119,5,6,3:2:0:0:
353,176,19278,2,0,P|358:152|369:103,2,53.9999983520508,10|8|2,0:0|0:0|3:2,0:0:0:0:
378,327,19598,1,10,0:0:0:0:
410,334,19677,1,8,0:0:0:0:
442,319,19757,1,2,3:2:0:0:
475,240,19917,1,8,0:0:0:0:
364,123,20076,1,6,3:2:0:0:
215,196,20236,1,8,0:0:0:0:
118,149,20395,2,0,L|132:240,2,90,10|4|10,0:0|3:1|0:0,0:0:0:0:
103,71,20874,1,0,3:0:0:0:
231,22,21034,5,8,0:0:0:0:
258,53,21140,5,8,0:0:0:0:
246,93,21247,5,8,0:0:0:0:
206,112,21353,5,4,0:3:0:0:
195,152,21459,5,4,0:3:0:0:
221,184,21566,5,4,0:3:0:0:
265,171,21672,6,0,P|258:248|251:300,1,107.999996704102,6|0,3:1|3:0,0:0:0:0:
249,377,21991,1,0,3:0:0:0:
249,377,22151,1,10,0:1:0:0:
76,332,22310,2,0,P|41:237|127:138,1,215.999993408203,2|8,3:1|0:1,0:0:0:0:
265,171,22789,5,2,3:1:0:0:
343,157,22949,2,0,P|337:134|331:104,1,53.9999983520508,2|0,3:1|0:0,0:0:0:0:
308,25,23108,1,8,0:1:0:0:
418,131,23268,1,0,3:0:0:0:
265,171,23427,1,2,3:1:0:0:
425,240,23587,2,0,P|456:214|517:175,1,107.999996704102,10|0,0:1|3:0,0:0:0:0:
322,268,23906,2,0,P|274:262|209:258,1,107.999996704102,8|2,0:1|3:1,0:0:0:0:
434,110,24225,6,0,B|464:87|389:7|319:127|360:188,1,202.500007724762,6|0,3:1|0:0,0:0:0:0:
357,183,25183,2,0,L|280:174,1,67.5000025749208,2|0,0:0|0:0,0:0:0:0:
143,205,25502,2,0,B|46:207|69:34|324:119|326:235|289:344|289:344|301:292|360:272,1,540.000020599366,6|2,0:0|0:0,0:0:0:0:
8,327,35715,6,0,P|52:274|108:326,1,135,2|0,0:0|0:0,0:0:0:0:
107,315,36034,1,0,0:0:0:0:
188,340,36193,2,0,P|256:365|295:310,1,135,2|0,0:0|0:0,0:0:0:0:
290,311,36512,2,0,P|348:235|449:301,1,225,2|0,0:0|0:0,0:0:0:0:
425,297,36991,6,0,B|391:260|391:260|417:175,1,99.0000030212403,4|0,3:2|0:0,0:0:0:0:
449,143,37310,1,8,0:0:0:0:
510,306,37470,1,2,0:0:0:0:
427,380,37629,1,2,3:2:0:0:
320,343,37789,2,0,P|308:270|292:176,1,148.50000453186,2|0,3:2|0:0,0:0:0:0:
286,163,38108,6,0,P|276:219|265:272,1,99.0000030212403,10|0,0:0|0:0,0:0:0:0:
359,120,38427,1,0,3:0:0:0:
202,142,38587,1,8,0:0:0:0:
210,56,38747,1,0,0:0:0:0:
130,93,38906,2,0,P|67:112|44:214,1,148.50000453186,2|0,3:2|0:0,0:0:0:0:
32,207,39225,2,0,P|141:248|151:355,2,198.000006042481,10|6|8,0:0|3:2|0:0,0:0:0:0:
93,105,40023,5,2,0:0:0:0:
194,74,40183,1,2,3:2:0:0:
281,142,40342,2,0,P|263:215|247:297,1,148.50000453186,2|0,3:2|0:0,0:0:0:0:
262,298,40661,2,0,B|263:237|330:221|330:221|358:285|426:261,1,198.000006042481,10|0,0:0|3:0,0:0:0:0:
443,372,41140,2,0,P|489:358|513:315,1,99.0000030212403,10|0,0:0|0:0,0:0:0:0:
489,203,41459,1,2,3:2:0:0:
408,186,41619,1,0,3:0:0:0:
268,224,41778,2,0,P|226:207|221:99,1,148.50000453186,10|0,0:0|0:0,0:0:0:0:
231,101,42098,6,0,P|205:32|124:99,1,198.000006042481,2|8,3:2|0:0,0:0:0:0:
219,216,42576,2,0,P|255:221|283:228,1,49.5000015106202,2|0,0:0|0:0,0:0:0:0:
336,266,42736,2,0,P|402:252|416:205,1,99.0000030212403,0|0,3:0|0:0,0:0:0:0:
444,160,43055,1,8,0:0:0:0:
373,355,43294,5,8,0:0:0:0:
373,355,43374,1,2,3:2:0:0:
276,318,43534,1,2,0:0:0:0:
205,384,43693,1,10,0:0:0:0:
284,332,43853,1,2,0:0:0:0:
270,231,44012,5,2,3:2:0:0:
289,320,44172,1,8,0:0:0:0:
186,160,44332,2,0,P|139:173|84:182,1,99.0000030212403,10|4,0:3|0:3,0:0:0:0:
215,1,44651,5,6,3:1:0:0:
191,80,44810,1,0,3:0:0:0:
169,164,44970,1,0,3:0:0:0:
152,249,45129,1,2,3:2:0:0:
308,225,45289,2,0,B|341:279|341:279|317:352,1,99.0000030212403,10|0,0:0|3:0,0:0:0:0:
320,334,45528,1,0,3:0:0:0:
320,334,45608,1,0,3:0:0:0:
254,384,45768,1,0,3:0:0:0:
255,171,45927,5,10,0:0:0:0:
188,335,46087,1,0,3:0:0:0:
167,181,46247,2,0,B|120:222|120:222|142:308,1,107.999996704102,8|0,0:2|0:0,0:0:0:0:
255,171,46566,5,2,3:2:0:0:
380,266,46725,1,8,0:0:0:0:
380,266,46805,1,8,0:0:0:0:
380,266,46885,2,0,B|392:222|392:222|345:181,2,107.999996704102,8|8|4,0:0|0:0|3:1,0:0:0:0:
470,56,47523,5,0,3:0:0:0:
476,133,47683,2,0,L|487:202,1,45,0|0,3:0|0:0,0:0:0:0:
488,198,47842,2,0,B|342:139|374:322|201:232,1,270,10|0,0:0|3:0,0:0:0:0:
256,100,48481,2,0,P|290:144|271:198,1,90,2|8,0:0|0:0,0:0:0:0:
241,249,48800,1,0,0:0:0:0:
241,249,48959,1,0,3:0:0:0:
173,191,49119,2,0,B|131:183|131:183|175:230,1,90,10|0,0:0|3:0,0:0:0:0:
122,382,49438,2,0,P|130:331|66:261,1,135,2|0,3:2|0:0,0:0:0:0:
69,267,49757,5,0,3:0:0:0:
274,383,49917,2,0,L|335:370,1,45,0|0,3:0|0:0,0:0:0:0:
241,249,50076,1,8,0:0:0:0:
205,327,50236,1,0,3:0:0:0:
386,334,50395,2,0,L|403:211,1,90,0|0,0:0|3:0,0:0:0:0:
424,53,50715,5,10,0:0:0:0:
443,138,50874,1,0,3:0:0:0:
291,122,51034,1,14,0:0:0:0:
321,279,51193,1,10,0:0:0:0:
163,254,51353,2,0,P|83:304|69:401,2,180,6|0|8,3:1|3:0|0:0,0:0:0:0:
163,254,52151,6,0,L|175:189,1,45,0|0,3:0|0:0,0:0:0:0:
69,111,52310,1,0,0:0:0:0:
89,254,52470,1,0,3:0:0:0:
241,241,52629,2,0,L|335:218,1,90,0|0,0:0|3:0,0:0:0:0:
504,95,52949,6,0,P|484:127|344:116,1,180,10|2,0:0|3:2,0:0:0:0:
232,121,53427,2,0,P|245:85|270:75,1,45,4|0,3:1|0:0,0:0:0:0:
346,22,53587,2,0,P|333:94|307:217,1,180,6|0,3:2|3:0,0:0:0:0:
199,267,54066,1,2,3:2:0:0:
298,195,54225,2,0,P|284:262|267:336,1,135,8|0,0:0|0:0,0:0:0:0:
284,332,54544,2,0,B|168:372,1,90,2|0,3:2|3:0,0:0:0:0:
24,239,54864,5,8,0:0:0:0:
47,273,54970,5,8,0:0:0:0:
51,314,55076,5,8,0:3:0:0:
69,332,55183,5,8,0:3:0:0:
76,290,55289,5,4,0:3:0:0:
110,266,55395,5,4,0:3:0:0:
146,284,55502,6,0,L|233:251,1,90,10|8,0:0|0:3,0:0:0:0:
250,265,55741,1,8,0:3:0:0:
250,265,55821,1,4,0:3:0:0:
311,183,55981,1,0,3:0:0:0:
408,211,56140,1,4,3:1:0:0:
170,0,58693,5,10,0:0:0:0:
142,35,58773,1,8,0:3:0:0:
138,80,58853,1,8,0:3:0:0:
160,119,58933,1,4,0:3:0:0:
196,144,59012,2,0,P|222:148|247:153,1,45,4|4,0:3|0:3,0:0:0:0:
317,142,59172,5,8,0:0:0:0:
345,177,59252,1,8,0:3:0:0:
349,222,59332,1,8,0:3:0:0:
327,261,59412,1,4,0:3:0:0:
291,286,59491,2,0,P|264:290|240:295,1,45,4|4,0:3|0:3,0:0:0:0:
147,311,59651,5,8,0:0:0:0:
137,350,59731,1,8,0:0:0:0:
156,384,59810,1,0,3:0:0:0:
54,209,59970,5,2,3:2:0:0:
431,247,60289,1,2,0:0:0:0:
175,270,60608,1,2,0:0:0:0:
326,206,60927,1,2,0:0:0:0:
38,130,61247,6,0,B|87:111|91:50|91:50|165:125|282:101,1,251.999992309571,6|8,3:2|0:0,0:0:0:0:
404,166,61725,2,0,P|410:135|414:103,1,62.9999980773926,2|0,3:2|0:0,0:0:0:0:
408,284,61885,2,0,P|469:305|481:202,1,188.999994232178,0|0,3:0|0:0,0:0:0:0:
512,100,62204,2,0,P|332:152|98:210,1,377.999988464356,10|0,0:0|3:0,0:0:0:0:
0,205,62842,5,8,0:0:0:0:
33,351,63002,1,0,3:0:0:0:
65,380,63082,1,0,3:0:0:0:
108,380,63161,1,0,3:0:0:0:
231,323,63321,1,0,3:0:0:0:
188,88,63481,6,0,P|266:73|336:178,1,188.999994232178,10|0,0:0|0:0,0:0:0:0:
364,234,63800,2,0,P|368:312|377:374,1,125.999996154785,2|0,3:2|3:0,0:0:0:0:
439,180,64119,1,8,0:0:0:0:
415,311,64278,2,0,P|314:307|290:226,1,188.999994232178,2|0,3:2|0:0,0:0:0:0:
276,224,64598,2,0,P|244:248|196:252,1,62.9999980773926,0|0,3:0|0:0,0:0:0:0:
163,12,64757,6,0,P|126:149|3:232,1,251.999992309571,10|0,0:0|3:0,0:0:0:0:
20,219,65156,1,0,3:0:0:0:
20,219,65236,1,8,0:0:0:0:
64,46,65395,1,8,0:0:0:0:
221,159,65555,1,8,0:3:0:0:
215,202,65635,1,8,0:3:0:0:
176,220,65715,1,8,0:0:0:0:
190,48,65874,1,4,0:3:0:0:
190,48,65954,1,4,0:3:0:0:
190,48,66034,2,0,P|267:58|351:173,1,188.999994232178,8|0,0:0|0:0,0:0:0:0:
357,148,66353,5,6,3:2:0:0:
377,260,66512,1,2,0:0:0:0:
265,319,66672,2,0,B|250:238|250:238|324:182,1,125.999996154785,10|0,0:0|0:0,0:0:0:0:
146,140,66991,2,0,B|161:221|161:221|87:277,1,125.999996154785,2|0,3:2|0:0,0:0:0:0:
65,339,67310,5,10,0:2:0:0:
45,227,67469,1,2,0:2:0:0:
67,116,67629,2,0,B|95:41|95:41|148:56,1,125.999996154785,2|0,3:2|0:0,0:0:0:0:
216,266,67949,2,0,B|188:341|188:341|135:326,1,125.999996154785,10|0,0:0|0:0,0:0:0:0:
45,227,68268,6,0,P|111:208|258:154,1,188.999994232178,2|0,3:2|0:0,0:0:0:0:
239,163,68587,1,10,0:0:0:0:
216,266,68747,2,0,P|256:251|296:237,1,62.9999980773926,2|0,0:0|0:0,0:0:0:0:
434,260,68906,6,0,B|479:299|479:299|450:377,2,125.999996154785,2|2|0,3:0|3:0|0:0,0:0:0:0:
454,180,69385,1,0,3:0:0:0:
454,180,69465,1,0,3:0:0:0:
454,180,69544,2,0,P|400:100|427:48,1,125.999996154785,10|0,0:0|0:0,0:0:0:0:
324,16,69864,1,2,3:0:0:0:
324,110,70023,2,0,P|315:155|298:247,1,125.999996154785,2|0,3:0|0:0,0:0:0:0:
180,347,70342,6,0,P|174:312|168:270,1,62.9999980773926,2|0,3:1|0:0,0:0:0:0:
94,356,70502,2,0,P|82:283|72:221,1,125.999996154785,8|2,0:0|0:1,0:0:0:0:
74,33,70821,2,0,P|129:9|221:86,1,188.999994232178,0|8,3:0|0:0,0:0:0:0:
264,147,71140,1,8,0:0:0:0:
260,178,71220,1,8,0:0:0:0:
255,209,71300,1,8,0:0:0:0:
251,239,71379,1,8,0:0:0:0:
267,263,71459,2,0,P|330:252|410:236,1,125.999996154785,4|0,3:1|0:0,0:0:0:0:
486,271,71778,5,10,0:0:0:0:
471,352,71938,1,0,3:0:0:0:
264,349,72098,1,10,0:0:0:0:
395,316,72257,1,0,3:0:0:0:
219,148,72417,1,10,0:0:0:0:
183,318,72576,1,2,3:2:0:0:
45,126,72736,5,8,0:0:0:0:
148,185,72895,1,2,3:2:0:0:
124,102,73055,1,8,0:0:0:0:
69,208,73215,1,2,3:2:0:0:
250,224,73374,5,8,0:0:0:0:
385,98,73534,1,0,3:0:0:0:
385,98,73614,1,0,3:0:0:0:
385,98,73693,6,0,P|363:175|347:261,1,125.999996154785,10|0,0:0|3:0,0:0:0:0:
410,349,74012,5,10,0:0:0:0:
433,276,74172,1,0,3:0:0:0:
359,295,74332,1,10,0:0:0:0:
508,344,74491,1,2,3:2:0:0:
379,195,74651,1,8,0:0:0:0:
314,384,74810,1,2,3:2:0:0:
183,250,74970,5,8,0:0:0:0:
273,310,75129,2,0,P|253:202|222:45,1,251.999992309571,2|0,3:2|3:0,0:0:0:0:
317,19,75608,5,14,0:0:0:0:
469,46,75768,1,0,3:0:0:0:
479,181,75927,1,14,0:0:0:0:
342,101,76087,1,0,3:0:0:0:
342,101,76167,1,0,0:0:0:0:
342,101,76247,2,0,P|417:147|451:313,1,251.999992309571,10|4,0:0|3:1,0:0:0:0:
92,181,76885,6,0,P|85:250|79:305,1,107.999996704102,10|0,0:0|0:0,0:0:0:0:
178,195,77204,2,0,P|184:149|190:79,1,107.999996704102,2|0,3:2|0:0,0:0:0:0:
123,19,77523,2,0,P|52:30|24:112,1,161.999995056153,10|0,0:0|0:0,0:0:0:0:
30,122,77842,1,2,3:2:0:0:
92,181,78002,2,0,P|147:182|214:191,1,107.999996704102,2|8,3:2|0:0,0:0:0:0:
199,188,78321,6,0,L|189:125,1,53.9999983520508,2|0,3:2|0:0,0:0:0:0:
261,241,78481,2,0,P|245:297|224:364,1,107.999996704102,0|0,3:0|3:0,0:0:0:0:
225,358,78720,1,0,3:0:0:0:
225,358,78800,1,10,0:0:0:0:
155,317,78959,1,0,3:0:0:0:
443,322,79119,5,10,0:0:0:0:
307,354,79278,1,0,3:0:0:0:
262,135,79438,5,8,0:0:0:0:
284,275,79598,1,0,3:0:0:0:
68,274,79757,5,8,0:0:0:0:
205,251,79917,1,0,3:0:0:0:
0,194,80076,6,0,P|63:211|82:285,1,125.999996154785,10|0,0:0|3:0,0:0:0:0:
212,69,80395,2,0,P|147:91|129:164,1,125.999996154785,10|4,0:3|0:3,0:0:0:0:
134,159,80635,1,4,0:3:0:0:
134,159,80715,1,8,0:0:0:0:
202,211,80874,1,4,0:3:0:0:
307,162,81034,2,0,P|312:127|321:70,1,62.9999980773926,10|0,0:0|0:0,0:0:0:0:
331,24,81193,1,0,3:0:0:0:
385,205,81353,2,0,P|496:150|481:4,1,251.999992309571,8|6,0:3|3:2,0:0:0:0:
256,192,81752,12,4,84225,0:1:0:0:
248,55,91247,5,10,0:0:0:0:
238,112,91353,5,10,0:0:0:0:
227,169,91459,5,10,0:3:0:0:
249,182,91566,5,10,0:3:0:0:
255,196,91672,5,6,0:3:0:0:
261,210,91778,5,6,0:3:0:0:
258,235,91885,6,0,L|226:352,1,62.9999980773926,4|0,3:1|0:0,0:0:0:0:
48,206,94438,6,0,B|46:148|46:148|84:217,1,107.999996704102,4|0,3:2|0:0,0:0:0:0:
52,286,94677,1,4,3:1:0:0:
107,339,94917,1,4,3:2:0:0:
256,236,95076,5,8,0:0:0:0:
256,380,95236,1,0,3:0:0:0:
405,339,95395,5,0,3:0:0:0:
460,286,95634,1,0,3:0:0:0:
464,206,95874,1,0,3:0:0:0:
311,163,96034,6,0,P|351:151|424:121,1,107.999996704102,8|0,0:0|3:0,0:0:0:0:
200,163,96353,2,0,P|161:151|88:121,1,107.999996704102,8|0,0:0|3:0,0:0:0:0:
255,29,96672,1,8,0:0:0:0:
256,236,96832,1,8,0:0:0:0:
207,309,96991,6,0,P|130:329|67:279,1,161.999995056153,6|0,3:2|0:0,0:0:0:0:
72,254,97310,1,8,0:0:0:0:
175,207,97470,2,0,P|169:153|163:99,1,107.999996704102,2|0,0:0|3:0,0:0:0:0:
245,60,97789,1,2,3:2:0:0:
245,60,97949,1,0,0:0:0:0:
256,236,98108,2,0,P|349:248|397:195,1,161.999995056153,10|0,0:0|0:0,0:0:0:0:
393,189,98427,5,0,3:0:0:0:
311,333,98587,1,8,0:0:0:0:
392,356,98747,1,0,3:0:0:0:
499,297,98906,6,0,P|512:235|479:184,1,107.999996704102,2|0,3:2|3:0,0:0:0:0:
346,42,99225,2,0,P|349:125|412:203,1,161.999995056153,10|0,0:0|0:0,0:0:0:0:
403,209,99544,2,0,B|363:176|363:176|293:208,1,107.999996704102,2|0,3:2|3:0,0:0:0:0:
314,222,99784,1,0,3:0:0:0:
314,222,99864,1,8,0:0:0:0:
256,380,100023,1,2,3:2:0:0:
143,309,100183,5,10,0:0:0:0:
113,285,100262,1,8,0:0:0:0:
119,247,100342,1,8,0:0:0:0:
300,128,100502,1,0,3:0:0:0:
212,128,100661,1,8,0:0:0:0:
256,290,100821,5,10,0:3:0:0:
369,309,100981,1,0,3:0:0:0:
399,285,101060,1,0,3:0:0:0:
393,247,101140,1,8,0:3:0:0:
256,290,101300,1,4,0:3:0:0:
256,380,101459,1,2,3:2:0:0:
256,150,101619,1,0,3:0:0:0:
256,290,101778,2,0,B|300:195|196:182|255:74,1,215.999993408203,8|4,0:0|3:1,0:0:0:0:
35,29,102417,5,0,3:0:0:0:
82,92,102577,2,0,L|91:167,1,45,0|0,3:0|0:0,0:0:0:0:
90,154,102736,2,0,B|226:190|196:44|346:82,1,270,10|0,0:0|3:0,0:0:0:0:
473,216,103375,2,0,P|427:227|371:208,1,90,2|8,0:0|0:0,0:0:0:0:
318,165,103694,1,0,0:0:0:0:
318,165,103853,1,0,3:0:0:0:
395,122,104013,2,0,B|441:117|441:117|403:148,1,90,10|0,0:0|3:0,0:0:0:0:
235,145,104332,2,0,P|224:84|275:25,1,135,2|0,3:2|0:0,0:0:0:0:
284,30,104651,5,0,3:0:0:0:
153,165,104811,2,0,P|124:161|89:164,1,45,0|0,3:0|0:0,0:0:0:0:
130,35,104970,1,8,0:0:0:0:
181,88,105130,1,0,3:0:0:0:
42,201,105289,2,0,P|10:171|17:94,1,90,0|0,0:0|3:0,0:0:0:0:
235,145,105609,5,10,0:0:0:0:
253,224,105768,1,0,3:0:0:0:
123,215,105928,1,14,0:0:0:0:
171,384,106087,1,10,0:0:0:0:
329,202,106247,2,0,P|390:226|363:339,1,180,6|0,3:1|3:0,0:0:0:0:
252,205,106725,5,0,3:0:0:0:
252,205,106805,1,0,3:0:0:0:
252,205,106885,2,0,P|251:176|273:138,1,45,8|0,0:0|0:0,0:0:0:0:
383,326,107044,2,0,P|375:362|368:390,1,45,0|0,3:0|0:0,0:0:0:0:
285,384,107204,1,0,0:0:0:0:
211,321,107364,1,0,3:0:0:0:
336,171,107523,2,0,P|343:220|357:280,1,90,0|0,0:0|3:0,0:0:0:0:
499,178,107842,6,0,P|502:158|515:75,1,90,10|0,0:0|0:0,0:0:0:0:
446,11,108161,2,0,P|436:76|429:142,1,90,2|4,3:2|3:1,0:0:0:0:
496,273,108481,2,0,P|445:331|342:296,1,180,6|0,3:2|3:0,0:0:0:0:
258,384,108960,1,2,3:2:0:0:
351,292,109119,2,0,P|285:262|222:312,1,135,8|0,0:0|0:0,0:0:0:0:
237,304,109438,2,0,P|192:324|148:300,1,90,2|0,3:2|3:0,0:0:0:0:
24,223,109757,5,8,0:0:0:0:
52,191,109864,5,8,0:0:0:0:
39,151,109970,5,8,0:3:0:0:
70,134,110076,5,8,0:3:0:0:
111,141,110183,5,4,0:3:0:0:
130,177,110289,5,4,0:3:0:0:
154,209,110396,6,0,P|204:220|278:251,1,107.999996704102,10|0,0:0|0:0,0:0:0:0:
358,175,110635,2,0,P|307:160|234:133,1,107.999996704102,8|0,0:3|0:0,0:0:0:0:
248,126,110875,1,0,3:0:0:0:
259,321,111034,1,4,3:1:0:0:
325,384,113587,5,10,0:0:0:0:
343,344,113667,1,8,0:3:0:0:
356,302,113747,1,8,0:3:0:0:
334,264,113827,1,4,0:3:0:0:
307,230,113906,2,0,P|281:226|255:218,1,53.9999983520508,4|4,0:3|0:3,0:0:0:0:
174,248,114066,5,8,0:0:0:0:
156,208,114146,1,8,0:3:0:0:
143,166,114226,1,8,0:3:0:0:
165,128,114306,1,4,0:3:0:0:
192,94,114385,2,0,P|218:90|247:81,1,53.9999983520508,4|4,0:3|0:3,0:0:0:0:
345,75,114545,5,8,0:0:0:0:
359,34,114625,1,8,0:0:0:0:
332,0,114704,1,0,3:0:0:0:
458,142,114864,5,2,0:0:0:0:
63,108,115183,1,2,3:2:0:0:
318,109,115502,1,2,0:0:0:0:
192,163,115821,1,2,0:0:0:0:
415,301,116141,6,0,B|411:369|337:375|337:375|318:313|234:300,1,251.999992309571,6|8,3:2|0:0,0:0:0:0:
318,166,116619,2,0,L|333:257,1,62.9999980773926,2|0,3:2|0:0,0:0:0:0:
281,76,116779,2,0,B|353:7|353:7|413:109,1,188.999994232178,0|0,3:0|0:0,0:0:0:0:
474,108,117098,2,0,B|352:81|311:182|350:221|266:322|123:264,1,377.999988464356,10|0,0:0|3:0,0:0:0:0:
0,236,117736,5,8,0:0:0:0:
135,200,117896,1,0,3:0:0:0:
170,173,117976,1,0,3:0:0:0:
158,130,118055,1,0,3:0:0:0:
81,29,118215,1,0,3:0:0:0:
0,137,118375,6,0,P|23:261|29:335,1,188.999994232178,10|0,0:0|0:0,0:0:0:0:
115,325,118694,2,0,P|187:342|209:384,1,125.999996154785,2|0,3:2|3:0,0:0:0:0:
33,336,119013,1,8,0:0:0:0:
250,294,119172,2,0,P|331:253|327:130,1,188.999994232178,2|0,3:2|0:0,0:0:0:0:
324,150,119492,2,0,P|329:180|334:212,1,62.9999980773926,0|0,3:0|0:0,0:0:0:0:
420,384,119651,6,0,B|422:286|422:286|463:252|463:252|485:116,1,251.999992309571,10|0,0:0|3:0,0:0:0:0:
470,127,120050,1,0,0:0:0:0:
470,127,120130,1,8,0:0:0:0:
320,24,120289,1,8,0:0:0:0:
190,165,120449,1,8,0:3:0:0:
147,175,120529,1,8,0:3:0:0:
109,152,120609,1,8,0:0:0:0:
216,36,120768,1,4,0:3:0:0:
216,36,120848,1,4,0:3:0:0:
216,36,120928,2,0,P|307:123|295:211,1,188.999994232178,8|0,0:0|0:0,0:0:0:0:
302,206,121247,5,6,3:2:0:0:
230,228,121406,1,2,0:0:0:0:
209,300,121566,1,10,0:0:0:0:
141,266,121725,1,2,0:0:0:0:
74,302,121885,2,0,P|65:237|50:163,1,125.999996154785,2|0,3:2|0:0,0:0:0:0:
148,68,122204,5,10,0:2:0:0:
223,77,122364,1,2,0:2:0:0:
255,144,122523,1,2,3:2:0:0:
318,104,122682,1,2,0:0:0:0:
384,139,122842,2,0,P|390:96|408:0,1,125.999996154785,10|0,0:0|0:0,0:0:0:0:
512,227,123162,6,0,P|443:226|359:322,1,188.999994232178,2|0,3:2|0:0,0:0:0:0:
362,326,123481,1,10,0:0:0:0:
270,384,123641,2,0,L|280:321,1,62.9999980773926,2|0,0:0|0:0,0:0:0:0:
307,174,123800,6,0,B|297:108|297:108|293:105|293:105|281:37,2,125.999996154785,2|2|0,3:0|3:0|0:0,0:0:0:0:
244,226,124279,1,0,3:0:0:0:
244,226,124359,1,0,3:0:0:0:
244,226,124438,2,0,P|176:248|144:177,1,125.999996154785,10|0,0:0|0:0,0:0:0:0:
36,95,124758,1,2,3:0:0:0:
67,194,124917,2,0,L|37:347,1,125.999996154785,2|0,3:0|0:0,0:0:0:0:
255,384,125236,6,0,L|316:372,1,62.9999980773926,2|0,3:1|0:0,0:0:0:0:
213,315,125396,2,0,P|266:305|343:286,1,125.999996154785,8|2,0:0|0:1,0:0:0:0:
493,148,125715,2,0,P|448:66|332:59,1,188.999994232178,0|8,3:0|0:0,0:0:0:0:
296,100,126034,1,8,0:0:0:0:
292,131,126114,1,8,0:0:0:0:
287,162,126194,1,8,0:0:0:0:
283,192,126273,1,8,0:0:0:0:
267,214,126353,2,0,P|205:226|143:236,1,125.999996154785,4|0,3:1|0:0,0:0:0:0:
47,361,126672,5,10,0:0:0:0:
57,283,126832,1,0,3:0:0:0:
255,290,126992,1,10,0:0:0:0:
135,313,127151,1,0,3:0:0:0:
146,45,127311,1,10,0:0:0:0:
119,227,127470,1,2,3:2:0:0:
252,90,127630,5,8,0:0:0:0:
349,154,127789,1,2,3:2:0:0:
270,173,127949,1,8,0:0:0:0:
332,73,128109,1,2,3:2:0:0:
450,233,128268,1,8,0:0:0:0:
336,352,128428,1,0,3:0:0:0:
336,352,128508,1,0,3:0:0:0:
336,352,128587,2,0,P|348:299|376:177,1,125.999996154785,10|0,0:0|3:0,0:0:0:0:
321,83,128906,5,10,0:0:0:0:
341,11,129066,1,0,3:0:0:0:
395,66,129226,1,10,0:0:0:0:
260,239,129385,1,2,3:2:0:0:
374,146,129545,1,8,0:0:0:0:
512,166,129704,1,2,3:2:0:0:
406,290,129864,1,8,0:0:0:0:
287,163,130023,2,0,P|147:184|90:284,1,251.999992309571,2|0,3:2|3:0,0:0:0:0:
88,357,130502,5,14,0:0:0:0:
13,213,130661,1,0,3:0:0:0:
107,98,130821,1,14,0:0:0:0:
92,270,130981,1,0,3:0:0:0:
92,270,131060,1,0,3:0:0:0:
92,270,131141,2,0,P|226:244|353:223,1,251.999992309571,10|4,0:0|3:1,0:0:0:0:
0,197,131778,6,0,P|10:144|20:90,1,107.999996704102,10|0,0:0|0:0,0:0:0:0:
120,17,132097,2,0,P|109:70|99:122,1,107.999996704102,2|0,3:2|0:0,0:0:0:0:
86,204,132416,2,0,P|166:218|214:126,1,161.999995056153,10|0,0:0|0:0,0:0:0:0:
204,157,132735,1,2,3:2:0:0:
216,277,132895,2,0,L|229:391,1,107.999996704102,2|8,3:2|0:0,0:0:0:0:
228,384,133214,6,0,L|244:311,1,53.9999983520508,2|0,3:2|0:0,0:0:0:0:
369,183,133374,2,0,P|308:189|277:240,1,107.999996704102,0|0,3:0|3:0,0:0:0:0:
301,243,133613,1,0,3:0:0:0:
301,243,133693,1,10,0:0:0:0:
394,257,133852,1,0,3:0:0:0:
417,22,134012,5,10,0:0:0:0:
439,151,134172,1,0,3:0:0:0:
221,223,134332,5,8,0:0:0:0:
369,183,134491,1,0,3:0:0:0:
414,384,134650,5,8,0:0:0:0:
394,257,134810,1,0,3:0:0:0:
281,383,134969,6,0,P|211:364|195:310,1,125.999996154785,10|0,0:0|3:0,0:0:0:0:
223,91,135289,1,10,0:3:0:0:
55,147,135449,5,8,0:0:0:0:
71,187,135528,1,8,0:0:0:0:
105,214,135608,1,8,0:0:0:0:
147,226,135688,1,8,0:0:0:0:
190,219,135768,1,8,0:0:0:0:
228,197,135848,1,8,0:0:0:0:
267,178,135927,1,10,0:0:0:0:
311,176,136007,1,8,0:3:0:0:
351,193,136087,1,8,0:3:0:0:
384,222,136167,1,8,0:3:0:0:
392,265,136247,5,8,0:3:0:0:
390,272,136326,1,4,0:3:0:0:
389,279,136406,1,4,0:3:0:0:
388,285,136486,1,4,0:3:0:0:
386,291,136566,1,6,3:2:0:0:
256,192,136645,12,4,139119,0:1:0:0:
340,168,146778,6,0,P|335:90|429:14,1,180,4|0,3:1|3:0,0:0:0:0:
488,65,147258,2,0,L|497:125,1,45,0|0,3:0|0:0,0:0:0:0:
486,125,147417,2,0,B|360:107|360:107|340:87|340:87|226:71,1,270,10|0,0:0|3:0,0:0:0:0:
85,9,148056,2,0,P|113:71|84:113,1,90,2|8,0:0|0:0,0:0:0:0:
54,156,148375,1,0,0:0:0:0:
54,156,148534,1,0,3:0:0:0:
131,170,148694,2,0,B|190:180|190:180|164:165,1,90,10|0,0:0|3:0,0:0:0:0:
0,306,149013,2,0,P|46:252|106:248,1,135,6|0,3:2|0:0,0:0:0:0:
193,208,149332,5,0,3:0:0:0:
191,255,149411,1,0,3:0:0:0:
175,298,149491,1,0,3:0:0:0:
173,338,149571,1,0,3:0:0:0:
164,368,149651,1,8,0:0:0:0:
106,248,149811,1,0,3:0:0:0:
268,277,149970,2,0,P|315:307|324:362,1,90,0|0,0:0|3:0,0:0:0:0:
478,174,150290,5,10,0:0:0:0:
460,249,150449,1,0,3:0:0:0:
385,35,150609,1,14,0:0:0:0:
345,186,150768,1,10,0:0:0:0:
161,119,150928,2,0,P|210:60|326:76,1,180,6|0,3:1|3:0,0:0:0:0:
85,154,151406,5,0,3:0:0:0:
85,154,151486,1,0,3:0:0:0:
85,154,151566,2,0,L|73:105,1,45,8|0,0:0|0:0,0:0:0:0:
279,138,151725,2,0,L|294:209,1,45,0|0,3:0|0:0,0:0:0:0:
189,260,151885,1,0,0:0:0:0:
161,119,152045,1,0,3:0:0:0:
307,61,152204,2,0,P|353:91|354:143,1,90,0|0,0:0|3:0,0:0:0:0:
372,366,152524,6,0,P|354:309|412:223,1,135,10|0,0:0|0:0,0:0:0:0:
407,243,152842,2,0,P|437:205|408:143,1,90,2|4,3:2|3:1,0:0:0:0:
261,46,153162,2,0,P|324:61|476:101,1,180,6|0,3:2|3:0,0:0:0:0:
234,146,153641,1,2,3:2:0:0:
448,105,153800,2,0,P|383:124|317:139,1,135,8|0,0:0|0:0,0:0:0:0:
316,153,154119,2,0,B|435:183,1,90,2|0,3:2|3:0,0:0:0:0:
442,287,154438,5,8,0:0:0:0:
403,315,154544,5,8,0:0:0:0:
355,306,154651,5,8,0:3:0:0:
339,273,154757,5,8,0:3:0:0:
299,245,154863,5,4,0:3:0:0:
254,263,154970,5,4,0:3:0:0:
239,294,155077,6,0,P|191:310|139:326,1,90,10|8,0:0|0:3,0:0:0:0:
128,335,155316,1,8,0:3:0:0:
128,335,155395,1,4,0:3:0:0:
52,269,155556,1,0,3:0:0:0:
100,189,155715,1,4,3:1:0:0:
325,93,158268,5,8,0:0:0:0:
324,147,158374,5,8,0:0:0:0:
282,181,158481,5,8,0:3:0:0:
228,176,158587,5,8,0:3:0:0:
187,211,158693,5,4,0:3:0:0:
192,265,158800,5,4,0:3:0:0:
239,292,158906,6,0,B|254:199|254:199|260:194|260:194|279:70,2,175.499991966248,8|8|8,0:0|0:0|0:0,0:0:0:0:
196,90,159544,1,4,3:1:0:0:
256,192,159624,12,4,160821,0:0:0:0:
240,100,165608,6,0,P|251:193|262:305,1,175.499991966248,2|0,0:0|0:0,0:0:0:0:
239,384,165927,5,6,3:2:0:0:
144,287,166087,1,10,0:0:0:0:
123,261,166167,1,8,0:0:0:0:
91,253,166247,1,10,0:0:0:0:
273,234,166406,5,0,3:2:0:0:
384,144,166566,1,10,0:0:0:0:
404,118,166646,1,8,0:0:0:0:
436,118,166726,1,8,0:0:0:0:
244,91,166885,5,2,3:2:0:0:
135,32,167044,1,10,0:0:0:0:
112,8,167124,1,8,0:0:0:0:
80,0,167204,1,10,0:2:0:0:
131,146,167364,5,0,3:0:0:0:
263,10,167523,1,10,0:0:0:0:
399,101,167683,1,0,3:0:0:0:
262,100,167842,2,0,B|254:178|254:178|257:186|257:186|242:337,2,188.999994232178,10|8|8,0:0|0:0|0:0,0:0:0:0:
443,17,168481,6,0,P|416:21|369:34,1,62.9999980773926,2|0,3:0|0:0,0:0:0:0:
366,126,168640,2,0,P|432:108|512:94,1,125.999996154785,2|0,3:0|0:0,0:0:0:0:
494,191,168960,1,0,3:0:0:0:
494,191,169040,1,0,3:0:0:0:
494,191,169119,2,0,P|477:268|412:295,1,125.999996154785,10|0,0:0|0:0,0:0:0:0:
323,231,169439,1,2,3:0:0:0:
388,358,169598,2,0,P|319:350|293:276,1,125.999996154785,2|0,3:0|0:0,0:0:0:0:
211,158,169917,6,0,L|199:220,1,62.9999980773926,2|0,3:1|0:0,0:0:0:0:
141,100,170077,2,0,P|125:172|107:253,1,125.999996154785,8|2,0:0|0:1,0:0:0:0:
21,341,170396,2,0,P|75:374|179:278,1,188.999994232178,0|8,3:0|0:0,0:0:0:0:
231,257,170715,1,8,0:0:0:0:
227,226,170795,1,8,0:0:0:0:
222,195,170875,1,8,0:0:0:0:
218,165,170954,1,8,0:0:0:0:
208,144,171034,2,0,P|146:132|84:122,1,125.999996154785,4|0,3:1|0:0,0:0:0:0:
0,122,171353,5,10,0:0:0:0:
13,208,171513,1,0,3:0:0:0:
170,14,171673,1,10,0:0:0:0:
47,48,171832,1,0,3:0:0:0:
165,266,171992,1,10,0:0:0:0:
135,89,172151,1,2,3:2:0:0:
276,302,172311,5,8,0:0:0:0:
369,234,172470,1,2,3:2:0:0:
288,223,172630,1,8,0:0:0:0:
357,314,172790,1,2,3:2:0:0:
470,205,172949,1,8,0:0:0:0:
413,71,173109,1,0,3:0:0:0:
413,71,173189,1,0,3:0:0:0:
413,71,173268,2,0,P|338:54|246:23,1,125.999996154785,10|0,0:0|3:0,0:0:0:0:
111,122,173587,5,10,0:0:0:0:
182,85,173747,1,0,3:0:0:0:
250,124,173907,1,10,0:0:0:0:
34,85,174066,1,2,3:2:0:0:
184,12,174226,1,8,0:0:0:0:
327,91,174385,1,2,3:2:0:0:
178,181,174545,1,8,0:0:0:0:
441,186,174704,2,0,B|366:158|303:230|341:283|266:348|184:324,1,314.999990386963,2|0,3:2|0:0,0:0:0:0:
110,321,175183,5,14,3:2:0:0:
101,278,175262,1,0,3:0:0:0:
86,236,175342,1,0,3:0:0:0:
69,194,175422,1,0,3:0:0:0:
42,158,175502,1,14,3:2:0:0:
80,135,175582,1,0,3:0:0:0:
117,112,175661,1,0,3:0:0:0:
151,84,175741,1,0,3:0:0:0:
184,54,175822,2,0,P|273:168|262:301,1,251.999992309571,14|4,3:2|3:1,0:0:0:0:
448,384,176460,6,0,P|454:336|467:265,1,107.999996704102,10|0,0:0|0:0,0:0:0:0:
413,138,176779,2,0,P|406:194|386:274,1,107.999996704102,2|0,3:2|3:0,0:0:0:0:
371,357,177098,2,0,P|274:372|215:305,1,161.999995056153,10|0,0:0|0:0,0:0:0:0:
214,329,177417,1,2,3:2:0:0:
135,270,177577,2,0,P|128:327|119:388,1,107.999996704102,2|8,3:2|0:0,0:0:0:0:
120,377,177896,2,0,L|106:293,1,53.9999983520508,2|0,3:2|3:0,0:0:0:0:
83,200,178056,2,0,P|112:167|184:184,1,107.999996704102,0|0,3:0|3:0,0:0:0:0:
183,198,178295,1,0,3:0:0:0:
183,198,178375,1,10,0:0:0:0:
248,244,178534,1,0,3:0:0:0:
251,16,178693,5,10,0:0:0:0:
289,150,178853,1,0,3:0:0:0:
469,187,179013,5,8,0:0:0:0:
318,218,179173,1,0,3:0:0:0:
279,384,179332,5,8,0:0:0:0:
248,244,179492,1,0,3:0:0:0:
165,60,179651,6,0,P|204:110|150:167,1,125.999996154785,10|0,0:0|3:0,0:0:0:0:
62,290,179970,2,0,P|87:333|220:314,1,188.999994232178,10|4,0:3|0:3,0:0:0:0:
307,311,180290,5,8,0:0:0:0:
349,300,180370,1,8,0:0:0:0:
383,271,180450,1,4,0:3:0:0:
394,228,180528,1,4,0:3:0:0:
383,185,180609,1,10,0:0:0:0:
354,151,180689,1,8,0:0:0:0:
327,115,180769,1,8,3:3:0:0:
329,70,180849,1,8,0:3:0:0:
363,43,180927,5,8,0:3:0:0:
371,48,181007,1,4,0:3:0:0:
379,52,181087,1,4,0:3:0:0:
386,55,181167,1,4,0:3:0:0:
393,59,181248,1,6,3:2:0:0:
256,192,181326,12,0,183720,0:0:0:0:
198,145,183800,5,2,3:2:0:0:
175,61,183959,1,0,3:0:0:0:
175,61,184039,1,0,3:0:0:0:
175,61,184119,1,10,0:0:0:0:
281,154,184278,1,0,3:0:0:0:
147,224,184438,1,10,0:0:0:0:
286,166,184598,1,0,3:0:0:0:
392,270,184757,1,10,0:0:0:0:
256,308,184917,2,0,P|264:270|271:228,1,62.9999980773926,0|0,3:0|3:0,0:0:0:0:
418,100,185076,5,10,0:0:0:0:
175,61,185236,1,6,3:1:0:0:
311,21,185395,2,0,P|295:106|283:169,1,125.999996154785,8|0,0:0|3:0,0:0:0:0:
161,262,185715,1,10,0:1:0:0:
137,131,185874,1,0,3:0:0:0:
171,356,186034,6,0,P|95:370|26:271,1,188.999994232178,14|0,0:2|0:0,0:0:0:0:
11,285,186353,2,0,P|22:214|39:130,1,125.999996154785,6|0,3:2|0:0,0:0:0:0:
25,40,186672,1,10,0:0:0:0:
205,25,186832,2,0,P|265:32|298:123,1,125.999996154785,2|8,3:2|3:2,0:0:0:0:
460,110,187151,2,0,P|400:117|367:208,1,125.999996154785,2|8,3:2|0:0,0:0:0:0:
221,384,187470,2,0,B|160:295|230:165|308:213|309:238,1,251.999992309571,2|10,3:2|0:0,0:0:0:0:
313,258,187869,1,8,0:0:0:0:
313,258,187949,1,10,0:0:0:0:
128,324,188108,1,0,3:0:0:0:
281,332,188268,5,10,0:3:0:0:
295,181,188427,1,4,0:3:0:0:
205,58,188587,1,10,0:3:0:0:
57,23,188747,1,4,0:3:0:0:
41,248,188906,6,0,P|46:216|50:171,1,62.9999980773926,6|0,3:1|0:0,0:0:0:0:
213,149,189066,1,8,0:0:0:0:
171,161,189145,1,8,0:0:0:0:
135,134,189225,1,4,3:2:0:0:
309,34,189385,1,8,0:0:0:0:
351,22,189464,1,8,0:0:0:0:
387,49,189544,1,4,3:2:0:0:
459,150,189704,2,0,P|462:181|467:212,1,62.9999980773926,8|0,0:0|0:0,0:0:0:0:
425,353,189864,6,0,B|375:312|375:312|405:224,1,125.999996154785,12|4,0:0|3:1,0:0:0:0:
334,101,190183,2,0,P|253:176|120:147,1,251.999992309571,4|12,3:1|0:0,0:0:0:0:
288,32,190661,1,0,3:0:0:0:
113,39,190821,5,8,0:0:0:0:
59,62,190927,5,8,0:0:0:0:
42,118,191034,5,8,0:0:0:0:
71,168,191140,5,4,0:3:0:0:
117,204,191247,5,4,0:3:0:0:
127,261,191353,5,4,0:3:0:0:
100,313,191459,6,0,L|38:328,1,62.9999980773926,6|0,3:2|0:0,0:0:0:0:
0,245,191619,1,8,0:0:0:0:
0,245,191699,1,8,0:0:0:0:
0,245,191778,2,0,B|22:246|22:246|26:247|26:247|43:252,1,33.7500012874604,8|8,0:0|0:0,0:0:0:0:
364,190,191938,2,0,B|358:194|358:194|340:214|340:214|293:246|293:246|291:251|291:251|245:294|245:294|212:345,2,180,8|4|12,0:0|3:1|0:0,0:0:0:0:
175,251,192417,1,8,0:0:0:0:
141,58,192576,2,0,B|82:18|242:-28|312:121|231:201,1,270,4|0,3:1|0:0,0:0:0:0:
239,189,192895,5,0,3:0:0:0:
159,167,193055,1,10,0:0:0:0:
100,229,193215,1,0,3:0:0:0:
72,117,193374,5,10,0:0:0:0:
46,323,193534,1,0,3:0:0:0:
181,274,193693,1,10,0:0:0:0:
184,288,193853,1,0,3:0:0:0:
331,274,194012,5,2,3:2:0:0:
424,319,194172,1,0,3:0:0:0:
256,353,194332,1,10,0:0:0:0:
325,286,194491,2,0,P|341:184|362:56,1,215.999993408203,0|0,3:0|3:0,0:0:0:0:
450,28,194970,1,10,0:0:0:0:
495,102,195129,1,0,3:0:0:0:
428,163,195289,1,10,0:0:0:0:
295,36,195449,5,2,3:2:0:0:
256,53,195528,1,0,3:0:0:0:
216,35,195608,1,8,0:0:0:0:
225,184,195768,5,0,3:0:0:0:
256,196,195848,1,0,3:0:0:0:
285,183,195927,1,10,0:0:0:0:
342,332,196087,5,4,3:1:0:0:
342,332,196167,1,0,3:0:0:0:
342,332,196247,2,0,L|324:420,1,53.9999983520508,8|8,0:0|0:0,0:0:0:0:
187,335,196406,1,0,3:0:0:0:
187,335,196486,1,0,3:0:0:0:
187,335,196566,5,6,3:2:0:0:
0,290,196725,1,0,3:0:0:0:
170,118,196885,5,10,0:0:0:0:
136,266,197044,1,0,3:0:0:0:
462,191,197204,6,0,B|386:178|386:178|382:180|382:180|284:163,1,144,10|0,0:0|3:0,0:0:0:0:
260,57,197443,2,0,B|252:112|252:112|248:117|248:117|234:206,1,144,8|0,0:0|0:0,0:0:0:0:
242,285,197683,2,0,B|281:268|281:268|283:262|283:262|322:248,1,72,8|0,3:2|0:0,0:0:0:0:
439,106,197842,5,0,3:0:0:0:
439,106,197922,1,8,0:0:0:0:
411,263,198082,1,0,3:0:0:0:
411,263,198161,1,10,0:0:0:0:
462,191,198321,1,8,0:0:0:0:
313,347,198481,5,2,3:2:0:0:
290,190,198640,1,8,0:0:0:0:
183,72,198800,1,10,0:0:0:0:
28,38,198959,1,0,3:0:0:0:
270,20,199119,6,0,P|276:69|280:102,1,72,6|0,3:2|0:0,0:0:0:0:
161,234,199278,1,8,0:0:0:0:
139,188,199358,1,8,0:0:0:0:
166,145,199438,1,2,3:2:0:0:
344,255,199598,1,8,0:0:0:0:
366,301,199678,1,8,0:0:0:0:
339,344,199758,1,2,3:2:0:0:
253,191,199917,1,8,0:0:0:0:
228,282,200076,5,14,0:0:0:0:
138,322,200236,1,0,3:0:0:0:
42,292,200395,2,0,P|51:238|62:160,1,125.999996154785,2|0,3:2|3:0,0:0:0:0:
22,72,200715,1,10,0:0:0:0:
95,22,200874,1,0,3:0:0:0:
150,138,201034,5,8,0:0:0:0:
199,127,201140,5,8,0:0:0:0:
248,117,201247,5,8,0:0:0:0:
261,90,201353,5,4,0:3:0:0:
310,100,201459,5,4,0:3:0:0:
359,112,201566,5,4,0:3:0:0:
406,127,201672,5,6,3:1:0:0:
425,231,201832,1,0,3:0:0:0:
364,312,201991,2,0,B|328:302|328:302|297:269,1,62.9999980773926,0|0,3:0|0:0,0:0:0:0:
256,192,202151,1,10,0:1:0:0:
148,312,202310,5,2,3:1:0:0:
148,312,202390,1,0,3:0:0:0:
148,312,202470,2,0,B|184:302|184:302|215:269,1,62.9999980773926,0|0,3:0|0:0,0:0:0:0:
256,192,202629,1,8,0:1:0:0:
257,384,202789,1,2,3:1:0:0:
89,240,202949,5,2,3:1:0:0:
256,45,203108,2,0,L|256:108,1,62.9999980773926,8|0,0:1|0:0,0:0:0:0:
256,291,203268,1,0,3:0:0:0:
423,240,203427,1,2,3:1:0:0:
159,375,203587,2,0,P|104:337|34:312,1,125.999996154785,10|0,0:1|3:0,0:0:0:0:
353,375,203906,2,0,P|408:337|478:312,1,125.999996154785,8|2,0:1|3:1,0:0:0:0:
256,291,204225,6,0,B|148:187|246:55|330:123|314:178,1,270,6|0,3:1|0:0,0:0:0:0:
151,33,205183,5,2,0:0:0:0:
151,33,205342,1,0,0:0:0:0:
151,33,205502,2,0,B|82:45|88:144|174:190|242:71|242:71|199:184|199:184|204:194|204:194|370:137|435:346|300:388|269:373,1,720,6|0,3:2|0:0,0:0:0:0:
256,192,206858,12,2,212044,0:0:0:0:
