osu file format v14

[General]
AudioFilename: audio.mp3
AudioLeadIn: 0
PreviewTime: 66173
Countdown: 0
SampleSet: Soft
StackLeniency: 0.7
Mode: 0
LetterboxInBreaks: 0
WidescreenStoryboard: 1

[Editor]
Bookmarks: 7384,66461,155076,203076,208615,247384,254769
DistanceSpacing: 1
BeatDivisor: 2
GridSize: 8
TimelineZoom: 2.1

[Metadata]
Title:Egoist
TitleUnicode:Egoist
Artist:Imy
ArtistUnicode:Imy
Creator:Aeril
Version:nik's Normal
Source:
Tags:fa featured artist mpg mappers' guild jrock j-rock japanese rock ray of hope nat 2023 qualifiers ql hd1 nominomu ajmosca SupaV Risen nik nikolomara みゅー myu mirin アイミー みりん
BeatmapID:4508131
BeatmapSetID:2004186

[Difficulty]
HPDrainRate:3
CircleSize:3.5
OverallDifficulty:4
ApproachRate:6
SliderMultiplier:0.9
SliderTickRate:1

[Events]
//Background and Video events
0,0,"1.jpg",0,0
//Break Periods
2,51892,61719
2,118353,128180
2,203276,207565
//Storyboard Layer 0 (Background)
//Storyboard Layer 1 (Fail)
//Storyboard Layer 2 (Pass)
//Storyboard Layer 3 (Foreground)
//Storyboard Layer 4 (Overlay)
//Storyboard Sound Samples

[TimingPoints]
0,230.769230769231,4,2,1,80,1,0
14769,-100,4,2,1,70,0,0
22153,-100,4,2,1,60,0,0
26365,-100,4,2,1,5,0,0
26423,-100,4,2,1,60,0,0
29711,-100,4,2,1,5,0,0
29769,-100,4,2,1,60,0,0
33230,-100,4,2,1,65,0,0
36923,-100,4,2,1,70,0,0
38365,-100,4,2,1,5,0,0
38423,-100,4,2,1,70,0,0
42057,-100,4,2,1,5,0,0
42115,-100,4,2,1,70,0,0
47019,-100,4,2,1,5,0,0
47076,-100,4,2,1,70,0,0
48000,-100,4,2,1,65,0,0
49096,-100,4,2,1,5,0,0
49153,-100,4,2,1,65,0,0
62769,-100,4,2,1,70,0,0
66461,-100,4,2,1,75,0,0
67788,-100,4,2,1,5,0,0
67846,-100,4,2,1,75,0,0
68480,-100,4,2,1,5,0,0
68538,-100,4,2,1,75,0,0
70326,-100,4,2,1,5,0,0
70384,-100,4,2,1,75,0,0
72980,-100,4,2,1,5,0,0
73038,-100,4,2,1,75,0,0
74019,-100,4,2,1,5,0,0
74076,-100,4,2,1,75,0,0
75173,-100,4,2,1,5,0,0
75230,-100,4,2,1,75,0,0
75865,-100,4,2,1,5,0,0
75923,-100,4,2,1,75,0,0
77711,-100,4,2,1,5,0,0
77769,-100,4,2,1,75,0,0
79557,-100,4,2,1,5,0,0
79615,-100,4,2,1,75,0,0
81230,-100,4,2,1,80,0,0
88615,-100,4,2,1,60,0,0
99230,-100,4,2,1,65,0,0
100211,-100,4,2,1,5,0,0
100269,-100,4,2,1,65,0,0
103384,-100,4,2,1,70,0,0
113480,-100,4,2,1,5,0,0
113538,-100,4,2,1,70,0,0
132923,-100,4,2,1,75,0,0
134250,-100,4,2,1,5,0,0
134307,-100,4,2,1,75,0,0
136788,-100,4,2,1,5,0,0
136846,-100,4,2,1,75,0,0
139442,-100,4,2,1,5,0,0
139500,-100,4,2,1,75,0,0
140480,-100,4,2,1,5,0,0
140538,-100,4,2,1,75,0,0
141634,-100,4,2,1,5,0,0
141692,-100,4,2,1,75,0,0
142326,-100,4,2,1,5,0,0
142384,-100,4,2,1,75,0,0
144173,-100,4,2,1,5,0,0
144230,-100,4,2,1,75,0,0
146019,-100,4,2,1,5,0,0
146076,-100,4,2,1,75,0,0
147692,-100,4,2,1,80,0,0
155076,-100,4,2,1,75,0,0
155596,-100,4,2,1,5,0,0
155653,-100,4,2,1,75,0,0
164480,-100,4,2,1,5,0,0
164538,-100,4,2,1,75,0,0
169846,-100,4,2,1,70,0,0
184615,-100,4,2,1,65,0,0
192000,-100,4,2,1,70,0,0
203076,-100,4,2,1,50,0,0
208615,-100,4,2,1,70,0,0
210461,-100,4,2,1,75,0,0
210634,-100,4,2,1,5,0,0
210692,-100,4,2,1,75,0,0
211788,-100,4,2,1,5,0,0
211846,-100,4,2,1,75,0,0
214326,-100,4,2,1,5,0,0
214384,-100,4,2,1,75,0,0
216173,-100,4,2,1,5,0,0
216230,-100,4,2,1,75,0,0
217846,-100,4,2,1,70,0,0
227019,-100,4,2,1,5,0,0
227076,-100,4,2,1,70,0,0
230711,-100,4,2,1,5,0,0
230769,-100,4,2,1,65,0,0
231807,-100,4,2,1,65,0,0
232615,-100,4,2,1,75,0,0
244211,-100,4,2,1,5,0,0
244269,-100,4,2,1,75,0,0
254711,-100,4,2,1,5,0,0

[Colours]
Combo1 : 238,188,17
Combo2 : 169,201,250
Combo3 : 236,171,250
Combo4 : 227,38,137

[HitObjects]
220,325,7384,6,0,P|173:336|116:337,1,90,4|0,1:2|3:0,0:0:0:0:
99,369,7730,2,0,P|44:346|32:262,1,135,8|8,1:0|1:0,0:0:0:0:
89,157,8423,1,8,1:0:0:0:
24,38,8769,1,8,1:0:0:0:
106,2,9000,1,8,1:0:0:0:
182,48,9230,2,0,P|226:60|271:62,1,90,8|0,1:0|3:0,0:0:0:0:
306,35,9576,2,0,P|338:81|304:167,1,135,8|8,1:0|1:0,0:0:0:0:
212,235,10269,1,8,1:0:0:0:
268,357,10615,1,8,1:0:0:0:
357,343,10846,1,8,1:0:0:0:
439,377,11076,6,0,P|464:344|472:293,1,90,8|0,1:0|3:0,0:0:0:0:
501,262,11423,2,0,P|458:213|393:220,1,135,8|8,1:0|1:0,0:0:0:0:
260,201,12115,1,8,1:0:0:0:
190,85,12461,1,8,1:0:0:0:
256,23,12692,1,8,1:0:0:0:
344,37,12923,2,0,P|353:80|359:129,1,90,8|0,1:0|3:0,0:0:0:0:
395,152,13269,2,0,P|403:210|320:273,1,135,8|8,1:0|1:0,0:0:0:0:
222,275,13961,1,8,1:0:0:0:
110,351,14307,1,8,1:0:0:0:
26,316,14538,1,8,1:0:0:0:
59,229,14769,6,0,P|71:174|72:115,1,90,4|0,1:2|3:0,0:0:0:0:
104,107,15115,2,0,P|97:51|24:-6,2,135,0|0|0,1:0|1:0|1:0,0:0:0:0:
180,218,16153,1,0,1:0:0:0:
253,165,16384,1,0,1:0:0:0:
326,219,16615,2,0,P|373:233|422:251,1,90,0|0,1:0|3:0,0:0:0:0:
455,236,16961,2,0,P|486:277|493:369,2,135,0|0|0,1:0|1:0|1:0,0:0:0:0:
502,109,18000,1,0,1:0:0:0:
459,30,18230,1,0,1:0:0:0:
369,41,18461,6,0,P|294:26|256:9,1,90,0|0,1:0|3:0,0:0:0:0:
244,46,18807,2,0,P|258:94|270:184,2,135,0|0|0,1:0|1:0|1:0,0:0:0:0:
114,7,19846,1,0,1:0:0:0:
41,60,20076,1,0,1:0:0:0:
76,142,20307,2,0,P|75:201|65:244,1,90,0|0,1:0|3:0,0:0:0:0:
29,252,20653,2,0,P|26:315|111:363,1,135,0|0,1:0|1:0,0:0:0:0:
200,307,21346,2,0,P|265:322|291:340,1,90,0|0,1:0|1:0,0:0:0:0:
324,314,21692,2,0,P|324:269|316:224,1,90,0|0,3:0|3:0,0:0:0:0:
250,163,22153,6,0,P|269:98|277:31,2,135,4|4|8,3:2|3:3|1:0,0:0:0:0:
88,146,23307,1,8,1:0:0:0:
26,296,23769,1,8,1:0:0:0:
165,378,24230,1,8,1:0:0:0:
292,278,24692,1,8,1:0:0:0:
336,210,24923,2,0,P|386:251|391:328,2,135,4|8|8,3:0|3:0|1:0,0:0:0:0:
277,153,25846,6,0,P|264:81|266:12,2,135,4|4|8,3:0|3:0|1:0,0:0:0:0:
152,256,27000,1,8,1:0:0:0:
10,177,27461,1,8,1:0:0:0:
20,96,27692,1,2,3:2:0:0:
95,67,27923,2,0,B|211:94|137:118|258:136,1,180,0|8,1:0|1:0,0:0:0:0:
338,128,28615,2,0,P|337:61|303:2,2,135,0|2|8,3:0|3:1|1:0,0:0:0:0:
386,192,29538,6,0,P|365:250|361:329,2,135,4|4|8,3:0|3:0|1:0,0:0:0:0:
509,87,30692,1,8,1:0:0:0:
367,7,31153,1,8,1:0:0:0:
298,50,31384,2,0,P|237:40|200:24,1,90,4|0,3:2|1:0,0:0:0:0:
177,5,31730,2,0,P|127:26|135:124,1,135,8|0,3:0|3:0,0:0:0:0:
160,166,32307,2,0,P|138:221|126:265,1,90,0|8,1:0|1:0,0:0:0:0:
91,264,32653,2,0,P|84:320|140:367,1,135,0|0,1:0|3:0,0:0:0:0:
220,359,33230,6,0,P|289:336|354:328,1,135,4|2,3:2|3:2,0:0:0:0:
460,381,33923,1,2,3:2:0:0:
510,323,34153,2,0,P|497:279|492:235,1,90,10|0,1:0|3:0,0:0:0:0:
497,194,34500,2,0,P|473:145|386:129,1,135,2|2,3:2|3:2,0:0:0:0:
343,182,35076,2,0,P|303:165|224:149,1,90,10|0,1:0|3:0,0:0:0:0:
223,176,35423,2,0,P|189:115|214:51,1,135,0|2,3:0|3:2,0:0:0:0:
136,20,36000,2,0,L|47:37,1,90,10|0,1:0|3:0,0:0:0:0:
4,105,36461,2,0,L|21:193,1,90,0|0,1:0|1:0,0:0:0:0:
79,249,36923,6,0,P|137:221|228:230,1,135,4|0,3:2|3:0,0:0:0:0:
237,247,37384,1,0,0:0:0:0:
311,214,37615,2,0,P|294:131|287:52,1,135,8|0,1:0|3:0,0:0:0:0:
261,50,38076,2,0,P|294:6|421:22,1,180,8|8,1:0|1:0,0:0:0:0:
490,6,38769,2,0,P|507:46|502:172,1,135,0|0,3:0|3:0,0:0:0:0:
484,165,39230,1,0,0:0:0:0:
503,243,39461,2,0,B|477:292|477:362|477:362|438:348|378:349,1,180,8|8,1:0|1:0,0:0:0:0:
343,373,40153,2,0,P|298:329|295:295,1,90,0|8,3:0|1:0,0:0:0:0:
345,241,40615,6,0,B|334:167|305:206|298:98,1,135,0|0,3:0|3:0,0:0:0:0:
326,86,41076,1,2,0:0:0:0:
283,16,41307,2,0,P|220:41|201:141,1,135,8|0,1:0|3:0,0:0:0:0:
153,109,41769,2,0,P|159:160|153:239,1,90,8|0,1:0|0:0,0:0:0:0:
117,268,42230,1,8,1:0:0:0:
43,232,42461,1,0,3:0:0:0:
0,384,42923,6,0,P|43:357|115:344,1,90,0|8,3:0|1:0,0:0:0:0:
129,281,43384,2,0,P|171:294|209:318,1,90,0|8,3:0|1:0,0:0:0:0:
269,374,43846,2,0,P|312:347|384:334,1,90,2|8,0:0|1:0,0:0:0:0:
426,362,44307,5,4,3:2:0:0:
490,312,44538,1,8,1:0:0:0:
477,231,44769,2,0,P|474:186|461:143,1,90,0|8,3:0|1:0,0:0:0:0:
484,110,45115,2,0,P|468:54|385:34,1,135,0|8,3:0|1:0,0:0:0:0:
326,61,45692,2,0,P|286:62|225:23,1,90,0|8,3:0|1:0,0:0:0:0:
177,90,46153,2,0,P|153:141|153:226,2,135,4|0|8,3:2|3:0|1:0,0:0:0:0:
124,28,47076,2,0,P|44:34|20:74,1,90,4|4,3:0|3:0,0:0:0:0:
0,39,47423,2,0,P|22:93|18:179,1,135,8|0,3:0|1:0,0:0:0:0:
61,238,48000,6,0,P|121:263|151:304,1,90,4|0,1:2|3:0,0:0:0:0:
177,275,48346,2,0,P|192:334|215:374,1,90,2|0,3:2|3:0,0:0:0:0:
245,365,48692,1,2,3:2:0:0:
325,374,48923,2,0,P|356:317|359:267,1,90,10|0,1:0|3:0,0:0:0:0:
388,264,49269,1,2,3:2:0:0:
351,148,49615,1,2,3:2:0:0:
263,167,49846,2,0,P|206:139|129:121,1,135,10|0,1:0|3:0,0:0:0:0:
100,95,50307,2,0,P|65:121|71:178,1,90,2|2,3:2|3:2,0:0:0:0:
13,240,50769,1,10,1:0:0:0:
136,370,51230,1,10,1:0:0:0:
305,307,51692,1,4,3:2:0:0:
318,106,62769,6,0,P|222:132|134:207,1,180,4|0,3:2|3:0,0:0:0:0:
77,169,63461,1,0,3:1:0:0:
26,232,63692,2,0,P|44:291|47:323,1,90,0|0,3:1|3:1,0:0:0:0:
113,364,64153,2,0,P|155:349|199:343,1,90,0|0,3:1|3:1,0:0:0:0:
264,293,64615,6,0,P|307:309|348:380,1,90,0|0,1:0|0:0,0:0:0:0:
371,360,64961,1,0,1:0:0:0:
478,303,65307,1,0,1:0:0:0:
473,181,65653,1,0,1:0:0:0:
359,136,66000,1,4,3:0:0:0:
296,186,66230,1,2,0:0:0:0:
224,147,66461,6,0,P|158:134|74:95,1,135,4|0,3:2|0:0,0:0:0:0:
59,80,66923,2,0,P|13:108|3:159,1,90,0|8,3:0|1:0,0:0:0:0:
21,181,67269,1,0,3:0:0:0:
103,287,67615,2,0,P|67:320|50:363,2,90,8|0|8,1:0|3:0|1:0,0:0:0:0:
183,246,68307,6,0,P|218:294|229:342,1,90,2|8,3:2|1:0,0:0:0:0:
310,356,68769,2,0,P|359:337|402:334,1,90,0|8,3:0|1:0,0:0:0:0:
430,354,69115,1,2,3:2:0:0:
501,255,69461,2,0,P|504:210|498:165,2,90,8|0|8,1:0|3:0|1:0,0:0:0:0:
414,228,70153,5,4,3:2:0:0:
328,257,70384,1,8,1:0:0:0:
254,215,70615,2,0,P|245:174|213:122,1,90,0|8,3:0|1:0,0:0:0:0:
176,128,70961,2,0,P|148:69|188:18,1,135,2|8,3:2|1:0,0:0:0:0:
269,53,71538,1,0,3:0:0:0:
349,11,71769,1,8,1:0:0:0:
427,54,72000,6,0,P|416:97|412:142,1,90,4|8,3:2|1:0,0:0:0:0:
347,205,72461,2,0,P|284:215|244:233,1,90,0|8,3:0|1:0,0:0:0:0:
216,211,72807,2,0,P|182:252|190:297,1,90,4|0,3:2|3:0,0:0:0:0:
219,315,73153,1,8,3:0:0:0:
158,381,73384,1,8,3:0:0:0:
70,360,73615,1,4,3:0:0:0:
46,273,73846,6,0,B|45:223|7:188,1,90,4|8,3:2|1:0,0:0:0:0:
44,108,74307,2,0,P|88:107|127:86,1,90,0|8,3:0|1:0,0:0:0:0:
140,42,74653,1,0,3:0:0:0:
261,101,75000,2,0,P|241:134|225:203,2,90,8|0|8,1:0|3:0|1:0,0:0:0:0:
337,53,75692,6,0,P|378:72|423:80,1,90,2|8,3:2|1:0,0:0:0:0:
466,62,76038,1,0,3:0:0:0:
500,145,76269,1,0,3:0:0:0:
461,226,76500,2,0,P|453:270|452:315,1,90,2|0,3:2|3:0,0:0:0:0:
430,354,76846,2,0,P|478:358|519:387,2,90,8|0|8,1:0|3:0|1:0,0:0:0:0:
344,382,77538,5,4,3:2:0:0:
258,355,77769,1,8,1:0:0:0:
171,379,78000,2,0,P|162:315|128:274,1,90,0|8,3:0|1:0,0:0:0:0:
104,300,78346,2,0,P|42:255|66:174,1,135,2|8,3:2|1:0,0:0:0:0:
101,133,78923,1,0,3:0:0:0:
48,60,79153,1,8,1:0:0:0:
116,1,79384,6,0,P|161:9|206:9,1,90,4|8,3:2|1:0,0:0:0:0:
295,1,79846,2,0,P|335:48|316:99,1,90,0|8,3:0|1:0,0:0:0:0:
299,103,80192,2,0,P|274:139|255:197,1,90,4|0,3:2|0:0,0:0:0:0:
230,217,80538,2,0,P|192:177|186:143,2,90,8|8|8,1:0|1:0|1:0,0:0:0:0:
310,258,81230,6,0,P|318:318|320:373,1,90,4|0,1:2|3:0,0:0:0:0:
356,373,81576,2,0,P|412:355|427:281,1,135,8|8,1:0|1:0,0:0:0:0:
508,177,82269,1,8,1:0:0:0:
430,83,82615,1,8,1:0:0:0:
339,82,82846,1,8,1:0:0:0:
278,156,83076,2,0,P|233:146|192:129,1,90,8|0,1:0|3:0,0:0:0:0:
172,88,83423,2,0,P|124:84|82:177,1,135,8|8,1:0|1:0,0:0:0:0:
4,262,84115,1,8,1:0:0:0:
88,366,84461,1,8,1:0:0:0:
176,350,84692,1,8,1:0:0:0:
260,382,84923,6,0,P|283:325|279:280,1,90,8|0,1:0|3:0,0:0:0:0:
319,269,85269,2,0,P|332:206|257:150,1,135,8|8,1:0|1:0,0:0:0:0:
170,220,85961,1,8,1:0:0:0:
45,167,86307,1,8,1:0:0:0:
42,76,86538,1,8,1:0:0:0:
121,21,86769,2,0,P|185:38|213:41,1,90,8|0,1:0|3:0,0:0:0:0:
244,12,87115,2,0,P|297:19|338:102,1,135,8|8,1:0|1:0,0:0:0:0:
266,196,87807,1,0,1:0:0:0:
313,322,88153,1,0,1:0:0:0:
399,297,88384,1,0,1:0:0:0:
474,346,88615,1,4,3:2:0:0:
474,346,89769,6,0,P|483:304|518:238,2,90,0|0|0,3:0|3:0|3:0,0:0:0:0:
398,375,90461,2,0,P|346:341|200:312,1,180,0|0,3:0|3:0,0:0:0:0:
170,362,91153,2,0,P|107:336|110:228,1,180,0|0,3:0|3:0,0:0:0:0:
192,98,92076,1,0,3:0:0:0:
264,133,92307,6,0,P|342:113|449:103,2,180,0|0|0,3:0|3:0|3:0,0:0:0:0:
213,196,93461,2,0,P|193:261|200:313,2,90,0|0|0,3:0|3:0|3:0,0:0:0:0:
142,155,94153,2,0,P|86:144|75:27,1,180,0|0,3:0|3:0,0:0:0:0:
143,9,94846,2,0,P|199:33|331:50,1,180,0|0,3:0|3:0,0:0:0:0:
388,14,95538,1,0,3:0:0:0:
502,129,96000,5,0,3:0:0:0:
447,188,96230,2,0,P|465:237|473:286,2,90,0|0|0,3:0|3:0|3:0,0:0:0:0:
407,179,96807,2,0,B|335:211|386:239|288:272,1,135,2|0,0:0|3:0,0:0:0:0:
232,232,97384,1,0,3:0:0:0:
159,268,97615,1,0,1:0:0:0:
89,225,97846,1,4,1:2:0:0:
89,225,99000,6,0,P|97:278|102:304,1,45,0|0,3:0|3:0,0:0:0:0:
72,302,99230,2,0,P|136:317|191:376,1,135,8|0,1:0|3:0,0:0:0:0:
224,370,99692,1,8,1:0:0:0:
327,306,100038,1,8,1:0:0:0:
447,323,100384,1,8,1:0:0:0:
510,219,100730,1,8,1:0:0:0:
451,112,101076,2,0,P|396:130|364:134,1,90,2|10,3:1|1:0,0:0:0:0:
295,90,101538,2,0,P|242:111|220:173,1,90,0|0,1:0|1:0,0:0:0:0:
191,160,101884,2,0,P|204:214|209:254,2,90,0|0|0,3:0|3:0|3:0,0:0:0:0:
111,142,102576,1,0,1:0:0:0:
11,71,102923,2,0,P|45:23|75:11,1,90,4|0,3:0|1:0,0:0:0:0:
150,34,103384,6,0,P|213:41|314:90,1,135,4|0,3:2|3:0,0:0:0:0:
318,55,103846,1,0,0:0:0:0:
372,114,104076,2,0,P|350:172|326:269,1,135,8|0,1:0|3:0,0:0:0:0:
352,277,104538,2,0,P|311:305|218:222,1,180,8|8,1:0|1:0,0:0:0:0:
156,187,105230,2,0,P|85:195|46:269,1,135,0|0,3:0|3:0,0:0:0:0:
19,270,105692,1,0,0:0:0:0:
52,343,105923,2,0,B|119:348|151:376|151:376|186:365|194:311,1,180,8|8,1:0|1:0,0:0:0:0:
229,247,106615,2,0,P|231:172|209:132,1,90,0|8,3:0|1:0,0:0:0:0:
281,100,107076,6,0,B|364:129|306:148|398:180,1,135,0|0,3:0|3:0,0:0:0:0:
427,165,107538,1,2,0:0:0:0:
482,224,107769,2,0,P|454:263|426:373,1,135,8|0,1:0|3:0,0:0:0:0:
393,367,108230,2,0,P|328:349|306:312,1,90,8|0,1:0|0:0,0:0:0:0:
234,323,108692,1,8,1:0:0:0:
215,244,108923,1,0,3:0:0:0:
110,120,109384,6,0,P|79:155|67:202,1,90,0|8,3:0|1:0,0:0:0:0:
10,253,109846,2,0,P|22:295|52:328,1,90,0|8,3:0|1:0,0:0:0:0:
115,384,110307,2,0,P|157:371|190:341,1,90,0|8,3:0|1:0,0:0:0:0:
265,309,110769,5,4,3:2:0:0:
336,347,111000,1,8,1:0:0:0:
401,299,111230,2,0,P|398:254|385:211,1,90,0|8,3:0|1:0,0:0:0:0:
345,203,111576,2,0,P|314:150|336:63,1,135,0|8,3:0|1:0,0:0:0:0:
280,11,112153,2,0,P|240:12|190:-1,1,90,0|8,3:0|1:0,0:0:0:0:
149,67,112615,2,0,P|173:118|173:203,2,135,4|0|8,3:2|3:0|1:0,0:0:0:0:
78,26,113538,2,0,P|31:47|16:107,1,90,4|4,3:0|3:0,0:0:0:0:
26,120,113884,2,0,P|4:174|30:257,1,135,8|8,3:0|1:0,0:0:0:0:
71,310,114461,6,0,B|146:327|146:327|165:352|165:352|212:370,1,135,0|0,3:0|0:0,0:0:0:0:
230,358,114923,1,8,1:0:0:0:
307,381,115153,2,0,B|338:362|338:362|347:291|347:291|324:268,1,135,0|0,3:0|0:0,0:0:0:0:
304,238,115615,1,4,1:2:0:0:
225,258,115846,1,8,1:0:0:0:
182,189,116076,1,0,3:0:0:0:
226,120,116307,6,0,L|216:28,1,90,0|8,3:0|1:0,0:0:0:0:
251,5,116653,1,2,3:0:0:0:
315,54,116884,1,2,3:0:0:0:
393,33,117115,1,2,3:0:0:0:
454,86,117346,2,0,L|436:242,1,135,0|8,1:0|3:0,0:0:0:0:
388,284,117923,1,4,3:0:0:0:
311,258,118153,1,4,3:2:0:0:
44,371,129230,6,0,P|79:314|106:202,1,180,4|0,3:2|3:0,0:0:0:0:
55,141,129923,1,0,3:1:0:0:
96,71,130153,2,0,P|148:75|192:63,1,90,0|0,3:1|3:1,0:0:0:0:
250,19,130615,2,0,P|293:28|338:23,1,90,0|0,3:1|3:1,0:0:0:0:
417,42,131076,6,0,P|409:104|404:142,1,90,0|0,1:0|0:0,0:0:0:0:
433,161,131423,1,0,1:0:0:0:
401,278,131769,1,0,1:0:0:0:
280,292,132115,1,8,3:0:0:0:
178,225,132461,1,4,3:0:0:0:
104,259,132692,1,0,1:0:0:0:
42,205,132923,6,0,P|48:150|42:65,1,135,4|0,3:2|0:0,0:0:0:0:
70,35,133384,2,0,P|122:38|164:83,1,90,0|8,3:0|1:0,0:0:0:0:
195,51,133730,1,0,3:0:0:0:
326,81,134076,2,0,P|382:53|413:23,2,90,8|0|8,1:0|3:0|1:0,0:0:0:0:
262,145,134769,6,0,P|244:198|244:246,1,90,2|8,3:2|1:0,0:0:0:0:
174,291,135230,2,0,P|208:341|228:386,1,90,0|8,3:0|1:0,0:0:0:0:
264,378,135576,1,2,3:2:0:0:
393,337,135923,2,0,P|445:348|492:393,2,90,8|0|8,1:0|3:0|1:0,0:0:0:0:
361,252,136615,5,4,3:2:0:0:
405,173,136846,1,8,1:0:0:0:
352,100,137076,2,0,P|300:111|260:110,1,90,0|8,3:0|1:0,0:0:0:0:
236,73,137423,2,0,P|184:95|164:183,1,135,2|8,3:2|1:0,0:0:0:0:
201,244,138000,1,0,3:0:0:0:
140,310,138230,1,8,1:0:0:0:
54,282,138461,6,0,P|20:239|31:183,1,90,4|8,3:2|1:0,0:0:0:0:
8,115,138923,2,0,P|49:79|101:74,1,90,0|8,3:0|1:0,0:0:0:0:
112,38,139269,2,0,P|176:46|193:69,1,90,4|0,3:2|3:0,0:0:0:0:
232,77,139615,1,8,3:0:0:0:
193,158,139846,1,8,3:0:0:0:
235,237,140076,1,4,3:0:0:0:
325,238,140307,6,0,P|391:229|437:229,1,90,4|8,3:2|1:0,0:0:0:0:
485,172,140769,2,0,P|468:115|467:47,1,90,0|8,3:0|1:0,0:0:0:0:
430,56,141115,1,0,3:0:0:0:
300,17,141461,2,0,P|226:12|185:-9,2,90,8|0|8,1:0|3:0|1:0,0:0:0:0:
348,93,142153,2,0,P|323:153|316:220,1,90,2|8,3:2|1:0,0:0:0:0:
350,209,142500,1,0,3:0:0:0:
288,274,142730,1,0,3:0:0:0:
199,258,142961,2,0,P|173:218|144:184,1,90,2|0,3:2|3:0,0:0:0:0:
105,164,143307,2,0,P|112:123|94:76,2,90,8|0|8,1:0|3:0|1:0,0:0:0:0:
24,204,144000,5,4,3:2:0:0:
11,293,144230,1,8,1:0:0:0:
79,351,144461,2,0,P|143:360|184:394,1,90,0|8,3:0|1:0,0:0:0:0:
205,356,144807,2,0,P|250:294|331:318,1,135,2|8,3:2|1:0,0:0:0:0:
379,342,145384,1,0,3:0:0:0:
440,276,145615,1,8,1:0:0:0:
403,193,145846,6,0,P|358:201|313:201,1,90,4|8,3:2|1:0,0:0:0:0:
242,145,146307,2,0,P|246:101|280:73,1,90,0|8,3:0|1:0,0:0:0:0:
283,28,146653,2,0,P|325:43|362:69,1,90,4|0,3:2|0:0,0:0:0:0:
407,72,147000,2,0,P|445:32|451:-2,2,90,8|8|8,1:0|1:0|1:0,0:0:0:0:
363,151,147692,6,0,P|371:211|373:266,1,90,4|0,1:2|3:0,0:0:0:0:
409,267,148038,2,0,P|396:330|335:353,1,135,8|8,1:0|1:0,0:0:0:0:
232,266,148730,1,8,1:0:0:0:
126,350,149076,2,0,P|83:332|36:322,1,90,8|8,1:0|1:0,0:0:0:0:
8,238,149538,2,0,P|18:193|35:152,1,90,8|0,1:0|3:0,0:0:0:0:
41,107,149884,2,0,P|103:89|151:132,1,135,8|8,1:0|1:0,0:0:0:0:
258,215,150576,1,8,1:0:0:0:
382,163,150923,2,0,P|384:118|373:74,1,90,8|8,1:0|1:0,0:0:0:0:
300,21,151384,6,0,P|243:44|198:40,1,90,8|0,1:0|3:0,0:0:0:0:
172,27,151730,2,0,P|129:76|141:140,1,135,8|8,1:0|1:0,0:0:0:0:
222,248,152423,1,8,1:0:0:0:
333,172,152769,2,0,P|397:189|425:192,1,90,8|8,1:0|1:0,0:0:0:0:
497,239,153230,2,0,P|491:284|478:327,1,90,8|0,1:0|3:0,0:0:0:0:
453,364,153576,2,0,P|382:363|357:293,1,135,8|8,1:0|1:0,0:0:0:0:
241,239,154269,1,0,1:0:0:0:
152,340,154615,2,0,P|109:354|63:348,1,90,0|0,1:0|1:0,0:0:0:0:
4,282,155076,6,2,P|26:203|33:98,1,180,4|0,3:2|0:0,0:1:0:0:
100,45,155769,1,8,1:0:0:0:
185,81,156000,2,0,P|240:81|325:34,2,135,0|0|8,3:0|3:0|1:0,0:0:0:0:
129,152,156923,2,0,P|139:223|143:321,2,135,2|2|8,3:1|3:2|1:0,0:0:0:0:
44,119,157846,2,0,P|32:72|57:30,1,90,2|8,3:2|1:0,0:0:0:0:
79,2,158192,2,0,P|125:30|232:39,1,135,2|8,3:1|1:0,0:0:0:0:
289,12,158769,6,0,P|346:20|359:114,1,135,2|0,3:1|3:0,0:0:0:0:
341,118,159230,1,0,3:0:0:0:
391,192,159461,1,8,1:0:0:0:
346,270,159692,2,0,P|357:331|355:397,2,90,0|8|2,3:0|1:0|3:2,0:0:0:0:
257,251,160384,1,8,1:0:0:0:
192,313,160615,2,0,P|126:302|99:229,1,135,2|0,3:1|3:0,0:0:0:0:
124,209,161076,1,0,3:0:0:0:
71,135,161307,1,10,1:0:0:0:
101,50,161538,1,0,3:0:0:0:
186,22,161769,2,2,P|276:29|369:-2,1,180,10|0,1:0|1:0,0:1:0:0:
447,24,162461,6,2,B|502:61|500:150|500:150|459:196,1,180,4|0,3:2|3:0,0:1:0:0:
401,228,163153,1,8,1:0:0:0:
314,201,163384,2,0,P|276:140|283:54,2,135,2|0|10,3:1|3:0|1:0,0:0:0:0:
324,290,164307,2,2,P|266:303|227:333,1,90,4|8,3:2|1:0,0:1:0:0:
207,349,164653,2,0,P|146:340|100:330,1,90,2|0,3:2|3:0,0:0:0:0:
81,360,165000,2,2,P|51:315|47:189,1,180,10|8,1:0|1:0,0:1:0:0:
121,142,165692,1,0,3:0:0:0:
198,188,165923,1,8,1:0:0:0:
280,152,166153,6,0,P|336:165|380:184,1,90,2|8,3:1|1:0,0:0:0:0:
408,194,166500,2,0,P|452:160|444:99,1,90,2|0,3:2|3:0,0:0:0:0:
454,38,166961,2,2,P|374:29|310:52,1,135,4|8,3:2|1:0,0:1:0:0:
234,27,167538,1,0,3:0:0:0:
170,91,167769,1,8,1:0:0:0:
86,58,168000,2,2,P|26:83|16:159,1,135,4|0,3:2|3:0,0:1:0:0:
34,184,168461,1,0,3:0:0:0:
1,315,168807,2,2,P|85:330|137:376,1,135,4|8,3:2|1:0,0:1:0:0:
205,322,169384,1,8,1:0:0:0:
285,361,169615,1,8,1:0:0:0:
368,328,169846,6,0,P|367:251|333:152,1,180,4|8,1:2|1:0,0:0:0:0:
256,131,170538,1,0,3:0:0:0:
202,191,170769,2,0,L|112:199,1,90,8|0,1:0|3:0,0:0:0:0:
54,142,171230,2,0,L|62:52,1,90,8|0,1:0|3:0,0:0:0:0:
125,0,171692,2,0,P|223:16|264:57,1,135,8|0,1:0|0:0,0:0:0:0:
366,7,172384,2,0,P|423:49|434:171,1,180,0|0,3:0|3:0,0:0:0:0:
480,222,173076,1,8,1:0:0:0:
349,318,173538,6,0,P|275:294|151:283,1,180,8|8,1:0|1:0,0:0:0:0:
107,329,174230,1,0,3:0:0:0:
30,301,174461,2,0,L|14:212,1,90,8|0,1:0|3:0,0:0:0:0:
54,141,174923,2,0,L|152:158,1,90,8|0,1:0|3:0,0:0:0:0:
201,100,175384,2,0,P|272:149|266:227,1,135,8|0,1:0|0:0,0:0:0:0:
223,300,176076,2,0,P|284:348|389:302,1,180,0|0,3:0|0:0,0:0:0:0:
455,336,176769,1,8,1:0:0:0:
509,183,177230,6,0,P|490:115|388:66,1,180,4|8,1:2|1:0,0:0:0:0:
333,17,177923,1,0,3:0:0:0:
257,45,178153,2,0,L|146:33,1,90,8|0,1:0|3:0,0:0:0:0:
97,77,178615,2,0,L|106:166,1,90,8|0,1:0|3:0,0:0:0:0:
44,219,179076,2,0,P|32:307|85:349,1,135,8|0,1:0|3:0,0:0:0:0:
177,308,179769,2,0,P|265:324|360:368,1,180,0|0,3:0|0:0,0:0:0:0:
423,331,180461,1,8,1:0:0:0:
450,171,180923,6,0,P|403:160|291:228,1,180,8|8,1:0|1:0,0:0:0:0:
213,231,181615,1,0,3:0:0:0:
164,295,181846,2,0,L|58:282,1,90,8|0,1:0|3:0,0:0:0:0:
29,216,182307,2,0,L|42:110,1,90,8|0,1:0|3:0,0:0:0:0:
75,53,182769,2,0,P|147:49|212:114,1,135,8|0,1:0|3:0,0:0:0:0:
314,111,183461,2,0,P|300:187|300:314,1,180,0|0,3:0|3:0,0:0:0:0:
242,349,184153,1,4,3:2:0:0:
242,349,184384,1,0,3:0:0:0:
164,325,184615,6,0,P|98:339|32:349,2,135,4|0|0,3:2|3:0|3:0,0:0:0:0:
192,249,185538,2,0,P|187:205|144:140,1,90,8|0,1:0|0:0,0:0:0:0:
139,134,185884,2,0,P|169:86|258:86,1,135,0|0,3:0|3:0,0:0:0:0:
322,89,186461,2,0,P|381:63|391:-8,2,135,2|0|0,3:2|0:0|3:0,0:0:0:0:
299,166,187384,1,8,1:0:0:0:
226,201,187615,2,0,P|231:241|225:298,1,90,0|0,0:0|3:0,0:0:0:0:
175,347,188076,1,0,0:0:0:0:
103,309,188307,6,0,P|36:324|-4:393,2,135,4|0|0,3:2|3:0|3:0,0:0:0:0:
140,237,189230,2,0,P|137:175|123:135,1,90,8|0,1:0|0:0,0:0:0:0:
112,111,189576,2,0,P|192:98|230:142,1,135,0|0,3:0|3:0,0:0:0:0:
303,107,190153,2,0,P|372:130|438:255,1,180,2|0,3:2|3:0,0:0:0:0:
491,271,190846,1,0,3:0:0:0:
447,338,191076,2,0,P|386:348|319:378,1,135,8|0,1:0|0:0,0:0:0:0:
281,362,191538,2,0,P|223:339|147:319,1,135,8|0,1:0|0:0,0:0:0:0:
121,345,192000,6,0,P|63:311|85:194,1,180,4|8,1:2|1:0,0:0:0:0:
133,160,192692,1,2,3:2:0:0:
196,210,192923,2,0,P|258:218|398:272,1,180,8|8,1:0|1:0,0:0:0:0:
435,209,193615,1,2,3:2:0:0:
464,133,193846,2,0,P|446:66|347:49,1,180,8|8,1:0|1:0,0:0:0:0:
281,95,194538,1,2,3:2:0:0:
211,53,194769,2,0,P|125:57|94:137,1,180,8|8,1:0|1:0,0:0:0:0:
40,197,195461,1,0,3:0:0:0:
78,268,195692,1,4,1:2:0:0:
236,233,196153,5,0,3:0:0:0:
290,292,196384,1,0,3:0:0:0:
370,285,196615,1,0,3:0:0:0:
436,330,196846,1,0,3:0:0:0:
511,300,197076,1,0,3:0:0:0:
511,218,197307,1,0,3:0:0:0:
443,173,197538,6,0,L|323:147,1,90,8|0,1:0|0:0,0:0:0:0:
316,166,197884,2,0,P|283:116|315:73,1,90,8|0,1:0|0:0,0:0:0:0:
312,57,198230,1,8,1:0:0:0:
201,7,198576,1,8,1:0:0:0:
109,87,198923,5,8,1:0:0:0:
144,159,199153,1,8,1:0:0:0:
222,178,199384,1,4,3:2:0:0:
256,192,199615,12,0,202153,0:0:0:0:
222,178,202846,6,0,P|216:222|198:263,1,90,0|2,0:0|3:2,0:0:0:0:
319,235,208615,6,0,P|305:182|280:140,1,90,4|8,3:2|1:0,0:0:0:0:
294,61,209076,2,0,P|255:37|213:23,1,90,0|8,1:0|3:0,0:0:0:0:
173,0,209423,2,0,P|117:25|112:81,1,90,4|0,3:0|0:0,0:0:0:0:
79,83,209769,1,8,1:0:0:0:
130,156,210000,1,0,3:0:0:0:
93,238,210230,1,8,1:0:0:0:
130,319,210461,6,0,P|196:310|242:310,1,90,4|8,3:2|1:0,0:0:0:0:
306,331,210923,2,0,P|304:286|322:240,1,90,0|8,3:0|1:0,0:0:0:0:
354,216,211269,1,0,3:0:0:0:
311,87,211615,2,0,P|237:82|196:61,2,90,8|0|8,1:0|3:0|1:0,0:0:0:0:
370,19,212307,2,0,P|427:27|463:75,1,90,2|8,3:2|1:0,0:0:0:0:
446,92,212653,1,0,0:0:0:0:
490,170,212884,1,0,3:0:0:0:
419,226,213115,2,0,P|411:270|410:315,1,90,2|0,3:2|3:0,0:0:0:0:
430,355,213461,2,0,P|478:359|519:388,2,90,8|0|8,1:0|3:0|1:0,0:0:0:0:
343,329,214153,5,4,3:2:0:0:
268,380,214384,1,8,1:0:0:0:
191,331,214615,2,0,P|150:350|106:352,1,90,0|8,3:0|1:0,0:0:0:0:
71,381,214961,2,0,P|13:335|33:255,1,135,2|8,3:2|1:0,0:0:0:0:
71,208,215538,1,0,3:0:0:0:
21,133,215769,1,8,1:0:0:0:
60,52,216000,6,0,P|105:60|150:60,1,90,4|8,3:2|1:0,0:0:0:0:
213,124,216461,2,0,P|261:99|285:52,1,90,0|8,3:0|1:0,0:0:0:0:
304,31,216807,2,0,P|346:52|402:47,1,90,4|0,3:2|0:0,0:0:0:0:
420,27,217153,1,8,1:0:0:0:
489,68,217384,1,8,1:0:0:0:
464,145,217615,1,8,1:0:0:0:
393,185,217846,6,0,P|401:245|403:300,1,90,4|0,1:2|0:0,0:0:0:0:
422,309,218192,2,0,P|382:360|315:363,1,135,0|0,3:0|3:0,0:0:0:0:
248,320,218769,2,0,P|203:328|139:348,1,90,8|0,1:0|0:0,0:0:0:0:
131,369,219115,1,0,3:0:0:0:
63,270,219461,1,0,3:0:0:0:
123,216,219692,2,0,P|126:161|134:113,1,90,8|0,1:0|3:0,0:0:0:0:
165,105,220038,2,0,P|161:53|88:23,1,135,2|0,0:0|3:0,0:0:0:0:
13,43,220615,2,0,P|25:104|31:156,1,90,8|0,1:0|0:0,0:0:0:0:
9,167,220961,1,0,3:0:0:0:
77,267,221307,5,0,3:0:0:0:
157,253,221538,2,0,P|222:280|268:315,1,90,8|0,1:0|3:0,0:0:0:0:
262,323,221884,2,0,P|323:287|339:214,1,135,0|0,3:0|3:0,0:0:0:0:
283,171,222461,2,0,P|275:112|283:69,1,90,8|0,1:0|0:0,0:0:0:0:
304,50,222807,1,0,3:0:0:0:
418,10,223153,6,0,P|480:56|499:96,1,90,2|8,3:2|1:0,0:0:0:0:
466,144,223615,2,0,P|458:199|441:255,1,90,2|8,3:2|1:0,0:0:0:0:
490,302,224076,2,0,P|414:268|309:272,1,180,2|2,3:2|3:2,0:0:0:0:
237,268,224769,1,8,1:0:0:0:
188,332,225000,1,0,3:0:0:0:
107,323,225230,6,0,P|45:300|13:287,1,90,4|2,1:2|3:2,0:0:0:0:
3,211,225692,2,0,P|31:155|35:120,1,90,0|8,3:0|1:0,0:0:0:0:
21,89,226038,2,0,P|90:76|134:142,1,135,0|2,1:0|3:2,0:0:0:0:
191,174,226615,1,8,1:0:0:0:
265,141,226846,1,0,3:0:0:0:
331,186,227076,1,4,1:2:0:0:
331,186,228923,5,4,3:2:0:0:
256,192,229038,12,0,231807,3:0:0:0:
176,338,232615,6,0,B|125:324|125:324|15:378,1,135,4|0,3:2|3:0,0:0:0:0:
12,348,233076,2,0,B|-14:306|-14:306|6:248,1,90,0|10,3:0|1:0,0:0:0:0:
56,209,233538,1,0,3:0:0:0:
132,236,233769,1,8,1:0:0:0:
197,188,234000,2,0,L|320:168,1,90,0|8,3:0|1:0,0:0:0:0:
347,120,234461,2,0,B|390:149|390:149|412:147|412:147|474:181,1,135,2|0,3:1|3:0,0:0:0:0:
501,156,234923,2,0,B|513:111|513:111|490:71,1,90,0|10,3:0|1:0,0:0:0:0:
441,9,235384,1,0,3:0:0:0:
363,31,235615,1,8,1:0:0:0:
287,2,235846,2,0,L|193:13,1,90,0|8,3:0|1:0,0:0:0:0:
128,54,236307,6,2,P|144:109|141:207,1,135,2|0,3:1|3:0,0:1:0:0:
112,210,236769,2,0,P|79:249|73:329,1,90,0|8,3:0|1:0,0:0:0:0:
118,349,237230,1,0,3:0:0:0:
196,328,237461,1,8,1:0:0:0:
267,365,237692,1,0,3:0:0:0:
337,324,237923,2,0,B|328:257|328:257|356:218|356:218|337:135,1,180,8|8,1:0|1:0,0:0:0:0:
274,109,238615,1,0,3:0:0:0:
282,28,238846,1,8,1:0:0:0:
358,0,239076,2,0,L|476:16,1,90,0|8,3:0|1:0,0:0:0:0:
500,73,239538,2,0,L|485:188,1,90,0|8,3:0|1:0,0:0:0:0:
430,219,240000,6,2,B|378:202|344:236|344:236|322:237|322:237|296:272|250:277,1,180,4|0,3:2|3:0,0:1:0:0:
190,254,240692,1,8,1:0:0:0:
127,305,240923,2,0,P|77:298|59:184,1,180,2|0,3:2|3:0,0:0:0:0:
30,110,241615,1,8,1:0:0:0:
79,45,241846,2,0,P|122:60|187:61,1,90,6|8,3:2|1:0,0:0:0:0:
200,42,242192,1,2,3:2:0:0:
278,134,242538,2,2,P|250:220|232:348,1,180,10|10,1:0|1:0,0:1:0:0:
287,369,243230,1,0,3:0:0:0:
364,346,243461,1,8,1:0:0:0:
439,375,243692,6,0,B|452:322|490:277|490:277|482:240|494:196,1,180,4|0,3:2|3:0,0:0:0:0:
507,171,244269,1,0,3:0:0:0:
450,112,244500,2,2,B|378:141|404:154|330:187,1,135,2|8,3:1|1:0,0:1:0:0:
270,230,245076,1,0,3:0:0:0:
197,194,245307,1,8,1:0:0:0:
125,231,245538,2,2,P|83:193|112:73,1,180,4|0,3:2|3:0,0:1:0:0:
140,70,246115,1,0,3:0:0:0:
205,21,246346,2,2,P|259:50|337:45,1,135,4|8,3:2|1:0,0:1:0:0:
400,4,246923,1,8,1:0:0:0:
450,66,247153,1,8,1:0:0:0:
431,144,247384,1,4,1:2:0:0:
256,192,247500,12,0,254769,0:0:0:0:
