osu file format v14

[General]
AudioFilename: audio.mp3
AudioLeadIn: 0
PreviewTime: 66173
Countdown: 0
SampleSet: Soft
StackLeniency: 0.7
Mode: 0
LetterboxInBreaks: 0
WidescreenStoryboard: 1

[Editor]
Bookmarks: 7384,22153,36923,51692,66461,81230,103384,118153,132923,147692,169846,184615,203076,217846,228923,247384
DistanceSpacing: 0.5
BeatDivisor: 2
GridSize: 4
TimelineZoom: 2.6

[Metadata]
Title:Egoist
TitleUnicode:Egoist
Artist:Imy
ArtistUnicode:Imy
Creator:Aeril
Version:Risen's Extra
Source:
Tags:fa featured artist mpg mappers' guild jrock j-rock japanese rock ray of hope nat 2023 qualifiers ql hd1 nominomu ajmosca SupaV Risen nik nikolomara みゅー myu mirin アイミー みりん
BeatmapID:4347529
BeatmapSetID:2004186

[Difficulty]
HPDrainRate:5
CircleSize:3.7
OverallDifficulty:8.8
ApproachRate:9.3
SliderMultiplier:1.6
SliderTickRate:1

[Events]
//Background and Video events
0,0,"1.jpg",0,0
//Break Periods
2,51891,62215
2,118353,128676
2,203276,207599
//Storyboard Layer 0 (Background)
//Storyboard Layer 1 (Fail)
//Storyboard Layer 2 (Pass)
//Storyboard Layer 3 (Foreground)
//Storyboard Layer 4 (Overlay)
//Storyboard Sound Samples

[TimingPoints]
0,230.769230769231,4,2,1,80,1,0
7269,-100,4,2,1,5,0,0
7384,-76.9230769230769,4,2,1,80,0,0
7557,-76.9230769230769,4,2,1,5,0,0
7615,-76.9230769230769,4,2,1,80,0,0
10442,-76.9230769230769,4,2,1,5,0,0
10500,-76.9230769230769,4,2,1,80,0,0
11249,-76.9230769230769,4,2,1,5,0,0
11307,-76.9230769230769,4,2,1,80,0,0
14134,-76.9230769230769,4,2,1,5,0,0
14192,-76.9230769230769,4,2,1,80,0,0
14711,-76.9230769230769,4,2,1,5,0,0
14769,-76.9230769230769,4,2,1,70,0,0
14884,-90.9090909090909,4,2,1,70,0,0
15288,-90.9090909090909,4,2,1,5,0,0
15346,-90.9090909090909,4,2,1,70,0,0
16499,-90.9090909090909,4,2,1,5,0,0
16615,-90.9090909090909,4,2,1,70,0,0
17134,-90.9090909090909,4,2,1,5,0,0
17192,-90.9090909090909,4,2,1,70,0,0
18345,-90.9090909090909,4,2,1,5,0,0
18461,-90.9090909090909,4,2,1,70,0,0
20191,-90.9090909090909,4,2,1,5,0,0
20307,-76.9230769230769,4,2,1,70,0,0
20480,-76.9230769230769,4,2,1,5,0,0
20538,-76.9230769230769,4,2,1,70,0,0
22153,-100,4,2,1,60,0,0
22268,-100,4,2,1,5,0,0
22384,-100,4,2,1,60,0,0
25038,-100,4,2,1,5,0,0
25153,-100,4,2,1,60,0,0
25788,-100,4,2,1,5,0,0
25846,-100,4,2,1,60,0,0
25961,-100,4,2,1,5,0,0
26076,-100,4,2,1,60,0,0
26365,-100,4,2,1,5,0,0
26423,-100,4,2,1,60,0,0
27692,-83.3333333333333,4,2,1,60,0,0
27865,-83.3333333333333,4,2,1,5,0,0
27923,-83.3333333333333,4,2,1,60,0,0
29134,-83.3333333333333,4,2,1,5,0,0
29192,-83.3333333333333,4,2,1,60,0,0
29711,-83.3333333333333,4,2,1,5,0,0
29769,-83.3333333333333,4,2,1,60,0,0
31384,-76.9230769230769,4,2,1,60,0,0
31557,-76.9230769230769,4,2,1,5,0,0
31615,-76.9230769230769,4,2,1,60,0,0
33230,-90.9090909090909,4,2,1,65,0,0
33288,-90.9090909090909,4,2,1,5,0,0
33461,-90.9090909090909,4,2,1,65,0,0
33519,-90.9090909090909,4,2,1,5,0,0
33576,-90.9090909090909,4,2,1,65,0,0
33865,-90.9090909090909,4,2,1,5,0,0
33922,-90.9090909090909,4,2,1,65,0,0
34442,-90.9090909090909,4,2,1,5,0,0
34499,-90.9090909090909,4,2,1,65,0,0
34788,-90.9090909090909,4,2,1,5,0,0
34845,-90.9090909090909,4,2,1,65,0,0
35538,-76.9230769230769,4,2,1,65,0,0
36173,-76.9230769230769,4,2,1,5,0,0
36230,-76.9230769230769,4,2,1,65,0,0
36923,-71.4285714285714,4,2,1,70,0,0
37096,-71.4285714285714,4,2,1,5,0,0
37153,-71.4285714285714,4,2,1,70,0,0
37788,-71.4285714285714,4,2,1,5,0,0
37846,-71.4285714285714,4,2,1,70,0,0
38365,-71.4285714285714,4,2,1,5,0,0
38423,-71.4285714285714,4,2,1,70,0,0
38942,-71.4285714285714,4,2,1,5,0,0
39000,-71.4285714285714,4,2,1,70,0,0
40788,-71.4285714285714,4,2,1,5,0,0
40846,-71.4285714285714,4,2,1,70,0,0
41480,-71.4285714285714,4,2,1,5,0,0
41538,-71.4285714285714,4,2,1,70,0,0
42057,-71.4285714285714,4,2,1,5,0,0
42115,-71.4285714285714,4,2,1,70,0,0
42865,-71.4285714285714,4,2,1,5,0,0
42923,-71.4285714285714,4,2,1,70,0,0
45288,-71.4285714285714,4,2,1,5,0,0
45346,-71.4285714285714,4,2,1,70,0,0
46326,-71.4285714285714,4,2,1,5,0,0
46384,-71.4285714285714,4,2,1,70,0,0
47019,-71.4285714285714,4,2,1,5,0,0
47076,-71.4285714285714,4,2,1,70,0,0
48000,-71.4285714285714,4,2,1,65,0,0
48173,-71.4285714285714,4,2,1,5,0,0
48230,-90.9090909090909,4,2,1,65,0,0
48288,-90.9090909090909,4,2,1,5,0,0
48345,-90.9090909090909,4,2,1,65,0,0
48634,-90.9090909090909,4,2,1,5,0,0
48691,-90.9090909090909,4,2,1,65,0,0
49096,-90.9090909090909,4,2,1,5,0,0
49153,-90.9090909090909,4,2,1,65,0,0
49211,-90.9090909090909,4,2,1,5,0,0
49268,-90.9090909090909,4,2,1,65,0,0
49557,-90.9090909090909,4,2,1,5,0,0
49614,-90.9090909090909,4,2,1,65,0,0
49846,-76.9230769230769,4,2,1,65,0,0
50942,-76.9230769230769,4,2,1,5,0,0
51000,-76.9230769230769,4,2,1,65,0,0
51230,-666.666666666667,4,2,1,65,0,0
62769,-100,4,2,1,70,0,0
63115,-100,4,2,1,5,0,0
63230,-100,4,2,1,70,0,0
64615,-76.9230769230769,4,2,1,70,0,0
65076,-100,4,2,1,70,0,0
65191,-100,4,2,1,5,0,0
65307,-100,4,2,1,70,0,0
65423,-142.857142857143,4,2,1,70,0,0
65769,-83.3333333333333,4,2,1,70,0,0
65942,-83.3333333333333,4,2,1,5,0,0
66000,-83.3333333333333,4,2,1,70,0,0
66461,-66.6666666666667,4,2,1,75,0,1
66634,-66.6666666666667,4,2,1,5,0,1
66692,-66.6666666666667,4,2,1,75,0,1
66807,-66.6666666666667,4,2,1,5,0,1
66923,-66.6666666666667,4,2,1,75,0,1
67442,-66.6666666666667,4,2,1,5,0,1
67500,-66.6666666666667,4,2,1,75,0,1
67730,-66.6666666666667,4,2,1,5,0,1
67788,-66.6666666666667,4,2,1,5,0,1
67846,-66.6666666666667,4,2,1,75,0,1
68480,-66.6666666666667,4,2,1,5,0,1
68538,-66.6666666666667,4,2,1,75,0,1
70038,-66.6666666666667,4,2,1,5,0,1
70153,-66.6666666666667,4,2,1,75,0,1
70326,-66.6666666666667,4,2,1,5,0,1
70384,-66.6666666666667,4,2,1,75,0,1
71134,-66.6666666666667,4,2,1,5,0,1
71192,-66.6666666666667,4,2,1,75,0,1
72173,-66.6666666666667,4,2,1,5,0,1
72230,-66.6666666666667,4,2,1,75,0,1
72980,-66.6666666666667,4,2,1,5,0,1
73038,-66.6666666666667,4,2,1,75,0,1
74019,-66.6666666666667,4,2,1,5,0,1
74076,-66.6666666666667,4,2,1,75,0,1
75173,-66.6666666666667,4,2,1,5,0,1
75230,-66.6666666666667,4,2,1,75,0,1
75865,-66.6666666666667,4,2,1,5,0,1
75923,-66.6666666666667,4,2,1,75,0,1
76673,-66.6666666666667,4,2,1,5,0,1
76730,-66.6666666666667,4,2,1,75,0,1
77422,-66.6666666666667,4,2,1,5,0,1
77538,-66.6666666666667,4,2,1,75,0,1
77711,-66.6666666666667,4,2,1,5,0,1
77769,-66.6666666666667,4,2,1,75,0,1
78519,-66.6666666666667,4,2,1,5,0,1
78576,-66.6666666666667,4,2,1,75,0,1
79326,-66.6666666666667,4,2,1,5,0,1
79384,-66.6666666666667,4,2,1,75,0,1
79499,-66.6666666666667,4,2,1,5,0,1
79557,-66.6666666666667,4,2,1,5,0,1
79615,-66.6666666666667,4,2,1,75,0,1
81230,-66.6666666666667,4,2,1,80,0,0
81403,-66.6666666666667,4,2,1,5,0,0
81461,-66.6666666666667,4,2,1,80,0,0
85096,-66.6666666666667,4,2,1,5,0,0
85153,-66.6666666666667,4,2,1,80,0,0
86942,-66.6666666666667,4,2,1,5,0,0
87000,-66.6666666666667,4,2,1,80,0,0
88615,-66.6666666666667,4,2,1,60,0,0
90461,-142.857142857143,4,2,1,60,0,0
96923,-100,4,2,1,60,0,0
97038,-100,4,2,1,5,0,0
97153,-100,4,2,1,60,0,0
97268,-100,4,2,1,5,0,0
97384,-100,4,2,1,60,0,0
99230,-76.9230769230769,4,2,1,65,0,0
99865,-76.9230769230769,4,2,1,5,0,0
99923,-76.9230769230769,4,2,1,65,0,0
100038,-66.6666666666667,4,2,1,65,0,0
100211,-66.6666666666667,4,2,1,5,0,0
100269,-66.6666666666667,4,2,1,65,0,0
101191,-66.6666666666667,4,2,1,5,0,0
101307,-66.6666666666667,4,2,1,65,0,0
101422,-66.6666666666667,4,2,1,5,0,0
101538,-66.6666666666667,4,2,1,65,0,0
102115,-90.9090909090909,4,2,1,65,0,0
103384,-76.9230769230769,4,2,1,70,0,0
103557,-76.9230769230769,4,2,1,5,0,0
103615,-76.9230769230769,4,2,1,70,0,0
105403,-76.9230769230769,4,2,1,5,0,0
105461,-76.9230769230769,4,2,1,70,0,0
105749,-76.9230769230769,4,2,1,5,0,0
105807,-76.9230769230769,4,2,1,70,0,0
107249,-76.9230769230769,4,2,1,5,0,0
107307,-76.9230769230769,4,2,1,70,0,0
110942,-76.9230769230769,4,2,1,5,0,0
111000,-76.9230769230769,4,2,1,70,0,0
111749,-76.9230769230769,4,2,1,5,0,0
111807,-76.9230769230769,4,2,1,70,0,0
112788,-76.9230769230769,4,2,1,5,0,0
112846,-76.9230769230769,4,2,1,70,0,0
113480,-76.9230769230769,4,2,1,5,0,0
113538,-76.9230769230769,4,2,1,70,0,0
114461,-66.6666666666667,4,2,1,70,0,0
115038,-66.6666666666667,4,2,1,5,0,0
115153,-66.6666666666667,4,2,1,70,0,0
115730,-66.6666666666667,4,2,1,5,0,0
115846,-66.6666666666667,4,2,1,70,0,0
116307,-71.4285714285714,4,2,1,70,0,0
117288,-71.4285714285714,4,2,1,5,0,0
117346,-71.4285714285714,4,2,1,70,0,0
129230,-100,4,2,1,70,0,0
129576,-100,4,2,1,5,0,0
129692,-100,4,2,1,70,0,0
131192,-76.9230769230769,4,2,1,70,0,0
131538,-100,4,2,1,70,0,0
132000,-76.9230769230769,4,2,1,70,0,0
132923,-62.5,4,2,1,75,0,1
133096,-62.5,4,2,1,5,0,1
133153,-62.5,4,2,1,75,0,1
133268,-62.5,4,2,1,5,0,1
133384,-62.5,4,2,1,75,0,1
133903,-62.5,4,2,1,5,0,1
133961,-62.5,4,2,1,75,0,1
134191,-62.5,4,2,1,5,0,1
134250,-62.5,4,2,1,5,0,1
134307,-62.5,4,2,1,75,0,1
136499,-62.5,4,2,1,5,0,1
136615,-62.5,4,2,1,75,0,1
136788,-62.5,4,2,1,5,0,1
136846,-62.5,4,2,1,75,0,1
137596,-62.5,4,2,1,5,0,1
137653,-62.5,4,2,1,75,0,1
138634,-62.5,4,2,1,5,0,1
138692,-62.5,4,2,1,75,0,1
139442,-62.5,4,2,1,5,0,1
139500,-62.5,4,2,1,75,0,1
140480,-62.5,4,2,1,5,0,1
140538,-62.5,4,2,1,75,0,1
141288,-62.5,4,2,1,5,0,1
141346,-62.5,4,2,1,75,0,1
141576,-62.5,4,2,1,5,0,1
141634,-62.5,4,2,1,5,0,1
141692,-62.5,4,2,1,75,0,1
142268,-62.5,4,2,1,5,0,1
142326,-62.5,4,2,1,5,0,1
142384,-62.5,4,2,1,75,0,1
143884,-62.5,4,2,1,5,0,1
144000,-62.5,4,2,1,75,0,1
144173,-62.5,4,2,1,5,0,1
144230,-62.5,4,2,1,75,0,1
144980,-62.5,4,2,1,5,0,1
145038,-62.5,4,2,1,75,0,1
146019,-62.5,4,2,1,5,0,1
146076,-62.5,4,2,1,75,0,1
146826,-62.5,4,2,1,5,0,1
146884,-62.5,4,2,1,75,0,1
147692,-71.4285714285714,4,2,1,80,0,0
147865,-71.4285714285714,4,2,1,5,0,0
147923,-71.4285714285714,4,2,1,80,0,0
151557,-71.4285714285714,4,2,1,5,0,0
151615,-71.4285714285714,4,2,1,80,0,0
155076,-66.6666666666667,4,2,1,75,0,0
155249,-66.6666666666667,4,2,1,5,0,0
155307,-66.6666666666667,4,2,1,75,0,0
155596,-66.6666666666667,4,2,1,5,0,0
155653,-66.6666666666667,4,2,1,75,0,0
156173,-66.6666666666667,4,2,1,5,0,0
156230,-66.6666666666667,4,2,1,75,0,0
156519,-66.6666666666667,4,2,1,5,0,0
156576,-66.6666666666667,4,2,1,75,0,0
157096,-66.6666666666667,4,2,1,5,0,0
157153,-66.6666666666667,4,2,1,75,0,0
158653,-66.6666666666667,4,2,1,5,0,0
158769,-66.6666666666667,4,2,1,75,0,0
160730,-66.6666666666667,4,2,1,5,0,0
160846,-66.6666666666667,4,2,1,75,0,0
161191,-66.6666666666667,4,2,1,5,0,0
161250,-66.6666666666667,4,2,1,75,0,0
162634,-66.6666666666667,4,2,1,5,0,0
162692,-66.6666666666667,4,2,1,75,0,0
162980,-66.6666666666667,4,2,1,5,0,0
163038,-66.6666666666667,4,2,1,75,0,0
163499,-66.6666666666667,4,2,1,5,0,0
163615,-66.6666666666667,4,2,1,75,0,0
164480,-66.6666666666667,4,2,1,5,0,0
164538,-66.6666666666667,4,2,1,75,0,0
165576,-66.6666666666667,4,2,1,5,0,0
165692,-66.6666666666667,4,2,1,75,0,0
166038,-66.6666666666667,4,2,1,5,0,0
166153,-66.6666666666667,4,2,1,75,0,0
167134,-66.6666666666667,4,2,1,5,0,0
167192,-66.6666666666667,4,2,1,75,0,0
167884,-66.6666666666667,4,2,1,5,0,0
168000,-66.6666666666667,4,2,1,75,0,0
168980,-66.6666666666667,4,2,1,5,0,0
169038,-66.6666666666667,4,2,1,75,0,0
169846,-83.3333333333333,4,2,1,70,0,0
183634,-83.3333333333333,4,2,1,5,0,0
183692,-83.3333333333333,4,2,1,70,0,0
183865,-83.3333333333333,4,2,1,5,0,0
183923,-83.3333333333333,4,2,1,70,0,0
184615,-100,4,2,1,65,0,0
187499,-100,4,2,1,5,0,0
187615,-100,4,2,1,65,0,0
187730,-100,4,2,1,5,0,0
187846,-100,4,2,1,65,0,0
187961,-100,4,2,1,5,0,0
188076,-100,4,2,1,65,0,0
188191,-100,4,2,1,5,0,0
188307,-100,4,2,1,65,0,0
189807,-100,4,2,1,5,0,0
189923,-100,4,2,1,65,0,0
190038,-100,4,2,1,5,0,0
190153,-100,4,2,1,65,0,0
190615,-76.9230769230769,4,2,1,65,0,0
191653,-90.9090909090909,4,2,1,65,0,0
191883,-90.9090909090909,4,2,1,5,0,0
192000,-90.9090909090909,4,2,1,70,0,0
195576,-90.9090909090909,4,2,1,5,0,0
195692,-90.9090909090909,4,2,1,70,0,0
198114,-90.9090909090909,4,2,1,5,0,0
198230,-90.9090909090909,4,2,1,70,0,0
198692,-76.9230769230769,4,2,1,70,0,0
199384,-500,4,2,1,70,0,0
203076,-500,4,2,1,50,0,0
208153,-142.857142857143,4,2,1,50,0,0
208499,-142.857142857143,4,2,1,5,0,0
208615,-71.4285714285714,4,2,1,70,0,0
210461,-62.5,4,2,1,75,0,1
210576,-62.5,4,2,1,5,0,1
210634,-62.5,4,2,1,5,0,1
210692,-62.5,4,2,1,75,0,1
210865,-62.5,4,2,1,5,0,1
210923,-62.5,4,2,1,75,0,1
211442,-62.5,4,2,1,5,0,1
211500,-62.5,4,2,1,75,0,1
211730,-62.5,4,2,1,5,0,1
211788,-62.5,4,2,1,5,0,1
211846,-62.5,4,2,1,75,0,1
213288,-62.5,4,2,1,5,0,1
213346,-62.5,4,2,1,75,0,1
214038,-62.5,4,2,1,5,0,1
214153,-62.5,4,2,1,75,0,1
214326,-62.5,4,2,1,5,0,1
214384,-62.5,4,2,1,75,0,1
215480,-62.5,4,2,1,5,0,1
215538,-62.5,4,2,1,75,0,1
216115,-62.5,4,2,1,5,0,1
216173,-62.5,4,2,1,5,0,1
216230,-62.5,4,2,1,75,0,1
216980,-62.5,4,2,1,5,0,1
217038,-62.5,4,2,1,75,0,1
217846,-71.4285714285714,4,2,1,70,0,0
219865,-71.4285714285714,4,2,1,5,0,0
219923,-71.4285714285714,4,2,1,70,0,0
220903,-71.4285714285714,4,2,1,5,0,0
220961,-71.4285714285714,4,2,1,70,0,0
222634,-71.4285714285714,4,2,1,5,0,0
222692,-71.4285714285714,4,2,1,70,0,0
223326,-71.4285714285714,4,2,1,5,0,0
223384,-71.4285714285714,4,2,1,70,0,0
227019,-71.4285714285714,4,2,1,5,0,0
227076,-71.4285714285714,4,2,1,70,0,0
230711,-71.4285714285714,4,2,1,5,0,0
230769,-71.4285714285714,4,2,1,65,0,0
231346,-66.6666666666667,4,2,1,65,0,0
232615,-66.6666666666667,4,2,1,75,0,1
232923,-76.9230769230769,4,2,1,75,0,1
236307,-62.5,4,2,1,75,0,1
237173,-62.5,4,2,1,5,0,1
237230,-62.5,4,2,1,75,0,1
238326,-62.5,4,2,1,5,0,1
238384,-62.5,4,2,1,75,0,1
239480,-62.5,4,2,1,5,0,1
239538,-86.9565217391304,4,2,1,75,0,1
240000,-62.5,4,2,1,75,0,1
240173,-62.5,4,2,1,5,0,1
240230,-62.5,4,2,1,75,0,1
241096,-62.5,4,2,1,5,0,1
241153,-62.5,4,2,1,75,0,1
242019,-62.5,4,2,1,5,0,1
242076,-62.5,4,2,1,75,0,1
244211,-62.5,4,2,1,5,0,1
244269,-62.5,4,2,1,75,0,1
245422,-62.5,4,2,1,5,0,1
245538,-62.5,4,2,1,75,0,1
245711,-62.5,4,2,1,5,0,1
245769,-62.5,4,2,1,75,0,1
247384,-62.5,4,2,1,75,0,0
254711,-62.5,4,2,1,5,0,0

[Colours]
Combo1 : 238,188,17
Combo2 : 169,201,250
Combo3 : 236,171,250
Combo4 : 227,38,137

[HitObjects]
256,192,5538,12,0,7269,0:0:0:0:
40,40,7384,6,0,B|128:52|88:80|212:104,1,155.999992858887,4|0,1:2|0:0,0:0:0:0:
190,96,7615,1,0,3:0:0:0:
48,212,7730,2,0,P|96:184|164:168,1,103.999995239258,8|0,1:0|3:0,0:0:0:0:
268,40,7961,1,0,3:0:0:0:
372,88,8076,2,0,P|316:64|260:52,1,103.999995239258,8|0,1:0|3:0,0:0:0:0:
148,176,8307,1,0,3:0:0:0:
244,272,8423,2,0,P|256:212|276:168,1,103.999995239258,8|0,1:0|3:0,0:0:0:0:
432,164,8653,5,0,3:0:0:0:
432,164,8711,1,0,3:0:0:0:
432,164,8769,2,0,B|484:180|484:180|428:176,1,103.999995239258,8|0,1:0|3:0,0:0:0:0:
120,324,9000,2,0,B|64:340|64:340|124:336,1,103.999995239258,8|0,1:0|3:0,0:0:0:0:
252,380,9230,5,8,1:0:0:0:
356,348,9346,1,0,3:0:0:0:
412,252,9461,1,0,3:0:0:0:
172,172,9576,5,8,1:0:0:0:
154,246,9692,1,0,3:0:0:0:
192,313,9807,1,0,3:0:0:0:
356,160,9923,5,8,1:0:0:0:
316,122,10039,1,0,3:0:0:0:
263,122,10154,1,0,3:0:0:0:
332,320,10269,2,0,P|416:280|488:264,1,155.999992858887,8|0,1:0|0:0,0:0:0:0:
448,164,10500,1,0,3:0:0:0:
448,164,10557,1,0,3:0:0:0:
448,164,10615,2,0,B|432:112|432:112|440:168,1,103.999995239258,8|0,1:0|3:0,0:0:0:0:
144,76,10846,2,0,B|156:20|156:20|152:80,1,103.999995239258,8|0,1:0|3:0,0:0:0:0:
64,252,11076,6,0,B|116:216|180:204|180:204|204:216|228:212,1,155.999992858887,8|0,1:0|0:0,0:0:0:0:
292,184,11307,1,0,3:0:0:0:
260,16,11423,2,0,P|240:76|236:124,1,103.999995239258,8|0,1:0|3:0,0:0:0:0:
272,280,11653,1,0,3:0:0:0:
480,244,11769,2,0,B|460:232|432:224|432:224|388:240|352:232,1,103.999995239258,8|0,1:0|3:0,0:0:0:0:
264,288,12000,1,0,3:0:0:0:
128,148,12115,2,0,P|184:135|240:116,1,103.999995239258,8|0,1:0|3:0,0:0:0:0:
184,276,12346,6,0,P|192:244|208:216,1,51.999997619629,0|0,3:0|3:0,0:0:0:0:
348,120,12461,2,0,B|400:128|400:128|404:132|404:132|464:144,1,103.999995239258,8|0,1:0|3:0,0:0:0:0:
208,40,12692,2,0,B|152:48|152:48|148:52|148:52|88:64,1,103.999995239258,8|0,1:0|3:0,0:0:0:0:
436,228,12923,5,8,1:0:0:0:
382,304,13039,1,0,3:0:0:0:
288,324,13154,1,0,3:0:0:0:
286,106,13269,5,8,1:0:0:0:
352,111,13385,1,0,3:0:0:0:
397,160,13500,1,0,3:0:0:0:
227,253,13616,5,8,1:0:0:0:
206,211,13730,1,0,3:0:0:0:
221,167,13847,1,0,3:0:0:0:
212,24,13961,6,0,B|189:26|165:58|165:58|109:82|53:46,1,155.999992858887,8|0,1:0|0:0,0:0:0:0:
64,48,14192,1,0,3:0:0:0:
280,100,14307,2,0,P|292:48|316:-8,1,103.999995239258,8|0,1:0|3:0,0:0:0:0:
128,260,14538,2,0,P|56:256|32:156,1,155.999992858887,8|0,1:0|0:0,0:0:0:0:
80,128,14769,5,4,1:2:0:0:
200,328,14884,2,0,P|216:264|236:228,1,88.000002685547,0|0,3:0|3:0,0:0:0:0:
140,52,15115,2,0,P|172:104|196:204,1,132.00000402832,0|0,1:0|0:0,0:0:0:0:
136,252,15346,1,0,3:0:0:0:
392,116,15461,2,0,L|284:100,1,88.000002685547,0|0,1:0|3:0,0:0:0:0:
480,236,15692,1,0,3:0:0:0:
480,236,15750,1,0,3:0:0:0:
480,236,15807,2,0,P|431:249|384:276,1,88.000002685547,0|0,1:0|3:0,0:0:0:0:
216,360,16038,5,0,3:0:0:0:
216,360,16096,1,0,3:0:0:0:
216,360,16153,2,0,B|196:316|196:316|228:272,1,88.000002685547,0|0,1:0|3:0,0:0:0:0:
384,108,16384,2,0,B|404:152|404:152|372:196,1,88.000002685547,0|0,1:0|0:0,0:0:0:0:
216,16,16615,5,0,1:0:0:0:
88,108,16730,2,0,P|160:80|188:76,1,88.000002685547,0|0,3:0|3:0,0:0:0:0:
336,36,16903,1,0,3:0:0:0:
336,36,16961,2,0,B|420:56|368:72|472:96,1,132.00000402832,0|0,1:0|0:0,0:0:0:0:
248,184,17192,1,0,3:0:0:0:
248,184,17250,1,0,0:0:0:0:
248,184,17307,2,0,P|260:128|284:80,1,88.000002685547,0|0,1:0|3:0,0:0:0:0:
464,208,17538,2,0,L|452:260,1,44.0000013427735,0|0,3:0|3:0,0:0:0:0:
348,360,17653,2,0,B|302:354|302:354|296:348|296:348|240:340,1,88.000002685547,0|0,1:0|3:0,0:0:0:0:
152,268,17884,5,0,3:0:0:0:
152,268,17942,1,0,3:0:0:0:
152,268,18000,2,0,L|136:164,1,88.000002685547,0|0,1:0|3:0,0:0:0:0:
368,12,18230,2,0,L|356:104,1,88.000002685547,0|0,1:0|0:0,0:0:0:0:
236,264,18461,5,0,1:0:0:0:
468,168,18576,1,0,3:0:0:0:
344,116,18692,1,0,3:0:0:0:
412,256,18807,2,0,P|472:268|508:280,1,88.000002685547,0|0,1:0|3:0,0:0:0:0:
204,88,19038,1,0,3:0:0:0:
204,88,19096,1,0,3:0:0:0:
204,88,19153,2,0,P|144:100|108:116,1,88.000002685547,0|0,1:0|3:0,0:0:0:0:
304,220,19384,2,0,P|296:192|284:176,1,44.0000013427735,0|0,3:0|3:0,0:0:0:0:
104,340,19500,2,0,L|204:316,1,88.000002685547,0|0,1:0|3:0,0:0:0:0:
428,192,19730,5,0,3:0:0:0:
428,192,19788,1,0,3:0:0:0:
428,192,19846,2,0,B|444:228|444:228|424:248|408:284,1,88.000002685547,0|0,1:0|3:0,0:0:0:0:
84,192,20076,2,0,B|68:156|68:156|88:136|104:96,1,88.000002685547,0|0,1:0|0:0,0:0:0:0:
344,0,20307,6,0,P|416:52|392:120,1,155.999992858887,0|0,1:0|0:0,0:0:0:0:
392,112,20538,1,0,3:0:0:0:
176,256,20653,2,0,L|56:284,1,103.999995239258,0|0,1:0|3:0,0:0:0:0:
204,176,20884,1,0,3:0:0:0:
248,352,21000,2,0,P|268:284|284:256,1,103.999995239258,0|0,1:0|0:0,0:0:0:0:
152,100,21230,6,0,L|28:128,1,103.999995239258,0|0,3:0|1:0,0:0:0:0:
396,160,21461,2,0,L|520:132,1,103.999995239258,0|0,1:0|1:0,0:0:0:0:
120,4,21692,5,0,3:0:0:0:
194,17,21807,1,0,1:0:0:0:
269,31,21923,1,0,3:0:0:0:
344,44,22038,1,0,1:0:0:0:
416,68,22153,6,0,B|400:116|419:97|403:152,1,80,4|0,3:2|0:0,0:0:0:0:
408,153,22384,1,0,1:0:0:0:
244,184,22500,2,0,L|331:164,1,80,4|0,3:3|0:0,0:0:0:0:
408,153,22730,1,0,1:0:0:0:
384,288,22846,1,8,1:0:0:0:
384,288,23307,1,8,1:0:0:0:
384,288,23769,1,8,1:0:0:0:
384,288,24230,1,8,1:0:0:0:
384,288,24692,1,8,1:0:0:0:
142,357,24923,6,0,B|126:306|145:324|129:273,1,80,4|0,3:0|0:0,0:0:0:0:
131,279,25153,1,0,1:0:0:0:
16,216,25269,2,0,L|112:192,1,80,8|0,3:0|0:0,0:0:0:0:
208,176,25500,1,0,1:0:0:0:
224,52,25615,2,0,B|204:123|232:95|208:180,1,120,8|0,1:0|0:0,0:0:0:0:
68,32,25846,6,0,L|152:44,1,80,4|0,3:0|0:0,0:0:0:0:
360,68,26076,1,0,1:0:0:0:
140,132,26192,1,4,3:0:0:0:
140,132,26423,1,0,1:0:0:0:
328,168,26539,1,8,1:0:0:0:
328,168,27000,1,8,1:0:0:0:
328,168,27461,1,8,1:0:0:0:
260,272,27576,2,0,L|268:228,1,40,2|2,0:0|0:0,0:0:0:0:
456,308,27692,6,0,B|364:320|424:332|296:356,1,143.999995605469,2|0,3:2|0:0,0:0:0:0:
312,344,27923,1,0,1:0:0:0:
164,364,28038,2,0,B|144:332|144:332|176:264,1,95.9999970703126,4|0,3:0|0:0,0:0:0:0:
320,152,28269,1,0,1:0:0:0:
312,48,28384,2,0,L|328:160,1,95.9999970703126,8|0,1:0|0:0,0:0:0:0:
476,52,28615,5,0,3:0:0:0:
448,44,28730,1,0,3:0:0:0:
420,36,28846,1,8,1:0:0:0:
232,116,28961,2,0,P|168:128|64:160,1,143.999995605469,2|0,3:1|0:0,0:0:0:0:
92,149,29192,1,0,1:0:0:0:
76,28,29307,2,0,P|24:68|24:108,1,95.9999970703126,8|0,1:0|0:0,0:0:0:0:
148,240,29480,5,0,0:0:0:0:
148,240,29538,2,0,L|252:256,1,95.9999970703126,4|0,3:0|0:0,0:0:0:0:
324,264,29769,1,0,1:0:0:0:
212,332,29884,1,4,3:0:0:0:
212,332,30115,1,0,1:0:0:0:
300,368,30230,1,8,1:0:0:0:
300,368,30692,1,8,1:0:0:0:
300,368,31153,1,8,1:0:0:0:
496,252,31384,6,0,B|392:228|448:204|328:184,1,155.999992858887,4|0,3:2|0:0,0:0:0:0:
260,180,31615,1,0,1:0:0:0:
356,12,31730,2,0,B|372:44|372:44|344:64|336:116,1,103.999995239258,8|0,3:0|0:0,0:0:0:0:
268,168,31961,1,0,1:0:0:0:
104,96,32076,2,0,L|216:76,1,103.999995239258,0|0,3:0|0:0,0:0:0:0:
52,224,32307,6,0,B|44:200|44:200|68:176,1,51.999997619629,0|0,1:0|0:0,0:0:0:0:
140,244,32423,1,0,1:0:0:0:
140,244,32480,1,0,1:0:0:0:
140,244,32538,1,8,1:0:0:0:
228,260,32653,1,0,1:0:0:0:
214,354,32769,5,0,1:0:0:0:
283,337,32884,1,0,3:0:0:0:
353,320,33000,1,0,3:0:0:0:
424,304,33115,1,0,3:0:0:0:
424,304,33230,6,0,L|428:248,1,44.0000013427735,4|0,3:2|0:0,0:0:0:0:
480,156,33461,6,0,L|484:100,1,44.0000013427735,0|0,3:0|0:0,0:0:0:0:
348,36,33576,2,0,L|344:79,1,44.0000013427735,2|0,3:2|0:0,0:0:0:0:
492,156,33807,6,0,L|496:100,1,44.0000013427735,0|0,3:0|0:0,0:0:0:0:
272,52,33923,2,0,L|268:95,1,44.0000013427735,2|0,3:2|0:0,0:0:0:0:
64,0,34153,6,0,B|76:80|88:40|100:132,1,132.00000402832,10|0,1:0|0:0,0:0:0:0:
40,176,34384,6,0,L|43:219,1,44.0000013427735,0|0,3:0|0:0,0:0:0:0:
296,220,34500,2,0,L|292:176,1,44.0000013427735,2|0,3:2|0:0,0:0:0:0:
24,180,34730,6,0,L|27:223,1,44.0000013427735,0|0,3:0|0:0,0:0:0:0:
220,208,34846,2,0,L|216:164,1,44.0000013427735,2|0,3:2|0:0,0:0:0:0:
92,312,34961,5,0,1:0:0:0:
96,308,35019,1,0,1:0:0:0:
100,304,35076,2,0,B|176:284|176:284|208:300|244:300,1,132.00000402832,10|0,1:0|0:0,0:0:0:0:
312,368,35307,2,0,B|328:344|328:344|312:308,2,58.6666684570313,0|0|0,3:0|0:0|0:0,0:0:0:0:
212,152,35538,6,0,L|92:176,1,103.999995239258,2|0,3:2|0:0,0:0:0:0:
336,216,35769,2,0,P|352:156|376:112,1,103.999995239258,2|0,3:2|0:0,0:0:0:0:
344,4,36000,6,0,B|424:20|424:20|344:20,1,155.999992858887,10|0,1:0|0:0,0:0:0:0:
240,20,36230,1,0,3:0:0:0:
136,44,36346,1,0,1:0:0:0:
220,144,36461,2,0,P|222:121|232:92,1,51.999997619629,0|0,1:0|0:0,0:0:0:0:
144,48,36576,1,0,1:0:0:0:
24,160,36692,2,0,P|84:171|136:196,1,103.999995239258,0|0,1:0|1:0,0:0:0:0:
392,288,36923,6,0,B|316:304|316:304|304:320|304:320|208:340,1,167.999994873047,4|0,3:2|0:0,0:0:0:0:
176,272,37153,1,8,1:0:0:0:
60,368,37269,2,0,P|80:300|100:260,1,111.999996582031,0|0,3:0|0:0,0:0:0:0:
184,260,37500,1,0,3:0:0:0:
60,72,37615,2,0,B|168:88|124:112|228:140,1,167.999994873047,8|0,1:0|0:0,0:0:0:0:
280,188,37846,5,0,3:0:0:0:
368,148,37961,1,0,3:0:0:0:
280,188,38076,1,8,1:0:0:0:
368,24,38192,2,0,L|352:136,1,111.999996582031,0|0,3:0|0:0,0:0:0:0:
448,208,38423,1,0,3:0:0:0:
356,260,38538,2,0,P|416:232|484:216,1,111.999996582031,8|0,1:0|0:0,0:0:0:0:
304,376,38769,6,0,P|224:360|212:272,1,167.999994873047,0|0,3:0|0:0,0:0:0:0:
220,272,39000,1,8,1:0:0:0:
92,124,39115,2,0,P|152:144|208:176,1,111.999996582031,0|0,3:0|0:0,0:0:0:0:
280,196,39346,1,0,3:0:0:0:
116,340,39461,2,0,L|4:312,1,111.999996582031,8|0,1:0|0:0,0:0:0:0:
284,112,39692,6,0,P|312:164|276:208,1,111.999996582031,0|0,3:0|0:0,0:0:0:0:
16,300,39923,2,0,P|-12:248|24:204,1,111.999996582031,8|0,1:0|0:0,0:0:0:0:
300,328,40153,2,0,P|224:288|188:276,1,111.999996582031,0|0,3:0|3:0,0:0:0:0:
0,84,40384,2,0,P|76:124|112:136,1,111.999996582031,8|0,1:0|0:0,0:0:0:0:
316,12,40615,6,0,B|295:80|222:101|222:101|199:89|203:64,1,167.999994873047,0|0,3:0|0:0,0:0:0:0:
208,72,40846,1,8,1:0:0:0:
356,152,40961,2,0,P|416:128|472:116,1,111.999996582031,0|0,3:0|0:0,0:0:0:0:
248,208,41192,1,0,3:0:0:0:
420,276,41307,2,0,P|340:240|240:216,1,167.999994873047,8|0,1:0|0:0,0:0:0:0:
148,176,41538,5,0,3:0:0:0:
92,252,41653,1,0,3:0:0:0:
148,176,41769,1,8,1:0:0:0:
8,96,41884,2,0,B|60:72|132:64|132:64|148:84|180:92,1,167.999994873047,0|0,3:0|0:0,0:0:0:0:
176,80,42115,1,0,3:0:0:0:
320,8,42230,2,0,L|296:140,1,111.999996582031,8|0,1:0|0:0,0:0:0:0:
120,336,42461,6,0,P|180:312|248:300,1,111.999996582031,0|0,3:0|0:0,0:0:0:0:
448,340,42692,2,0,P|392:320|360:212,1,167.999994873047,8|0,1:0|0:0,0:0:0:0:
372,220,42923,1,0,3:0:0:0:
492,164,43038,1,0,0:0:0:0:
416,60,43153,2,0,B|363:52|363:52|357:45|357:45|284:35,1,111.999996582031,8|0,1:0|0:0,0:0:0:0:
180,0,43384,6,0,P|212:56|228:120,1,111.999996582031,0|0,3:0|3:0,0:0:0:0:
204,188,43615,1,8,1:0:0:0:
20,272,43730,2,0,L|148:248,1,111.999996582031,0|0,3:0|0:0,0:0:0:0:
212,196,43961,1,0,3:0:0:0:
248,372,44076,2,0,P|260:303|256:252,1,111.999996582031,8|0,1:0|0:0,0:0:0:0:
320,72,44307,6,0,B|372:40|372:40|328:96,1,111.999996582031,4|0,3:2|0:0,0:0:0:0:
120,152,44538,2,0,L|-20:124,1,111.999996582031,8|0,1:0|0:0,0:0:0:0:
200,0,44769,2,0,P|240:68|248:108,1,111.999996582031,0|0,3:0|0:0,0:0:0:0:
196,180,45000,1,8,1:0:0:0:
120,284,45115,2,0,P|196:272|264:348,1,167.999994873047,0|0,3:0|0:0,0:0:0:0:
248,336,45346,1,0,3:0:0:0:
95,368,45461,2,0,B|35:388|35:388|83:344,1,111.999996582031,8|0,1:0|3:0,0:0:0:0:
336,132,45692,2,0,P|308:188|296:240,1,111.999996582031,0|0,3:0|3:0,0:0:0:0:
380,288,45923,2,0,L|496:264,1,111.999996582031,8|0,1:0|0:0,0:0:0:0:
448,40,46153,6,0,B|340:24|396:64|272:48,1,167.999994873047,4|0,3:2|0:0,0:0:0:0:
276,40,46384,1,8,1:0:0:0:
152,16,46500,2,0,L|40:44,1,111.999996582031,0|0,3:0|0:0,0:0:0:0:
200,92,46730,1,0,3:0:0:0:
72,240,46846,2,0,P|96:176|128:132,1,111.999996582031,8|0,1:0|0:0,0:0:0:0:
424,220,47076,6,0,B|376:212|376:212|368:204|368:204|308:196,1,111.999996582031,4|4,3:0|3:0,0:0:0:0:
248,240,47307,1,4,3:0:0:0:
336,304,47423,1,8,3:0:0:0:
156,372,47538,5,8,3:0:0:0:
336,304,47653,1,8,3:0:0:0:
144,380,47769,2,0,L|164:260,1,111.999996582031,0|0,1:0|1:0,0:0:0:0:
80,32,48000,6,0,B|156:72|156:72|252:56,1,167.999994873047,4|0,1:2|0:0,0:0:0:0:
308,44,48230,2,0,L|300:0,1,44.0000013427735,0|0,3:0|0:0,0:0:0:0:
224,180,48346,2,0,L|216:136,1,44.0000013427735,2|0,3:2|0:0,0:0:0:0:
324,44,48576,2,0,L|316:0,1,44.0000013427735,0|0,3:0|0:0,0:0:0:0:
148,196,48692,2,0,L|140:152,1,44.0000013427735,2|0,3:2|0:0,0:0:0:0:
384,352,48923,6,0,B|320:320|320:320|236:332,1,132.00000402832,10|0,1:0|0:0,0:0:0:0:
180,348,49153,2,0,L|188:296,1,44.0000013427735,0|0,3:0|0:0,0:0:0:0:
332,248,49269,2,0,L|340:196,1,44.0000013427735,2|0,3:2|0:0,0:0:0:0:
160,352,49500,2,0,L|168:300,1,44.0000013427735,0|0,3:0|0:0,0:0:0:0:
408,264,49616,2,0,L|416:212,1,44.0000013427735,2|0,3:2|0:0,0:0:0:0:
376,116,49730,5,0,1:0:0:0:
372,112,49788,1,0,1:0:0:0:
368,108,49846,2,0,B|320:80|256:72|256:72|228:88|192:88,1,155.999992858887,10|0,1:0|0:0,0:0:0:0:
124,28,50076,2,0,B|108:60|108:60|132:92,2,69.3333301595054,0|0|0,3:0|0:0|0:0,0:0:0:0:
304,188,50307,6,0,L|412:212,1,103.999995239258,2|0,3:2|0:0,0:0:0:0:
256,356,50538,2,0,P|244:296|220:248,1,103.999995239258,2|0,3:2|0:0,0:0:0:0:
216,0,50769,2,0,B|312:24|260:36|380:64,1,155.999992858887,10|0,1:0|0:0,0:0:0:0:
368,56,51000,1,0,3:0:0:0:
188,184,51115,1,0,1:0:0:0:
188,184,51173,1,0,1:0:0:0:
188,184,51230,2,0,L|193:135,1,47.9999985351563,10|4,1:0|3:2,0:0:0:0:
252,0,62769,6,0,B|208:128|320:84|260:244,1,240,4|0,3:2|0:0,0:0:0:0:
200,272,63230,5,0,3:0:0:0:
128,200,63461,5,0,3:1:0:0:
164,88,63692,5,0,3:1:0:0:
300,20,63923,5,0,3:1:0:0:
452,104,64153,5,0,3:1:0:0:
456,292,64384,5,0,3:1:0:0:
256,384,64615,5,0,1:0:0:0:
288,212,64730,2,0,L|304:320,1,103.999995239258,8|0,1:0|0:0,0:0:0:0:
312,316,64961,5,0,1:0:0:0:
220,120,65076,2,0,L|204:220,1,80,8|0,1:0|0:0,0:0:0:0:
200,208,65307,5,0,1:0:0:0:
280,28,65423,2,0,L|290:101,1,55.9999982910157,8|0,1:0|0:0,0:0:0:0:
296,88,65653,5,0,1:0:0:0:
504,168,65769,2,0,P|428:140|356:124,1,143.999995605469,8|0,1:0|0:0,0:0:0:0:
136,104,66000,1,4,3:0:0:0:
316,360,66461,6,0,P|388:328|392:232,1,180.000006866455,4|0,3:2|0:0,0:0:0:0:
292,12,66692,2,0,B|280:60|280:60|292:76|292:76|276:136,1,120.000004577637,8|0,1:0|0:0,0:0:0:0:
148,264,66923,2,0,P|88:280|28:308,1,120.000004577637,0|0,3:0|3:0,0:0:0:0:
236,200,67153,1,8,1:0:0:0:
20,52,67269,6,0,B|89:53|155:80|155:80|156:106|175:123,1,180.000006866455,0|0,3:0|0:0,0:0:0:0:
178,113,67500,1,0,3:0:0:0:
360,60,67615,2,0,L|477:33,1,120.000004577637,8|0,1:0|0:0,0:0:0:0:
256,280,67846,2,0,P|272:222|297:168,1,120.000004577637,0|0,3:0|3:0,0:0:0:0:
184,352,68076,2,0,L|66:378,1,120.000004577637,8|0,1:0|3:0,0:0:0:0:
364,284,68307,6,0,B|416:336|488:336|488:336|484:312|468:300,1,180.000006866455,2|0,3:2|0:0,0:0:0:0:
132,192,68538,2,0,B|80:224|80:224|164:208,1,120.000004577637,8|0,1:0|0:0,0:0:0:0:
308,160,68769,1,0,3:0:0:0:
264,0,68884,2,0,P|239:62|228:132,1,120.000004577637,0|8,3:0|1:0,0:0:0:0:
392,216,69115,6,0,P|472:176|460:36,1,240.000009155274,2|0,3:2|3:0,0:0:0:0:
328,0,69461,2,0,L|268:16,1,60.0000022888184,8|0,1:0|0:0,0:0:0:0:
156,52,69576,1,8,1:0:0:0:
420,120,69692,2,0,P|344:96|292:92,1,120.000004577637,0|0,3:0|3:0,0:0:0:0:
92,168,69923,2,0,P|149:150|202:122,1,120.000004577637,8|0,1:0|0:0,0:0:0:0:
202,121,70153,5,4,3:2:0:0:
100,364,70384,2,0,L|64:244,1,120.000004577637,8|0,1:0|0:0,0:0:0:0:
188,0,70615,2,0,L|207:118,1,120.000004577637,0|0,3:0|3:0,0:0:0:0:
264,192,70846,1,8,1:0:0:0:
496,96,70961,2,0,B|384:72|440:44|280:20,1,180.000006866455,2|0,3:2|0:0,0:0:0:0:
324,36,71192,1,0,3:0:0:0:
356,240,71307,2,0,P|420:208|484:192,1,120.000004577637,8|0,1:0|0:0,0:0:0:0:
208,264,71538,2,0,L|186:382,1,120.000004577637,0|0,3:0|3:0,0:0:0:0:
256,96,71769,2,0,P|188:72|132:64,1,120.000004577637,8|0,1:0|3:0,0:0:0:0:
0,200,72000,6,0,B|48:148|116:152|116:152|112:184|140:212,1,180.000006866455,4|0,3:2|0:0,0:0:0:0:
212,256,72230,2,0,P|292:224|336:216,1,120.000004577637,8|0,1:0|0:0,0:0:0:0:
440,132,72461,2,0,B|476:100|476:100|440:24,1,120.000004577637,0|0,3:0|3:0,0:0:0:0:
332,20,72692,1,8,1:0:0:0:
512,188,72807,6,0,P|428:148|268:108,1,240.000009155274,4|0,3:2|3:0,0:0:0:0:
184,0,73096,1,0,3:0:0:0:
184,0,73153,2,0,P|164:20|168:56,1,60.0000022888184,8|0,3:0|0:0,0:0:0:0:
216,136,73269,1,8,3:0:0:0:
60,192,73384,1,8,3:0:0:0:
216,136,73500,1,4,3:0:0:0:
60,192,73615,2,0,L|200:216,1,120.000004577637,4|4,3:0|3:0,0:0:0:0:
416,220,73846,6,0,B|464:256|464:256|464:328|392:348,1,180.000006866455,4|0,3:2|0:0,0:0:0:0:
148,336,74076,2,0,B|80:352|80:352|144:320,1,120.000004577637,8|0,1:0|0:0,0:0:0:0:
308,148,74307,2,0,B|344:94|344:94|322:162,1,120.000004577637,0|0,3:0|3:0,0:0:0:0:
236,224,74538,1,8,1:0:0:0:
68,140,74653,2,0,P|140:126|192:108,1,120.000004577637,0|0,3:0|0:0,0:0:0:0:
224,216,74884,1,0,3:0:0:0:
376,344,75000,2,0,P|284:316|192:304,1,180.000006866455,8|0,1:0|0:0,0:0:0:0:
144,220,75230,2,0,P|92:260|96:320,1,120.000004577637,0|0,3:0|3:0,0:0:0:0:
328,184,75461,2,0,B|340:136|340:136|328:124|328:124|340:64,1,120.000004577637,8|0,1:0|3:0,0:0:0:0:
16,88,75692,6,0,B|72:72|108:24|108:24|140:40|176:36,1,180.000006866455,2|0,3:2|0:0,0:0:0:0:
176,28,75923,1,8,1:0:0:0:
316,176,76038,1,0,3:0:0:0:
240,112,76153,1,0,3:0:0:0:
404,48,76269,2,0,P|416:112|448:188,1,120.000004577637,0|8,3:0|1:0,0:0:0:0:
484,272,76442,5,0,0:0:0:0:
484,272,76500,2,0,B|368:252|428:316|284:296,1,180.000006866455,2|0,3:2|0:0,0:0:0:0:
304,292,76730,1,0,3:0:0:0:
156,384,76846,2,0,L|180:248,1,120.000004577637,8|0,1:0|3:0,0:0:0:0:
124,36,77076,2,0,P|188:52|244:80,1,120.000004577637,0|0,3:0|3:0,0:0:0:0:
480,112,77307,2,0,P|424:148|364:164,1,120.000004577637,8|0,1:0|0:0,0:0:0:0:
373,162,77538,5,4,3:2:0:0:
512,288,77769,2,0,L|380:260,1,120.000004577637,8|0,1:0|0:0,0:0:0:0:
124,180,78000,2,0,L|-8:152,1,120.000004577637,0|0,3:0|3:0,0:0:0:0:
288,224,78230,1,8,1:0:0:0:
228,52,78346,2,0,B|240:152|284:92|296:220,1,180.000006866455,2|0,3:2|0:0,0:0:0:0:
288,224,78576,1,0,0:0:0:0:
364,48,78692,2,0,B|420:20|420:20|376:68,1,120.000004577637,8|0,1:0|0:0,0:0:0:0:
140,156,78923,2,0,B|84:128|84:128|128:176,1,120.000004577637,0|0,3:0|3:0,0:0:0:0:
384,248,79153,2,0,P|304:272|204:324,1,180.000006866455,8|0,1:0|0:0,0:0:0:0:
136,376,79384,6,0,B|80:348|80:348|104:276,1,120.000004577637,4|0,3:2|0:0,0:0:0:0:
360,144,79615,2,0,B|420:156|420:156|428:164|428:164|484:176,1,120.000004577637,8|0,1:0|0:0,0:0:0:0:
256,0,79846,2,0,P|224:56|204:120,1,120.000004577637,0|0,3:0|3:0,0:0:0:0:
280,160,80076,1,8,1:0:0:0:
56,192,80192,2,0,P|164:200|200:324,1,240.000009155274,4|0,3:2|0:0,0:0:0:0:
120,336,80538,5,8,1:0:0:0:
100,344,80596,1,8,1:0:0:0:
80,352,80653,1,8,1:0:0:0:
120,248,80769,1,8,1:0:0:0:
192,192,80884,5,8,1:0:0:0:
220,20,81000,1,8,1:0:0:0:
288,116,81115,1,8,1:0:0:0:
36,156,81230,6,0,P|128:120|228:96,1,180.000006866455,4|0,1:2|0:0,0:0:0:0:
212,108,81461,1,0,3:0:0:0:
408,8,81576,2,0,P|376:48|348:116,1,120.000004577637,8|0,1:0|3:0,0:0:0:0:
380,180,81807,1,0,3:0:0:0:
484,344,81923,2,0,P|460:280|424:232,1,120.000004577637,8|0,1:0|3:0,0:0:0:0:
368,192,82153,1,0,3:0:0:0:
232,280,82269,2,0,L|364:300,1,120.000004577637,8|0,1:0|3:0,0:0:0:0:
456,128,82500,5,0,3:0:0:0:
456,128,82557,1,0,3:0:0:0:
456,128,82615,2,0,B|488:76|488:76|436:112,1,120.000004577637,8|0,1:0|3:0,0:0:0:0:
120,84,82846,2,0,B|88:32|88:32|140:68,1,120.000004577637,8|0,1:0|3:0,0:0:0:0:
260,200,83076,5,8,1:0:0:0:
203,280,83192,1,0,3:0:0:0:
116,300,83307,1,0,3:0:0:0:
267,185,83423,5,8,1:0:0:0:
344,190,83539,1,0,3:0:0:0:
394,244,83654,1,0,3:0:0:0:
254,185,83769,5,8,1:0:0:0:
225,134,83885,1,0,3:0:0:0:
244,74,84000,1,0,3:0:0:0:
328,24,84115,2,0,B|396:40|396:40|324:40,1,120.000004577637,8|0,1:0|3:0,0:0:0:0:
148,208,84346,5,0,3:0:0:0:
148,208,84403,1,0,3:0:0:0:
148,208,84461,2,0,L|12:236,1,120.000004577637,8|0,1:0|3:0,0:0:0:0:
344,312,84692,2,0,P|412:332|464:360,1,120.000004577637,8|0,1:0|3:0,0:0:0:0:
208,360,84923,6,0,B|228:244|280:320|300:176,1,180.000006866455,8|0,1:0|0:0,0:0:0:0:
280,196,85153,1,0,3:0:0:0:
220,28,85269,2,0,P|156:76|164:116,1,120.000004577637,8|0,1:0|3:0,0:0:0:0:
200,192,85500,1,0,3:0:0:0:
128,282,85615,2,0,P|70:299|16:324,1,120.000004577637,8|0,1:0|3:0,0:0:0:0:
188,200,85846,1,0,3:0:0:0:
376,236,85961,2,0,B|384:192|384:192|368:172|368:172|380:112,1,120.000004577637,8|0,1:0|3:0,0:0:0:0:
456,352,86192,5,0,3:0:0:0:
456,352,86250,1,0,3:0:0:0:
456,352,86307,2,0,P|407:334|330:318,1,120.000004577637,8|0,1:0|3:0,0:0:0:0:
236,80,86538,2,0,P|284:62|361:46,1,120.000004577637,8|0,1:0|3:0,0:0:0:0:
152,0,86769,6,0,B|132:108|76:32|52:160,1,180.000006866455,8|0,1:0|0:0,0:0:0:0:
64,152,87000,1,0,3:0:0:0:
196,312,87115,2,0,B|256:336|256:336|208:284,1,120.000004577637,8|0,1:0|3:0,0:0:0:0:
188,176,87346,1,0,3:0:0:0:
8,268,87461,2,0,P|84:240|132:228,1,120.000004577637,8|0,1:0|3:0,0:0:0:0:
384,132,87692,5,0,1:0:0:0:
384,132,87750,1,0,1:0:0:0:
384,132,87807,2,0,B|448:152|428:120|520:152,1,120.000004577637,0|0,1:0|3:0,0:0:0:0:
300,260,88038,5,0,1:0:0:0:
300,260,88096,1,0,1:0:0:0:
300,260,88153,2,0,B|250:305|288:304|214:367,1,120.000004577637,0|0,1:0|3:0,0:0:0:0:
231,127,88384,5,0,1:0:0:0:
231,127,88442,1,0,1:0:0:0:
231,127,88499,2,0,B|216:61|198:94|180:0,1,120.000004577637,0|4,1:0|3:2,0:0:0:0:
296,172,88846,5,0,3:0:0:0:
308,176,89076,1,0,3:0:0:0:
320,180,89307,1,0,3:0:0:0:
448,264,89538,5,0,3:0:0:0:
424,268,89769,1,0,3:0:0:0:
400,272,90000,1,0,3:0:0:0:
376,276,90230,1,0,3:0:0:0:
196,376,90461,6,0,B|179:316|200:327|180:264,1,111.999996582031,0|0,3:0|3:0,0:0:0:0:
60,216,90923,2,0,L|88:104,1,111.999996582031,0|0,3:0|3:0,0:0:0:0:
232,16,91384,6,0,P|272:56|336:52,1,111.999996582031,0|0,3:0|3:0,0:0:0:0:
448,24,91846,2,0,P|437:52|432:88,1,55.9999982910157,0|0,3:0|0:0,0:0:0:0:
496,188,92076,5,0,3:0:0:0:
384,208,92192,1,0,1:0:0:0:
272,228,92307,1,0,3:0:0:0:
256,224,92538,1,0,3:0:0:0:
240,220,92769,1,0,3:0:0:0:
228,216,93000,1,0,3:0:0:0:
126,62,93230,5,0,3:0:0:0:
155,54,93461,1,0,3:0:0:0:
184,47,93692,1,0,3:0:0:0:
207,39,93923,1,0,3:0:0:0:
392,16,94153,6,0,B|384:57|384:57|403:79|403:79|393:128,1,111.999996582031,0|0,3:0|3:0,0:0:0:0:
472,212,94615,2,0,P|444:252|420:316,1,111.999996582031,0|0,3:0|3:0,0:0:0:0:
248,368,95076,6,0,L|132:344,1,111.999996582031,0|0,3:0|3:0,0:0:0:0:
268,240,95538,5,0,3:0:0:0:
273,212,95653,1,0,0:0:0:0:
278,184,95769,1,0,3:0:0:0:
283,157,95884,1,0,0:0:0:0:
224,48,96000,6,0,L|336:32,1,111.999996582031,0|0,3:0|3:0,0:0:0:0:
476,132,96461,2,0,P|452:172|428:256,1,111.999996582031,0|0,3:0|3:0,0:0:0:0:
504,272,96807,1,2,0:0:0:0:
392,336,96923,2,0,L|304:352,1,80,0|0,3:0|0:0,0:0:0:0:
300,116,97153,2,0,P|344:156|360:188,1,80,0|0,3:0|0:0,0:0:0:0:
176,40,97384,2,0,P|235:37|269:48,1,80,0|0,3:0|1:0,0:0:0:0:
34,73,97615,2,0,P|74:29|105:13,1,80,0|0,1:0|1:0,0:0:0:0:
34,73,97846,5,4,1:2:0:0:
336,288,99000,5,0,3:0:0:0:
160,328,99115,1,0,3:0:0:0:
268,200,99230,2,0,B|313:222|324:256|324:256|248:304|273:397,1,207.999990478516,8|0,1:0|0:0,0:0:0:0:
460,224,99576,5,0,3:0:0:0:
464,220,99634,1,0,3:0:0:0:
468,216,99692,2,0,B|448:128|400:184|384:88,1,155.999992858887,8|0,1:0|0:0,0:0:0:0:
396,84,99923,1,0,3:0:0:0:
192,0,100038,6,0,B|174:106|118:41|100:144,1,180.000006866455,8|0,1:0|0:0,0:0:0:0:
116,152,100269,1,0,3:0:0:0:
20,276,100384,6,0,P|131:232|248:205,1,240.000009155274,8|0,1:0|3:0,0:0:0:0:
348,340,100673,5,0,0:0:0:0:
348,340,100730,2,0,B|300:304|328:212|388:204|388:204|404:248|464:260,1,240.000009155274,8|0,1:0|3:0,0:0:0:0:
408,76,101076,6,0,L|272:52,1,120.000004577637,2|0,3:1|0:0,0:0:0:0:
104,20,101307,2,0,B|132:40|136:76|136:76|112:52|88:44,1,120.000004577637,10|0,1:0|0:0,0:0:0:0:
112,184,101538,5,0,1:0:0:0:
223,122,101653,1,0,1:0:0:0:
64,164,101769,5,0,1:0:0:0:
270,142,101884,1,0,3:0:0:0:
270,142,102115,2,0,P|194:162|162:178,1,88.000002685547,0|0,3:0|0:0,0:0:0:0:
296,40,102346,2,0,P|372:20|404:4,1,88.000002685547,0|0,3:0|0:0,0:0:0:0:
40,128,102576,5,0,1:0:0:0:
40,128,102634,1,0,0:0:0:0:
40,128,102692,1,8,1:0:0:0:
120,148,102807,1,0,3:0:0:0:
176,208,102923,5,4,3:0:0:0:
258,176,103038,1,4,3:0:0:0:
342,151,103153,1,0,1:0:0:0:
428,133,103269,1,0,1:0:0:0:
496,240,103384,6,0,B|420:212|420:212|408:252|352:292,1,155.999992858887,4|0,3:2|0:0,0:0:0:0:
360,268,103615,1,8,1:0:0:0:
216,364,103730,2,0,P|226:313|252:252,1,103.999995239258,0|0,3:0|0:0,0:0:0:0:
304,200,103961,1,0,3:0:0:0:
184,76,104076,2,0,B|228:84|228:84|236:92|236:92|304:108,1,103.999995239258,8|0,1:0|0:0,0:0:0:0:
44,120,104307,5,0,3:0:0:0:
100,52,104423,1,0,3:0:0:0:
44,120,104538,1,8,1:0:0:0:
196,172,104653,2,0,P|88:204|36:228,1,155.999992858887,0|0,3:0|0:0,0:0:0:0:
44,228,104884,1,0,3:0:0:0:
216,364,105000,2,0,P|268:332|276:288,1,103.999995239258,8|0,1:0|0:0,0:0:0:0:
304,44,105230,6,0,B|228:12|228:12|252:52|240:88,1,155.999992858887,0|0,3:0|0:0,0:0:0:0:
232,88,105461,1,8,1:0:0:0:
456,188,105576,2,0,P|392:164|288:144,1,155.999992858887,0|0,3:0|0:0,0:0:0:0:
300,152,105807,1,0,3:0:0:0:
152,288,105923,2,0,L|40:316,1,103.999995239258,8|0,1:0|0:0,0:0:0:0:
297,354,106153,6,0,P|308:304|328:256,1,103.999995239258,0|0,3:0|0:0,0:0:0:0:
158,69,106384,2,0,P|147:119|127:168,1,103.999995239258,8|0,1:0|0:0,0:0:0:0:
416,116,106615,2,0,L|315:141,1,103.999995239258,0|0,3:0|3:0,0:0:0:0:
64,324,106846,2,0,P|132:300|172:296,1,103.999995239258,8|0,1:0|0:0,0:0:0:0:
380,328,107076,6,0,B|412:352|412:352|452:336|468:276|432:248,1,155.999992858887,0|0,3:0|0:0,0:0:0:0:
432,252,107307,1,8,1:0:0:0:
224,140,107423,2,0,P|244:200|248:248,1,103.999995239258,0|0,3:0|0:0,0:0:0:0:
164,92,107653,1,0,3:0:0:0:
8,228,107769,2,0,B|52:220|52:220|60:212|60:212|124:200,1,103.999995239258,8|0,1:0|0:0,0:0:0:0:
264,60,108000,5,0,3:0:0:0:
128,16,108115,1,0,3:0:0:0:
264,60,108230,1,8,1:0:0:0:
400,8,108346,2,0,B|388:96|332:40|316:148,1,155.999992858887,0|0,3:0|0:0,0:0:0:0:
328,144,108576,1,0,3:0:0:0:
432,272,108692,2,0,P|480:259|497:212,1,103.999995239258,8|0,1:0|0:0,0:0:0:0:
176,228,108923,6,0,P|232:244|276:268,1,103.999995239258,0|0,3:0|0:0,0:0:0:0:
512,104,109153,2,0,P|456:120|412:144,1,103.999995239258,8|0,1:0|0:0,0:0:0:0:
336,364,109384,2,0,L|352:240,1,103.999995239258,0|0,3:0|0:0,0:0:0:0:
292,16,109615,2,0,L|276:140,1,103.999995239258,8|0,1:0|0:0,0:0:0:0:
184,268,109846,5,0,3:0:0:0:
284,192,109961,1,0,3:0:0:0:
184,268,110076,2,0,P|104:248|64:248,1,103.999995239258,8|8,1:0|1:0,0:0:0:0:
316,336,110307,5,0,3:0:0:0:
204,188,110423,1,0,3:0:0:0:
316,336,110538,2,0,P|380:316|424:308,1,103.999995239258,8|0,1:0|3:0,0:0:0:0:
488,200,110711,5,0,3:0:0:0:
488,200,110769,2,0,B|424:204|380:164|380:164|380:138|364:112,1,155.999992858887,4|0,3:2|0:0,0:0:0:0:
364,128,111000,2,0,L|388:24,1,103.999995239258,8|0,1:0|0:0,0:0:0:0:
204,192,111230,2,0,P|196:244|180:293,1,103.999995239258,0|0,3:0|0:0,0:0:0:0:
296,224,111461,1,8,1:0:0:0:
24,196,111576,2,0,B|116:168|48:144|172:112,1,155.999992858887,0|0,3:0|0:0,0:0:0:0:
160,124,111807,1,0,3:0:0:0:
0,12,111923,2,0,P|56:24|112:44,1,103.999995239258,8|0,1:0|3:0,0:0:0:0:
340,88,112153,2,0,P|290:104|239:115,1,103.999995239258,0|0,3:0|3:0,0:0:0:0:
72,348,112384,2,0,B|52:304|52:304|96:248,1,103.999995239258,8|0,1:0|0:0,0:0:0:0:
264,208,112615,6,0,P|336:256|308:336,1,155.999992858887,4|0,3:2|0:0,0:0:0:0:
308,328,112846,1,8,1:0:0:0:
112,168,112961,2,0,B|84:124|84:124|144:160,1,103.999995239258,0|0,3:0|0:0,0:0:0:0:
256,216,113192,1,0,3:0:0:0:
180,336,113307,2,0,L|64:360,1,103.999995239258,8|0,1:0|0:0,0:0:0:0:
328,148,113538,6,0,L|444:172,1,103.999995239258,4|4,3:0|3:0,0:0:0:0:
256,104,113769,1,4,3:0:0:0:
124,0,113884,2,0,P|160:48|180:100,1,103.999995239258,8|8,3:0|3:0,0:0:0:0:
264,96,114115,1,8,3:0:0:0:
132,236,114230,2,0,B|80:256|80:256|48:212,1,103.999995239258,8|0,1:0|0:0,0:0:0:0:
16,104,114461,6,0,L|36:24,2,80.0000030517579,0|0|0,3:0|3:0|3:0,0:0:0:0:
88,120,114692,2,0,L|108:40,2,80.0000030517579,0|0|0,3:0|3:0|3:0,0:0:0:0:
124,252,114923,2,0,P|208:224|276:212,1,120.000004577637,8|0,1:0|0:0,0:0:0:0:
480,264,115153,6,0,L|460:184,2,80.0000030517579,0|0|0,3:0|3:0|3:0,0:0:0:0:
408,280,115384,2,0,L|388:200,2,80.0000030517579,0|0|0,3:0|3:0|3:0,0:0:0:0:
328,140,115615,2,0,P|244:112|176:104,1,120.000004577637,4|0,1:2|0:0,0:0:0:0:
160,180,115846,5,8,1:0:0:0:
204,115,115961,1,0,3:0:0:0:
140,70,116076,1,0,3:0:0:0:
94,134,116192,1,8,1:0:0:0:
224,252,116307,2,0,P|280:264|336:288,2,111.999996582031,0|8|8,3:0|1:0|1:0,0:0:0:0:
72,244,116653,6,0,B|28:284|28:284|50:331,1,111.999996582031,2|0,3:0|0:0,0:0:0:0:
448,236,116884,6,0,B|470:188|470:188|426:148,1,111.999996582031,2|0,3:0|0:0,0:0:0:0:
208,4,117115,6,0,B|224:104|272:36|288:152,1,167.999994873047,2|0,3:0|0:0,0:0:0:0:
240,208,117346,5,0,1:0:0:0:
224,212,117403,1,0,1:0:0:0:
208,216,117461,1,0,1:0:0:0:
80,244,117576,1,8,3:0:0:0:
132,164,117692,5,8,3:0:0:0:
160,292,117807,1,4,3:0:0:0:
167,123,117923,5,4,3:0:0:0:
128,336,118038,1,4,3:0:0:0:
4,208,118153,5,4,3:2:0:0:
192,356,129230,6,0,P|304:312|288:180,1,240,4|0,3:2|0:0,0:0:0:0:
284,120,129692,5,0,3:0:0:0:
228,264,129923,1,0,3:1:0:0:
432,140,130153,5,0,3:1:0:0:
80,244,130384,1,0,3:1:0:0:
500,264,130615,5,0,3:1:0:0:
12,120,130846,1,0,3:1:0:0:
276,0,131076,5,0,1:0:0:0:
184,180,131192,2,0,L|196:76,1,103.999995239258,8|0,1:0|0:0,0:0:0:0:
208,72,131423,5,0,1:0:0:0:
324,248,131538,2,0,L|312:144,1,80,8|0,1:0|0:0,0:0:0:0:
304,160,131769,5,0,1:0:0:0:
200,328,131884,1,8,1:0:0:0:
200,328,131942,1,0,1:0:0:0:
200,328,132000,2,0,L|206:272,1,51.999997619629,0|0,1:0|0:0,0:0:0:0:
280,352,132115,1,8,3:0:0:0:
112,288,132230,5,8,3:0:0:0:
280,352,132346,1,4,3:0:0:0:
204,188,132460,1,4,3:0:0:0:
360,244,132576,5,4,3:0:0:0:
204,188,132691,1,0,1:0:0:0:
360,244,132807,1,0,1:0:0:0:
260,32,132923,6,0,B|236:142|314:96|281:224,1,192,4|0,3:2|0:0,0:0:0:0:
188,312,133153,2,0,P|104:336|52:356,1,128,8|0,1:0|0:0,0:0:0:0:
316,128,133384,2,0,P|376:149|438:166,1,128,0|0,3:0|3:0,0:0:0:0:
368,56,133615,1,8,1:0:0:0:
176,16,133730,6,0,P|92:72|108:156,1,192,0|0,3:0|0:0,0:0:0:0:
96,168,133961,1,0,3:0:0:0:
256,320,134076,2,0,B|316:340|316:340|368:296,1,128,8|0,1:0|0:0,0:0:0:0:
480,84,134307,2,0,P|412:64|352:56,1,128,0|0,3:0|3:0,0:0:0:0:
56,332,134538,2,0,P|118:299|176:280,1,128,8|0,1:0|3:0,0:0:0:0:
200,16,134769,6,0,B|276:68|276:68|236:108|228:180,1,192,2|0,3:2|0:2,0:0:0:0:
128,204,135000,2,0,B|69:227|69:227|66:222|66:222|117:177,1,128,8|0,1:0|0:0,0:0:0:0:
344,312,135230,2,0,B|396:348|396:348|400:344|400:344|360:288,1,128,0|0,3:0|3:0,0:0:0:0:
320,220,135461,1,8,1:0:0:0:
512,64,135576,2,0,P|392:84|248:128,1,256,2|0,3:2|3:0,0:0:0:0:
112,104,135923,1,8,1:0:0:0:
196,36,136038,1,8,1:0:0:0:
112,104,136153,2,0,P|76:188|64:244,1,128,0|0,3:0|3:0,0:0:0:0:
264,348,136384,2,0,P|253:284|232:224,1,128,8|0,1:0|0:0,0:0:0:0:
232,224,136615,5,4,3:2:0:0:
296,16,136846,6,0,P|356:64|344:120,1,128,8|0,1:0|0:0,0:0:0:0:
456,224,137076,2,0,P|380:244|312:276,1,128,0|0,3:0|3:0,0:0:0:0:
304,192,137307,1,8,1:0:0:0:
80,368,137423,2,0,B|104:252|140:316|160:180,1,192,2|0,3:2|0:0,0:0:0:0:
144,184,137653,1,0,3:0:0:0:
156,96,137769,2,0,B|104:48|104:48|100:52|100:52|140:120,1,128,8|0,1:0|0:0,0:0:0:0:
216,272,138000,2,0,B|285:287|285:287|286:282|286:282|217:243,1,128,0|0,3:0|3:0,0:0:0:0:
52,160,138230,2,0,B|-15:181|-15:181|-14:186|-14:186|64:185,1,128,8|0,1:0|3:0,0:0:0:0:
248,136,138461,6,0,B|316:120|316:120|340:68|340:68|412:52,1,192,4|0,3:2|0:0,0:0:0:0:
496,28,138692,2,0,P|476:112|472:168,1,128,8|0,1:0|0:0,0:0:0:0:
400,304,138923,1,0,3:0:0:0:
376,200,139038,1,0,3:0:0:0:
400,304,139153,1,8,1:0:0:0:
376,200,139269,6,0,P|300:176|108:144,1,256,4|0,3:2|3:0,0:0:0:0:
56,180,139557,1,0,3:0:0:0:
56,180,139615,2,0,B|44:212|44:212|68:244,1,64,8|0,3:0|0:0,0:0:0:0:
132,296,139730,1,8,3:0:0:0:
172,224,139846,5,8,3:0:0:0:
24,312,139961,1,4,3:0:0:0:
172,224,140076,2,0,P|244:200|304:192,1,128,4|4,3:0|3:0,0:0:0:0:
416,24,140307,6,0,B|404:100|404:100|436:128|436:128|420:220,1,192,4|0,3:2|0:0,0:0:0:0:
460,304,140538,2,0,P|396:320|328:348,1,128,8|0,1:0|0:0,0:0:0:0:
176,124,140769,2,0,P|240:108|308:80,1,128,0|0,3:0|3:0,0:0:0:0:
252,264,141000,1,8,1:0:0:0:
144,360,141115,6,0,P|64:328|72:220,1,192,0|0,3:0|0:0,0:0:0:0:
80,228,141346,1,0,3:0:0:0:
60,64,141461,2,0,B|108:76|108:76|124:96|124:96|184:112,1,128,8|0,1:0|0:0,0:0:0:0:
496,144,141692,2,0,B|448:156|448:156|432:176|432:176|372:192,1,128,0|0,3:0|3:0,0:0:0:0:
268,360,141923,2,0,P|280:288|300:228,1,128,8|0,1:0|3:0,0:0:0:0:
216,12,142153,6,0,P|235:73|244:136,1,128,2|0,3:2|0:0,0:0:0:0:
168,188,142384,1,8,1:0:0:0:
324,128,142500,1,0,3:0:0:0:
168,188,142615,1,0,3:0:0:0:
300,248,142730,2,0,P|362:260|422:283,1,128,0|8,3:0|1:0,0:0:0:0:
180,356,142961,6,0,P|68:312|96:176,1,256,2|0,3:2|3:0,0:0:0:0:
148,56,143307,2,0,P|180:80|200:108,1,64,8|0,1:0|0:0,0:0:0:0:
240,164,143423,1,0,3:0:0:0:
440,56,143538,2,0,L|296:88,1,128,0|0,3:0|3:0,0:0:0:0:
48,272,143769,2,0,P|120:288|192:316,1,128,8|0,1:0|0:0,0:0:0:0:
170,306,144000,1,4,3:2:0:0:
232,0,144230,6,0,L|216:128,1,128,8|0,1:0|0:0,0:0:0:0:
296,240,144461,2,0,L|280:368,1,128,0|0,3:0|3:0,0:0:0:0:
380,204,144692,1,8,1:0:0:0:
488,44,144807,2,0,B|364:80|432:112|308:148,1,192,2|0,3:2|0:0,0:0:0:0:
312,136,145038,1,0,0:0:0:0:
148,96,145153,2,0,B|98:56|98:56|99:52|99:52|164:85,1,128,8|0,1:0|0:0,0:0:0:0:
368,320,145384,2,0,B|418:281|418:281|416:277|416:277|351:308,1,128,0|0,3:0|3:0,0:0:0:0:
112,216,145615,2,0,B|54:188|54:188|55:184|55:184|125:201,1,128,8|0,1:0|3:0,0:0:0:0:
212,8,145846,6,0,P|236:92|248:204,1,192,4|0,3:2|0:0,0:0:0:0:
184,320,146076,2,0,P|100:344|44:368,1,128,8|0,1:0|0:0,0:0:0:0:
324,164,146307,2,0,P|408:140|464:116,1,128,0|0,3:0|3:0,0:0:0:0:
240,204,146538,1,8,1:0:0:0:
292,336,146653,2,0,B|168:308|256:264|108:240,1,192,4|0,3:2|0:0,0:0:0:0:
112,236,146884,1,0,0:0:0:0:
24,272,147000,5,8,1:0:0:0:
112,236,147115,1,8,1:0:0:0:
152,152,147230,5,8,1:0:0:0:
288,104,147346,1,8,1:0:0:0:
208,56,147461,5,8,1:0:0:0:
256,216,147576,1,8,1:0:0:0:
456,68,147692,6,0,P|368:88|268:128,1,167.999994873047,4|0,1:2|0:0,0:0:0:0:
292,132,147923,1,0,3:0:0:0:
440,300,148038,2,0,B|480:264|480:264|448:204,1,111.999996582031,8|0,1:0|3:0,0:0:0:0:
360,180,148269,1,0,3:0:0:0:
136,252,148384,2,0,P|200:236|264:228,1,111.999996582031,8|0,1:0|3:0,0:0:0:0:
352,188,148615,1,0,3:0:0:0:
237,4,148730,2,0,P|269:56|289:108,1,111.999996582031,8|0,1:0|3:0,0:0:0:0:
56,224,148961,5,0,3:0:0:0:
56,224,149019,1,0,3:0:0:0:
56,224,149076,2,0,B|72:152|84:188|104:108,1,111.999996582031,8|0,1:0|3:0,0:0:0:0:
280,344,149307,2,0,B|276:270|258:303|252:221,1,111.999996582031,8|0,1:0|3:0,0:0:0:0:
362,79,149538,5,8,1:0:0:0:
433,39,149653,1,0,3:0:0:0:
507,63,149769,1,0,3:0:0:0:
362,197,149884,5,8,1:0:0:0:
305,163,149999,1,0,3:0:0:0:
292,102,150115,1,0,3:0:0:0:
482,148,150230,5,8,1:0:0:0:
481,200,150345,1,0,3:0:0:0:
444,233,150461,1,0,3:0:0:0:
372,328,150576,2,0,P|304:312|248:304,1,111.999996582031,8|0,1:0|3:0,0:0:0:0:
64,200,150807,5,0,3:0:0:0:
64,200,150865,1,0,3:0:0:0:
64,200,150923,2,0,L|204:180,1,111.999996582031,8|0,1:0|3:0,0:0:0:0:
444,56,151153,2,0,L|304:36,1,111.999996582031,8|0,1:0|3:0,0:0:0:0:
188,20,151384,6,0,B|220:108|276:48|296:176,1,167.999994873047,8|0,1:0|0:0,0:0:0:0:
280,160,151615,1,0,3:0:0:0:
120,332,151730,2,0,B|72:312|72:312|76:308|76:308|136:312,1,111.999996582031,8|0,1:0|3:0,0:0:0:0:
248,244,151961,1,0,3:0:0:0:
412,128,152076,2,0,P|380:184|360:240,1,111.999996582031,8|0,1:0|3:0,0:0:0:0:
256,256,152307,1,0,3:0:0:0:
176,120,152423,2,0,L|48:96,1,111.999996582031,8|0,1:0|3:0,0:0:0:0:
280,0,152653,5,0,3:0:0:0:
280,0,152711,1,0,3:0:0:0:
280,0,152769,2,0,B|304:20|308:56|308:56|324:80|352:92,1,111.999996582031,8|0,1:0|3:0,0:0:0:0:
484,216,153000,2,0,B|454:226|421:212|421:212|392:214|368:232,1,111.999996582031,8|0,1:0|3:0,0:0:0:0:
200,356,153230,5,8,1:0:0:0:
120,344,153346,1,0,3:0:0:0:
76,280,153461,1,0,3:0:0:0:
156,188,153576,5,8,1:0:0:0:
220,197,153692,1,0,3:0:0:0:
255,248,153807,1,0,3:0:0:0:
40,208,153923,2,0,P|68:140|76:96,1,111.999996582031,8|0,1:0|0:0,0:0:0:0:
24,40,154153,5,0,3:0:0:0:
148,64,154269,1,0,1:0:0:0:
148,64,154326,1,0,1:0:0:0:
148,64,154384,1,0,1:0:0:0:
272,88,154500,1,0,1:0:0:0:
224,24,154615,5,0,1:0:0:0:
200,136,154730,1,0,1:0:0:0:
224,24,154846,5,0,1:0:0:0:
200,136,154961,5,0,1:0:0:0:
396,176,155076,6,2,B|320:172|248:212|248:212|236:236|204:252,1,180.000006866455,4|0,3:2|0:0,0:1:0:0:
224,236,155307,1,8,1:0:0:0:
60,300,155423,2,0,P|136:312|200:336,1,120.000004577637,0|0,3:0|0:0,0:0:0:0:
356,272,155653,1,0,3:0:0:0:
312,384,155769,2,0,P|324:320|348:260,1,120.000004577637,8|0,1:0|0:0,0:0:0:0:
456,48,156000,6,0,P|408:108|304:92,1,180.000006866455,0|0,3:0|0:0,0:0:0:0:
304,80,156230,1,8,1:0:0:0:
60,80,156346,6,0,P|108:140|212:124,1,180.000006866455,0|0,3:0|0:0,0:0:0:0:
212,112,156576,1,0,3:0:0:0:
272,208,156692,2,0,P|252:280|244:336,1,120.000004577637,8|0,1:0|3:0,0:0:0:0:
360,376,156923,6,0,B|400:352|444:344|444:344|472:292|416:232,1,180.000006866455,2|0,3:1|0:0,0:0:0:0:
420,248,157153,1,8,1:0:0:0:
512,112,157269,2,0,L|376:140,1,120.000004577637,2|0,3:2|0:0,0:0:0:0:
296,56,157500,1,0,3:0:0:0:
112,0,157615,2,0,B|131:59|168:16|188:104,1,120.000004577637,8|0,1:0|3:0,0:0:0:0:
52,216,157846,6,0,B|65:221|65:221|152:165|284:155,1,240.000009155274,2|8,3:2|1:0,0:0:0:0:
412,36,158192,6,0,B|400:44|400:44|405:148|348:267,1,240.000009155274,2|0,3:1|3:0,0:0:0:0:
300,360,158538,6,0,B|299:352|299:352|248:326|207:266,1,120.000004577637,8|0,1:0|0:0,0:0:0:0:
40,224,158769,5,2,3:1:0:0:
20,196,158846,1,2,0:0:0:0:
36,164,158923,1,2,0:0:0:0:
36,164,159000,2,0,P|80:152|120:144,2,80.0000030517579,8|0|0,1:0|0:0|0:0,0:0:0:0:
196,112,159230,5,0,3:0:0:0:
260,128,159306,1,2,0:0:0:0:
320,91,159383,1,2,0:0:0:0:
324,28,159460,1,8,1:0:0:0:
306,35,159537,1,0,0:0:0:0:
292,44,159615,1,0,0:0:0:0:
283,50,159692,5,0,3:0:0:0:
295,51,159768,1,0,0:0:0:0:
307,53,159845,1,0,0:0:0:0:
320,54,159922,1,8,1:0:0:0:
332,56,159999,1,2,0:0:0:0:
345,58,160076,1,2,0:0:0:0:
432,16,160153,5,2,3:2:0:0:
468,52,160229,1,2,0:0:0:0:
464,104,160306,1,0,0:0:0:0:
416,136,160384,1,8,1:0:0:0:
365,148,160460,1,2,0:0:0:0:
340,194,160537,1,2,0:0:0:0:
356,240,160615,6,0,P|426:252|488:272,1,120.000004577637,2|0,3:1|0:0,0:0:0:0:
220,312,160846,1,8,1:0:0:0:
260,200,160961,1,0,0:0:0:0:
220,312,161076,2,0,P|149:324|88:344,1,120.000004577637,0|0,3:0|0:0,0:0:0:0:
32,276,161250,1,2,0:0:0:0:
32,276,161307,2,0,B|8:224|8:224|56:176,1,120.000004577637,10|0,1:0|0:0,0:0:0:0:
66,90,161538,5,2,3:2:0:0:
75,88,161595,1,2,0:2:0:0:
85,86,161653,1,2,3:2:0:0:
95,84,161711,1,2,0:2:0:0:
104,83,161769,2,2,P|228:108|360:156,1,240.000009155274,10|0,1:0|3:0,0:1:0:0:
464,208,162115,1,0,3:0:0:0:
232,352,162230,2,0,B|244:268|268:320|284:220,1,120.000004577637,0|0,1:0|3:0,0:0:0:0:
312,24,162461,6,2,B|316:-54|166:-2|226:101|261:104,1,180.000006866455,4|0,3:2|0:0,0:1:0:0:
248,92,162692,1,8,1:0:0:0:
173,178,162807,2,0,P|85:196|0:224,1,180.000006866455
8,236,163038,1,0,0:0:0:0:
124,276,163153,1,8,1:0:0:0:
56,116,163269,1,2,3:2:0:0:
124,276,163384,6,0,P|190:296|237:316,1,120.000004577637,2|0,3:1|0:0,0:0:0:0:
291,231,163615,1,8,1:0:0:0:
337,64,163730,6,0,P|285:111|245:142,1,120.000004577637,0|0,3:0|0:0,0:0:0:0:
291,231,163961,1,0,3:0:0:0:
414,355,164076,6,0,P|398:286|391:236,1,120.000004577637,10|0,1:0|0:0,0:0:0:0:
424,12,164307,6,2,B|452:36|488:52|488:52|496:72|496:72|440:96|436:168,1,180.000006866455,4|0,3:2|0:0,0:1:0:0:
456,144,164538,1,8,1:0:0:0:
256,20,164653,2,0,L|120:48,1,120.000004577637,2|0,3:2|0:0,0:0:0:0:
296,96,164884,1,0,3:0:0:0:
8,136,165000,2,2,P|112:124|196:240,1,240.000009155274,10|0,1:0|3:0,0:1:0:0:
136,312,165346,5,0,3:0:0:0:
136,312,165461,2,0,B|59:324|88:340|20:356,1,120.000004577637,8|0,1:0|0:0,0:0:0:0:
312,280,165692,2,0,B|249:234|258:265|203:231,1,120.000004577637,0|0,3:0|3:0,0:0:0:0:
459,381,165923,2,0,B|446:304|431:333|415:265,1,120.000004577637,8|0,1:0|0:0,0:0:0:0:
384,48,166153,5,4,3:2:0:0:
262,59,166269,2,0,P|380:80|496:112,2,240.000009155274,0|2|0,3:0|3:2|3:0,0:0:0:0:
252,68,166846,1,8,1:0:0:0:
72,28,166961,6,2,B|104:120|168:60|192:156,1,180.000006866455,4|0,3:2|0:0,0:1:0:0:
180,164,167192,1,0,0:0:0:0:
112,264,167307,2,0,P|40:288|-12:316,1,120.000004577637,8|0,1:0|3:0,0:0:0:0:
284,160,167538,2,0,P|337:186|395:204,1,120.000004577637,0|0,3:0|3:0,0:0:0:0:
120,272,167769,2,0,P|48:296|-4:324,1,120.000004577637,8|0,1:0|0:0,0:0:0:0:
344,372,168000,6,2,B|381:247|465:326|492:196,1,240.000009155274,4|0,3:2|0:0,0:1:0:0:
416,96,168346,1,0,3:0:0:0:
480,184,168461,1,0,3:0:0:0:
416,96,168576,2,0,B|364:60|364:60|360:64|360:64|400:116,1,120.000004577637,2|8,3:2|1:0,0:0:0:0:
272,204,168807,6,2,P|200:232|76:264,1,180.000006866455,4|0,3:2|0:0,0:1:0:0:
88,252,169038,1,0,0:0:0:0:
168,160,169153,5,8,1:0:0:0:
168,160,169269,1,8,1:0:0:0:
232,320,169384,5,8,1:0:0:0:
232,320,169500,1,8,1:0:0:0:
300,88,169615,5,8,1:0:0:0:
300,88,169730,1,8,1:0:0:0:
472,232,169846,6,0,P|432:220|268:192,1,191.999994140625,4|0,1:2|3:0,0:0:0:0:
44,336,170307,2,0,P|140:300|132:208,1,191.999994140625,8|0,1:0|3:0,0:0:0:0:
72,128,170653,1,0,3:0:0:0:
24,204,170769,2,0,P|44:108|76:20,1,191.999994140625,8|0,1:0|3:0,0:0:0:0:
296,116,171230,2,0,P|328:206|348:300,1,191.999994140625,8|0,1:0|3:0,0:0:0:0:
512,136,171692,6,0,B|452:108|452:108|436:40|436:40|364:12,1,191.999994140625,8|0,1:0|3:0,0:0:0:0:
140,28,172038,1,0,0:0:0:0:
244,36,172153,2,0,P|108:72|36:100,1,191.999994140625,8|0,1:0|3:0,0:0:0:0:
24,184,172615,6,0,B|40:244|64:204|80:292,1,95.9999970703126,8|0,1:0|0:0,0:0:0:0:
164,276,172846,1,0,3:0:0:0:
164,276,172961,1,2,3:2:0:0:
24,368,173076,2,0,P|80:352|140:344,1,95.9999970703126,8|0,1:0|0:0,0:0:0:0:
252,300,173307,2,0,P|302:328|350:365,1,95.9999970703126,0|0,3:0|0:0,0:0:0:0:
448,332,173538,6,0,B|524:292|524:292|488:244|484:180,1,191.999994140625,8|0,1:0|3:0,0:0:0:0:
464,12,174000,2,0,B|349:40|421:89|302:121,1,191.999994140625,8|0,1:0|3:0,0:0:0:0:
156,16,174346,1,0,3:0:0:0:
72,124,174461,2,0,P|120:60|236:76,1,191.999994140625,8|0,1:0|3:0,0:0:0:0:
244,212,174923,2,0,P|140:236|24:280,1,191.999994140625,8|0,1:0|3:0,0:0:0:0:
336,240,175269,1,0,0:0:0:0:
407,194,175384,6,0,P|419:149|392:112,1,95.9999970703126,8|0,1:0|0:0,0:0:0:0:
328,248,175615,5,0,3:0:0:0:
245,215,175730,2,0,P|201:228|182:271,1,95.9999970703126,2|8,0:0|1:0,0:0:0:0:
320,256,175961,5,0,0:0:0:0:
330,332,176076,2,0,P|363:364|410:360,1,95.9999970703126,0|0,3:0|3:0,0:0:0:0:
504,120,176307,2,0,P|412:80|304:56,1,191.999994140625,8|0,1:0|0:0,0:0:0:0:
104,64,176653,1,0,3:0:0:0:
208,20,176769,2,0,P|124:72|120:160,1,191.999994140625,8|2,1:0|3:2,0:0:0:0:
44,260,177115,5,2,3:2:0:0:
44,260,177173,1,0,0:0:0:0:
44,260,177230,2,0,P|132:280|256:332,1,191.999994140625,4|0,1:2|3:0,0:0:0:0:
480,232,177692,2,0,P|392:212|268:160,1,191.999994140625,8|0,1:0|3:0,0:0:0:0:
252,84,178038,1,0,3:0:0:0:
324,24,178153,2,0,B|376:-4|376:-4|428:16|444:60|412:120,1,191.999994140625,8|0,1:0|3:0,0:0:0:0:
188,360,178615,2,0,B|136:388|136:388|84:368|68:324|100:264,1,191.999994140625,8|0,1:0|3:0,0:0:0:0:
0,180,179076,6,0,P|62:158|200:130,1,191.999994140625,8|0,1:0|3:0,0:0:0:0:
296,80,179423,1,0,3:0:0:0:
416,136,179538,2,0,P|332:92|328:-8,1,191.999994140625,8|0,1:0|3:0,0:0:0:0:
504,160,180000,6,0,B|488:212|464:180|448:248,1,95.9999970703126,8|0,1:0|3:0,0:0:0:0:
492,328,180230,1,0,0:0:0:0:
492,328,180346,1,0,3:0:0:0:
396,360,180461,2,0,L|296:340,1,95.9999970703126,8|0,1:0|0:0,0:0:0:0:
200,304,180692,2,0,L|100:284,1,95.9999970703126,0|0,3:0|0:0,0:0:0:0:
28,200,180923,6,0,P|104:176|124:52,1,191.999994140625,8|0,1:0|3:0,0:0:0:0:
244,32,181384,2,0,B|344:16|320:80|436:60,1,191.999994140625,8|0,1:0|3:0,0:0:0:0:
368,152,181730,1,0,3:0:0:0:
488,160,181846,2,0,P|424:168|300:208,1,191.999994140625,8|0,1:0|3:0,0:0:0:0:
28,272,182307,2,0,P|92:280|216:320,1,191.999994140625,8|0,1:0|3:0,0:0:0:0:
376,364,182769,6,0,P|440:336|452:292,1,95.9999970703126,8|0,1:0|0:0,0:0:0:0:
404,240,183000,1,0,3:0:0:0:
268,144,183115,2,0,P|300:192|312:228,1,95.9999970703126,0|8,3:0|1:0,0:0:0:0:
408,232,183346,1,0,0:0:0:0:
492,120,183461,2,0,P|423:112|336:96,1,143.999995605469,0|0,3:0|0:0,0:0:0:0:
144,0,183692,6,0,B|188:36|188:36|172:100|172:132,1,143.999995605469,8|0,1:0|0:0,0:0:0:0:
172,121,183923,1,0,3:0:0:0:
168,204,184038,1,0,0:0:0:0:
48,268,184153,2,0,B|88:232|152:240|152:240|164:280|208:304,1,191.999994140625,4|0,3:2|3:0,0:0:0:0:
376,248,184500,5,0,3:0:0:0:
376,248,184557,1,0,3:0:0:0:
376,248,184615,2,0,P|392:152|440:12,2,240,4|0|0,3:2|3:0|3:0,0:0:0:0:
456,280,185423,1,0,3:0:0:0:
396,336,185538,2,0,P|336:364|276:300,1,160,8|0,1:0|0:0,0:0:0:0:
176,196,185884,1,0,3:0:0:0:
100,256,186000,2,0,P|148:236|272:208,1,160,2|0,3:0|0:0,0:0:0:0:
456,156,186461,6,0,B|396:144|396:144|344:36|344:36|276:28,2,240,2|0|0,3:2|0:0|3:0,0:0:0:0:
464,68,187269,1,0,3:0:0:0:
296,180,187384,2,0,P|259:186|212:204,1,80,8|0,1:0|0:0,0:0:0:0:
400,244,187615,2,0,P|437:257|476:264,1,80
292,168,187846,2,0,P|255:174|208:192,1,80,0|0,3:0|0:0,0:0:0:0:
372,80,188076,2,0,P|380:44|400:4,1,80
60,56,188307,6,0,B|186:0|162:92|300:40,2,240,4|0|0,3:2|3:0|3:0,0:0:0:0:
84,144,189115,1,0,3:0:0:0:
0,172,189230,2,0,P|96:184|184:216,1,160,8|0,1:0|0:0,0:0:0:0:
236,268,189576,1,0,3:0:0:0:
176,360,189692,2,0,P|144:332|144:292,1,80,2|0,3:0|0:0,0:0:0:0:
268,164,189923,2,0,P|300:192|300:232,1,80
301,227,190153,1,2,3:2:0:0:
400,128,190384,6,0,P|427:108|433:91,2,40,0|0|0,3:0|3:0|3:0,0:0:0:0:
511,113,190615,2,0,P|418:82|288:57,1,207.999990478516,0|0,3:0|3:0,0:0:0:0:
64,20,190923,5,0,3:0:0:0:
64,20,191000,1,0,3:0:0:0:
64,20,191076,2,0,B|88:132|160:52|184:180,1,207.999990478516,8|0,1:0|3:0,0:0:0:0:
183,176,191423,1,0,3:0:0:0:
132,248,191538,1,8,1:0:0:0:
216,324,191653,2,0,B|235:218|296:286|317:191,1,176.000005371094,0|0,3:0|0:0,0:0:0:0:
272,16,192000,6,0,P|340:36|440:84,1,176.000005371094,4|0,1:2|3:0,0:0:0:0:
434,80,192346,2,0,P|386:92|350:112,1,88.000002685547,2|8,3:2|1:0,0:0:0:0:
228,172,192576,1,0,3:0:0:0:
228,172,192692,2,0,P|276:184|312:204,1,88.000002685547,2|0,3:2|3:0,0:0:0:0:
368,300,192923,6,0,B|304:312|304:312|280:356|280:356|204:372,1,176.000005371094,8|0,1:0|3:0,0:0:0:0:
220,368,193269,2,0,B|191:351|191:351|207:287,1,88.000002685547,2|8,3:2|1:0,0:0:0:0:
136,196,193500,1,0,3:0:0:0:
136,196,193615,2,0,P|131:150|116:96,1,88.000002685547,2|0,3:2|0:0,0:0:0:0:
208,16,193846,6,0,P|296:24|312:116,1,176.000005371094,8|0,1:0|3:0,0:0:0:0:
318,98,194192,2,0,P|304:148|300:188,1,88.000002685547,2|8,3:2|1:0,0:0:0:0:
416,320,194423,1,0,3:0:0:0:
416,320,194538,2,0,P|410:276|397:234,1,88.000002685547,2|0,3:2|3:0,0:0:0:0:
392,52,194769,6,0,L|212:92,1,176.000005371094,8|0,1:0|3:0,0:0:0:0:
220,90,195115,2,0,P|168:72|112:64,1,88.000002685547,2|8,3:2|1:0,0:0:0:0:
0,192,195346,1,0,0:0:0:0:
0,192,195461,2,0,P|52:173|108:165,1,88.000002685547,0|0,3:0|0:0,0:0:0:0:
304,104,195692,5,4,1:2:0:0:
356,192,195923,1,0,0:0:0:0:
208,280,196153,5,0,3:0:0:0:
156,192,196384,1,0,3:0:0:0:
240,56,196615,5,0,3:0:0:0:
404,24,196846,1,0,3:0:0:0:
272,328,197076,5,0,3:0:0:0:
108,360,197307,1,0,3:0:0:0:
8,196,197538,5,8,1:0:0:0:
100,192,197653,2,0,L|0:180,1,88.000002685547,0|0,1:0|0:0,0:0:0:0:
196,172,197884,5,8,1:0:0:0:
280,188,197999,2,0,L|164:208,1,88.000002685547,0|0,1:0|0:0,0:0:0:0:
344,236,198230,5,8,1:0:0:0:
488,200,198345,2,0,L|372:180,1,88.000002685547,0|0,1:0|0:0,0:0:0:0:
224,88,198576,1,8,1:0:0:0:
336,12,198692,2,0,P|312:64|304:124,1,103.999995239258,0|0,1:0|0:0,0:0:0:0:
380,320,198923,6,0,L|488:340,1,103.999995239258,8|0,1:0|0:0,0:0:0:0:
188,216,199153,2,0,L|80:236,1,103.999995239258,8|0,1:0|0:0,0:0:0:0:
404,172,199384,6,0,B|477:165|512:74|435:0|281:35|232:123|267:238|316:248|327:241|341:231|386:224|408:240|420:284|390:315,1,512,4|2,3:2|3:2,0:0:0:0:
24,200,208153,6,0,P|103:169|197:145,1,167.999994873047
264,104,208615,2,0,P|304:148|272:208,1,111.999996582031,4|0,3:2|0:0,0:0:0:0:
224,256,208846,5,8,1:0:0:0:
84,140,208961,1,0,1:0:0:0:
88,120,209019,1,0,1:0:0:0:
92,104,209076,1,0,1:0:0:0:
272,32,209192,1,0,3:0:0:0:
152,24,209307,1,8,3:0:0:0:
272,32,209423,1,4,3:0:0:0:
216,348,209653,5,0,0:0:0:0:
244,340,209710,1,0,1:0:0:0:
272,332,209768,1,8,1:0:0:0:
216,216,209884,1,0,3:0:0:0:
120,272,210000,1,0,3:0:0:0:
216,216,210115,1,0,3:0:0:0:
176,108,210230,6,0,P|125:129|128:188,1,111.999996582031,8|8,1:0|1:0,0:0:0:0:
0,160,210461,6,0,P|68:172|140:196,1,128,4|0,3:2|0:0,0:0:0:0:
336,336,210692,2,0,B|360:340|380:356|380:356|416:328|408:264|364:232,1,192,8|0,1:0|0:0,0:0:0:0:
364,232,210923,1,0,3:0:0:0:
460,128,211038,1,0,3:0:0:0:
352,56,211153,1,8,1:0:0:0:
460,128,211269,6,0,B|364:188|380:96|268:160,1,192,0|0,3:0|0:0,0:0:0:0:
277,154,211500,1,0,3:0:0:0:
192,0,211615,2,0,B|232:28|232:28|208:60|208:116,1,128,8|0,1:0|0:0,0:0:0:0:
168,188,211846,1,0,3:0:0:0:
64,240,211961,1,0,3:0:0:0:
168,188,212076,2,0,P|152:244|144:316,1,128,8|0,1:0|3:0,0:0:0:0:
268,352,212307,6,0,P|352:356|384:252,1,192,2|0,3:2|0:0,0:0:0:0:
372,256,212538,1,8,1:0:0:0:
472,172,212653,1,0,0:0:0:0:
400,76,212769,1,0,3:0:0:0:
400,76,212884,2,0,L|272:108,1,128,0|8,3:0|1:0,0:0:0:0:
56,12,213115,6,0,P|136:64|120:184,1,192,2|0,3:2|0:0,0:0:0:0:
140,153,213346,1,0,3:0:0:0:
0,244,213461,2,0,B|72:236|48:284|132:276,1,128,8|0,1:0|3:0,0:0:0:0:
284,364,213692,2,0,B|241:305|294:302|245:233,1,128,0|0,3:0|3:0,0:0:0:0:
245,58,213923,2,0,B|215:124|186:79|151:156,1,128,8|0,1:0|0:0,0:0:0:0:
244,252,214153,6,0,P|328:224|464:208,1,192,4|0,3:2|0:0,0:0:0:0:
444,196,214384,2,0,P|488:248|468:300,1,128,8|0,1:0|0:0,0:0:0:0:
376,108,214615,2,0,P|332:56|352:4,1,128,0|0,3:0|3:0,0:0:0:0:
464,48,214846,1,8,1:0:0:0:
368,296,214961,6,0,B|312:284|312:284|304:276|304:276|236:264,1,128,2|0,3:2|0:0,0:0:0:0:
248,172,215192,1,0,0:0:0:0:
160,356,215307,2,0,P|84:332|80:232,1,192,8|0,1:0|0:0,0:0:0:0:
79,232,215538,1,0,3:0:0:0:
160,176,215653,1,0,3:0:0:0:
20,120,215769,2,0,P|88:100|148:92,1,128,8|0,1:0|3:0,0:0:0:0:
308,8,216000,6,0,B|340:44|340:44|320:80|316:128,1,128,4|0,3:2|0:0,0:0:0:0:
496,208,216230,2,0,P|420:224|368:248,1,128,8|0,1:0|0:0,0:0:0:0:
312,304,216461,1,0,3:0:0:0:
424,352,216576,1,0,3:0:0:0:
312,304,216692,1,8,1:0:0:0:
136,356,216807,2,0,P|204:324|196:204,1,192,4|0,3:2|0:0,0:0:0:0:
207,217,217038,1,0,0:0:0:0:
60,144,217153,5,8,1:0:0:0:
124,212,217269,1,8,1:0:0:0:
164,32,217384,5,8,1:0:0:0:
80,64,217500,1,8,1:0:0:0:
212,176,217615,5,8,1:0:0:0:
232,92,217730,1,8,1:0:0:0:
16,220,217846,5,4,1:2:0:0:
16,220,217961,2,0,P|108:244|240:308,1,223.999993164063,0|0,0:0|3:0,0:0:0:0:
308,368,218307,2,0,P|372:340|380:296,1,111.999996582031,8|0,1:0|0:0,0:0:0:0:
484,280,218538,2,0,B|460:220|440:252|420:188,1,111.999996582031,0|0,3:0|0:0,0:0:0:0:
408,100,218769,5,8,1:0:0:0:
512,76,218884,2,0,P|432:100|384:124,1,111.999996582031,0|0,3:0|0:0,0:0:0:0:
316,124,219115,1,0,3:0:0:0:
204,252,219230,2,0,B|200:204|200:204|232:140,1,111.999996582031,8|0,1:0|0:0,0:0:0:0:
128,24,219461,2,0,L|256:44,1,111.999996582031,0|0,3:0|0:0,0:0:0:0:
244,56,219692,6,0,B|172:68|172:68|164:80|164:80|60:100,1,167.999994873047,8|0,1:0|0:0,0:0:0:0:
88,96,219923,1,0,3:0:0:0:
24,192,220038,2,0,P|52:252|60:300,1,111.999996582031,2|8,0:0|1:0,0:0:0:0:
144,352,220269,1,0,0:0:0:0:
264,248,220384,2,0,L|144:224,1,111.999996582031,0|0,3:0|3:0,0:0:0:0:
368,168,220615,5,8,1:0:0:0:
368,168,220730,2,0,P|448:204|448:300,1,167.999994873047,0|0,3:0|0:0,0:0:0:0:
452,284,220961,1,0,3:0:0:0:
276,364,221076,2,0,B|260:324|260:324|276:248,1,111.999996582031,8|0,1:0|0:0,0:0:0:0:
484,60,221307,2,0,L|356:84,1,111.999996582031,0|0,3:0|0:0,0:0:0:0:
284,136,221538,6,0,B|212:152|192:88|196:72|200:60|172:8|92:32,1,223.999993164063,8|0,1:0|3:0,0:0:0:0:
0,160,221884,2,0,P|84:128|124:124,1,111.999996582031,0|8,3:0|1:0,0:0:0:0:
156,208,222115,1,0,0:0:0:0:
120,328,222230,2,0,L|140:212,1,111.999996582031,0|0,3:0|3:0,0:0:0:0:
232,352,222461,6,0,P|288:324|420:296,1,167.999994873047,8|0,1:0|0:0,0:0:0:0:
389,298,222692,1,2,0:0:0:0:
504,224,222807,2,0,P|464:184|404:200,1,111.999996582031,0|8,3:0|1:0,0:0:0:0:
288,84,223038,1,0,3:0:0:0:
376,20,223153,2,0,P|348:72|308:212,1,167.999994873047,2|0,3:2|0:0,0:0:0:0:
324,192,223384,6,0,P|244:212|224:176,1,111.999996582031,8|0,1:0|0:0,0:0:0:0:
40,128,223615,2,0,B|104:112|104:112|132:28|132:28|200:12,1,223.999993164063,2|8,3:2|1:0,0:0:0:0:
124,196,223961,1,0,0:0:0:0:
4,260,224076,2,0,P|76:272|124:296,1,111.999996582031,2|0,3:2|3:0,0:0:0:0:
240,368,224307,2,0,P|292:336|296:284,1,111.999996582031,8|0,1:0|3:0,0:0:0:0:
212,80,224538,2,0,P|236:144|244:200,1,111.999996582031,2|0,3:2|3:0,0:0:0:0:
440,140,224769,2,0,P|372:124|320:100,1,111.999996582031,8|0,1:0|3:0,0:0:0:0:
108,300,225000,2,0,P|159:278|214:267,1,111.999996582031,0|0,3:0|3:0,0:0:0:0:
408,248,225230,5,4,1:2:0:0:
388,328,225346,2,0,P|376:256|324:104,1,223.999993164063,0|0,1:0|3:0,0:0:0:0:
256,8,225692,2,0,P|204:44|212:88,1,111.999996582031,0|0,3:0|3:0,0:0:0:0:
132,176,225923,5,8,1:0:0:0:
40,132,226038,2,0,P|152:152|260:200,1,223.999993164063,0|0,1:0|3:0,0:0:0:0:
232,372,226384,2,0,P|284:336|284:292,1,111.999996582031,2|0,3:2|3:0,0:0:0:0:
76,296,226615,2,0,P|136:272|192:260,1,111.999996582031,8|0,1:0|0:0,0:0:0:0:
404,152,226846,2,0,P|349:138|297:117,1,111.999996582031,0|0,3:0|0:0,0:0:0:0:
176,36,227076,5,4,1:2:0:0:
188,212,228692,5,0,3:0:0:0:
324,172,228923,1,4,3:2:0:0:
256,192,229038,12,0,230538,0:0:0:0:
232,172,230769,5,8,3:0:0:0:
248,224,230846,1,8,3:0:0:0:
286,185,230923,1,8,3:0:0:0:
238,191,231000,5,4,3:0:0:0:
261,208,231077,1,4,3:0:0:0:
265,180,231154,1,4,3:0:0:0:
252,192,231230,5,0,3:0:0:0:
376,280,231346,2,0,P|404:272|504:256,1,120.000004577637,2|0,3:0|0:0,0:0:0:0:
136,104,231576,2,0,P|108:112|8:128,1,120.000004577637,2|0,3:0|0:0,0:0:0:0:
324,172,231807,5,0,3:0:0:0:
188,212,231923,1,0,3:0:0:0:
284,96,232038,1,0,3:0:0:0:
228,288,232153,1,0,3:0:0:0:
144,112,232269,1,0,1:0:0:0:
160,116,232326,1,0,1:0:0:0:
176,120,232384,1,0,1:0:0:0:
332,176,232500,1,0,1:0:0:0:
144,344,232615,5,4,3:2:0:0:
91,342,232691,1,0,0:0:0:0:
49,311,232768,1,0,0:0:0:0:
36,264,232846,2,0,P|52:228|56:184,2,80.0000030517579,10|2|2,1:0|0:0|0:0,0:0:0:0:
24,92,233076,1,0,3:0:0:0:
58,86,233152,1,0,0:0:0:0:
92,80,233229,1,0,0:1:0:0:
128,72,233307,2,0,L|212:88,2,69.3333301595054,10|2|2,1:0|0:0|0:0,0:0:0:0:
276,172,233538,5,0,3:0:0:0:
343,179,233614,1,0,0:0:0:0:
394,135,233691,1,0,0:0:0:0:
396,68,233769,2,0,P|384:36|380:0,2,69.3333301595054,8|2|2,1:0|0:0|0:0,0:0:0:0:
428,216,234000,5,0,3:0:0:0:
428,216,234076,2,0,P|472:224|500:236,1,69.3333301595054,2|0,0:0|0:0,0:0:0:0:
316,96,234230,5,8,1:0:0:0:
316,96,234306,2,0,P|272:88|244:76,1,69.3333301595054,2|0,0:0|0:0,0:0:0:0:
340,184,234461,5,2,3:1:0:0:
294,192,234537,1,2,0:0:0:0:
249,202,234614,1,2,0:0:0:0:
204,214,234691,1,8,1:0:0:0:
160,227,234768,1,2,0:0:0:0:
116,243,234845,1,2,0:0:0:0:
76,260,234923,2,0,P|88:216|88:184,2,69.3333301595054,0|0|0,3:0|0:0|0:0,0:0:0:0:
256,292,235153,2,0,P|244:336|244:368,2,69.3333301595054,10|0|0,1:0|0:0|0:0,0:0:0:0:
356,364,235384,5,0,3:0:0:0:
423,357,235460,1,0,0:0:0:0:
465,304,235537,1,0,0:0:0:0:
456,240,235615,2,0,P|444:196|444:164,2,69.3333301595054,8|2|0,1:0|0:0|0:0,0:0:0:0:
464,44,235846,1,0,3:0:0:0:
430,48,235923,1,0,0:0:0:0:
403,69,236000,1,0,0:0:0:0:
392,104,236076,2,0,P|356:108|304:120,2,69.3333301595054,8|2|2,1:0|0:0|0:0,0:0:0:0:
256,152,236307,6,2,B|220:152|197:175|197:175|152:128|168:52|222:36|222:36|236:48|256:52,1,256,2|8,3:1|1:0,0:1:0:0:
80,104,236653,2,0,P|116:100|168:88,1,64,0|0,3:0|0:0,0:0:0:0:
0,204,236769,5,0,3:0:0:0:
84,252,236884,1,0,3:0:0:0:
0,204,237000,2,0,P|88:216|192:256,1,192,8|0,1:0|0:0,0:0:0:0:
296,280,237230,2,0,B|308:308|308:308|288:336,2,64,0|0|0,3:0|0:0|3:0,0:0:0:0:
136,356,237461,2,0,P|92:332|96:252,1,128,8|0,1:0|3:0,0:0:0:0:
200,168,237692,5,0,3:0:0:0:
296,88,237807,1,0,3:0:0:0:
204,20,237923,2,0,P|144:36|64:48,1,128,8|0,1:0|3:0,0:0:0:0:
280,96,238153,6,0,P|360:112|488:152,1,192,2|0,3:1|0:0,0:0:0:0:
472,156,238384,2,0,P|512:108|484:52,1,128,8|0,1:0|3:0,0:0:0:0:
408,216,238615,1,0,3:0:0:0:
472,272,238730,1,0,3:0:0:0:
408,216,238846,2,0,P|344:232|280:256,1,128,8|0,1:0|3:0,0:0:0:0:
152,344,239076,5,0,3:0:0:0:
48,296,239192,1,0,3:0:0:0:
116,180,239307,2,0,B|192:152|192:152|168:208|204:272,1,192,8|0,1:0|0:0,0:0:0:0:
192,268,239538,2,0,P|244:256|288:254,1,92.0000017547608,0|0,3:0|3:0,0:0:0:0:
109,171,239769,2,0,P|57:183|7:184,1,92.0000017547608,8|0,1:0|3:0,0:0:0:0:
200,8,240000,6,2,P|276:44|264:160,1,192,4|0,3:2|0:0,0:1:0:0:
268,148,240230,1,8,1:0:0:0:
392,72,240346,2,0,B|456:56|456:56|392:92,1,128,0|0,3:0|3:0,0:0:0:0:
248,268,240576,1,0,3:0:0:0:
192,200,240692,1,8,1:0:0:0:
248,268,240807,1,0,3:0:0:0:
152,344,240923,6,0,P|236:320|372:304,1,192,2|0,3:2|0:0,0:0:0:0:
339,305,241153,1,8,1:0:0:0:
116,168,241269,2,0,P|48:204|48:252,1,128,2|0,3:2|3:0,0:0:0:0:
240,160,241500,1,0,3:2:0:0:
192,32,241615,2,0,P|216:96|228:168,1,128,8|0,1:0|3:0,0:0:0:0:
356,224,241846,6,0,P|428:228|476:120,1,192,6|0,3:2|0:0,0:0:0:0:
468,120,242076,1,8,1:0:0:0:
420,40,242192,2,0,L|276:68,1,128,2|0,3:2|3:0,0:0:0:0:
132,128,242423,1,0,3:0:0:0:
208,24,242538,6,2,B|172:152|312:116|268:272,1,256,10|0,1:0|3:0,0:1:0:0:
192,344,242884,1,0,3:0:0:0:
192,344,243000,2,0,B|128:360|128:360|76:316,1,128,10|0,1:0|3:0,0:0:0:0:
268,248,243230,2,0,B|332:228|332:228|384:272,1,128,0|0,3:0|3:0,0:0:0:0:
184,228,243461,2,0,P|204:148|224:100,1,128,8|0,1:0|3:0,0:0:0:0:
276,44,243692,5,4,3:2:0:0:
452,96,243807,2,0,P|384:109|316:132,1,128,0|8,3:0|1:0,0:0:0:0:
104,244,244038,2,0,P|48:204|64:140,1,128,0|0,3:0|3:0,0:0:0:0:
40,56,244269,2,0,P|107:42|176:20,1,128,0|8,3:0|1:0,0:0:0:0:
324,4,244500,6,2,B|312:84|312:84|384:140|384:140|368:236,1,256,2|0,3:1|3:0,0:1:0:0:
472,328,244846,2,0,P|404:341|336:364,1,128,8|0,1:0|3:0,0:0:0:0:
220,272,245076,1,0,3:0:0:0:
256,180,245192,1,0,3:0:0:0:
220,272,245307,2,0,P|156:256|84:248,1,128,8|0,1:0|0:0,0:0:0:0:
28,168,245538,6,2,P|72:76|176:80,1,192,4|0,3:2|0:0,0:1:0:0:
156,76,245769,1,8,1:0:0:0:
320,40,245884,1,0,0:0:0:0:
220,8,246000,1,0,3:0:0:0:
220,8,246115,2,0,P|240:72|248:140,1,128,0|8,3:0|1:0,0:0:0:0:
208,264,246346,6,2,B|284:284|312:212|304:200|300:192|336:120|420:156,1,256,4|0,3:2|3:0,0:1:0:0:
468,224,246692,5,8,1:0:0:0:
468,224,246807,1,8,1:0:0:0:
292,260,246923,5,8,1:0:0:0:
292,260,247038,1,8,1:0:0:0:
64,308,247154,5,8,1:0:0:0:
64,308,247269,1,8,1:0:0:0:
152,204,247384,5,4,1:2:0:0:
256,192,247500,12,0,254711,0:0:0:0:
