osu file format v14

[General]
AudioFilename: audio.mp3
AudioLeadIn: 0
PreviewTime: 33916
Countdown: 0
SampleSet: Soft
StackLeniency: 0.2
Mode: 0
LetterboxInBreaks: 0
WidescreenStoryboard: 1

[Editor]
Bookmarks: 11862,23538,44295,49484,59862,68943,79322,89700,94889,105268,113051,133808,144186,157159,162349,165430,177916,188295,199808
DistanceSpacing: 0.7
BeatDivisor: 4
GridSize: 4
TimelineZoom: 1

[Metadata]
Title:Dependence
TitleUnicode:Dependence
Artist:Imy
ArtistUnicode:Imy
Creator:Pizza Kun
Version:Insane
Source:
Tags:
BeatmapID:1369932
BeatmapSetID:643850

[Difficulty]
HPDrainRate:6
CircleSize:4
OverallDifficulty:7
ApproachRate:9
SliderMultiplier:1.9
SliderTickRate:1

[Events]
//Background and Video events
0,0,"BG.jpg",0,0
//Break Periods
2,113251,133208
2,157159,161424
//Storyboard Layer 0 (Background)
//Storyboard Layer 1 (Fail)
//Storyboard Layer 2 (Pass)
//Storyboard Layer 3 (Foreground)
//Storyboard Sound Samples

[TimingPoints]
187,324.324324324324,4,1,0,70,1,0
1484,-76.9230769230769,4,2,1,50,0,0
11862,-83.3333333333333,4,2,1,60,0,0
23538,-100,4,2,1,60,0,0
24673,-133.333333333333,4,2,1,60,0,0
29700,-100,4,2,1,60,0,0
31808,-133.333333333333,4,2,1,60,0,0
33916,-100,4,2,1,60,0,0
44295,-166.666666666667,4,2,0,60,0,0
46565,-100,4,2,0,60,0,0
46889,-133.333333333333,4,2,0,60,0,0
47376,-200,4,2,0,60,0,0
49159,-76.9230769230769,4,2,0,60,0,0
49484,-76.9230769230769,4,2,1,60,0,1
68943,-133.333333333333,4,2,1,60,0,0
72835,-133.333333333333,4,2,0,60,0,0
73159,-133.333333333333,4,2,1,60,0,0
77862,-133.333333333333,4,2,0,60,0,0
78349,-133.333333333333,4,2,1,60,0,0
78511,-50,4,2,1,60,0,0
79322,-100,4,2,1,60,0,0
88241,-100,4,2,0,60,0,0
88403,-100,4,2,1,60,0,0
89700,-166.666666666667,4,2,0,60,0,0
90024,-166.666666666667,4,2,0,5,0,0
90186,-166.666666666667,4,2,0,60,0,0
90511,-166.666666666667,4,2,0,5,0,0
90673,-166.666666666667,4,2,0,60,0,0
90773,-66.6666666666667,4,2,0,60,0,0
92295,-166.666666666667,4,2,0,60,0,0
94565,-66.6666666666667,4,2,0,60,0,0
94889,-66.6666666666667,4,2,1,60,0,1
113051,-66.6666666666667,4,2,1,60,0,0
133808,-100,4,2,1,60,0,0
134943,-133.333333333333,4,2,1,60,0,0
135430,-100,4,2,1,60,0,0
142078,-133.333333333333,4,2,1,60,0,0
144186,-100,4,2,1,60,0,0
145322,-133.333333333333,4,2,1,60,0,0
145808,-100,4,2,1,60,0,0
148970,-100,4,2,1,5,0,0
149051,-100,4,2,1,60,0,0
154565,-200,4,2,0,60,0,0
155862,-200,4,2,0,60,0,0
157159,-133.333333333333,4,2,1,60,0,0
162024,-66.6666666666667,4,2,1,60,0,0
162349,-76.9230769230769,4,2,1,60,0,1
166889,-58.8235294117647,4,2,1,60,0,1
167214,-66.6666666666667,4,2,1,60,0,0
167538,-66.6666666666667,4,2,1,60,0,1
177916,-76.9230769230769,4,2,1,60,0,0
199159,-100,4,2,1,60,0,0
199322,-100,4,2,1,5,0,0
199484,-100,4,2,1,60,0,0
199646,-100,4,2,1,5,0,0
199808,-100,4,2,1,60,0,0

[Colours]
Combo1 : 194,109,16
Combo2 : 148,243,232
Combo3 : 12,222,211
Combo4 : 244,111,111
Combo5 : 221,47,21
Combo6 : 225,225,225
Combo7 : 97,97,97
Combo8 : 255,128,64

[HitObjects]
396,256,1484,102,0,P|408:184|380:144,2,123.499994346619,12|2|2,0:0|0:0|0:0,0:0:0:0:
317,97,1970,2,0,P|302:155|332:208,2,123.499994346619,12|2|2,0:0|0:0|0:0,0:0:0:0:
215,203,2457,6,0,P|227:131|199:91,2,123.499994346619,12|2|2,0:0|0:0|0:0,0:0:0:0:
136,44,2943,2,0,P|120:102|150:154,2,123.499994346619,12|2|2,0:0|0:0|0:0,0:0:0:0:
253,157,3430,2,0,L|268:280,1,123.499994346619,12|2,0:0|0:0,0:0:0:0:
361,186,3754,2,0,L|376:64,1,123.499994346619,12|2,0:0|0:0,0:0:0:0:
177,41,4078,102,0,B|141:105|141:105|153:173,1,123.499994346619,12|2,0:0|0:0,0:0:0:0:
149,154,4403,1,2,0:0:0:0:
261,225,4565,2,0,B|269:274|269:274|233:338,1,123.499994346619,12|2,0:0|0:0,0:0:0:0:
233,338,4889,1,2,0:0:0:0:
348,276,5051,6,0,B|397:267|397:267|461:303,1,123.499994346619,12|2,0:0|0:0,0:0:0:0:
461,303,5376,1,2,0:0:0:0:
344,192,5538,2,0,B|336:143|336:143|372:79,1,123.499994346619,12|2,0:0|0:0,0:0:0:0:
372,78,5862,1,2,0:0:0:0:
443,207,6024,2,0,B|417:249|417:249|348:275,1,123.499994346619,12|2,0:0|0:0,0:0:0:0:
159,226,6349,2,0,B|184:183|184:183|253:157,1,123.499994346619,12|2,0:0|0:0,0:0:0:0:
256,320,6673,102,0,B|196:332|196:332|128:332,1,123.499994346619,12|2,0:0|0:0,0:0:0:0:
116,236,6997,1,2,0:0:0:0:
276,304,7159,2,0,B|216:316|216:316|148:316,1,123.499994346619,12|2,0:0|0:0,0:0:0:0:
136,220,7483,1,2,0:0:0:0:
256,148,7646,6,0,B|316:136|316:136|378:136,1,123.499994346619,12|2,0:0|0:0,0:0:0:0:
396,232,7970,1,2,0:0:0:0:
236,164,8132,2,0,B|296:152|296:152|358:152,1,123.499994346619,12|2,0:0|0:0,0:0:0:0:
376,248,8456,1,2,0:0:0:0:
252,248,8619,1,12,0:0:0:0:
340,316,8781,1,2,0:0:0:0:
274,230,8943,1,12,0:0:0:0:
317,333,9105,1,2,0:0:0:0:
303,226,9268,102,0,L|176:184,1,123.499994346619,12|2,0:0|0:0,0:0:0:0:
212,268,9592,1,2,0:0:0:0:
95,146,9754,2,0,L|222:103,1,123.499994346619,12|2,0:0|0:0,0:0:0:0:
186,187,10078,1,2,0:0:0:0:
418,186,10241,2,0,L|291:143,1,123.499994346619,12|2,0:0|0:0,0:0:0:0:
327,227,10565,1,2,0:0:0:0:
211,106,10727,2,0,L|338:63,1,123.499994346619,12|2,0:0|0:0,0:0:0:0:
302,147,11051,1,2,0:0:0:0:
128,120,11214,1,6,0:0:0:0:
192,256,11376,5,8,0:0:0:0:
215,276,11457,1,8,0:0:0:0:
243,289,11538,1,8,0:0:0:0:
273,293,11619,1,8,0:0:0:0:
303,288,11700,1,8,0:0:0:0:
331,274,11781,1,8,0:0:0:0:
354,254,11862,102,0,P|388:236|460:268,1,113.999996520996,6|0,0:0|0:0,0:0:0:0:
352,328,12186,2,0,P|292:296|280:256,1,113.999996520996,8|0,0:0|0:0,0:0:0:0:
320,160,12511,1,2,0:0:0:0:
320,160,12673,1,2,0:0:0:0:
128,248,12835,2,0,B|188:236|188:236|232:192,1,113.999996520996,8|0,0:0|0:0,0:0:0:0:
256,100,13159,5,2,0:0:0:0:
256,100,13322,1,2,0:0:0:0:
36,120,13484,2,0,B|73:157|73:157|133:169,1,113.999996520996,8|0,0:0|0:0,0:0:0:0:
256,100,13808,1,2,0:0:0:0:
225,198,13970,1,2,0:0:0:0:
176,72,14132,2,0,B|212:28|212:28|272:20,1,113.999996520996,8|0,0:0|0:0,0:0:0:0:
370,100,14457,102,0,L|254:100,1,113.999996520996,4|2,0:0|0:0,0:0:0:0:
225,198,14781,1,8,0:0:0:0:
256,100,14943,1,0,0:0:0:0:
452,192,15105,2,2,L|336:192,1,113.999996520996
307,290,15429,1,8,0:0:0:0:
338,192,15591,1,0,0:0:0:0:
112,292,15754,6,2,L|228:292,1,113.999996520996
212,204,16078,1,8,0:0:0:0:
348,320,16241,1,2,0:0:0:0:
264,173,16403,1,8,0:0:0:0:
294,350,16566,1,2,0:0:0:0:
294,350,16646,1,2,0:0:0:0:
294,350,16727,1,12,0:0:0:0:
328,186,16889,1,2,0:0:0:0:
92,196,17051,102,0,B|48:148|48:148|48:92,1,113.999996520996,4|2,0:0|0:0,0:0:0:0:
168,24,17376,2,0,L|168:144,1,113.999996520996,8|0,0:0|0:0,0:0:0:0:
212,252,17700,2,2,B|256:204|256:204|256:148,1,113.999996520996
256,52,18024,1,8,0:0:0:0:
168,136,18186,1,0,0:0:0:0:
344,136,18349,5,2,0:0:0:0:
344,136,18511,1,2,0:0:0:0:
212,252,18673,2,0,B|232:312|232:312|276:336,1,113.999996520996,8|0,0:0|0:0,0:0:0:0:
380,340,18997,1,2,0:0:0:0:
380,340,19159,1,2,0:0:0:0:
344,136,19322,2,0,B|304:180|304:180|304:244,1,113.999996520996,8|0,0:0|0:0,0:0:0:0:
464,176,19646,102,0,B|464:128|464:128|456:108|456:108|456:56,1,113.999996520996,4|2,0:0|0:0,0:0:0:0:
352,23,19970,2,0,B|352:71|352:71|344:91|344:91|344:143,1,113.999996520996,8|0,0:0|0:0,0:0:0:0:
256,24,20295,1,2,0:0:0:0:
344,136,20457,1,2,0:0:0:0:
168,136,20619,5,8,0:0:0:0:
296,188,20781,1,0,0:0:0:0:
171,63,20943,1,8,0:0:0:0:
224,184,21105,1,2,0:0:0:0:
224,7,21267,1,8,0:0:0:0:
168,136,21430,1,2,0:0:0:0:
293,10,21592,1,8,0:0:0:0:
340,180,21754,101,2,0:0:0:0:
340,180,21835,1,2,0:0:0:0:
340,180,21916,1,12,0:0:0:0:
168,136,22078,1,2,0:0:0:0:
176,304,22241,1,4,0:0:0:0:
176,304,23051,22,2,P|216:316|236:316,1,56.9999982604981
288,260,23214,1,8,0:0:0:0:
288,260,23538,5,6,0:0:0:0:
333,133,23700,1,2,0:0:0:0:
374,219,23862,1,10,0:0:0:0:
247,173,24024,1,2,0:0:0:0:
408,148,24186,2,0,P|400:96|368:64,2,95,0|0|8,0:0|0:0|0:0,0:0:0:0:
374,219,24673,102,0,P|460:208|486:162,1,142.500005435944
485,165,25159,1,8,0:0:0:0:
371,66,25322,2,0,B|348:40|304:65|304:65|260:92|228:64,1,142.500005435944
108,28,25808,2,0,P|148:24|188:28,1,71.2500027179719,8|0,0:0|0:0,0:0:0:0:
108,184,26132,5,2,0:0:0:0:
240,72,26295,1,2,0:0:0:0:
88,113,26457,1,10,0:0:0:0:
259,142,26619,2,0,P|291:207|259:267,1,142.500005435944,2|0,0:0|0:0,0:0:0:0:
180,340,27105,2,0,L|260:340,1,71.2500027179719,8|0,0:0|0:0,0:0:0:0:
176,264,27430,102,0,L|100:264,1,71.2500027179719
262,265,27754,1,8,0:0:0:0:
220,184,27916,1,0,0:0:0:0:
176,264,28078,2,0,P|132:208|140:140,1,142.500005435944,0|8,0:0|0:0,0:0:0:0:
216,88,28565,1,0,0:0:0:0:
128,48,28727,5,2,0:0:0:0:
220,184,28889,1,2,0:0:0:0:
139,140,29051,1,10,0:0:0:0:
343,124,29214,2,0,B|388:124|368:204|388:256,1,142.500005435944,2|0,0:0|0:0,0:0:0:0:
288,340,29700,2,0,L|308:244,1,95,8|0,0:0|0:0,0:0:0:0:
192,192,30024,102,0,L|212:288,2,95,0|0|8,0:0|0:0|0:0,0:0:0:0:
128,320,30511,1,0,0:0:0:0:
112,200,30673,2,0,B|128:144|128:144|164:120,1,95
264,32,30997,2,0,L|164:40,1,95,8|0,0:0|0:0,0:0:0:0:
252,120,31322,5,2,0:0:0:0:
96,72,31484,1,2,0:0:0:0:
206,199,31646,1,10,0:0:0:0:
169,39,31808,1,2,0:0:0:0:
112,200,31970,2,0,P|128:256|200:296,1,142.500005435944,0|8,0:0|0:0,0:0:0:0:
384,352,32457,2,0,L|236:352,1,142.500005435944
241,352,32943,1,8,0:0:0:0:
432,168,33105,5,10,0:0:0:0:
432,168,33916,86,2,L|328:168,1,95,4|0,0:0|0:0,0:0:0:0:
428,288,34241,1,8,0:0:0:0:
316,316,34403,1,0,0:0:0:0:
252,220,34565,2,0,B|224:184|224:184|168:184|168:184,2,95,2|2|8,0:0|0:0|0:0,0:0:0:0:
132,296,35051,2,2,B|76:264|76:264|76:216|76:216|84:188|84:188|84:128,1,190
192,32,35538,2,0,L|200:136,1,95,8|0,0:0|0:0,0:0:0:0:
288,256,35862,2,2,L|296:152,1,95
196,216,36186,1,8,0:0:0:0:
284,64,36349,1,0,0:0:0:0:
360,203,36511,6,0,B|332:243|332:243|276:259,1,95,2|0,0:0|0:0,0:0:0:0:
396,120,36835,2,0,B|436:148|436:148|452:204,1,95,8|0,0:0|0:0,0:0:0:0:
340,328,37159,2,0,B|300:300|300:300|284:244,2,95,2|2|8,0:0|0:0|0:0,0:0:0:0:
360,203,37646,2,2,B|312:163|312:163|248:163|248:163|228:171|228:171|180:171,1,190
20,176,38132,2,0,B|84:176|84:176|140:112,1,142.5,8|8,0:0|0:0,0:0:0:0:
148,104,38457,1,2,0:0:0:0:
256,240,38619,1,2,0:0:0:0:
256,72,38781,1,8,0:0:0:0:
181,195,38943,1,2,0:0:0:0:
330,116,39105,102,0,B|400:96|467:114|467:114|456:144|456:172,1,190,4|8,0:0|0:0,0:0:0:0:
352,208,39592,2,2,B|328:224|304:236|304:236|336:240|384:268|388:332,1,190
292,332,40078,1,8,0:0:0:0:
196,328,40241,2,2,B|199:268|247:240|279:236|279:236|255:224|231:208,1,190
156,112,40727,2,0,L|256:120,1,95,8|0,0:0|0:0,0:0:0:0:
49,211,41051,2,0,L|144:204,2,95,2|2|8,0:0|0:0|0:0,0:0:0:0:
184,276,41538,6,0,P|220:240|224:188,1,95,2|0,0:0|0:0,0:0:0:0:
198,33,41862,2,0,P|162:69|158:121,1,95,2|8,0:0|0:0,0:0:0:0:
336,104,42186,2,0,L|224:128,1,95,2|0,0:0|0:0,0:0:0:0:
404,208,42511,2,0,L|311:188,1,95,2|8,0:0|0:0,0:0:0:0:
432,132,42835,102,2,P|484:208|432:284,1,190
296,340,43322,2,0,L|400:352,1,95,8|0,0:0|0:0,0:0:0:0:
292,264,43646,2,8,P|260:272|232:300,2,63.3333333333333
437,281,43970,2,2,P|469:273|497:245,2,63.3333333333333
352,184,44295,54,0,B|332:164|293:182|293:182|256:200|236:184,1,113.999996520996,4|0,0:0|0:0,0:0:0:0:
126,274,44781,2,0,P|182:290|242:290,1,113.999996520996,2|0,0:0|0:0,0:0:0:0:
244,188,45268,1,0,0:0:0:0:
172,192,45430,1,2,0:0:0:0:
156,120,45592,1,0,0:0:0:0:
312,60,45916,5,0,0:0:0:0:
256,260,46241,1,0,0:0:0:0:
416,176,46565,2,0,P|416:222|417:176,1,142.5
417,176,46889,2,0,B|416:100|416:100|380:112|348:108,1,142.500005435944,2|0,0:0|0:0,0:0:0:0:
232,36,47376,2,0,P|280:44|328:36,1,95,2|0,0:0|0:0,0:0:0:0:
232,116,47862,102,0,B|196:116|196:116|196:108|196:108|188:100|180:108|180:108|180:124|180:124|188:132|196:124|196:124|196:116|196:116|180:116|180:116|152:116|152:116|152:124|152:124|152:108|152:108|144:100|136:108|136:108|136:124|136:124|144:128|152:124|152:124|152:116|152:116|136:116|136:116|84:116,1,285
288,252,49159,86,0,B|352:272|352:272|404:252,1,123.499994346619,0|2,0:0|0:0,0:0:0:0:
348,72,49484,1,12,0:0:0:0:
318,173,49646,1,2,0:0:0:0:
420,149,49808,1,2,0:0:0:0:
335,76,49970,1,12,0:0:0:0:
328,181,50132,1,2,0:0:0:0:
422,135,50294,1,2,0:0:0:0:
264,124,50457,1,12,0:0:0:0:
404,212,50619,1,2,0:0:0:0:
280,273,50781,5,2,0:0:0:0:
208,196,50943,1,12,0:0:0:0:
178,297,51105,1,2,0:0:0:0:
296,204,51268,1,2,0:0:0:0:
132,168,51430,2,0,L|56:68,1,123.499994346619,12|2,0:0|0:0,0:0:0:0:
208,196,51754,2,0,L|132:296,1,123.499994346619,12|2,0:0|0:0,0:0:0:0:
168,124,52078,102,0,P|228:116|280:152,2,123.499994346619,12|2|2,0:0|0:0|0:0,0:0:0:0:
288,228,52565,2,0,B|348:220|368:160|348:112|348:112|380:72|436:88,1,246.999988693238,12|2,0:0|0:0,0:0:0:0:
336,28,53051,2,0,P|276:44|212:40,1,123.499994346619,12|2,0:0|0:0,0:0:0:0:
95,151,53376,2,0,P|156:147|215:163,2,123.499994346619,2|12|2,0:0|0:0|0:0,0:0:0:0:
140,304,53862,1,2,0:0:0:0:
308,152,54024,2,0,L|336:280,1,123.499994346619,12|2,0:0|0:0,0:0:0:0:
242,42,54349,2,0,L|215:162,1,123.499994346619,12|2,0:0|0:0,0:0:0:0:
238,328,54673,5,12,0:0:0:0:
238,216,54835,1,2,0:0:0:0:
334,272,54997,1,2,0:0:0:0:
184,340,55159,1,12,0:0:0:0:
214,232,55321,1,2,0:0:0:0:
291,312,55483,1,2,0:0:0:0:
128,340,55646,1,12,0:0:0:0:
181,241,55808,1,2,0:0:0:0:
238,336,55970,1,2,0:0:0:0:
76,216,56132,102,0,L|20:328,1,123.499994346619,12|2,0:0|0:0,0:0:0:0:
20,326,56457,1,2,0:0:0:0:
144,192,56619,2,0,L|88:304,1,123.499994346619,12|2,0:0|0:0,0:0:0:0:
244,208,56943,2,0,L|188:97,1,123.499994346619,12|2,0:0|0:0,0:0:0:0:
276,48,57268,5,12,0:0:0:0:
312,180,57430,1,2,0:0:0:0:
448,164,57592,1,2,0:0:0:0:
256,68,57754,1,12,0:0:0:0:
325,186,57916,1,2,0:0:0:0:
453,136,58078,1,2,0:0:0:0:
260,148,58241,1,12,0:0:0:0:
356,57,58403,1,2,0:0:0:0:
360,199,58565,102,0,P|324:251|260:259,1,123.499994346619,2|12,0:0|0:0,0:0:0:0:
168,171,58889,1,0,0:0:0:0:
140,304,59051,1,2,0:0:0:0:
268,260,59214,1,4,0:0:0:0:
108,228,59376,5,8,0:0:0:0:
92,201,59457,1,8,0:0:0:0:
87,171,59538,1,8,0:0:0:0:
93,141,59619,1,8,0:0:0:0:
109,115,59700,1,8,0:0:0:0:
134,96,59781,1,8,0:0:0:0:
163,88,59862,102,2,P|228:80|288:88,1,123.499994346619,6|2,0:0|0:0,0:0:0:0:
408,200,60186,2,0,P|343:208|283:200,1,123.499994346619,8|0,0:0|0:0,0:0:0:0:
356,128,60511,1,2,0:0:0:0:
208,168,60673,1,2,0:0:0:0:
320,272,60835,1,8,0:0:0:0:
184,164,60997,1,0,0:0:0:0:
112,352,61159,6,0,P|173:344|234:352,2,123.499994346619,2|2|8,0:0|0:0|0:0,0:0:0:0:
244,272,61646,2,2,B|316:272|340:340|340:340|364:272|428:272,1,246.999988693238
376,120,62132,2,0,B|320:168|320:168|264:168,1,123.499994346619,8|0,0:0|0:0,0:0:0:0:
320,44,62457,102,0,B|396:44|396:44|448:72,2,123.499994346619,2|2|8,0:0|0:0|0:0,0:0:0:0:
96,96,62943,2,2,B|220:96|220:96|164:144|192:220,1,246.999988693238
92,324,63430,2,0,P|108:272|96:204,1,123.499994346619,8|0,0:0|0:0,0:0:0:0:
208,304,63754,6,0,B|264:332|264:332|332:332,1,123.499994346619,2|2,0:0|0:0,0:0:0:0:
324,332,64078,1,8,0:0:0:0:
332,112,64241,2,2,B|296:180|312:252|312:252|364:232|412:244,1,246.999988693238
404,40,64727,2,0,B|420:92|420:92|420:168,1,123.499994346619,12|0,0:0|0:0,0:0:0:0:
236,264,65051,102,0,L|228:136,1,123.499994346619,6|0,0:0|0:0,0:0:0:0:
152,36,65376,2,0,L|144:164,1,123.499994346619,8|0,0:0|0:0,0:0:0:0:
224,68,65700,1,2,0:0:0:0:
156,232,65862,1,2,0:0:0:0:
44,100,66024,2,0,B|8:152|8:152|8:212,1,123.499994346619,8|0,0:0|0:0,0:0:0:0:
156,232,66349,5,8,0:0:0:0:
40,304,66511,1,2,0:0:0:0:
216,232,66673,1,8,0:0:0:0:
100,304,66835,1,2,0:0:0:0:
280,232,66997,1,8,0:0:0:0:
164,304,67159,1,2,0:0:0:0:
164,304,67241,1,2,0:0:0:0:
164,304,67322,1,12,0:0:0:0:
168,160,67484,1,2,0:0:0:0:
280,232,67646,101,8,0:0:0:0:
302,242,67727,1,8,0:0:0:0:
326,247,67808,1,2,0:0:0:0:
351,247,67889,1,2,0:0:0:0:
375,241,67970,1,2,0:0:0:0:
397,231,68051,1,2,0:0:0:0:
376,180,68132,5,8,0:0:0:0:
359,154,68213,1,8,0:0:0:0:
352,124,68294,1,2,0:0:0:0:
355,93,68375,1,2,0:0:0:0:
370,66,68457,2,2,P|388:44|424:32,1,61.7499971733095
452,120,68619,1,8,0:0:0:0:
228,192,68943,6,0,B|192:168|116:232|84:200,1,142.500005435944,4|0,0:0|0:0,0:0:0:0:
28,140,69430,2,0,B|64:108|112:116|112:116|108:84|120:52,1,142.500005435944,2|0,0:0|0:0,0:0:0:0:
200,32,69916,2,0,B|188:80|200:104|200:104|248:96|284:112,1,142.500005435944,2|0,0:0|0:0,0:0:0:0:
268,106,70565,1,2,0:0:0:0:
400,276,70889,6,0,L|416:200,1,71.2500027179719,8|0,0:0|0:0,0:0:0:0:
308,260,71214,2,0,L|322:329,1,71.2500027179719
336,188,71538,1,2,0:0:0:0:
336,188,71700,1,2,0:0:0:0:
172,268,72024,102,0,B|196:224|148:156|180:128,1,142.500005435944,2|0,0:0|0:0,0:0:0:0:
178,129,72511,1,2,0:0:0:0:
376,68,73159,1,2,0:0:0:0:
288,224,73484,6,0,L|308:156,1,71.2500027179719,8|0,0:0|0:0,0:0:0:0:
308,155,73970,1,0,0:0:0:0:
356,264,74132,2,0,P|320:296|232:276,1,142.500005435944,2|0,0:0|0:0,0:0:0:0:
204,200,74619,2,0,P|156:248|172:332,1,142.500005435944,2|2,0:0|0:0,0:0:0:0:
161,317,75105,1,2,0:0:0:0:
161,317,75754,101,2,0:0:0:0:
88,128,76078,2,0,L|72:204,1,71.2500027179719,8|0,0:0|0:0,0:0:0:0:
73,197,76565,1,0,0:0:0:0:
192,76,76727,1,2,0:0:0:0:
192,76,76889,2,0,B|200:112|200:144|200:144|236:120|272:120,1,142.500005435944,2|0,0:0|0:0,0:0:0:0:
268,120,77700,1,0,0:0:0:0:
352,296,77862,6,0,B|384:240|384:240|348:188|348:188|380:140|360:92,1,213.750008153916,0|2,0:2|0:0,0:0:0:0:
192,264,78511,1,2,0:3:0:0:
192,264,79322,6,2,P|172:208|196:168,1,95,6|2,0:0|0:0,0:0:0:0:
256,100,79646,1,8,0:0:0:0:
272,184,79808,1,0,0:0:0:0:
172,100,79970,2,2,P|192:44|228:20,1,95
340,68,80295,1,8,0:0:0:0:
272,184,80457,6,2,B|328:204|328:204|380:184|380:184|456:184,1,190
454,184,80943,1,8,0:0:0:0:
308,304,81105,2,0,B|348:284|348:284|424:284|424:284|452:296|452:296|496:296,1,190,0|2,0:0|0:0,0:0:0:0:
384,368,81592,1,8,0:0:0:0:
256,256,81754,1,0,0:0:0:0:
128,368,81916,6,2,P|88:336|84:288,1,95
176,144,82241,2,0,P|188:192|180:236,1,95,8|0,0:0|0:0,0:0:0:0:
56,224,82565,2,0,P|16:256|4:304,2,95,2|2|8,0:0|0:0|0:0,0:0:0:0:
92,128,83051,2,2,B|36:112|-8:144|-8:144|20:96|20:52,1,190
152,24,83538,6,8,L|176:116,1,95
175,115,83781,1,8,0:0:0:0:
175,115,83862,1,2,0:0:0:0:
256,40,84024,1,2,0:0:0:0:
305,168,84186,1,8,0:0:0:0:
391,61,84349,1,2,0:0:0:0:
392,272,84511,70,0,B|432:208|432:208|436:280|508:280,1,190,6|8,0:0|0:0,0:0:0:0:
460,136,84997,2,2,B|396:120|360:180|360:180|308:264,1,190
256,160,85484,1,8,0:0:0:0:
284,324,85646,2,2,B|232:352|232:352|184:352|184:352|160:348|160:348|100:348,1,190
8,268,86132,2,0,L|104:268,1,95,8|0,0:0|0:0,0:0:0:0:
220,192,86457,6,2,B|120:192|120:192|152:148|156:104,1,190,2|8,0:0|0:0,0:0:0:0:
256,28,86943,2,2,B|256:112|256:112|308:92|360:112,1,190
472,200,87430,2,0,L|476:104,1,95,8|0,0:0|0:0,0:0:0:0:
396,280,87754,2,0,L|392:184,2,95,2|2|8,0:0|0:0|0:0,0:0:0:0:
252,192,88241,5,0,0:0:0:0:
252,192,88322,1,2,0:2:0:0:
252,192,88403,1,0,0:0:0:0:
212,288,88565,1,2,0:0:0:0:
312,320,88727,1,8,0:0:0:0:
172,216,88889,1,0,0:0:0:0:
76,260,89051,2,8,P|40:268|12:268,2,63.3333333333333
172,216,89376,2,2,P|208:208|236:208,2,63.3333333333333
88,168,89700,54,0,P|68:108|96:48,1,113.999996520996,2|0,0:0|0:0,0:0:0:0:
83,61,90186,2,0,B|108:80|156:48|200:64,1,113.999996520996,2|0,0:0|0:0,0:0:0:0:
195,62,90673,1,0,0:0:0:0:
268,116,90835,1,2,0:0:0:0:
320,48,90997,1,0,0:0:0:0:
256,280,91322,1,0,0:0:0:0:
332,180,91646,1,0,0:0:0:0:
408,280,91970,5,0,0:0:0:0:
412,200,92132,1,0,0:0:0:0:
332,180,92295,2,0,P|360:136|416:116,1,113.999996520996,2|0,0:0|0:0,0:0:0:0:
412,200,92781,2,0,P|384:244|328:264,1,113.999996520996,2|0,0:0|0:0,0:0:0:0:
252,220,93268,1,0,0:0:0:0:
332,180,93430,101,2,0:0:0:0:
196,164,94565,86,0,P|256:192|320:160,1,142.500005435944,0|2,0:0|0:0,0:0:0:0:
256,108,94889,1,12,0:0:0:0:
128,112,95051,1,2,0:0:0:0:
156,236,95214,1,2,0:0:0:0:
192,72,95376,1,12,0:0:0:0:
104,184,95538,1,2,0:0:0:0:
228,260,95701,1,2,0:0:0:0:
128,112,95862,1,12,0:0:0:0:
156,236,96024,1,2,0:0:0:0:
304,240,96187,5,2,0:0:0:0:
227,126,96349,2,0,B|167:165|167:165|155:235,1,142.500005435944,12|2,0:0|0:0,0:0:0:0:
156,236,96673,1,2,0:0:0:0:
340,144,96835,2,0,B|328:80|328:80|332:60|332:60|320:0,1,142.500005435944,12|2,0:0|0:0,0:0:0:0:
444,144,97159,2,0,B|432:208|432:208|436:228|436:228|424:288,1,142.500005435944,12|2,0:0|0:0,0:0:0:0:
260,316,97484,102,0,B|280:240|280:240|268:172,2,142.500005435944,12|2|2,0:0|0:0|0:0,0:0:0:0:
156,236,97970,2,0,P|76:316|184:304,1,285.000010871888,12|2,0:0|0:0,0:0:0:0:
172,160,98457,2,0,P|100:156|28:196,1,142.500005435944,12|2,0:0|0:0,0:0:0:0:
156,236,98781,6,0,P|221:219|248:147,2,142.500005435944,2|12|2,0:0|0:0|0:0,0:0:0:0:
38,186,99268,1,2,0:0:0:0:
128,60,99430,2,0,L|272:80,1,142.500005435944,12|2,0:0|0:0,0:0:0:0:
389,130,99754,2,0,L|245:154,1,142.500005435944,12|2,0:0|0:0,0:0:0:0:
348,60,100078,101,12,0:0:0:0:
464,120,100241,1,2,0:0:0:0:
456,8,100403,1,2,0:0:0:0:
389,130,100565,1,12,0:0:0:0:
512,176,100727,1,2,0:0:0:0:
440,272,100889,1,2,0:0:0:0:
464,120,101051,1,12,0:0:0:0:
512,252,101214,1,2,0:0:0:0:
392,208,101376,6,0,P|312:220|256:180,2,142.500005435944,2|12|2,0:0|0:0|0:0,0:0:0:0:
336,128,101862,1,2,0:0:0:0:
184,236,102024,2,0,B|144:176|144:176|144:104,1,142.500005435944,12|2,0:0|0:0,0:0:0:0:
72,0,102349,2,0,L|72:144,1,142.500005435944,12|2,0:0|0:0,0:0:0:0:
222,319,102673,102,0,B|262:259|262:259|262:187,1,142.500005435944,12|2,0:0|0:0,0:0:0:0:
144,105,102997,1,2,0:0:0:0:
240,68,103159,2,0,B|228:44|212:16|160:4|160:4|344:4,1,285.000010871888,12|2,0:0|0:0,0:0:0:0:
428,80,103646,1,12,0:0:0:0:
332,176,103808,2,0,B|332:100|332:100|344:144|372:160,1,142.500005435944,2|2,0:0|0:0,0:0:0:0:
456,248,104132,2,0,B|456:172|456:172|448:216|412:236,1,142.500005435944,12|2,0:0|0:0,0:0:0:0:
336,320,104457,1,2,0:0:0:0:
444,324,104619,1,4,0:0:0:0:
308,228,104781,5,8,0:0:0:0:
270,247,104862,1,8,0:0:0:0:
246,282,104943,1,8,0:0:0:0:
240,324,105024,1,8,0:0:0:0:
198,330,105105,1,8,0:0:0:0:
156,320,105186,1,8,0:0:0:0:
122,295,105268,102,0,P|84:232|104:168,1,142.500005435944,4|2,0:0|0:0,0:0:0:0:
196,84,105592,1,8,0:0:0:0:
72,48,105754,1,0,0:0:0:0:
126,173,105916,1,2,0:0:0:0:
185,60,106078,1,2,0:0:0:0:
57,68,106241,1,8,0:0:0:0:
151,167,106403,1,0,0:0:0:0:
272,148,106565,6,0,B|272:200|272:200|224:276,2,142.500005435944,2|2|8,0:0|0:0|0:0,0:0:0:0:
296,300,107051,2,2,B|376:172|376:172|364:136|364:136|364:104|364:104|400:44,1,285.000010871888
464,148,107538,2,0,B|464:180|464:180|404:276,1,142.500005435944,8|2,0:0|0:0,0:0:0:0:
252,360,107862,102,0,B|208:320|208:320|208:236,1,142.500005435944,4|0,0:0|0:0,0:0:0:0:
272,148,108186,1,8,0:0:0:0:
136,192,108349,2,2,B|136:284|136:284|111:328|111:328|96:252|24:212,1,285.000010871888
28,80,108835,2,0,P|72:124|124:80,1,142.500005435944,8|0,0:0|0:0,0:0:0:0:
208,32,109159,6,2,B|232:76|212:120|212:120|240:112|276:120,1,142.500005435944
336,48,109484,1,8,0:0:0:0:
376,140,109646,2,2,B|428:148|460:104|460:104|516:160|472:248|392:240,1,285.000010871888
244,312,110132,2,0,P|296:332|376:304,1,142.500005435944,8|2,0:0|0:0,0:0:0:0:
304,232,110457,101,6,0:0:0:0:
304,232,110619,1,2,0:0:0:0:
200,232,110781,2,0,B|156:200|156:200|156:104,1,142.500005435944,8|0,0:0|0:0,0:0:0:0:
224,40,111105,1,2,0:0:0:0:
224,40,111268,1,2,0:0:0:0:
104,40,111430,2,0,B|60:72|60:72|60:160,1,142.500005435944,8|0,0:0|0:0,0:0:0:0:
144,292,111754,5,8,0:0:0:0:
60,160,111916,1,2,0:0:0:0:
118,302,112078,1,8,0:0:0:0:
85,149,112240,1,2,0:0:0:0:
91,303,112403,1,8,0:0:0:0:
112,148,112565,1,2,0:0:0:0:
55,288,112727,1,8,0:0:0:0:
148,163,112889,1,2,0:0:0:0:
256,336,113051,5,4,0:0:0:0:
256,192,133808,53,4,0:0:0:0:
256,192,133970,1,0,0:0:0:0:
300,116,134132,2,0,P|256:104|208:120,1,95,2|0,0:0|0:0,0:0:0:0:
128,208,134457,2,0,P|140:160|128:112,2,95,2|0|0,0:0|0:0|0:0,0:0:0:0:
48,160,134943,6,0,P|32:204|80:288,1,142.500005435944,2|0,0:0|0:0,0:0:0:0:
192,336,135430,2,0,L|88:372,1,95,2|0,0:0|0:0,0:0:0:0:
144,276,135754,1,2,0:0:0:0:
256,300,135916,1,0,0:0:0:0:
288,192,136078,1,2,0:0:0:0:
356,268,136241,101,0,0:0:0:0:
356,268,136322,1,0,0:0:0:0:
356,268,136403,2,0,P|400:256|452:268,1,95,2|0,0:0|0:0,0:0:0:0:
488,168,136727,2,0,P|444:180|392:168,2,95,2|0|2,0:0|0:0|0:0,0:0:0:0:
440,92,137214,1,0,0:0:0:0:
496,24,137376,1,2,0:0:0:0:
356,88,137538,6,0,B|316:124|212:60|164:104,1,190,2|0,0:0|0:0,0:0:0:0:
112,160,138024,2,0,P|160:184|212:172,1,95,2|0,0:0|0:0,0:0:0:0:
199,178,138349,1,2,0:0:0:0:
68,336,138673,1,2,0:0:0:0:
128,248,138835,1,8,0:0:0:0:
232,320,138997,102,0,P|188:337|140:360,1,95,2|0,0:0|0:0,0:0:0:0:
128,248,139322,1,0,0:0:0:0:
336,248,139484,2,0,P|292:232|244:208,1,95,2|0,0:0|0:0,0:0:0:0:
232,320,139809,1,0,0:0:0:0:
440,320,139970,6,0,P|400:336|348:360,1,95,2|0,0:0|0:0,0:0:0:0:
336,248,140295,1,0,0:0:0:0:
464,120,140457,2,0,P|424:140|376:157,1,95,2|0,0:0|0:0,0:0:0:0:
481,230,140781,1,0,0:0:0:0:
299,160,140943,2,0,P|316:208|336:248,1,95,2|0,0:0|0:0,0:0:0:0:
212,136,141268,2,0,P|232:92|249:48,1,95,2|0,0:0|0:0,0:0:0:0:
128,144,141592,102,0,B|140:200|192:216|192:216|168:260|124:272,1,190,2|0,0:0|0:0,0:0:0:0:
40,200,142078,2,0,L|20:280,1,71.2500027179719,2|0,0:0|0:0,0:0:0:0:
22,269,142403,1,0,0:0:0:0:
110,74,142565,2,0,L|130:154,1,71.2500027179719,2|0,0:0|0:0,0:0:0:0:
127,143,142889,1,0,0:0:0:0:
256,276,143051,2,0,L|243:194,1,71.2500027179719,2|0,0:0|0:0,0:0:0:0:
245,205,143375,1,0,0:0:0:0:
152,232,143538,5,2,0:0:0:0:
220,108,143700,1,0,0:0:0:0:
245,205,143862,2,0,P|304:160|316:84,1,142.500005435944,8|4,0:0|0:0,0:0:0:0:
392,180,144349,1,2,0:0:0:0:
412,96,144511,2,0,P|464:124|480:164,1,95,8|0,0:0|0:0,0:0:0:0:
439,261,144835,2,0,B|403:213|403:213|391:177,2,95,2|2|8,0:0|0:0|0:0,0:0:0:0:
388,336,145322,102,0,B|340:272|340:272|316:308|264:304,1,142.500005435944,0|2,0:0|0:0,0:0:0:0:
204,292,145808,1,8,0:0:0:0:
256,224,145970,1,0,0:0:0:0:
288,304,146132,1,2,0:0:0:0:
176,216,146295,1,2,0:0:0:0:
336,240,146457,1,8,0:0:0:0:
128,80,146781,5,2,0:0:0:0:
84,152,146943,1,0,0:0:0:0:
44,76,147105,1,8,0:0:0:0:
80,188,147268,1,0,0:0:0:0:
128,80,147430,2,2,P|184:80|224:104,1,95
217,98,147754,1,8,0:0:0:0:
200,300,147916,2,2,B|168:248|176:176|176:176|212:196|256:180,1,190
376,208,148403,2,0,B|336:236|336:236|284:248,1,95,8|0,0:0|0:0,0:0:0:0:
328,136,148727,102,0,P|392:124|456:176,1,142.5,2|0,0:0|0:0,0:0:0:0:
451,167,149051,2,0,B|436:96|453:49|453:49|408:56|368:48,1,190,8|4,0:0|0:0,0:0:0:0:
300,36,149538,1,0,0:0:0:0:
192,192,149700,1,8,0:0:0:0:
188,108,149862,2,0,P|124:144|144:260,1,190,0|2,0:0|0:0,0:0:0:0:
96,72,150349,2,0,P|48:140|56:264,1,190,8|0,0:0|0:0,0:0:0:0:
88,320,150835,5,2,0:0:0:0:
192,192,150997,1,8,0:0:0:0:
48,244,151159,1,0,0:0:0:0:
248,312,151322,2,0,P|200:332|152:340,1,95,2|0,0:0|0:0,0:0:0:0:
352,260,151646,2,0,P|305:251|261:232,1,95,8|0,0:0|0:0,0:0:0:0:
376,336,151970,102,0,P|424:292|380:188,1,190,2|8,0:0|0:0,0:0:0:0:
296,152,152457,2,0,B|328:96|384:96|384:96|336:60|336:24,1,190,0|2,0:0|0:0,0:0:0:0:
232,96,152943,2,0,B|196:136|204:200|252:228|252:228|196:256,1,190,8|2,0:0|0:0,0:0:0:0:
218,244,153430,1,0,0:0:0:0:
104,104,153592,1,8,0:0:0:0:
84,232,153754,1,0,0:0:0:0:
180,84,153916,2,8,P|160:48|132:32,2,63.3333333333333
181,196,154241,2,2,P|201:232|229:248,2,63.3333333333333
276,128,154565,6,0,B|320:168|372:152|372:152|340:104|368:64|368:64|408:136|504:112|472:196|472:196,1,380,4|2,0:0|0:0,0:0:0:0:
471,196,156511,1,0,0:0:0:0:
172,128,162024,5,0,0:0:0:0:
284,188,162186,1,0,0:0:0:0:
168,244,162349,2,0,B|100:224|100:224|72:176,1,123.499994346619,12|2,0:0|0:0,0:0:0:0:
92,68,162673,1,2,0:0:0:0:
292,113,162835,2,0,P|232:129|156:125,1,123.499994346619,12|2,0:0|0:0,0:0:0:0:
171,127,163159,1,2,0:0:0:0:
336,48,163322,2,0,B|380:88|380:88|380:156,1,123.499994346619,12|2,0:0|0:0,0:0:0:0:
312,240,163646,1,2,0:0:0:0:
492,168,163808,6,0,B|448:208|448:208|448:272,1,123.499994346619,12|2,0:0|0:0,0:0:0:0:
448,272,164132,1,2,0:0:0:0:
271,123,164295,2,0,P|295:183|311:239,1,123.499994346619,12|2,0:0|0:0,0:0:0:0:
172,340,164619,2,0,P|196:280|212:224,1,123.499994346619,12|2,0:0|0:0,0:0:0:0:
137,137,164943,101,8,0:0:0:0:
117,167,165024,1,8,0:0:0:0:
119,203,165105,1,2,0:0:0:0:
143,231,165186,1,2,0:0:0:0:
178,238,165267,1,2,0:0:0:0:
211,222,165348,1,2,0:0:0:0:
248,212,165430,2,0,P|272:212|312:228,5,61.7499971733095,8|8|2|2|2|2,0:0|0:0|0:0|0:0|0:0|0:0,0:0:0:0:
288,336,165916,2,0,P|272:352|232:364,3,61.7499971733095,8|8|2|2,0:0|0:0|0:0|0:0,0:0:0:0:
277,188,166241,6,0,P|293:172|333:160,3,61.7499971733095,8|8|2|2,0:0|0:0|0:0|0:0,0:0:0:0:
384,164,166565,1,2,0:0:0:0:
413,170,166646,1,2,0:0:0:0:
443,162,166727,1,2,0:0:0:0:
466,142,166808,1,2,0:0:0:0:
477,114,166889,1,2,0:0:0:0:
473,83,166970,1,2,0:0:0:0:
457,58,167051,1,2,0:0:0:0:
409,69,167132,1,2,0:0:0:0:
361,71,167214,102,0,B|288:76|248:28|248:28|192:56|232:104|232:104|172:80|160:124,1,285.000010871888,8|6,0:0|0:0,0:0:0:0:
44,92,167700,5,2,0:0:0:0:
28,220,167862,1,8,0:0:0:0:
44,92,168024,1,0,0:0:0:0:
132,184,168186,2,2,B|168:220|168:220|144:284|144:284|164:320,1,142.500005435944
256,176,168511,1,8,0:0:0:0:
256,176,168673,1,0,0:0:0:0:
291,300,168835,102,0,P|381:197|332:71,1,285.000010871888,2|8,0:0|0:0,0:0:0:0:
256,176,169322,2,2,P|376:196|464:72,1,285.000010871888
332,72,169808,2,0,B|300:96|236:44|192:88,1,142.500005435944,8|0,0:0|0:0,0:0:0:0:
179,285,170132,6,0,P|239:237|255:169,1,142.500005435944,6|0,0:0|0:0,0:0:0:0:
255,175,170457,1,8,0:0:0:0:
64,168,170619,2,2,B|104:192|172:156|172:156|56:208|84:312,1,285.000010871888
156,368,171105,2,0,B|164:316|180:284|180:284|204:304|236:308,1,142.500005435944,8|0,0:0|0:0,0:0:0:0:
392,336,171430,102,2,B|308:352|308:352|328:312|312:280,1,142.500005435944
317,296,171754,1,8,0:0:0:0:
392,128,171916,2,2,B|408:240|408:240|432:128|500:96,1,285.000010871888
340,60,172403,2,0,P|308:104|336:192,1,142.500005435944,12|0,0:0|0:0,0:0:0:0:
216,288,172727,6,0,P|248:244|220:156,1,142.500005435944,6|2,0:0|0:0,0:0:0:0:
119,92,173051,1,8,0:0:0:0:
112,220,173214,1,0,0:0:0:0:
8,148,173376,2,2,B|20:112|48:92|48:92|84:104|120:92,1,142.500005435944
248,48,173700,2,0,B|228:72|192:76|192:76|200:124|164:152,1,142.500005435944,8|0,0:0|0:0,0:0:0:0:
256,244,174024,102,0,P|304:192|296:120,1,142.500005435944,2|0,0:0|0:0,0:0:0:0:
169,147,174349,1,8,0:0:0:0:
256,244,174511,1,2,0:0:0:0:
128,264,174673,2,0,B|100:320|176:312|196:360|196:360|264:316|284:360|352:344,1,285.000010871888,2|8,0:0|0:0,0:0:0:0:
344,345,175159,1,2,0:0:0:0:
448,204,175322,6,0,L|464:356,1,142.500005435944,12|2,0:0|0:0,0:0:0:0:
360,132,175646,2,0,L|344:284,1,142.500005435944,12|2,0:0|0:0,0:0:0:0:
433,62,175970,2,0,L|449:214,1,142.500005435944,12|2,0:0|0:0,0:0:0:0:
268,356,176295,2,0,L|252:204,1,142.500005435944,12|2,0:0|0:0,0:0:0:0:
212,164,176538,1,2,0:0:0:0:
228,100,176619,101,8,0:0:0:0:
203,50,176700,1,8,0:0:0:0:
149,35,176781,1,2,0:0:0:0:
103,65,176862,1,2,0:0:0:0:
72,120,176943,2,2,P|44:144|8:156,3,71.2500027179719
151,199,177268,2,2,P|179:175|215:163,3,71.2500027179719
308,224,177592,1,8,0:0:0:0:
339,239,177673,1,8,0:0:0:0:
375,239,177754,1,8,0:0:0:0:
407,225,177835,1,8,0:0:0:0:
432,204,177916,70,0,P|460:152|444:80,1,123.499994346619,12|2,0:0|0:0,0:0:0:0:
450,90,178241,1,2,0:0:0:0:
254,104,178403,2,0,B|298:136|298:136|368:136,1,123.499994346619,12|2,0:0|0:0,0:0:0:0:
367,136,178727,1,2,0:0:0:0:
256,252,178889,102,0,B|212:284|212:284|132:284,1,123.499994346619,12|2,0:0|0:0,0:0:0:0:
142,284,179213,1,2,0:0:0:0:
308,344,179376,2,0,B|340:300|340:300|340:220,1,123.499994346619,12|2,0:0|0:0,0:0:0:0:
340,230,179700,1,2,0:0:0:0:
204,52,179862,2,0,B|160:96|160:96|192:124|188:168,1,123.499994346619,12|2,0:0|0:0,0:0:0:0:
84,260,180186,2,0,B|128:216|128:216|96:188|100:144,1,123.499994346619,12|2,0:0|0:0,0:0:0:0:
224,296,180511,6,0,P|280:328|320:284,1,123.499994346619,12|2,0:0|0:0,0:0:0:0:
317,294,180835,1,2,0:0:0:0:
400,152,180997,2,0,B|428:176|424:208|424:208|392:252|420:280,1,123.499994346619,12|2,0:0|0:0,0:0:0:0:
409,263,181322,1,2,0:0:0:0:
304,172,181484,102,0,B|295:122|295:122|336:60,1,123.499994346619,12|2,0:0|0:0,0:0:0:0:
335,61,181809,1,2,0:0:0:0:
409,263,181970,2,0,B|418:313|418:313|377:375,1,123.499994346619,12|2,0:0|0:0,0:0:0:0:
377,373,182295,1,2,0:0:0:0:
252,256,182457,2,0,B|316:296|316:296|308:364,1,123.499994346619,12|2,0:0|0:0,0:0:0:0:
165,248,182781,2,0,B|159:295|159:295|223:335,1,123.499994346619,12|2,0:0|0:0,0:0:0:0:
208,172,183105,6,0,B|148:160|148:160|84:160,1,123.499994346619,12|2,0:0|0:0,0:0:0:0:
68,256,183429,1,2,0:0:0:0:
228,188,183591,2,0,B|168:176|168:176|104:176,1,123.499994346619,12|2,0:0|0:0,0:0:0:0:
88,272,183915,1,2,0:0:0:0:
223,335,184078,102,0,B|283:347|283:347|347:347,1,123.499994346619,12|2,0:0|0:0,0:0:0:0:
363,251,184402,1,2,0:0:0:0:
203,319,184564,2,0,B|263:331|263:331|327:331,1,123.499994346619,12|2,0:0|0:0,0:0:0:0:
343,235,184888,1,2,0:0:0:0:
256,140,185051,1,12,0:0:0:0:
384,160,185214,1,2,0:0:0:0:
256,162,185376,1,12,0:0:0:0:
383,137,185539,1,2,0:0:0:0:
228,240,185700,6,0,P|176:188|184:124,1,123.499994346619,12|2,0:0|0:0,0:0:0:0:
176,141,186024,1,2,0:0:0:0:
256,162,186186,2,0,B|256:202|232:236|180:240|180:240|148:298|252:268|264:320,1,246.999988693238,12|2,0:0|0:0,0:0:0:0:
392,344,186673,2,0,B|388:284|316:272|328:224,1,123.499994346619,12|2,0:0|0:0,0:0:0:0:
448,240,186997,1,2,0:0:0:0:
456,80,187159,102,0,B|456:144|392:144|392:196,1,123.499994346619,12|2,0:0|0:0,0:0:0:0:
372,56,187484,1,2,0:0:0:0:
276,140,187646,1,4,0:0:0:0:
256,12,187808,1,8,0:0:0:0:
256,12,187889,1,8,0:0:0:0:
256,12,187970,1,8,0:0:0:0:
256,12,188051,1,8,0:0:0:0:
256,12,188132,1,8,0:0:0:0:
256,12,188214,1,8,0:0:0:0:
256,12,188295,6,2,P|204:40|144:8,1,123.499994346619,4|0,0:0|0:0,0:0:0:0:
28,112,188619,2,0,P|80:88|140:116,1,123.499994346619,8|0,0:0|0:0,0:0:0:0:
96,204,188943,1,2,0:0:0:0:
96,204,189105,1,2,0:0:0:0:
240,264,189268,2,0,B|168:264|168:264|112:300,1,123.499994346619,8|0,0:0|0:0,0:0:0:0:
196,352,189592,101,2,0:0:0:0:
196,352,189754,1,2,0:0:0:0:
316,304,189916,2,0,B|316:232|316:232|284:184,1,123.499994346619,8|0,0:0|0:0,0:0:0:0:
240,264,190241,1,2,0:0:0:0:
240,264,190403,1,2,0:0:0:0:
232,100,190565,2,0,B|304:100|304:100|360:136,1,123.499994346619,8|0,0:0|0:0,0:0:0:0:
456,244,190889,6,2,L|456:112,1,123.499994346619
380,36,191214,1,8,0:0:0:0:
363,137,191376,1,0,0:0:0:0:
280,280,191538,2,2,L|280:144,1,123.499994346619
212,100,191863,1,8,0:0:0:0:
192,196,192025,1,0,0:0:0:0:
108,40,192186,102,2,L|108:180,1,123.499994346619
32,248,192511,1,8,0:0:0:0:
15,147,192673,1,2,0:0:0:0:
124,292,192835,1,8,0:0:0:0:
32,248,192997,1,2,0:0:0:0:
32,248,193078,1,2,0:0:0:0:
32,248,193159,1,12,0:0:0:0:
185,207,193322,1,2,0:0:0:0:
226,335,193484,6,2,B|158:335|158:335|114:279,1,123.499994346619,6|2,0:0|0:0,0:0:0:0:
156,128,193808,2,0,B|224:128|224:128|268:188,1,123.499994346619,8|0,0:0|0:0,0:0:0:0:
312,280,194132,1,2,0:0:0:0:
224,264,194295,1,2,0:0:0:0:
348,204,194457,2,0,P|392:256|380:328,1,123.499994346619,8|0,0:0|0:0,0:0:0:0:
480,240,194781,102,2,P|436:188|444:116,1,123.499994346619
488,68,195105,1,8,0:0:0:0:
396,48,195268,1,0,0:0:0:0:
435,135,195430,2,2,P|360:136|312:88,1,123.499994346619
256,40,195754,1,8,0:0:0:0:
256,128,195916,1,0,0:0:0:0:
172,80,196078,6,2,P|164:160|200:208,1,123.499994346619,6|2,0:0|0:0,0:0:0:0:
199,310,196403,2,0,P|207:238|171:181,1,123.499994346619,8|0,0:0|0:0,0:0:0:0:
116,260,196727,1,2,0:0:0:0:
184,194,196889,1,2,0:0:0:0:
64,120,197051,1,8,0:0:0:0:
48,220,197214,1,2,0:0:0:0:
212,92,197376,101,8,0:0:0:0:
64,120,197538,1,2,0:0:0:0:
292,88,197700,1,8,0:0:0:0:
134,74,197862,1,2,0:0:0:0:
360,136,198024,1,8,0:0:0:0:
212,92,198186,1,2,0:0:0:0:
240,228,198349,1,12,0:0:0:0:
292,88,198511,1,2,0:0:0:0:
352,216,198673,6,0,P|428:184|440:144,1,123.499994346619,6|8,0:0|0:0,0:0:0:0:
439,150,198916,1,8,0:0:0:0:
439,150,198997,1,8,0:0:0:0:
408,288,199159,2,0,P|356:316|320:320,1,95,4|0,0:0|0:0,0:0:0:0:
152,224,199484,2,0,P|204:196|244:192,1,95,4|0,0:0|0:0,0:0:0:0:
164,344,199808,101,12,0:0:0:0:
