osu file format v14

[General]
AudioFilename: audio.mp3
AudioLeadIn: 0
PreviewTime: 33916
Countdown: 0
SampleSet: Soft
StackLeniency: 0.2
Mode: 0
LetterboxInBreaks: 0
WidescreenStoryboard: 1

[Editor]
Bookmarks: 11862,23538,44295,49484,59862,68943,79322,89700,94889,105268,113051,133808,144186,157159,162349,165430,177916,188295,199808
DistanceSpacing: 1.1
BeatDivisor: 4
GridSize: 4
TimelineZoom: 1

[Metadata]
Title:Dependence
TitleUnicode:Dependence
Artist:Imy
ArtistUnicode:Imy
Creator:Pizza Kun
Version:Hard
Source:
Tags:
BeatmapID:1384744
BeatmapSetID:643850

[Difficulty]
HPDrainRate:5
CircleSize:4
OverallDifficulty:6
ApproachRate:8
SliderMultiplier:1.4
SliderTickRate:1

[Events]
//Background and Video events
0,0,"BG.jpg",0,0
//Break Periods
//Storyboard Layer 0 (Background)
//Storyboard Layer 1 (Fail)
//Storyboard Layer 2 (Pass)
//Storyboard Layer 3 (Foreground)
//Storyboard Sound Samples

[TimingPoints]
187,324.324324324324,4,1,0,70,1,0
1484,-80,4,2,1,50,0,0
11862,-83.3333333333333,4,2,1,60,0,0
23538,-100,4,2,1,60,0,0
33916,-100,4,2,1,60,0,0
44295,-166.666666666667,4,2,0,60,0,0
46565,-100,4,2,0,60,0,0
46889,-133.333333333333,4,2,0,60,0,0
47376,-200,4,2,0,60,0,0
49159,-76.9230769230769,4,2,0,60,0,0
49484,-76.9230769230769,4,2,1,60,0,1
68943,-133.333333333333,4,2,1,60,0,0
72835,-133.333333333333,4,2,0,60,0,0
73159,-133.333333333333,4,2,1,60,0,0
77862,-133.333333333333,4,2,0,60,0,0
78349,-133.333333333333,4,2,1,60,0,0
78511,-50,4,2,1,60,0,0
79322,-100,4,2,1,60,0,0
88241,-100,4,2,0,60,0,0
88403,-100,4,2,1,60,0,0
89700,-166.666666666667,4,2,0,60,0,0
90024,-166.666666666667,4,2,0,5,0,0
90186,-166.666666666667,4,2,0,60,0,0
90511,-166.666666666667,4,2,0,5,0,0
90673,-166.666666666667,4,2,0,60,0,0
90773,-66.6666666666667,4,2,0,60,0,0
92295,-166.666666666667,4,2,0,60,0,0
94565,-66.6666666666667,4,2,0,60,0,0
94889,-66.6666666666667,4,2,1,60,0,1
113051,-66.6666666666667,4,2,1,60,0,0
133808,-100,4,2,1,60,0,0
134943,-133.333333333333,4,2,1,60,0,0
135430,-100,4,2,1,60,0,0
142078,-133.333333333333,4,2,1,60,0,0
144186,-100,4,2,1,60,0,0
145322,-133.333333333333,4,2,1,60,0,0
145808,-100,4,2,1,60,0,0
148970,-100,4,2,1,5,0,0
149051,-100,4,2,1,60,0,0
154565,-200,4,2,0,60,0,0
155862,-200,4,2,0,60,0,0
157159,-133.333333333333,4,2,1,60,0,0
162024,-66.6666666666667,4,2,1,60,0,0
162349,-76.9230769230769,4,2,1,60,0,1
166889,-58.8235294117647,4,2,1,60,0,1
167214,-66.6666666666667,4,2,1,60,0,0
167538,-66.6666666666667,4,2,1,60,0,1
177916,-66.6666666666667,4,2,1,60,0,0
199159,-100,4,2,1,60,0,0
199322,-100,4,2,1,5,0,0
199484,-100,4,2,1,60,0,0
199646,-100,4,2,1,5,0,0
199808,-100,4,2,1,60,0,0

[Colours]
Combo1 : 194,109,16
Combo2 : 148,243,232
Combo3 : 12,222,211
Combo4 : 244,111,111
Combo5 : 221,47,21
Combo6 : 225,225,225
Combo7 : 97,97,97
Combo8 : 255,128,64

[HitObjects]
324,192,1484,102,0,B|284:192|284:192|260:208|260:208|240:180|240:180|224:196|224:196|172:196,1,175,12|2,0:0|0:0,0:0:0:0:
144,288,1970,2,0,B|184:288|184:288|208:272|208:272|228:300|228:300|244:284|244:284|296:284,1,175,12|2,0:0|0:0,0:0:0:0:
388,284,2457,6,0,B|432:256|432:256|432:200|432:200|424:180|424:180|424:132,1,175,12|2,0:0|0:0,0:0:0:0:
340,88,2943,2,0,B|340:156|340:156|284:192|284:192|240:192,1,175,12|2,0:0|0:0,0:0:0:0:
164,100,3430,2,0,P|208:104|252:112,1,87.5,12|0,0:0|0:0,0:0:0:0:
164,180,3754,2,0,P|116:184|77:191,1,87.5,12|0,0:0|0:0,0:0:0:0:
164,276,4078,102,0,B|204:296|204:296|244:296|244:296|272:280|272:280|296:296|296:296|336:296,1,175,12|2,0:0|0:0,0:0:0:0:
428,192,4565,2,0,B|368:192|368:192|340:176|340:176|316:192|316:192|248:192,1,175,12|2,0:0|0:0,0:0:0:0:
164,180,5051,6,0,B|128:144|128:144|128:92|128:92|164:96|204:72,1,175,12|2,0:0|0:0,0:0:0:0:
284,36,5538,2,0,B|328:56|328:56|376:56|376:56|408:40|408:40|456:40,1,175,12|2,0:0|0:0,0:0:0:0:
428,192,6024,2,0,P|416:148|428:104,1,87.5,12|0,0:0|0:0,0:0:0:0:
492,236,6349,2,0,P|504:192|492:148,1,87.5,12|0,0:0|0:0,0:0:0:0:
420,272,6673,102,0,B|392:304|276:248|240:280,1,175,12|2,0:0|0:0,0:0:0:0:
160,312,7159,2,0,B|140:240|196:196|196:196|144:204|128:200,1,175,12|2,0:0|0:0,0:0:0:0:
56,224,7646,6,0,B|84:216|84:216|76:168|108:124|176:132,1,175,12|2,0:0|0:0,0:0:0:0:
268,128,8132,2,0,B|316:112|316:112|356:112|356:112|400:128|400:128|440:128,1,175,12|2,0:0|0:0,0:0:0:0:
488,204,8619,2,0,P|460:216|396:208,1,87.5,12|0,0:0|0:0,0:0:0:0:
320,219,8943,2,0,P|348:207|412:215,1,87.5,12|0,0:0|0:0,0:0:0:0:
448,292,9268,102,0,B|400:316|352:288|352:288|320:328|280:324,1,175,12|2,0:0|0:0,0:0:0:0:
181,296,9754,2,0,P|235:230|320:219,1,175,12|2,0:0|0:0,0:0:0:0:
256,144,10241,6,0,P|172:184|116:256,1,175,12|2,0:0|0:0,0:0:0:0:
68,324,10727,1,12,0:0:0:0:
28,236,10889,2,2,B|28:204|28:204|40:176|40:176|40:148,1,87.5
40,56,11214,1,4,0:0:0:0:
124,104,11376,2,8,P|148:104|172:104,5,43.75
167,104,11862,102,0,B|200:104|200:104|224:100|224:100|256:100,1,83.9999974365235,4|2,0:0|0:0,0:0:0:0:
328,184,12186,2,0,B|295:184|295:184|271:180|271:180|239:180,1,83.9999974365235,8|0,0:0|0:0,0:0:0:0:
168,236,12511,1,2,0:0:0:0:
168,236,12673,1,2,0:0:0:0:
174,328,12835,2,0,P|214:317|244:288,1,83.9999974365235,8|0,0:0|0:0,0:0:0:0:
324,244,13159,6,2,L|324:332,1,83.9999974365235
408,288,13484,2,0,L|408:204,1,83.9999974365235,8|0,0:0|0:0,0:0:0:0:
408,112,13808,1,2,0:0:0:0:
408,112,13970,1,2,0:0:0:0:
499,100,14132,2,0,P|485:60|456:32,1,83.9999974365235,8|0,0:0|0:0,0:0:0:0:
364,32,14457,102,0,B|328:52|248:12|192:40,1,167.999994873047,2|8,0:0|0:0,0:0:0:0:
136,104,14943,1,0,0:0:0:0:
96,20,15105,2,2,P|56:56|44:92,1,83.9999974365235
20,196,15430,2,0,B|52:164|52:164|92:164,1,83.9999974365235,8|0,0:0|0:0,0:0:0:0:
184,164,15754,5,2,0:0:0:0:
184,164,15916,1,2,0:0:0:0:
276,236,16078,2,0,L|188:244,1,83.9999974365235,8|2,0:0|0:0,0:0:0:0:
240,324,16403,1,8,0:0:0:0:
328,304,16565,2,2,P|344:288|356:264,2,41.9999987182618,2|2|6,0:0|0:0|0:0,0:0:0:0:
276,236,16889,1,2,0:0:0:0:
352,180,17051,102,2,P|400:192|436:232,1,83.9999974365235,4|2,0:0|0:0,0:0:0:0:
428,120,17376,2,2,P|380:108|344:68,1,83.9999974365235,8|0,0:0|0:0,0:0:0:0:
284,28,17700,1,2,0:0:0:0:
212,84,17862,1,2,0:0:0:0:
140,28,18024,2,0,P|121:79|128:116,1,83.9999974365235,8|0,0:0|0:0,0:0:0:0:
196,164,18349,6,2,B|212:123|212:123|212:83,1,83.9999974365235
276,151,18673,2,0,B|260:192|260:192|260:232,1,83.9999974365235,8|0,0:0|0:0,0:0:0:0:
212,312,18997,1,2,0:0:0:0:
168,232,19159,1,2,0:0:0:0:
260,232,19322,2,0,P|292:264|304:304,1,83.9999974365235,8|0,0:0|0:0,0:0:0:0:
212,312,19646,102,0,B|176:284|80:348|48:320,1,167.999994873047,6|8,0:0|0:0,0:0:0:0:
16,236,20132,1,0,0:0:0:0:
60,156,20295,2,2,P|94:187|107:229,1,83.9999974365235
176,124,20619,6,0,L|184:208,1,83.9999974365235,8|2,0:0|0:0,0:0:0:0:
256,272,20943,2,0,L|256:184,1,83.9999974365235,8|2,0:0|0:0,0:0:0:0:
336,124,21268,2,0,L|328:208,1,83.9999974365235,8|2,0:0|0:0,0:0:0:0:
256,76,21592,1,8,0:0:0:0:
256,188,21754,2,2,L|256:144,2,41.9999987182618,2|2|4,0:0|0:0|0:0,0:0:0:0:
256,280,22078,1,2,0:0:0:0:
168,308,22241,1,4,0:0:0:0:
168,308,23051,6,0,L|128:272,2,41.9999987182618,2|2|8,0:0|0:0|0:0,0:0:0:0:
256,164,23538,5,6,0:0:0:0:
196,212,23700,1,2,0:0:0:0:
184,136,23862,1,10,0:0:0:0:
256,164,24024,2,0,P|253:98|183:58,1,140,2|0,0:0|0:0,0:0:0:0:
116,64,24511,1,0,0:0:0:0:
44,96,24673,2,0,B|16:120|68:208|28:236,1,140
72,296,25159,1,0,0:0:0:0:
144,204,25322,2,0,B|144:252|144:252|192:236|240:252,2,140
216,104,26132,2,0,L|224:184,1,70
304,216,26457,2,0,L|312:136,1,70
344,332,27105,2,0,B|400:340|443:329|443:329|444:288,1,140
444,212,27592,1,0,0:0:0:0:
376,256,27754,2,0,P|364:200|416:136,1,140
256,92,28403,1,0,0:0:0:0:
332,76,28565,2,0,P|300:28|212:28,1,140
180,84,29051,1,0,0:0:0:0:
124,28,29214,2,0,P|100:88|136:152,1,140
208,172,29700,1,0,0:0:0:0:
60,212,30024,1,0,0:0:0:0:
144,344,30349,1,0,0:0:0:0:
276,264,30673,1,0,0:0:0:0:
264,188,30835,1,0,0:0:0:0:
336,216,30997,2,0,P|352:268|340:304,1,70
416,320,31322,2,0,B|416:300|416:300|424:272|424:272|424:248,1,70
488,188,31646,2,0,B|488:208|488:208|496:236|496:236|496:260,1,70
348,80,32295,1,0,0:0:0:0:
420,48,32457,2,0,P|420:112|356:160,1,140
288,160,32943,1,0,0:0:0:0:
348,80,33105,1,0,0:0:0:0:
256,192,33186,12,0,33916,0:0:0:0:
256,92,34241,5,0,0:0:0:0:
256,168,34403,1,0,0:0:0:0:
256,92,34565,2,0,P|212:104|192:124,1,70
160,188,34889,1,0,0:0:0:0:
108,244,35051,2,0,B|32:244|32:244|64:212|64:176,1,140
