osu file format v14

[General]
AudioFilename: audio.mp3
AudioLeadIn: 0
PreviewTime: 33916
Countdown: 0
SampleSet: Soft
StackLeniency: 0.2
Mode: 0
LetterboxInBreaks: 0
WidescreenStoryboard: 1

[Editor]
Bookmarks: 11862,23538,44295,49484,54024,59862,68943,79322,89700,94889,105268,113051,133808,144186,149690,157159,162349,177916,188295,199808
DistanceSpacing: 0.9
BeatDivisor: 4
GridSize: 4
TimelineZoom: 1

[Metadata]
Title:Dependence
TitleUnicode:Dependence
Artist:Imy
ArtistUnicode:Imy
Creator:Pizza Kun
Version:Extra
Source:
Tags:
BeatmapID:1364745
BeatmapSetID:643850

[Difficulty]
HPDrainRate:6
CircleSize:4
OverallDifficulty:8
ApproachRate:9.3
SliderMultiplier:1.9
SliderTickRate:1

[Events]
//Background and Video events
0,0,"BG.jpg",0,0
//Break Periods
2,113251,130660
2,157159,161470
//Storyboard Layer 0 (Background)
//Storyboard Layer 1 (Fail)
//Storyboard Layer 2 (Pass)
//Storyboard Layer 3 (Foreground)
//Storyboard Sound Samples

[TimingPoints]
187,324.324324324324,4,1,0,70,1,0
1484,-76.9230769230769,4,2,1,50,0,0
11862,-83.3333333333333,4,2,1,60,0,0
23538,-100,4,2,1,60,0,0
24673,-133.333333333333,4,2,1,60,0,0
29700,-100,4,2,1,60,0,0
31808,-133.333333333333,4,2,1,60,0,0
32457,-100,4,2,1,60,0,0
33105,-1000,4,2,1,60,0,0
33916,-100,4,2,1,60,0,0
44295,-166.666666666667,4,2,0,60,0,0
46403,-166.666666666667,4,2,0,5,0,0
46565,-166.666666666667,4,2,0,60,0,0
46727,-166.666666666667,4,2,0,5,0,0
46889,-166.666666666667,4,2,0,60,0,0
49159,-76.9230769230769,4,2,1,60,0,0
49484,-76.9230769230769,4,2,1,60,0,1
68943,-133.333333333333,4,2,1,60,0,0
72835,-133.333333333333,4,2,0,60,0,0
73159,-133.333333333333,4,2,1,60,0,0
77862,-133.333333333333,4,2,0,60,0,0
78349,-133.333333333333,4,2,1,60,0,0
78511,-1000,4,2,1,60,0,0
79322,-100,4,2,1,60,0,0
89700,-133.333333333333,4,2,0,60,0,0
94889,-66.6666666666667,4,2,1,60,0,1
113051,-66.6666666666667,4,2,1,60,0,0
133808,-100,4,2,1,60,0,0
134943,-133.333333333333,4,2,1,60,0,0
135430,-100,4,2,1,60,0,0
142078,-133.333333333333,4,2,1,60,0,0
142565,-100,4,2,1,60,0,0
145322,-133.333333333333,4,2,1,60,0,0
145808,-100,4,2,1,60,0,0
148970,-100,4,2,1,5,0,0
149051,-100,4,2,1,60,0,0
154565,-200,4,2,0,60,0,0
157159,-133.333333333333,4,2,1,60,0,0
162024,-66.6666666666667,4,2,1,60,0,0
162349,-66.6666666666667,4,2,1,60,0,1
166889,-58.8235294117647,4,2,1,60,0,1
167214,-58.8235294117647,4,2,1,60,0,0
167538,-66.6666666666667,4,2,1,60,0,1
177916,-76.9230769230769,4,2,1,60,0,0
183105,-66.6666666666667,4,2,1,60,0,0
199159,-100,4,2,1,60,0,0
199403,-100,4,2,1,5,0,0
199484,-100,4,2,1,60,0,0
199727,-100,4,2,1,5,0,0
199808,-100,4,2,1,60,0,0

[Colours]
Combo1 : 194,109,16
Combo2 : 148,243,232
Combo3 : 12,222,211
Combo4 : 244,111,111
Combo5 : 221,47,21
Combo6 : 225,225,225
Combo7 : 97,97,97
Combo8 : 255,128,64

[HitObjects]
312,168,1484,102,0,P|312:96|280:52,1,123.499994346619,12|0,0:0|0:0,0:0:0:0:
180,16,1808,1,0,0:0:0:0:
272,240,1970,2,0,P|340:244|384:204,1,123.499994346619,12|0,0:0|0:0,0:0:0:0:
424,108,2295,1,0,0:0:0:0:
224,168,2457,2,0,P|188:224|196:280,1,123.499994346619,12|0,0:0|0:0,0:0:0:0:
260,368,2781,1,0,0:0:0:0:
300,136,2943,6,0,P|244:88|188:96,1,123.499994346619,12|0,0:0|0:0,0:0:0:0:
96,136,3268,1,0,0:0:0:0:
340,272,3430,2,0,P|412:272|448:240,1,123.499994346619,12|0,0:0|0:0,0:0:0:0:
306,59,3754,2,0,P|234:59|198:91,1,123.499994346619,12|0,0:0|0:0,0:0:0:0:
200,320,4078,102,0,B|256:288|256:288|256:224,1,123.499994346619,12|0,0:0|0:0,0:0:0:0:
128,128,4403,1,0,0:0:0:0:
4,232,4565,2,0,B|4:291|4:291|60:323,1,123.499994346619,12|0,0:0|0:0,0:0:0:0:
128,188,4889,1,0,0:0:0:0:
108,44,5051,2,0,B|75:4|75:4|3:4,1,123.499994346619,12|0,0:0|0:0,0:0:0:0:
48,168,5376,1,0,0:0:0:0:
196,116,5538,6,0,B|232:72|232:72|232:-4,1,123.499994346619,12|0,0:0|0:0,0:0:0:0:
84,96,5862,1,0,0:0:0:0:
192,208,6024,2,0,B|244:236|244:236|308:236,1,123.499994346619,12|0,0:0|0:0,0:0:0:0:
476,344,6349,2,0,B|412:344|412:344|392:340|392:340|344:340,1,123.499994346619,12|0,0:0|0:0,0:0:0:0:
156,328,6673,102,0,B|92:308|92:308|64:256,1,123.499994346619,12|0,0:0|0:0,0:0:0:0:
60,112,6997,1,0,0:0:0:0:
264,128,7159,2,0,B|264:200|264:200|248:252,1,123.499994346619,12|0,0:0|0:0,0:0:0:0:
128,160,7484,1,0,0:0:0:0:
256,20,7646,2,0,B|328:20|328:20|380:48,1,123.499994346619,12|0,0:0|0:0,0:0:0:0:
416,204,7970,1,0,0:0:0:0:
288,324,8132,6,0,B|216:324|216:324|164:296,1,123.499994346619,12|0,0:0|0:0,0:0:0:0:
200,136,8457,1,0,0:0:0:0:
372,132,8619,2,0,P|444:112|472:72,1,123.499994346619,12|0,0:0|0:0,0:0:0:0:
220,24,8943,2,0,P|148:44|120:84,1,123.499994346619,12|0,0:0|0:0,0:0:0:0:
224,272,9268,102,0,P|284:288|332:252,1,123.499994346619,12|0,0:0|0:0,0:0:0:0:
376,112,9592,1,0,0:0:0:0:
184,196,9754,2,0,P|144:248|144:304,1,123.499994346619,12|0,0:0|0:0,0:0:0:0:
272,376,10078,1,0,0:0:0:0:
264,168,10241,2,0,P|224:120|148:124,1,123.499994346619,12|0,0:0|0:0,0:0:0:0:
28,172,10565,1,0,0:0:0:0:
264,248,10727,6,0,P|332:216|344:168,1,123.499994346619,12|0,0:0|0:0,0:0:0:0:
288,52,11051,1,0,0:0:0:0:
166,115,11214,1,4,0:0:0:0:
32,56,11376,1,8,0:0:0:0:
16,89,11457,1,8,0:0:0:0:
6,125,11538,1,8,0:0:0:0:
0,161,11619,1,8,0:0:0:0:
0,198,11700,1,8,0:0:0:0:
4,235,11781,1,8,0:0:0:0:
14,271,11862,102,2,P|64:288|124:276,1,113.999996520996,6|2,0:0|0:0,0:0:0:0:
240,152,12186,2,0,B|216:208|216:208|208:268,1,113.999996520996,8|0,0:0|0:0,0:0:0:0:
140,140,12511,2,2,B|164:84|164:84|172:24,1,113.999996520996
300,92,12835,2,0,B|328:144|328:144|328:200,1,113.999996520996,8|0,0:0|0:0,0:0:0:0:
308,312,13159,5,2,0:0:0:0:
208,260,13322,1,2,0:0:0:0:
412,256,13484,2,0,B|436:196|436:196|428:140,1,113.999996520996,8|0,0:0|0:0,0:0:0:0:
360,40,13808,1,2,0:0:0:0:
468,56,13970,1,2,0:0:0:0:
336,160,14132,2,0,B|301:158|301:158|256:128|248:92,1,113.999996520996,8|2,0:0|0:0,0:0:0:0:
212,16,14457,101,4,0:0:0:0:
92,168,14619,1,2,0:0:0:0:
72,36,14781,1,8,0:0:0:0:
176,108,14943,1,0,0:0:0:0:
4,116,15105,2,2,B|0:152|0:152|8:192|8:192|8:232,1,113.999996520996
224,248,15430,1,8,0:0:0:0:
108,312,15592,1,0,0:0:0:0:
176,108,15754,6,2,B|236:108|236:108|252:104|252:104|292:104,1,113.999996520996
416,100,16078,1,8,0:0:0:0:
208,192,16241,1,2,0:0:0:0:
420,272,16403,1,8,0:0:0:0:
332,188,16565,1,2,0:0:0:0:
332,188,16646,1,2,0:0:0:0:
332,188,16727,1,12,0:0:0:0:
180,328,16889,1,2,0:0:0:0:
32,188,17051,102,2,B|48:128|48:128|96:96,1,113.999996520996,6|2,0:0|0:0,0:0:0:0:
268,132,17376,2,0,L|148:180,1,113.999996520996,8|0,0:0|0:0,0:0:0:0:
168,36,17700,1,2,0:0:0:0:
268,132,17862,1,2,0:0:0:0:
372,36,18024,2,0,B|408:80|408:80|408:140,1,113.999996520996,8|0,0:0|0:0,0:0:0:0:
268,132,18349,5,2,0:0:0:0:
268,132,18511,1,2,0:0:0:0:
412,296,18673,2,0,L|292:272,1,113.999996520996,8|0,0:0|0:0,0:0:0:0:
168,248,18997,1,2,0:0:0:0:
216,368,19159,1,2,0:0:0:0:
0,258,19322,2,0,L|56:160,1,113.999996520996,8|0,0:0|0:0,0:0:0:0:
232,48,19646,102,2,B|186:93|186:149,1,113.999996520996,6|2,0:0|0:0,0:0:0:0:
320,200,19970,2,0,B|320:256|372:308,1,113.999996520996,8|0,0:0|0:0,0:0:0:0:
488,208,20295,1,2,0:0:0:0:
488,208,20457,1,2,0:0:0:0:
312,48,20619,1,8,0:0:0:0:
240,260,20781,1,2,0:0:0:0:
176,52,20943,5,8,0:0:0:0:
96,256,21105,1,2,0:0:0:0:
16,56,21268,1,8,0:0:0:0:
96,256,21430,1,2,0:0:0:0:
176,52,21592,1,8,0:0:0:0:
384,188,21754,1,2,0:0:0:0:
396,208,21835,1,2,0:0:0:0:
408,224,21916,2,0,P|412:288|376:328,1,113.999996520996,12|0,0:0|0:0,0:0:0:0:
132,324,22241,101,4,0:0:0:0:
132,60,23051,2,2,L|192:60,1,56.9999982604981
56,60,23214,1,8,0:0:0:0:
57,60,23538,21,6,0:0:0:0:
176,136,23700,1,2,0:0:0:0:
0,172,23862,1,10,0:0:0:0:
110,230,24024,1,2,0:0:0:0:
110,230,24186,2,0,P|72:280|32:292,1,95
43,290,24511,1,8,0:0:0:0:
236,328,24673,6,0,P|292:288|304:216,1,142.500005435944
216,240,25159,1,8,0:0:0:0:
316,52,25322,2,0,B|400:52|400:52|452:80,1,142.500005435944
452,80,25808,1,8,0:0:0:0:
256,192,25970,1,0,0:0:0:0:
316,52,26132,1,2,0:0:0:0:
376,192,26294,1,2,0:0:0:0:
468,52,26456,1,10,0:0:0:0:
472,248,26619,102,0,B|438:293|438:293|346:293,1,142.500005435944,2|0,0:0|0:0,0:0:0:0:
160,196,27105,1,8,0:0:0:0:
192,352,27268,1,0,0:0:0:0:
244,196,27430,1,0,0:0:0:0:
120,304,27592,1,0,0:0:0:0:
240,284,27754,1,8,0:0:0:0:
80,232,27916,1,0,0:0:0:0:
244,196,28078,6,0,P|284:152|272:68,1,142.500005435944,0|8,0:0|0:0,0:0:0:0:
200,32,28565,1,0,0:0:0:0:
348,192,28727,1,2,0:0:0:0:
168,252,28889,1,2,0:0:0:0:
348,304,29051,1,10,0:0:0:0:
168,368,29214,2,0,B|96:352|96:352|88:280,1,142.500005435944,2|0,0:0|0:0,0:0:0:0:
159,161,29700,102,0,P|175:209|167:253,1,95,8|0,0:0|0:0,0:0:0:0:
68,132,30024,2,0,B|96:84|96:84|144:72,1,95
316,128,30349,2,0,L|208:128,1,95,8|0,0:0|0:0,0:0:0:0:
340,48,30673,2,0,B|392:48|392:48|440:72,1,95
500,156,30997,1,8,0:0:0:0:
388,172,31159,1,0,0:0:0:0:
432,68,31322,5,2,0:0:0:0:
276,128,31484,1,2,0:0:0:0:
388,172,31646,1,10,0:0:0:0:
220,32,31808,2,0,B|148:32|148:32|104:88,1,142.500005435944
104,87,32295,1,8,0:0:0:0:
372,156,32457,2,0,P|392:80|320:0,1,190
324,1,32943,1,8,0:0:0:0:
292,228,33105,102,0,L|340:228,1,47.5
216,276,34078,101,2,0:0:0:0:
327,143,34241,1,8,0:0:0:0:
176,136,34403,1,0,0:0:0:0:
367,296,34565,2,0,P|320:304|272:324,2,95,2|2|8,0:0|0:0|0:0,0:0:0:0:
172,344,35051,2,0,P|84:304|56:212,1,190,2|2,0:0|0:0,0:0:0:0:
144,56,35538,2,0,L|132:164,1,95,8|0,0:0|0:0,0:0:0:0:
232,248,35862,2,0,L|220:148,1,95,0|2,0:0|0:0,0:0:0:0:
148,252,36186,1,8,0:0:0:0:
224,72,36349,1,2,0:0:0:0:
392,160,36511,102,0,B|372:200|372:200|328:228,1,95,2|0,0:0|0:0,0:0:0:0:
224,72,36835,2,0,B|280:72|280:72|296:76|296:76|328:76,1,95,8|0,0:0|0:0,0:0:0:0:
148,252,37159,1,2,0:0:0:0:
132,140,37322,1,2,0:0:0:0:
224,72,37484,1,8,0:0:0:0:
236,272,37646,6,0,P|184:332|68:296,1,190,2|2,0:0|0:0,0:0:0:0:
32,84,38132,2,0,L|20:188,1,95,8|8,0:0|0:0,0:0:0:0:
32,192,38376,1,8,0:0:0:0:
44,204,38457,2,0,P|92:216|140:200,1,95,0|2,0:0|0:0,0:0:0:0:
216,124,38781,1,8,0:0:0:0:
256,324,38943,1,0,0:0:0:0:
440,196,39105,102,0,L|468:296,1,95,4|0,0:0|0:0,0:0:0:0:
296,216,39430,1,8,0:0:0:0:
315,32,39592,2,0,B|360:32|360:32|404:56,1,95
380,152,39916,1,2,0:0:0:0:
184,60,40078,1,8,0:0:0:0:
116,248,40241,6,0,B|132:168|132:168|88:112|88:112|100:64,1,190,0|2,0:0|0:0,0:0:0:0:
212,210,40727,2,0,L|192:310,1,95,8|2,0:0|0:0,0:0:0:0:
194,304,40970,1,2,0:0:0:0:
194,304,41051,1,2,0:0:0:0:
80,344,41214,1,2,0:0:0:0:
212,210,41376,1,8,0:0:0:0:
328,360,41538,102,0,B|372:332|372:332|400:264|360:196,1,190,0|2,0:0|0:0,0:0:0:0:
284,120,42024,1,8,0:0:0:0:
203,305,42186,2,0,P|211:225|219:201,1,95
152,40,42511,2,0,P|144:120|136:144,1,95,2|8,0:0|0:0,0:0:0:0:
12,316,42835,2,0,P|12:216|36:120,1,190,0|2,0:0|0:0,0:0:0:0:
152,40,43322,1,8,0:0:0:0:
256,180,43484,1,0,0:0:0:0:
420,64,43646,2,8,P|464:48|492:44,2,63.3333333333333
315,163,43970,2,2,P|279:178|251:179,2,63.3333333333333
196,64,44295,86,0,P|132:84|92:128,1,113.999996520996,4|0,0:0|0:0,0:0:0:0:
184,192,44781,2,0,P|200:240|184:304,1,113.999996520996
104,356,45268,1,0,0:0:0:0:
108,272,45430,1,2,0:0:0:0:
186,300,45592,1,0,0:0:0:0:
456,192,45916,5,0,0:0:0:0:
376,136,46078,1,0,0:0:0:0:
360,220,46241,2,0,P|336:228|304:232,1,56.9999982604981
224,168,46565,2,0,P|248:160|280:156,1,56.9999982604981
224,288,46889,1,2,0:0:0:0:
68,136,47214,101,0,0:0:0:0:
80,212,47376,2,0,P|128:184|144:128,1,113.999996520996,2|0,0:0|0:0,0:0:0:0:
100,64,47862,2,0,B|112:52|140:36|208:40|228:120|228:120|248:40|316:36|352:48|368:64,1,341.999989562989
320,308,49159,102,0,P|352:252|344:192,1,123.499994346619
132,164,49484,1,12,0:0:0:0:
132,300,49646,1,2,0:0:0:0:
249,232,49808,1,2,0:0:0:0:
16,100,49970,1,12,0:0:0:0:
132,164,50132,1,2,0:0:0:0:
128,29,50295,1,2,0:0:0:0:
284,306,50457,1,12,0:0:0:0:
172,231,50619,1,2,0:0:0:0:
294,171,50781,102,0,P|320:112|304:56,1,123.499994346619,2|12,0:0|0:0,0:0:0:0:
128,29,51105,1,0,0:0:0:0:
294,171,51268,1,2,0:0:0:0:
64,216,51430,2,0,L|192:244,1,123.499994346619,12|2,0:0|0:0,0:0:0:0:
404,328,51754,2,0,L|272:348,1,123.499994346619,12|2,0:0|0:0,0:0:0:0:
432,220,52078,5,12,0:0:0:0:
468,76,52241,1,2,0:0:0:0:
328,28,52403,1,2,0:0:0:0:
260,232,52565,2,0,P|244:120|332:180,1,246.999988693238,12|0,0:0|0:0,0:0:0:0:
172,264,53051,2,0,P|140:200|144:140,1,123.499994346619,12|0,0:0|0:0,0:0:0:0:
316,44,53376,102,0,P|376:84|400:132,1,123.499994346619,2|12,0:0|0:0,0:0:0:0:
384,240,53700,1,0,0:0:0:0:
228,40,53862,1,0,0:0:0:0:
248,312,54024,2,0,B|252:252|252:252|276:188,1,123.499994346619,12|0,0:0|0:0,0:0:0:0:
228,40,54349,2,0,B|224:100|224:100|200:164,1,123.499994346619,12|0,0:0|0:0,0:0:0:0:
72,228,54673,5,12,0:0:0:0:
160,28,54835,1,2,0:0:0:0:
317,182,54997,1,2,0:0:0:0:
72,228,55159,2,0,P|48:156|64:108,1,123.499994346619,12|2,0:0|0:0,0:0:0:0:
160,28,55484,1,2,0:0:0:0:
358,313,55646,1,12,0:0:0:0:
446,113,55808,1,2,0:0:0:0:
201,159,55970,101,2,0:0:0:0:
348,196,56132,2,0,L|328:72,1,123.499994346619,12|0,0:0|0:0,0:0:0:0:
200,340,56457,1,2,0:0:0:0:
64,52,56619,2,0,L|36:180,1,123.499994346619,12|2,0:0|0:0,0:0:0:0:
200,340,56943,2,0,L|180:208,1,123.499994346619,12|2,0:0|0:0,0:0:0:0:
296,44,57268,6,0,B|320:104|320:104|312:176,2,123.499994346619,12|2|2,0:0|0:0|0:0,0:0:0:0:
181,217,57754,2,0,B|233:249|233:249|297:249,1,123.499994346619,12|2,0:0|0:0,0:0:0:0:
424,180,58078,1,2,0:0:0:0:
180,128,58241,2,0,B|116:152|116:152|92:216,1,123.499994346619,12|2,0:0|0:0,0:0:0:0:
96,203,58565,1,2,0:0:0:0:
412,76,58727,2,0,B|360:44|360:44|288:44,1,123.499994346619,12|0,0:0|0:0,0:0:0:0:
148,44,59051,1,2,0:0:0:0:
264,164,59214,1,4,0:0:0:0:
96,203,59376,101,8,0:0:0:0:
89,263,59457,1,8,0:0:0:0:
122,314,59538,1,8,0:0:0:0:
180,332,59619,1,8,0:0:0:0:
228,308,59700,2,8,P|252:300|288:304,1,61.7499971733095
432,312,59862,6,0,P|456:248|436:196,1,123.499994346619,4|0,0:0|0:0,0:0:0:0:
196,132,60186,2,0,P|172:196|192:248,1,123.499994346619,8|0,0:0|0:0,0:0:0:0:
324,184,60511,1,2,0:0:0:0:
105,58,60673,1,2,0:0:0:0:
106,309,60835,1,8,0:0:0:0:
105,58,60997,1,0,0:0:0:0:
324,184,61159,102,2,P|348:120|328:68,1,123.499994346619
196,132,61484,1,8,0:0:0:0:
416,192,61646,2,2,B|472:244|424:312|424:312|312:312,1,246.999988693238
132,152,62132,2,0,B|196:132|196:132|248:152,1,123.499994346619,8|0,0:0|0:0,0:0:0:0:
64,312,62457,6,2,B|20:264|20:264|20:204,1,123.499994346619
72,68,62781,1,8,0:0:0:0:
346,55,62943,2,0,B|292:34|292:34|222:39|222:39|262:95|246:163,1,246.999988693238,0|2,0:0|0:0,0:0:0:0:
428,332,63430,2,0,B|456:276|456:276|456:212,1,123.499994346619,8|0,0:0|0:0,0:0:0:0:
247,151,63754,2,2,B|212:204|212:204|213:270,1,123.499994346619
348,232,64078,1,8,0:0:0:0:
160,344,64241,2,2,B|112:308|112:308|112:224|112:224|136:168|136:168|136:120,1,246.999988693238
247,27,64727,2,0,L|247:159,1,123.499994346619,8|0,0:0|0:0,0:0:0:0:
48,64,65051,102,0,B|88:16|88:16|156:16,1,123.499994346619,4|0,0:0|0:0,0:0:0:0:
316,220,65376,2,0,B|256:228|256:228|192:220,1,123.499994346619,8|2,0:0|0:0,0:0:0:0:
362,16,65700,2,2,B|424:16|424:16|464:64,1,123.499994346619
428,208,66024,1,8,0:0:0:0:
320,108,66186,1,2,0:0:0:0:
197,279,66349,5,8,0:0:0:0:
161,72,66511,1,2,0:0:0:0:
0,208,66673,1,8,0:0:0:0:
239,165,66835,1,2,0:0:0:0:
40,93,66997,1,8,0:0:0:0:
77,299,67159,1,2,0:0:0:0:
77,299,67241,1,2,0:0:0:0:
77,299,67322,1,12,0:0:0:0:
161,72,67484,1,2,0:0:0:0:
197,279,67646,102,8,L|245:327,1,61.7499971733095
340,244,67808,1,2,0:0:0:0:
378,225,67889,1,2,0:0:0:0:
410,196,67970,1,2,0:0:0:0:
430,158,68051,1,2,0:0:0:0:
444,116,68132,2,8,P|446:76|430:40,1,61.7499971733095
272,136,68295,1,2,0:0:0:0:
212,150,68376,1,2,0:0:0:0:
150,150,68457,2,2,P|120:148|88:136,1,61.7499971733095
16,32,68619,5,8,0:0:0:0:
256,224,68943,6,0,B|296:240|326:223|326:223|352:208|396:228,1,142.500005435944,4|0,0:0|0:0,0:0:0:0:
456,284,69430,2,0,P|476:212|440:152,1,142.500005435944,2|0,0:0|0:0,0:0:0:0:
364,120,69916,2,0,P|408:76|484:76,1,142.500005435944,2|0,0:0|0:0,0:0:0:0:
484,76,70565,1,2,0:0:0:0:
248,80,70889,6,0,L|280:144,1,71.2500027179719,8|0,0:0|0:0,0:0:0:0:
160,196,71214,2,0,L|164:116,1,71.2500027179719
84,64,71538,1,2,0:0:0:0:
84,64,71700,2,0,L|52:204,1,142.500005435944,2|2,0:0|0:0,0:0:0:0:
320,308,72511,102,0,B|340:240|340:240|336:224|336:224|356:164,1,142.500005435944,2|2,0:0|0:0,0:0:0:0:
353,171,72916,1,2,0:0:0:0:
353,171,72997,1,0,0:0:0:0:
456,212,73159,1,2,0:0:0:0:
432,128,73322,1,0,0:0:0:0:
356,92,73484,2,0,P|384:56|416:44,1,71.2500027179719,8|2,0:0|0:0,0:0:0:0:
488,72,73808,1,0,0:0:0:0:
256,192,74132,6,0,B|224:180|160:220|112:200,1,142.500005435944,2|0,0:0|0:0,0:0:0:0:
0,296,74619,2,0,B|16:324|128:292|140:320,1,142.500005435944,2|2,0:0|0:0,0:0:0:0:
120,120,75105,2,0,P|56:144|40:224,1,142.500005435944,2|0,0:0|0:0,0:0:0:0:
376,192,75754,1,2,0:0:0:0:
256,52,76078,101,8,0:0:0:0:
296,128,76241,2,0,P|336:88|340:72,1,71.2500027179719,2|0,0:0|0:0,0:0:0:0:
200,120,76565,1,0,0:0:0:0:
256,232,76727,1,2,0:0:0:0:
256,232,76889,2,0,P|204:248|112:228,1,142.500005435944,2|2,0:0|0:0,0:0:0:0:
119,231,77700,1,0,0:0:0:0:
336,156,77862,5,2,0:0:0:0:
336,156,78349,1,0,0:0:0:0:
112,64,78511,102,0,L|160:64,1,47.5,0|6,0:0|0:0,0:0:0:0:
352,204,79484,53,2,0:0:0:0:
216,324,79646,1,8,0:0:0:0:
164,160,79808,1,0,0:0:0:0:
352,204,79970,2,2,P|392:264|392:292,1,95
320,360,80295,1,8,0:0:0:0:
96,264,80457,6,2,P|184:224|268:284,1,190
176,324,80943,1,8,0:0:0:0:
76,164,81105,2,2,B|80:116|120:104|120:104|168:140|228:132,1,190
324,76,81592,1,8,0:0:0:0:
220,32,81754,1,0,0:0:0:0:
344,228,81916,102,0,P|396:248|444:232,1,95,2|0,0:0|0:0,0:0:0:0:
308,160,82241,2,0,P|272:200|276:260,1,95,8|0,0:0|0:0,0:0:0:0:
348,320,82565,1,2,0:0:0:0:
348,320,82727,1,2,0:0:0:0:
116,244,82889,1,8,0:0:0:0:
88,324,83051,6,0,P|152:324|196:212,1,190
80,72,83538,2,0,P|68:120|68:168,1,95,8|8,0:0|0:0,0:0:0:0:
72,176,83781,1,8,0:0:0:0:
76,188,83862,1,0,0:0:0:0:
176,116,84024,1,2,0:0:0:0:
199,221,84186,1,8,0:0:0:0:
360,48,84349,1,2,0:0:0:0:
484,224,84511,70,0,B|452:264|452:264|408:264|408:264|388:252|388:252|312:252,1,190,6|8,0:0|0:0,0:0:0:0:
120,332,84997,2,0,B|184:332|184:332|208:324|208:324|308:324,1,190,0|2,0:0|0:0,0:0:0:0:
308,324,85484,1,8,0:0:0:0:
120,224,85646,2,2,B|216:196|216:196|188:152|188:108,1,190,0|0,0:0|0:0,0:0:0:0:
52,36,86132,2,0,P|32:96|36:136,1,95,8|0,0:0|0:0,0:0:0:0:
229,42,86457,2,2,P|184:32|140:48,1,95
288,137,86781,1,8,0:0:0:0:
152,336,86943,6,0,B|116:240|116:240|128:148,1,190,0|2,0:0|0:0,0:0:0:0:
264,240,87430,2,0,B|268:288|268:288|252:336,1,95,8|0,0:0|0:0,0:0:0:0:
204,172,87754,2,2,B|244:140|244:140|296:136,1,95
448,216,88078,102,0,L|344:216,1,95,8|0,0:0|0:0,0:0:0:0:
340,216,88322,1,0,0:0:0:0:
328,216,88403,1,0,0:0:0:0:
400,128,88565,1,2,0:0:0:0:
340,32,88727,1,8,0:0:0:0:
228,44,88889,1,0,0:0:0:0:
208,156,89051,2,8,P|200:192|188:216,2,63.3333333333333
92,76,89376,2,2,P|100:40|112:16,2,63.3333333333333
144,272,89700,86,0,P|204:288|256:236,1,142.500005435944,2|0,0:0|0:0,0:0:0:0:
120,196,90186,2,0,P|80:224|76:312,1,142.500005435944,2|0,0:0|0:0,0:0:0:0:
148,356,90673,1,0,0:0:0:0:
152,272,90835,1,2,0:0:0:0:
75,311,90997,1,0,0:0:0:0:
104,128,91322,5,0,0:0:0:0:
256,52,91646,1,2,0:0:0:0:
408,128,91970,1,0,0:0:0:0:
292,148,92132,1,0,0:0:0:0:
256,52,92295,102,0,P|320:36|396:52,1,142.500005435944,2|0,0:0|0:0,0:0:0:0:
292,148,92781,2,0,P|228:164|152:148,1,142.500005435944
96,84,93268,1,2,0:0:0:0:
40,148,93430,1,0,0:0:0:0:
436,208,94565,85,0,0:0:0:0:
324,336,94727,1,0,0:0:0:0:
152,320,94889,5,12,0:0:0:0:
152,141,95050,1,2,0:0:0:0:
306,230,95213,1,2,0:0:0:0:
97,68,95376,1,12,0:0:0:0:
153,276,95537,1,2,0:0:0:0:
304,124,95700,1,2,0:0:0:0:
45,291,95862,101,12,0:0:0:0:
170,73,96023,1,2,0:0:0:0:
295,289,96186,1,2,0:0:0:0:
1,140,96349,1,12,0:0:0:0:
203,342,96511,1,2,0:0:0:0:
277,68,96674,1,2,0:0:0:0:
156,352,96835,5,12,0:0:0:0:
288,96,96997,1,2,0:0:0:0:
316,324,97159,1,12,0:0:0:0:
212,36,97322,1,0,0:0:0:0:
372,232,97484,101,12,0:0:0:0:
371,71,97646,1,2,0:0:0:0:
233,151,97808,1,2,0:0:0:0:
448,144,97970,1,12,0:0:0:0:
265,249,98132,1,2,0:0:0:0:
265,38,98295,1,2,0:0:0:0:
168,276,98457,5,12,0:0:0:0:
65,152,98619,1,2,0:0:0:0:
222,124,98781,1,2,0:0:0:0:
53,257,98943,1,12,0:0:0:0:
260,220,99105,1,2,0:0:0:0:
125,58,99268,1,2,0:0:0:0:
424,128,99430,101,12,0:0:0:0:
148,168,99592,1,2,0:0:0:0:
487,231,99754,1,12,0:0:0:0:
211,271,99916,1,2,0:0:0:0:
432,351,100078,6,0,B|476:319|476:319|488:231,1,142.500005435944,12|2,0:0|0:0,0:0:0:0:
380,100,100403,1,2,0:0:0:0:
260,232,100565,1,12,0:0:0:0:
496,140,100727,1,2,0:0:0:0:
268,140,100889,1,2,0:0:0:0:
376,272,101051,1,12,0:0:0:0:
380,100,101214,1,2,0:0:0:0:
189,58,101376,102,0,B|148:116|148:116|148:196,1,142.500005435944,2|12,0:0|0:0,0:0:0:0:
252,284,101700,1,2,0:0:0:0:
232,136,101862,1,2,0:0:0:0:
376,84,102024,2,0,P|440:108|464:176,1,142.500005435944,12|2,0:0|0:0,0:0:0:0:
136,300,102349,2,0,P|72:276|48:208,1,142.500005435944,12|2,0:0|0:0,0:0:0:0:
196,48,102673,6,0,P|244:84|256:168,2,142.500005435944,12|2|2,0:0|0:0|0:0,0:0:0:0:
152,192,103159,2,0,P|304:260|364:184,1,285.000010871888,12|2,0:0|0:0,0:0:0:0:
408,56,103646,1,12,0:0:0:0:
432,316,103808,2,2,B|480:260|480:260|492:188,1,142.500005435944
320,32,104132,2,0,B|276:92|276:92|276:164,1,142.500005435944,12|2,0:0|0:0,0:0:0:0:
364,236,104457,1,2,0:0:0:0:
400,92,104619,1,8,0:0:0:0:
491,192,104781,101,8,0:0:0:0:
467,245,104862,1,8,0:0:0:0:
415,260,104943,1,8,0:0:0:0:
364,236,105024,1,8,0:0:0:0:
311,217,105105,1,8,0:0:0:0:
257,232,105186,1,8,0:0:0:0:
208,252,105268,6,0,P|148:212|124:144,1,142.500005435944,4|2,0:0|0:0,0:0:0:0:
164,20,105592,1,8,0:0:0:0:
232,144,105754,1,0,0:0:0:0:
52,80,105916,1,2,0:0:0:0:
288,72,106078,1,2,0:0:0:0:
124,148,106241,1,8,0:0:0:0:
164,20,106403,1,2,0:0:0:0:
234,246,106565,2,0,P|274:194|231:143,2,142.500005435944,2|2|8,0:0|0:0|0:0,0:0:0:0:
287,79,107051,102,0,P|353:198|280:311,1,285.000010871888,2|2,0:0|0:0,0:0:0:0:
97,149,107538,2,0,P|169:125|245:153,1,142.500005435944,8|0,0:0|0:0,0:0:0:0:
88,332,107862,2,2,B|44:276|44:276|44:204,1,142.500005435944
64,64,108186,1,8,0:0:0:0:
231,143,108349,2,0,B|271:215|271:215|323:215|323:215|359:207|359:207|479:207,1,285.000010871888,2|2,0:0|0:0,0:0:0:0:
304,304,108835,2,0,B|240:304|240:304|220:299|220:299|152:300,1,142.500005435944,8|2,0:0|0:0,0:0:0:0:
44,204,109159,6,0,B|112:204|112:204|136:212|136:212|188:212,2,142.500005435944,2|2|8,0:0|0:0|0:0,0:0:0:0:
148,96,109646,2,2,B|232:96|256:28|256:28|280:96|380:96,1,285.000010871888
408,280,110132,2,0,L|284:200,1,142.500005435944,8|2,0:0|0:0,0:0:0:0:
428,172,110457,101,2,0:0:0:0:
428,172,110619,1,2,0:0:0:0:
248,296,110781,2,0,B|204:236|204:236|204:160,1,142.500005435944,8|0,0:0|0:0,0:0:0:0:
375,95,111105,1,2,0:0:0:0:
375,95,111268,1,2,0:0:0:0:
144,84,111430,2,0,B|108:148|108:148|108:224,1,142.500005435944,8|0,0:0|0:0,0:0:0:0:
320,352,111754,6,0,B|356:288|356:288|356:212,1,142.500005435944,8|0,0:0|0:0,0:0:0:0:
256,76,112078,1,8,0:0:0:0:
440,264,112241,1,0,0:0:0:0:
218,148,112403,1,8,0:0:0:0:
477,191,112566,1,0,0:0:0:0:
227,222,112727,1,8,0:0:0:0:
468,117,112890,1,0,0:0:0:0:
252,296,113051,5,4,0:0:0:0:
256,192,131214,12,8,133484,0:0:0:0:
216,132,133808,53,6,0:0:0:0:
216,132,133970,1,0,0:0:0:0:
284,200,134132,2,0,P|312:160|312:112,1,95,2|0,0:0|0:0,0:0:0:0:
248,48,134457,1,2,0:0:0:0:
152,192,134619,1,0,0:0:0:0:
8,80,134781,1,2,0:0:0:0:
80,20,134943,6,0,P|104:80|52:160,1,142.500005435944,2|0,0:0|0:0,0:0:0:0:
81,255,135430,2,0,L|157:187,1,95,2|0,0:0|0:0,0:0:0:0:
200,80,135754,1,2,0:0:0:0:
256,200,135916,1,0,0:0:0:0:
312,80,136078,2,0,P|364:60|400:84,1,95,2|0,0:0|0:0,0:0:0:0:
395,77,136322,1,0,0:0:0:0:
395,77,136403,1,2,0:0:0:0:
376,172,136565,101,0,0:0:0:0:
468,188,136727,1,2,0:0:0:0:
288,252,136889,1,0,0:0:0:0:
360,316,137051,1,2,0:0:0:0:
276,360,137214,1,0,0:0:0:0:
360,316,137376,1,2,0:0:0:0:
220,300,137538,6,0,P|208:232|304:172,1,190,2|0,0:0|0:0,0:0:0:0:
448,140,138024,2,0,L|356:92,1,95,2|0,0:0|0:0,0:0:0:0:
264,88,138349,1,2,0:0:0:0:
204,24,138511,1,0,0:0:0:0:
298,171,138673,1,2,0:0:0:0:
64,208,138835,102,0,L|156:244,1,95,8|2,0:0|0:0,0:0:0:0:
100,308,139159,1,0,0:0:0:0:
232,228,139322,1,0,0:0:0:0:
167,350,139484,2,0,L|252:308,1,95,2|0,0:0|0:0,0:0:0:0:
100,308,139808,1,0,0:0:0:0:
248,216,139970,6,0,L|340:260,1,95,2|0,0:0|0:0,0:0:0:0:
252,308,140295,1,0,0:0:0:0:
429,290,140457,2,0,L|364:360,1,95,2|0,0:0|0:0,0:0:0:0:
333,256,140781,1,0,0:0:0:0:
460,172,140943,2,0,L|352:184,1,95,2|0,0:0|0:0,0:0:0:0:
256,92,141268,2,0,L|352:108,1,95,2|0,0:0|0:0,0:0:0:0:
120,192,141592,102,0,L|48:116,1,95,2|0,0:0|0:0,0:0:0:0:
84,32,141916,1,0,0:0:0:0:
200,144,142078,2,0,B|200:204|200:204|192:232|192:232|192:296,1,142.500005435944,2|0,0:0|0:0,0:0:0:0:
320,348,142565,2,0,L|300:252,1,95,2|0,0:0|0:0,0:0:0:0:
300,254,142889,1,0,0:0:0:0:
440,216,143051,6,0,L|420:312,1,95,2|0,0:0|0:0,0:0:0:0:
420,309,143376,1,0,0:0:0:0:
360,176,143538,1,2,0:0:0:0:
252,256,143700,1,0,0:0:0:0:
464,204,143862,1,8,0:0:0:0:
320,336,144024,1,0,0:0:0:0:
268,144,144186,70,2,P|204:128|168:148,1,95,6|2,0:0|0:0,0:0:0:0:
200,336,144511,2,0,L|256:248,1,95,8|0,0:0|0:0,0:0:0:0:
80,228,144835,1,2,0:0:0:0:
20,300,144997,1,2,0:0:0:0:
100,348,145159,1,8,0:0:0:0:
160,188,145322,6,2,P|100:140|28:156,1,142.500005435944
176,264,145808,2,0,P|220:236|236:192,1,95,8|0,0:0|0:0,0:0:0:0:
252,104,146132,1,2,0:0:0:0:
283,305,146295,1,2,0:0:0:0:
442,177,146457,1,8,0:0:0:0:
442,177,146781,102,0,B|396:196|396:196|344:196,1,95,2|2,0:0|0:0,0:0:0:0:
252,104,147105,1,8,0:0:0:0:
350,196,147268,1,0,0:0:0:0:
344,352,147430,2,0,B|400:352|400:352|440:336,1,95,0|2,0:0|0:0,0:0:0:0:
512,280,147754,1,8,0:0:0:0:
284,288,147916,6,2,B|232:288|232:288|208:320|208:320|184:288|184:288|124:288,1,190,0|0,0:0|0:0,0:0:0:0:
8,212,148403,2,0,L|112:212,1,95,8|0,0:0|0:0,0:0:0:0:
260,88,148727,2,0,P|196:60|132:88,1,142.5,2|0,0:0|0:0,0:0:0:0:
196,152,149051,2,0,P|252:176|348:104,1,190,8|6,0:0|0:0,0:0:0:0:
320,16,149538,101,2,0:0:0:0:
460,136,149700,1,8,0:0:0:0:
332,256,149862,2,0,P|372:292|424:304,1,95,0|2,0:0|0:0,0:0:0:0:
492,252,150186,1,2,0:0:0:0:
336,176,150349,2,0,P|264:216|284:320,1,190,8|2,0:0|0:0,0:0:0:0:
275,311,150835,5,0,0:0:0:0:
92,324,150997,1,8,0:0:0:0:
176,164,151159,1,0,0:0:0:0:
80,44,151322,2,2,L|56:140,1,95
191,257,151646,2,0,L|175:161,1,95,8|0,0:0|0:0,0:0:0:0:
304,44,151970,102,2,L|296:152,1,95
192,44,152295,1,8,0:0:0:0:
416,192,152457,2,0,P|432:144|424:96,1,95,2|0,0:0|0:0,0:0:0:0:
296,138,152781,1,2,0:0:0:0:
248,320,152943,2,0,P|336:360|416:320,1,190,8|2,0:0|0:0,0:0:0:0:
240,236,153430,6,0,P|192:256|168:296,1,95,0|8,0:0|0:0,0:0:0:0:
308,272,153754,1,0,0:0:0:0:
164,160,153916,1,8,0:0:0:0:
136,164,154024,2,0,P|104:184|88:216,1,63.3333333333333,8|2,0:0|0:0,0:0:0:0:
308,272,154241,1,2,0:0:0:0:
336,268,154349,2,2,P|368:248|384:216,1,63.3333333333333
348,80,154565,6,0,P|226:80|348:81,1,380,4|2,0:0|0:0,0:0:0:0:
287,80,156511,1,0,0:0:0:0:
172,72,162024,85,0,0:0:0:0:
172,283,162186,1,0,0:0:0:0:
354,177,162349,69,12,0:0:0:0:
82,127,162511,1,0,0:0:0:0:
264,21,162673,1,0,0:0:0:0:
264,232,162835,1,12,0:0:0:0:
473,48,162997,1,0,0:0:0:0:
317,98,163159,1,0,0:0:0:0:
440,208,163322,1,12,0:0:0:0:
72,176,163484,1,0,0:0:0:0:
243,114,163646,101,0,0:0:0:0:
36,78,163808,1,12,0:0:0:0:
108,276,163970,1,0,0:0:0:0:
152,40,164132,1,0,0:0:0:0:
296,264,164295,1,12,0:0:0:0:
236,19,164457,1,0,0:0:0:0:
211,284,164620,1,12,0:0:0:0:
311,51,164781,1,0,0:0:0:0:
152,220,164943,6,8,P|121:241|89:245,1,71.2500027179719
92,164,165105,1,2,0:0:0:0:
157,136,165186,1,2,0:0:0:0:
227,137,165267,1,2,0:0:0:0:
292,165,165348,1,2,0:0:0:0:
352,204,165430,2,8,P|380:220|416:232,1,71.2500027179719
351,88,165592,101,2,0:0:0:0:
281,92,165673,1,2,0:0:0:0:
227,137,165754,1,2,0:0:0:0:
209,204,165835,1,2,0:0:0:0:
224,272,165916,2,8,P|236:312|264:340,1,71.2500027179719
352,204,166078,2,2,P|340:164|312:136,1,71.2500027179719
332,296,166241,5,8,0:0:0:0:
401,289,166322,1,10,0:0:0:0:
446,236,166403,1,2,0:0:0:0:
441,167,166484,1,2,0:0:0:0:
388,120,166565,1,2,0:0:0:0:
352,64,166646,1,2,0:0:0:0:
396,15,166727,1,2,0:0:0:0:
455,46,166808,1,2,0:0:0:0:
388,120,166889,102,2,P|348:128|296:116,1,80.750001540184
224,48,167051,2,2,P|184:40|132:52,1,80.750001540184
52,128,167214,1,8,0:0:0:0:
52,128,167538,6,0,P|52:216|88:260,1,142.500005435944,6|2,0:0|0:0,0:0:0:0:
342,85,167862,1,8,0:0:0:0:
171,91,168024,1,0,0:0:0:0:
266,351,168186,1,2,0:0:0:0:
400,245,168349,1,2,0:0:0:0:
124,255,168511,1,8,0:0:0:0:
342,85,168673,1,0,0:0:0:0:
400,245,168835,102,0,B|380:288|332:320|332:320|244:304|292:216|196:216,1,285.000010871888,2|8,0:0|0:0,0:0:0:0:
368,156,169322,2,0,P|408:48|276:48,1,285.000010871888,2|2,0:0|0:0,0:0:0:0:
196,216,169808,1,8,0:0:0:0:
116,44,169970,1,2,0:0:0:0:
44,216,170132,6,2,B|20:144|20:144|16:72,1,142.500005435944
148,132,170457,1,8,0:0:0:0:
238,279,170619,2,2,P|126:295|222:231,1,285.000010871888
324,280,171105,2,0,P|392:304|460:276,1,142.500005435944,8|2,0:0|0:0,0:0:0:0:
428,84,171430,2,2,B|388:128|388:128|388:216,1,142.500005435944
388,211,171754,1,8,0:0:0:0:
304,60,171916,2,2,B|248:32|248:32|192:32|192:32|160:40|160:40|124:40|124:40|96:28|96:28|20:28,1,285.000010871888
192,132,172403,2,0,B|264:132|264:132|288:140|288:140|336:140,1,142.500005435944,12|2,0:0|0:0,0:0:0:0:
148,216,172727,102,2,B|88:180|88:180|88:104,1,142.500005435944,6|2,0:0|0:0,0:0:0:0:
236,216,173051,2,0,B|236:288|236:288|172:332,1,142.500005435944,8|2,0:0|0:0,0:0:0:0:
192,132,173376,1,0,0:0:0:0:
192,132,173538,1,2,0:0:0:0:
344,24,173700,2,0,B|280:44|280:44|200:40,1,142.500005435944,8|0,0:0|0:0,0:0:0:0:
356,124,174024,5,2,0:0:0:0:
356,124,174186,1,2,0:0:0:0:
236,216,174349,2,0,B|316:212|316:212|380:228,1,142.500005435944,8|2,0:0|0:0,0:0:0:0:
376,227,174673,1,2,0:0:0:0:
256,324,174835,1,2,0:0:0:0:
396,356,174997,1,8,0:0:0:0:
376,227,175159,1,0,0:0:0:0:
172,268,175322,101,12,0:0:0:0:
340,116,175484,1,2,0:0:0:0:
142,190,175646,1,12,0:0:0:0:
369,193,175808,1,2,0:0:0:0:
174,113,175970,1,12,0:0:0:0:
337,270,176132,1,2,0:0:0:0:
256,64,176295,1,12,0:0:0:0:
172,268,176457,2,2,B|136:276|136:276|96:276,1,71.2500027179719
142,190,176619,5,12,0:0:0:0:
189,174,176700,1,2,0:0:0:0:
237,184,176781,1,2,0:0:0:0:
280,207,176862,1,2,0:0:0:0:
328,197,176943,2,2,P|360:192|392:168,1,71.2500027179719
352,48,177105,2,2,P|336:80|332:120,1,71.2500027179719
460,104,177268,101,2,0:0:0:0:
460,104,177349,1,2,0:0:0:0:
460,104,177430,1,2,0:0:0:0:
460,104,177511,1,2,0:0:0:0:
460,104,177592,1,8,0:0:0:0:
496,164,177673,1,8,0:0:0:0:
502,234,177754,1,8,0:0:0:0:
475,300,177835,1,8,0:0:0:0:
358,190,177916,54,0,P|358:118|392:60,1,123.499994346619,12|2,0:0|0:0,0:0:0:0:
490,38,178240,1,2,0:0:0:0:
398,262,178402,2,0,P|330:266|286:226,1,123.499994346619,12|2,0:0|0:0,0:0:0:0:
246,130,178727,1,2,0:0:0:0:
446,190,178889,2,0,P|482:246|474:302,1,123.499994346619,12|2,0:0|0:0,0:0:0:0:
378,354,179214,1,2,0:0:0:0:
246,130,179376,6,0,P|302:82|358:90,1,123.499994346619,12|2,0:0|0:0,0:0:0:0:
450,130,179701,1,2,0:0:0:0:
206,266,179863,2,0,P|134:266|98:234,1,123.499994346619,12|2,0:0|0:0,0:0:0:0:
240,53,180186,2,0,P|312:53|348:85,1,123.499994346619,12|2,0:0|0:0,0:0:0:0:
129,153,180511,102,0,P|113:93|149:45,1,123.499994346619,12|2,0:0|0:0,0:0:0:0:
289,1,180835,1,2,0:0:0:0:
205,193,180997,2,0,P|153:233|97:233,1,123.499994346619,12|2,0:0|0:0,0:0:0:0:
25,105,181321,1,2,0:0:0:0:
233,113,181484,2,0,P|281:153|277:229,1,123.499994346619,12|2,0:0|0:0,0:0:0:0:
229,349,181808,1,2,0:0:0:0:
153,113,181970,6,0,P|185:45|233:33,1,123.499994346619,12|2,0:0|0:0,0:0:0:0:
349,89,182294,1,2,0:0:0:0:
136,192,182457,2,0,P|76:132|80:80,1,123.499994346619,12|2,0:0|0:0,0:0:0:0:
437,97,182781,2,0,P|425:156|376:191,1,123.499994346619,12|2,0:0|0:0,0:0:0:0:
188,48,183105,102,0,P|256:24|324:48,1,142.500005435944,12|2,0:0|0:0,0:0:0:0:
376,192,183429,1,2,0:0:0:0:
136,323,183592,2,0,P|112:255|136:191,1,142.500005435944,12|2,0:0|0:0,0:0:0:0:
280,135,183916,1,2,0:0:0:0:
444,284,184078,2,0,P|376:308|312:284,1,142.500005435944,12|2,0:0|0:0,0:0:0:0:
212,184,184402,1,2,0:0:0:0:
412,52,184565,6,0,P|436:120|412:184,1,142.500005435944,12|2,0:0|0:0,0:0:0:0:
312,284,184889,1,2,0:0:0:0:
13,184,185051,2,0,B|28:116|28:116|88:76,1,142.500005435944,12|2,0:0|0:0,0:0:0:0:
254,215,185376,2,0,B|240:284|240:284|180:324,1,142.500005435944,12|2,0:0|0:0,0:0:0:0:
204,108,185700,102,0,B|256:68|256:68|340:68,1,142.500005435944,12|2,0:0|0:0,0:0:0:0:
476,72,186024,1,2,0:0:0:0:
308,284,186186,2,0,B|256:324|256:324|172:324,1,142.500005435944,12|2,0:0|0:0,0:0:0:0:
36,320,186510,1,2,0:0:0:0:
143,52,186673,2,0,B|183:104|183:104|183:188,1,142.500005435944,12|2,0:0|0:0,0:0:0:0:
179,324,186997,1,2,0:0:0:0:
256,48,187159,5,12,0:0:0:0:
333,324,187322,1,2,0:0:0:0:
141,180,187484,1,2,0:0:0:0:
370,180,187646,1,0,0:0:0:0:
179,324,187808,101,8,0:0:0:0:
136,319,187889,1,8,0:0:0:0:
97,303,187970,1,8,0:0:0:0:
63,277,188051,1,8,0:0:0:0:
37,243,188132,1,8,0:0:0:0:
20,204,188213,1,8,0:0:0:0:
15,161,188295,6,2,P|32:80|84:40,1,142.500005435944,6|2,0:0|0:0,0:0:0:0:
188,108,188619,1,8,0:0:0:0:
300,48,188781,1,2,0:0:0:0:
252,192,188943,2,2,B|172:192|172:192|112:160,1,142.500005435944
116,162,189268,1,8,0:0:0:0:
152,308,189430,1,0,0:0:0:0:
252,192,189592,102,2,B|328:192|328:192|388:224,1,142.500005435944
492,304,189916,2,0,L|492:161,1,142.500005435944,8|0,0:0|0:0,0:0:0:0:
360,104,190241,1,2,0:0:0:0:
386,223,190403,1,2,0:0:0:0:
488,68,190565,2,0,B|428:24|428:24|352:24,1,142.500005435944,8|0,0:0|0:0,0:0:0:0:
240,120,190889,5,2,0:0:0:0:
244,8,191051,1,2,0:0:0:0:
320,120,191214,2,0,B|300:188|300:188|220:196,1,142.500005435944,8|0,0:0|0:0,0:0:0:0:
112,140,191538,1,2,0:0:0:0:
120,268,191700,1,2,0:0:0:0:
228,196,191862,2,0,P|248:124|224:64,1,142.500005435944,8|0,0:0|0:0,0:0:0:0:
100,32,192186,101,2,0:0:0:0:
100,32,192349,1,2,0:0:0:0:
228,196,192511,1,8,0:0:0:0:
176,10,192673,1,0,0:0:0:0:
151,217,192835,1,12,0:0:0:0:
245,49,192997,1,2,0:0:0:0:
245,49,193078,1,2,0:0:0:0:
245,49,193159,1,12,0:0:0:0:
82,178,193322,1,0,0:0:0:0:
267,126,193484,6,2,P|320:76|308:4,1,142.500005435944,6|2,0:0|0:0,0:0:0:0:
192,112,193808,2,0,P|208:180|280:204,1,142.500005435944,8|0,0:0|0:0,0:0:0:0:
380,140,194132,1,2,0:0:0:0:
380,140,194295,1,2,0:0:0:0:
480,256,194457,2,0,B|424:292|424:292|340:292,1,142.500005435944,8|0,0:0|0:0,0:0:0:0:
220,292,194781,101,2,0:0:0:0:
220,292,194943,1,2,0:0:0:0:
320,155,195105,2,0,B|348:219|348:219|348:295,1,142.500005435944,8|0,0:0|0:0,0:0:0:0:
192,192,195430,1,2,0:0:0:0:
48,292,195592,1,2,0:0:0:0:
192,192,195754,2,0,B|136:144|136:144|68:144,1,142.500005435944,8|0,0:0|0:0,0:0:0:0:
236,84,196078,6,2,L|384:84,1,142.500005435944,6|2,0:0|0:0,0:0:0:0:
512,192,196403,2,0,L|364:192,1,142.500005435944,8|0,0:0|0:0,0:0:0:0:
216,288,196727,2,2,B|280:288|280:288|352:328,1,142.500005435944
348,326,197051,1,8,0:0:0:0:
212,192,197214,1,2,0:0:0:0:
348,57,197376,101,8,0:0:0:0:
124,18,197538,1,2,0:0:0:0:
260,103,197700,1,8,0:0:0:0:
124,188,197862,1,2,0:0:0:0:
328,316,198024,1,8,0:0:0:0:
169,338,198186,1,2,0:0:0:0:
218,185,198349,1,12,0:0:0:0:
424,328,198511,1,2,0:0:0:0:
504,112,198673,6,0,B|448:60|448:60|408:92|380:88,1,142.500005435944,6|2,0:0|0:0,0:0:0:0:
368,88,198916,1,2,0:0:0:0:
344,88,198997,1,2,0:0:0:0:
172,248,199159,2,0,P|248:272|304:248,1,142.500005435944,8|0,0:0|0:0,0:0:0:0:
212,88,199484,2,0,P|136:64|80:88,1,142.500005435944,8|0,0:0|0:0,0:0:0:0:
32,252,199808,101,4,0:0:0:0:
