osu file format v14

[General]
AudioFilename: audio.mp3
AudioLeadIn: 0
PreviewTime: 59989
Countdown: 0
SampleSet: None
StackLeniency: 0.5
Mode: 0
LetterboxInBreaks: 0
WidescreenStoryboard: 1

[Editor]
DistanceSpacing: 1.5
BeatDivisor: 4
GridSize: 4
TimelineZoom: 1.2

[Metadata]
Title:Countdown
TitleUnicode:Countdown
Artist:Imy
ArtistUnicode:Imy
Creator:jonathanlfj
Version:Insane
Source:osu!
Tags:featured artist captin1 Deca meiikyuu Aitsuki Nakuru 藍月なくる Mirin みゅー Myu Last Words Japanese Rock
BeatmapID:2610580
BeatmapSetID:1246683

[Difficulty]
HPDrainRate:5.5
CircleSize:4
OverallDifficulty:7.8
ApproachRate:9
SliderMultiplier:1.7
SliderTickRate:1

[Events]
//Background and Video events
0,0,"last words.jpg",0,0
//Break Periods
2,91037,98584
2,180645,183106
//Storyboard Layer 0 (Background)
//Storyboard Layer 1 (Fail)
//Storyboard Layer 2 (Pass)
//Storyboard Layer 3 (Foreground)
//Storyboard Layer 4 (Overlay)
//Storyboard Sound Samples

[TimingPoints]
1098,260.869565217391,4,1,1,60,1,0
3184,-142.857142857143,4,2,1,40,0,0
4489,-100,4,2,1,45,0,0
4750,-100,4,1,1,50,0,0
5141,-100,4,1,1,60,0,0
9315,-125,4,1,1,60,0,0
11532,-111.111111111111,4,1,1,60,0,0
11924,-100,4,1,1,65,0,0
12315,-83.3333333333333,4,1,1,70,0,0
13097,-76.9230769230769,4,1,1,70,0,0
13489,-90.9090909090909,4,1,1,70,0,1
13554,-90.9090909090909,4,1,1,70,0,0
21967,-142.857142857143,4,2,1,30,0,0
22489,-142.857142857143,4,2,1,40,0,0
23011,-142.857142857143,4,2,1,50,0,0
23402,-100,4,1,1,60,0,0
23924,-100,4,1,1,60,0,0
39706,-90.9090909090909,4,1,1,60,0,0
40619,-90.9090909090909,4,1,1,65,0,0
44793,-111.111111111111,4,1,1,65,0,0
46880,-100,4,1,1,65,0,0
48967,-125,4,1,1,60,0,0
57315,-200,4,1,1,60,0,0
60054,-166.666666666667,4,2,1,60,0,0
61489,-90.9090909090909,4,1,1,70,0,1
74011,-90.9090909090909,4,1,1,70,0,1
86532,-90.9090909090909,4,1,1,70,0,1
90837,-100,4,1,1,60,0,0
99184,-100,4,1,1,60,0,0
103358,-100,4,1,1,65,0,0
105445,-200,4,1,1,60,0,0
106750,-100,4,1,1,60,0,0
107011,-200,4,1,1,60,0,0
107467,-200,4,1,1,5,0,0
107532,-125,4,1,1,60,0,0
111641,-125,4,1,1,5,0,0
111706,-125,4,1,1,60,0,0
124228,-117.647058823529,4,1,1,50,0,0
125271,-111.111111111111,4,1,1,50,0,0
126315,-105.263157894737,4,1,1,50,0,0
127358,-100,4,1,1,50,0,0
128402,-100,4,1,1,55,0,0
129445,-100,4,1,1,60,0,0
130489,-90.9090909090909,4,1,1,65,0,0
131532,-76.9230769230769,4,1,1,65,0,0
132054,-76.9230769230769,4,1,1,65,0,0
132445,-90.9090909090909,4,1,1,70,0,1
144967,-90.9090909090909,4,1,1,70,0,1
157488,-90.9090909090909,4,1,1,70,0,1
161793,-200,4,1,1,60,0,0
162837,-125,4,1,1,60,0,0
163880,-100,4,1,1,65,0,0
170141,-111.111111111111,4,1,1,55,0,0
170532,-100,4,1,1,60,0,0
170924,-90.9090909090909,4,1,1,65,0,0
171315,-83.3333333333333,4,1,1,70,0,0
172489,-100,4,1,1,70,0,0
176402,-125,4,1,1,60,0,0
180445,-125,4,2,1,50,0,0
183706,-90.9090909090909,4,1,1,70,0,1
183771,-90.9090909090909,4,1,1,70,0,0
184619,-90.9090909090909,4,1,1,70,0,1
192967,-90.9090909090909,4,1,1,70,0,1
205489,-90.9090909090909,4,1,1,70,0,1
209663,-90.9090909090909,4,1,1,70,0,0
218076,-100,4,2,1,30,0,0
222315,-100,4,2,1,5,0,0

[Colours]
Combo1 : 78,167,201
Combo2 : 211,158,58
Combo3 : 203,80,80

[HitObjects]
136,222,445,5,0,0:0:0:0:
136,222,511,1,0,0:0:0:0:
136,222,576,2,0,L|122:313,1,85,8|8,0:0|0:0,0:0:0:0:
228,164,837,2,0,L|238:252,1,85,8|8,0:0|0:0,0:0:0:0:
316,107,1098,6,0,B|332:67|332:67|319:17,2,85,12|0|0,0:0|0:0|0:0,0:0:0:0:
228,164,1489,1,12,0:0:0:0:
140,74,1619,2,0,L|230:61,1,85,0|0,0:0|0:0,0:0:0:0:
319,214,1880,6,0,P|242:198|134:193,1,170,12|0,0:0|0:0,0:0:0:0:
340,309,2271,2,0,P|352:250|391:135,1,170,12|0,0:0|0:0,0:0:0:0:
263,31,2663,2,2,P|281:78|296:128,1,85,14|0,0:0|0:0,0:0:0:0:
181,271,2924,2,2,P|159:219|145:169,1,85,10|0,0:0|0:0,0:0:0:0:
339,307,3184,5,2,0:0:0:0:
339,307,4619,2,0,L|286:295,1,42.5,0|0,1:0|1:0,0:0:0:0:
200,312,4750,5,8,0:0:0:0:
192,320,4880,1,8,0:0:0:0:
184,328,5011,1,8,0:0:0:0:
176,336,5141,6,2,P|170:251|148:147,1,170,4|2,0:2|0:0,0:0:0:0:
76,70,5532,2,0,P|56:115|28:159,1,85,10|0,0:0|2:0,0:0:0:0:
199,57,5793,1,2,0:2:0:0:
216,54,6054,1,8,0:0:0:0:
233,55,6315,1,2,0:2:0:0:
250,59,6576,1,8,0:0:0:0:
266,65,6837,1,2,0:2:0:0:
281,74,7097,1,8,0:0:0:0:
222,166,7228,6,2,P|160:171|111:73,1,170,0|2,0:0|0:0,0:0:0:0:
291,84,7619,2,0,P|316:121|327:172,1,85,10|0,0:0|2:0,0:0:0:0:
221,269,7880,1,2,0:2:0:0:
202,267,8141,1,8,0:0:0:0:
184,263,8402,1,2,0:2:0:0:
168,255,8663,1,8,0:0:0:0:
222,166,8793,5,0,0:0:0:0:
222,166,8858,1,0,0:0:0:0:
222,166,8924,2,2,L|320:149,1,85,10|10,0:0|0:0,0:0:0:0:
128,113,9184,1,8,0:0:0:0:
286,251,9315,6,0,B|331:256|331:256|373:238|373:238|424:243,1,136,4|0,0:0|0:0,0:0:0:0:
297,354,9706,2,0,P|239:335|153:337,2,136,0|8|0,0:0|0:0|0:0,0:0:0:0:
396,333,10358,1,0,0:0:0:0:
293,255,10489,1,2,0:2:0:0:
407,197,10619,2,0,L|395:334,1,136,8|0,0:0|0:0,0:0:0:0:
493,275,11011,1,10,0:2:0:0:
307,241,11141,2,0,P|296:172|292:89,1,136,0|0,0:0|0:0,0:0:0:0:
389,24,11532,6,0,L|385:66,3,38.2499988327027,10|0|0|0,0:2|0:0|0:0|0:0,0:0:0:0:
436,138,11793,1,0,3:0:0:0:
436,138,11858,1,0,3:0:0:0:
436,138,11924,2,0,L|398:175,3,42.5,8|0|0|0,0:0|0:0|0:0|0:0,0:0:0:0:
397,257,12185,1,0,3:0:0:0:
397,257,12250,1,0,3:0:0:0:
397,257,12316,2,0,L|341:260,3,50.9999984436036,8|0|0|0,0:0|0:0|0:0|0:0,0:0:0:0:
275,202,12576,6,0,B|264:181|264:181|267:142,3,50.9999984436036,8|8|0|0,0:3|0:3|0:0|0:0,0:0:0:0:
185,250,12837,2,0,B|174:271|174:271|177:310,3,50.9999984436036,8|8|0|0,0:3|0:3|0:0|0:0,0:0:0:0:
265,293,13097,5,10,0:0:0:0:
109,208,13228,1,2,0:0:0:0:
109,208,13489,6,2,B|136:166|136:166|118:29,1,187.000005706787,4|2,0:2|0:0,0:0:0:0:
6,176,13880,2,0,P|24:235|33:273,1,93.5000028533936,10|0,0:0|2:0,0:0:0:0:
158,352,14141,2,0,P|172:299|188:251,1,93.5000028533936,2|0,0:2|2:0,0:0:0:0:
309,126,14402,2,0,P|327:185|336:223,1,93.5000028533936,8|2,0:0|2:0,0:0:0:0:
135,126,14663,2,0,P|117:67|108:29,2,93.5000028533936,2|0|8,0:0|0:0|0:0,0:0:0:0:
223,179,15054,1,2,0:0:0:0:
309,126,15184,2,0,P|364:118|416:116,1,93.5000028533936,2|2,0:2|0:2,0:0:0:0:
435,119,15380,1,0,2:0:0:0:
435,119,15445,1,8,0:0:0:0:
367,217,15576,6,2,P|360:130|331:23,1,187.000005706787,2|2,0:2|0:0,0:0:0:0:
172,111,15967,2,0,P|229:120|287:134,1,93.5000028533936,10|0,0:0|2:0,0:0:0:0:
464,218,16228,2,0,P|413:229|370:245,1,93.5000028533936,2|0,0:2|2:0,0:0:0:0:
129,279,16489,2,0,P|186:288|244:302,1,93.5000028533936,8|2,0:0|2:0,0:0:0:0:
385,335,16750,2,2,P|376:278|373:228,1,93.5000028533936
291,83,17011,2,0,P|278:144|264:187,1,93.5000028533936,8|0,0:0|0:0,0:0:0:0:
179,101,17271,1,2,0:0:0:0:
399,99,17402,2,0,P|388:50|365:-7,1,93.5000028533936,2|8,0:0|0:0,0:0:0:0:
257,188,17663,6,2,B|350:147|346:225|438:193,1,187.000005706787,2|2,0:2|0:0,0:0:0:0:
304,273,18054,2,0,L|291:370,1,93.5000028533936,10|0,0:0|2:0,0:0:0:0:
155,196,18315,2,0,L|173:294,1,93.5000028533936,2|0,0:2|2:0,0:0:0:0:
371,110,18576,2,0,L|358:207,1,93.5000028533936,8|2,0:0|2:0,0:0:0:0:
202,101,18837,2,0,L|185:9,2,93.5000028533936,2|0|8,0:0|0:0|0:0,0:0:0:0:
155,196,19228,1,2,0:0:0:0:
56,153,19358,2,0,B|32:112|32:112|43:59,1,93.5000028533936,2|2,0:2|0:2,0:0:0:0:
52,35,19554,1,0,2:0:0:0:
52,35,19619,1,8,0:0:0:0:
202,101,19750,6,2,L|175:303,1,187.000005706787,4|2,0:0|0:0,0:0:0:0:
0,247,20141,2,0,L|101:225,1,93.5000028533936,10|0,0:0|0:0,0:0:0:0:
276,251,20402,2,0,L|360:297,1,93.5000028533936,10|0,0:0|0:0,0:0:0:0:
385,311,20597,1,0,0:0:0:0:
385,311,20663,2,2,P|405:268|404:218,1,93.5000028533936,8|2,0:0|0:0,0:0:0:0:
241,168,20924,1,8,0:0:0:0:
258,343,21054,5,6,0:0:0:0:
301,249,21315,1,6,0:0:0:0:
198,260,21576,1,6,0:0:0:0:
258,343,21837,5,6,0:0:0:0:
258,343,23402,2,0,L|267:290,1,42.5,0|0,0:0|0:0,0:0:0:0:
290,156,23532,5,8,0:0:0:0:
205,216,23663,1,8,0:0:0:0:
350,241,23794,1,8,0:0:0:0:
358,85,23924,6,0,P|301:57|199:116,1,170,4|0,0:2|0:0,0:0:0:0:
120,231,24315,2,0,P|178:207|225:194,1,85,8|0,0:0|0:0,0:0:0:0:
370,271,24576,1,0,0:0:0:0:
370,271,24706,1,2,0:2:0:0:
272,324,24837,2,0,P|287:219|289:146,1,170,8|2,0:0|0:2,0:0:0:0:
289,155,25358,2,0,L|197:135,1,85,8|2,0:0|0:2,0:0:0:0:
359,82,25619,1,0,0:0:0:0:
371,221,25750,2,0,P|423:210|466:203,1,85,0|8,0:0|0:0,0:0:0:0:
303,297,26011,6,0,P|223:287|196:210,1,170,2|0,0:2|0:0,0:0:0:0:
256,119,26402,2,0,P|167:135|87:137,1,170,8|0,0:0|0:0,0:0:0:0:
146,53,26793,1,2,0:2:0:0:
195,210,26924,1,8,0:0:0:0:
351,157,27054,2,0,P|338:59|282:20,1,170,0|0,0:0|0:0,0:0:0:0:
295,237,27445,1,10,0:2:0:0:
402,241,27576,2,0,P|449:229|484:217,1,85,0|0,0:0|0:0,0:0:0:0:
343,331,27837,2,0,P|275:318|253:316,1,85,2|8,0:2|0:0,0:0:0:0:
164,221,28097,6,0,P|245:218|306:149,1,170,4|0,0:0|0:0,0:0:0:0:
81,160,28489,1,8,0:0:0:0:
81,160,28750,2,0,P|75:203|65:255,1,85,2|0,0:2|0:0,0:0:0:0:
204,124,29011,2,0,P|199:67|196:32,1,85,8|2,0:0|0:2,0:0:0:0:
282,218,29271,1,2,0:2:0:0:
383,212,29402,1,0,0:0:0:0:
326,129,29532,2,0,P|313:187|297:312,1,170,8|2,0:0|0:2,0:0:0:0:
460,365,29924,2,0,P|425:326|385:297,1,85,0|8,0:0|0:0,0:0:0:0:
213,349,30184,6,0,P|147:334|128:241,1,170,4|0,0:0|0:0,0:0:0:0:
235,133,30576,2,0,B|328:126|299:194|393:185,1,170,8|2,0:0|0:2,0:0:0:0:
378,93,30967,1,0,0:0:0:0:
246,224,31097,2,0,P|191:238|149:242,1,85,8|0,0:0|0:0,0:0:0:0:
70,195,31358,1,12,0:0:0:0:
224,322,31489,5,4,0:0:0:0:
246,224,31750,1,4,0:0:0:0:
168,161,32011,1,4,0:0:0:0:
150,259,32271,6,0,B|208:249|208:249|253:278|253:278|314:269,1,170,4|0,0:2|0:0,0:0:0:0:
435,175,32663,2,0,L|417:268,1,85,8|0,0:0|0:0,0:0:0:0:
351,123,32924,1,2,0:2:0:0:
351,123,33054,1,0,0:0:0:0:
276,188,33184,2,0,P|266:116|248:21,1,170,8|2,0:0|0:2,0:0:0:0:
177,168,33576,2,0,P|165:221|158:258,1,85,0|8,0:0|0:0,0:0:0:0:
87,121,33837,2,0,P|144:127|275:103,1,170,2|2,0:2|0:2,0:0:0:0:
428,189,34228,1,8,0:0:0:0:
335,239,34358,6,0,L|348:54,1,170,4|0,0:0|0:0,0:0:0:0:
213,33,34750,2,0,P|171:85|207:187,1,170,8|2,0:0|0:2,0:0:0:0:
335,239,35141,1,0,0:0:0:0:
428,189,35271,2,0,L|423:89,1,85,8|0,0:0|0:0,0:0:0:0:
237,195,35532,2,0,L|219:287,1,85,2|0,0:2|0:0,0:0:0:0:
329,138,35793,1,8,0:0:0:0:
201,91,35924,2,0,B|158:78|158:78|37:115,1,170,2|2,0:2|0:2,0:0:0:0:
61,287,36315,1,8,0:0:0:0:
7,205,36445,6,0,P|95:208|193:224,1,170,4|0,0:0|0:0,0:0:0:0:
335,301,36837,1,8,0:0:0:0:
335,301,37097,2,0,P|287:318|246:335,1,85,2|0,0:2|0:0,0:0:0:0:
392,210,37358,2,0,P|437:230|483:255,1,85,8|0,0:0|0:0,0:0:0:0:
285,207,37619,2,0,P|260:150|319:56,2,170,2|8|2,0:2|0:0|0:2,0:0:0:0:
40,291,38402,1,8,0:0:0:0:
116,352,38532,6,0,P|141:295|82:201,1,170,4|0,0:0|0:0,0:0:0:0:
45,100,38924,2,0,P|112:113|152:117,1,85,8|0,0:0|0:0,0:0:0:0:
252,91,39184,2,0,P|234:123|215:182,1,85,8|0,0:0|0:0,0:0:0:0:
216,196,39380,1,0,0:0:0:0:
216,196,39445,2,0,L|228:285,1,85,8|0,0:0|0:0,0:0:0:0:
327,323,39706,5,2,0:2:0:0:
414,223,39837,1,8,0:0:0:0:
414,223,39902,1,0,0:0:0:0:
414,223,39967,1,8,0:0:0:0:
329,133,40097,2,2,L|318:232,1,93.5000028533936,10|8,0:0|0:0,0:0:0:0:
494,342,40358,2,2,L|506:239,1,93.5000028533936,10|8,0:0|0:0,0:0:0:0:
475,13,40619,6,2,P|429:72|518:161,1,187.000005706787,4|2,0:2|0:0,0:0:0:0:
329,133,41011,2,0,P|277:123|230:119,1,93.5000028533936,10|0,0:0|2:0,0:0:0:0:
395,212,41271,1,2,0:2:0:0:
398,191,41532,1,8,0:0:0:0:
401,170,41793,1,2,0:2:0:0:
405,149,42054,1,8,0:0:0:0:
408,128,42315,1,2,0:2:0:0:
412,107,42576,1,8,0:0:0:0:
308,144,42706,6,2,B|259:136|232:94|232:94|199:130|147:137,1,187.000005706787,0|2,0:0|0:0,0:0:0:0:
64,4,43097,2,0,P|111:14|158:49,1,93.5000028533936,10|0,0:0|2:0,0:0:0:0:
225,208,43358,1,2,0:2:0:0:
222,229,43619,1,8,0:0:0:0:
219,250,43880,1,2,0:2:0:0:
216,271,44141,1,8,0:0:0:0:
131,216,44271,5,0,0:0:0:0:
131,216,44337,1,0,0:0:0:0:
131,216,44402,2,2,B|112:174|112:174|131:125,1,93.5000028533936,10|10,0:0|0:0,0:0:0:0:
214,70,44663,1,8,0:0:0:0:
346,172,44793,6,0,P|273:208|214:168,1,152.999995330811,4|0,0:0|0:0,0:0:0:0:
380,88,45184,2,0,P|385:163|401:248,2,152.999995330811,0|8|0,0:0|0:0|0:0,0:0:0:0:
464,8,45836,1,0,0:0:0:0:
490,120,45967,1,2,0:2:0:0:
380,88,46097,2,0,P|312:84|216:98,1,152.999995330811,8|0,0:0|2:0,0:0:0:0:
145,197,46489,2,0,P|194:251|263:216,1,152.999995330811,10|0,0:2|0:0,0:0:0:0:
413,283,46880,6,0,P|373:214|369:98,1,170,4|0,0:0|0:0,0:0:0:0:
311,321,47271,1,0,0:0:0:0:
311,321,47532,1,8,0:0:0:0:
197,247,47663,1,0,0:0:0:0:
209,363,47793,2,0,L|221:266,1,85,8|8,0:0|0:0,0:0:0:0:
110,196,48054,6,0,B|92:233|92:233|102:281,1,85,2|0,0:2|0:0,0:0:0:0:
100,275,48250,1,8,0:0:0:0:
100,275,48315,1,8,0:0:0:0:
197,247,48445,1,8,0:0:0:0:
198,147,48576,2,0,L|185:59,1,85,8|8,0:0|0:0,0:0:0:0:
110,196,48837,1,8,0:0:0:0:
286,196,48967,6,0,B|334:191|369:160|369:160|388:172|411:176,1,136,4|0,0:2|0:0,0:0:0:0:
423,78,49358,1,2,0:2:0:0:
375,263,49619,1,8,0:0:0:0:
286,196,50141,1,0,0:0:0:0:
213,279,50663,1,8,0:0:0:0:
133,203,51054,6,0,P|131:134|120:57,1,136,4|0,0:0|0:0,0:0:0:0:
37,143,51445,1,2,0:2:0:0:
213,279,51706,2,0,P|222:219|249:74,1,204,8|0,0:0|0:0,0:0:0:0:
137,41,52228,1,0,0:0:0:0:
165,148,52358,2,0,P|235:159|313:181,1,136,8|0,0:0|0:0,0:0:0:0:
320,185,52684,1,0,0:0:0:0:
320,185,52750,1,8,0:0:0:0:
107,240,53011,1,8,0:0:0:0:
48,146,53141,6,0,P|37:97|70:14,1,136,4|0,0:0|0:0,0:0:0:0:
142,95,53532,1,2,0:2:0:0:
192,309,53793,1,8,0:0:0:0:
107,240,54315,1,0,0:0:0:0:
186,164,54576,2,0,L|229:157,3,34,0|0|0|0,0:0|0:0|0:0|0:0,0:0:0:0:
257,154,54837,2,0,B|290:212|290:212|277:282,1,136,8|8,0:0|0:0,0:0:0:0:
385,203,55228,6,0,P|411:150|364:68,1,136,4|0,0:0|0:0,0:0:0:0:
287,60,55619,1,2,0:2:0:0:
379,300,55880,1,8,0:0:0:0:
379,300,56271,1,8,0:0:0:0:
467,256,56402,1,0,0:0:0:0:
385,203,56532,2,0,B|314:197|327:248|253:242,1,136,8|0,0:0|0:0,0:0:0:0:
177,194,56924,1,8,0:0:0:0:
204,44,57054,2,0,P|265:95|262:149,1,136,0|0,0:0|0:0,0:0:0:0:
256,192,57380,12,0,59402,0:0:0:0:
435,240,61489,6,0,B|375:235|375:235|328:195|328:195|264:190,1,187.000005706787,4|0,0:2|0:0,0:0:0:0:
129,310,61880,2,0,P|219:343|289:291,1,187.000005706787,8|2,0:0|0:2,0:0:0:0:
148,205,62271,1,0,0:0:0:0:
47,241,62402,2,0,P|28:296|28:346,1,93.5000028533936,8|0,0:0|0:0,0:0:0:0:
69,129,62663,6,0,P|56:76|26:25,1,93.5000028533936,2|0,0:2|0:0,0:0:0:0:
148,205,62924,1,8,0:0:0:0:
256,188,63054,2,0,P|296:134|235:38,1,187.000005706787,0|2,0:0|0:2,0:0:0:0:
148,205,63445,1,8,0:0:0:0:
214,290,63576,6,0,P|311:266|417:265,1,187.000005706787,4|2,0:0|0:2,0:0:0:0:
434,86,63967,2,0,P|405:130|387:173,1,93.5000028533936,8|0,0:0|0:0,0:0:0:0:
393,365,64228,1,2,0:2:0:0:
393,365,64358,1,0,0:0:0:0:
487,321,64489,2,0,P|496:277|494:214,1,93.5000028533936,8|0,0:0|0:0,0:0:0:0:
294,155,64750,6,0,L|313:258,1,93.5000028533936,2|0,0:2|0:0,0:0:0:0:
136,291,65011,1,8,0:0:0:0:
235,334,65141,2,0,L|199:143,1,187.000005706787,2|2,0:2|0:2,0:0:0:0:
63,65,65532,1,8,0:0:0:0:
43,165,65663,6,0,B|135:179|133:100|221:120,1,187.000005706787,4|0,0:0|0:0,0:0:0:0:
342,257,66054,2,0,P|259:285|200:220,1,187.000005706787,8|2,0:0|0:2,0:0:0:0:
306,64,66445,1,0,0:0:0:0:
377,144,66576,2,0,P|322:165|282:167,1,93.5000028533936,8|0,0:0|0:0,0:0:0:0:
91,250,66837,6,0,P|181:260|265:326,1,187.000005706787,2|8,0:2|0:0,0:0:0:0:
403,254,67228,2,0,P|381:300|368:353,1,93.5000028533936,2|0,0:2|0:0,0:0:0:0:
491,292,67489,1,0,0:0:0:0:
420,168,67619,1,8,0:0:0:0:
308,252,67750,6,0,L|509:295,1,187.000005706787,4|0,0:0|0:0,0:0:0:0:
324,157,68141,1,8,0:0:0:0:
324,157,68402,1,2,0:2:0:0:
409,72,68532,1,0,0:0:0:0:
287,66,68663,2,0,P|298:130|308:260,1,187.000005706787,8|4,0:0|0:0,0:0:0:0:
264,347,69054,5,0,0:0:0:0:
413,360,69184,2,0,P|402:314|400:268,1,93.5000028533936,8|8,0:0|0:0,0:0:0:0:
402,253,69380,1,0,0:0:0:0:
406,239,69445,1,8,0:0:0:0:
504,295,69576,1,8,0:3:0:0:
413,360,69706,1,8,0:3:0:0:
315,305,69837,6,0,P|240:289|126:287,1,187.000005706787,4|0,0:2|0:0,0:0:0:0:
5,206,70228,2,0,P|76:184|179:132,1,187.000005706787,8|2,0:0|0:2,0:0:0:0:
251,42,70619,1,0,0:0:0:0:
128,21,70750,2,0,P|145:81|157:128,1,93.5000028533936,8|0,0:0|0:0,0:0:0:0:
263,237,71011,6,0,P|280:182|300:127,1,93.5000028533936,2|0,0:2|0:0,0:0:0:0:
431,15,71271,2,0,P|479:73|415:172,1,187.000005706787,8|2,0:0|0:2,0:0:0:0:
291,148,71663,1,0,0:0:0:0:
398,91,71793,1,8,0:0:0:0:
341,217,71924,6,0,P|279:191|136:171,1,187.000005706787,4|0,0:0|0:0,0:0:0:0:
45,217,72315,2,0,P|60:161|69:107,1,93.5000028533936,8|0,0:0|0:0,0:0:0:0:
61,94,72511,1,0,0:0:0:0:
61,94,72576,2,0,L|166:71,1,93.5000028533936,8|0,0:0|0:0,0:0:0:0:
189,178,72837,2,0,L|294:201,1,93.5000028533936,8|0,0:0|0:0,0:0:0:0:
370,125,73097,5,2,0:2:0:0:
446,213,73228,2,0,L|460:269,2,46.7500014266968,8|8|8,0:0|0:0|0:0,0:0:0:0:
489,103,73489,2,0,L|501:50,2,46.7500014266968,0|0|0,3:0|3:0|3:0,0:0:0:0:
354,35,73750,2,0,L|364:94,3,46.7500014266968,8|8|8|8,0:0|0:0|0:0|0:0,0:0:0:0:
370,125,74011,6,0,P|316:157|226:73,1,187.000005706787,4|0,0:2|0:0,0:0:0:0:
105,222,74402,1,8,0:0:0:0:
105,222,74663,2,0,P|122:277|127:327,1,93.5000028533936,2|0,0:2|0:0,0:0:0:0:
29,149,74924,2,0,P|87:177|216:208,1,187.000005706787,8|2,0:0|0:2,0:0:0:0:
331,194,75315,5,0,0:0:0:0:
260,100,75445,1,8,0:0:0:0:
216,226,75576,2,0,P|237:283|247:324,1,93.5000028533936,2|0,0:2|0:0,0:0:0:0:
418,262,75837,2,0,P|434:203|449:163,1,93.5000028533936,2|8,0:2|0:0,0:0:0:0:
474,332,76097,6,0,P|387:348|326:253,1,187.000005706787,4|0,0:0|0:0,0:0:0:0:
178,216,76489,2,0,P|240:195|280:201,1,93.5000028533936,8|0,0:0|0:0,0:0:0:0:
433,117,76750,2,0,P|402:168|366:194,1,93.5000028533936,2|0,0:2|0:0,0:0:0:0:
222,112,77011,1,8,0:0:0:0:
343,104,77141,1,0,0:2:0:0:
212,205,77271,6,0,P|190:96|167:16,1,187.000005706787,2|8,0:2|0:0,0:0:0:0:
7,117,77663,1,8,0:0:0:0:
75,11,77793,2,0,P|87:61|99:111,1,93.5000028533936,2|0,0:2|0:0,0:0:0:0:
80,280,78054,1,8,0:0:0:0:
18,209,78184,6,0,B|112:158|105:231|195:178,1,187.000005706787,4|0,0:0|0:0,0:0:0:0:
283,62,78576,2,0,P|242:116|269:226,1,187.000005706787,8|2,0:0|0:2,0:0:0:0:
364,253,78967,1,0,0:0:0:0:
433,137,79097,2,0,P|370:145|328:156,1,93.5000028533936,8|0,0:0|0:0,0:0:0:0:
211,303,79358,6,0,P|157:322|64:232,1,187.000005706787,2|8,0:2|0:0,0:0:0:0:
150,135,79750,2,0,L|159:236,1,93.5000028533936,0|0,0:0|0:0,0:0:0:0:
312,325,80011,1,2,0:2:0:0:
312,325,80141,1,8,0:0:0:0:
394,268,80271,6,0,L|207:303,1,187.000005706787,4|0,0:0|0:0,0:0:0:0:
37,332,80663,1,8,0:0:0:0:
37,332,80924,1,2,0:2:0:0:
116,257,81054,1,0,0:0:0:0:
19,207,81184,2,0,P|30:259|37:309,1,93.5000028533936,8|0,0:0|0:0,0:0:0:0:
116,148,81445,6,0,P|133:101|156:59,1,93.5000028533936,4|0,0:0|0:0,0:0:0:0:
281,139,81706,1,8,0:0:0:0:
202,205,81837,1,8,0:0:0:0:
116,148,81967,2,0,P|56:138|9:137,2,93.5000028533936,0|0|8,0:0|0:0|0:0,0:0:0:0:
281,139,82358,6,0,P|329:160|471:163,1,187.000005706787,4|0,0:2|0:0,0:0:0:0:
296,245,82750,2,0,P|232:279|155:365,1,187.000005706787,8|2,0:0|0:2,0:0:0:0:
112,247,83141,1,0,0:0:0:0:
16,320,83271,2,0,P|59:304|113:279,1,93.5000028533936,8|0,0:0|0:0,0:0:0:0:
178,162,83532,6,0,P|172:106|161:61,1,93.5000028533936,2|0,0:2|0:0,0:0:0:0:
91,215,83793,2,0,P|166:258|276:197,1,187.000005706787,8|2,0:0|0:2,0:0:0:0:
274,124,84184,1,0,0:0:0:0:
178,162,84315,1,8,0:0:0:0:
350,192,84445,6,0,B|371:102|371:102|315:19,1,187.000005706787,4|0,0:0|0:0,0:0:0:0:
255,226,84837,1,8,0:0:0:0:
255,226,85097,2,0,P|272:283|281:330,1,93.5000028533936,2|0,0:2|0:0,0:0:0:0:
162,187,85358,2,0,P|98:212|57:238,1,93.5000028533936,8|0,0:0|0:0,0:0:0:0:
319,149,85619,6,0,P|371:175|414:203,1,93.5000028533936,2|0,0:2|0:0,0:0:0:0:
424,322,85880,1,8,0:0:0:0:
351,266,86011,1,8,0:0:0:0:
478,247,86141,2,0,B|497:205|497:205|485:146,2,93.5000028533936,2|0|8,0:2|0:0|0:0,0:0:0:0:
351,266,86532,6,0,P|321:209|354:85,1,187.000005706787,4|0,0:2|0:0,0:0:0:0:
169,66,86924,2,0,P|193:116|226:142,1,93.5000028533936,8|0,0:0|0:0,0:0:0:0:
231,253,87184,2,0,P|198:291|154:315,1,93.5000028533936,8|0,0:0|0:0,0:0:0:0:
161,312,87380,1,0,0:0:0:0:
161,312,87445,1,8,0:0:0:0:
138,211,87576,6,0,P|231:232|354:239,1,187.000005706787,4|0,0:2|0:0,0:0:0:0:
446,128,87967,2,0,L|422:220,1,93.5000028533936,8|0,0:0|0:0,0:0:0:0:
346,53,88228,2,0,L|349:147,1,93.5000028533936,8|0,0:0|0:0,0:0:0:0:
348,146,88424,1,0,0:0:0:0:
348,146,88489,1,8,0:0:0:0:
441,103,88619,6,0,P|396:98|240:107,1,187.000005706787,4|0,0:2|0:0,0:0:0:0:
88,21,89011,2,0,P|115:44|163:95,1,93.5000028533936,8|0,0:0|0:0,0:0:0:0:
166,229,89271,1,8,0:0:0:0:
68,157,89402,1,0,0:0:0:0:
68,157,89467,1,0,0:0:0:0:
68,157,89532,2,0,P|118:135|161:105,1,93.5000028533936,8|0,0:0|0:0,0:0:0:0:
343,142,89793,6,0,P|303:173|268:207,1,93.5000028533936,8|0,0:0|0:0,0:0:0:0:
98,290,90054,2,0,B|111:275|119:261|119:261|173:264|208:312,1,140.25000428009,8|0,0:0|0:0,0:0:0:0:
313,354,90315,2,0,P|306:318|302:282,2,62.3333352355958,8|8|8,0:0|0:0|0:3,0:0:0:0:
389,278,90576,2,0,P|395:248|399:211,2,62.3333352355958,8|0|8,3:0|3:0|3:0,0:0:0:0:
317,184,90837,1,4,0:2:0:0:
32,288,99184,5,4,0:2:0:0:
96,336,99445,1,0,0:0:0:0:
160,288,99706,1,0,0:0:0:0:
224,336,99967,1,0,0:0:0:0:
288,288,100228,1,0,0:0:0:0:
352,336,100489,1,0,0:0:0:0:
416,288,100750,1,0,0:0:0:0:
480,336,101011,5,0,0:0:0:0:
416,288,101141,1,8,0:0:0:0:
480,240,101271,5,2,0:2:0:0:
416,160,101532,1,0,0:0:0:0:
352,240,101793,1,0,0:2:0:0:
288,160,102054,1,0,0:0:0:0:
224,240,102315,1,0,0:2:0:0:
160,160,102576,1,0,0:0:0:0:
96,240,102837,5,0,0:2:0:0:
32,160,102967,1,8,0:0:0:0:
96,80,103097,1,8,0:0:0:0:
160,160,103228,1,8,0:0:0:0:
96,240,103358,5,2,0:2:0:0:
96,80,103619,1,0,0:0:0:0:
256,80,103880,1,0,0:0:0:0:
256,240,104141,1,0,0:0:0:0:
416,240,104402,1,0,0:0:0:0:
416,80,104663,1,0,0:0:0:0:
256,80,104924,5,0,0:0:0:0:
215,208,105054,1,8,0:0:0:0:
324,129,105184,1,8,0:0:0:0:
189,129,105315,1,8,0:0:0:0:
298,208,105445,6,0,B|366:224|414:178|429:108|369:58|369:58|423:65|467:35,1,340,4|0,0:2|2:0,0:0:0:0:
467,34,106750,6,0,P|446:24|421:20,2,42.5
496,131,107011,1,8,0:0:0:0:
496,131,107532,6,0,P|449:137|394:214,1,136,4|0,0:2|2:0,0:0:0:0:
437,281,107924,2,0,P|402:248|307:256,1,136,2|0,0:2|2:0,0:0:0:0:
269,324,108315,1,2,0:2:0:0:
171,148,108576,2,0,L|188:286,1,136,8|0,0:0|2:0,0:0:0:0:
103,313,108967,2,0,L|86:178,1,136,0|0,0:2|2:0,0:0:0:0:
104,90,109358,1,0,0:2:0:0:
269,211,109619,5,2,0:2:0:0:
269,211,109750,2,0,B|337:228|337:228|397:196,1,136,0|2,0:0|0:2,0:0:0:0:
439,119,110141,2,0,L|431:37,1,68,8|0,0:0|0:0,0:0:0:0:
349,121,110402,1,2,0:2:0:0:
349,121,110532,1,0,0:0:0:0:
395,196,110663,2,0,P|404:258|409:347,1,136,4|0,0:0|0:0,0:0:0:0:
338,368,111011,2,0,P|333:348|327:313,2,45.3333333333333,0|0|8,0:0|0:0|0:0,0:0:0:0:
338,368,111706,6,0,B|319:352|309:332|309:332|259:332|221:358,1,136,4|0,0:0|0:0,0:0:0:0:
135,364,112097,2,0,B|158:355|180:356|180:356|205:313|202:267,1,136,2|0,0:2|0:0,0:0:0:0:
289,249,112489,2,0,P|283:190|284:166,1,68,2|0,0:2|0:0,0:0:0:0:
194,95,112750,1,8,0:0:0:0:
157,175,112880,2,0,L|309:152,1,136,2|0,0:2|0:0,0:0:0:0:
410,133,113271,1,2,0:2:0:0:
410,133,113532,6,0,P|401:170|397:216,1,68,0|8,0:0|0:0,0:0:0:0:
344,295,113793,2,0,P|306:268|210:263,1,136,2|0,0:2|0:0,0:0:0:0:
191,286,114119,2,0,L|202:335,3,34,0|2|0|0,0:0|0:2|0:0|0:0,0:0:0:0:
12,352,114576,1,2,0:2:0:0:
72,287,114706,1,0,0:0:0:0:
14,219,114837,2,0,P|78:211|150:197,1,136,8|0,0:0|0:0,0:0:0:0:
214,137,115228,1,0,0:0:0:0:
272,252,115358,2,0,P|197:215|135:193,1,136,10|0,0:2|2:0,0:0:0:0:
347,151,115880,6,0,P|396:147|424:74,1,136,4|0,0:0|2:0,0:0:0:0:
361,10,116271,2,0,P|312:14|284:87,1,136,2|0,0:2|2:0,0:0:0:0:
347,151,116663,2,0,P|404:172|489:167,1,136,8|0,0:0|2:0,0:0:0:0:
391,266,117054,2,0,P|334:245|249:250,1,136,0|0,0:0|0:0,0:0:0:0:
189,301,117445,1,8,0:0:0:0:
347,151,117706,1,2,0:2:0:0:
136,96,117967,5,2,0:2:0:0:
195,161,118097,2,0,P|221:117|193:27,1,136,8|2,0:0|2:0,0:0:0:0:
81,37,118489,2,0,L|107:182,1,136,8|0,0:2|0:0,0:0:0:0:
157,243,118880,1,8,0:0:0:0:
260,179,119011,2,0,L|173:155,1,68,2|8,0:2|0:0,0:0:0:0:
64,332,119402,1,0,0:0:0:0:
141,377,119533,2,0,L|287:347,1,136,8|8,0:0|0:0,0:0:0:0:
388,286,119924,1,8,0:0:0:0:
313,240,120054,6,0,P|340:292|360:383,1,136,4|0,0:0|2:0,0:0:0:0:
446,351,120445,2,0,P|465:313|485:213,1,136,8|0,0:2|2:0,0:0:0:0:
432,150,120837,1,2,0:2:0:0:
432,150,120967,2,0,B|360:128|369:176|291:153,2,136,8|8|0,0:0|0:0|0:0,0:0:0:0:
401,233,121619,1,8,0:0:0:0:
327,72,121880,1,2,0:2:0:0:
327,72,122011,1,0,0:0:0:0:
299,155,122141,6,0,L|276:227,1,68,2|8,0:2|0:0,0:0:0:0:
214,158,122402,2,0,P|201:87|177:19,1,136,0|8,0:0|0:0,0:0:0:0:
67,214,122924,2,0,P|76:257|89:293,1,68,2|8,0:2|0:0,0:0:0:0:
154,227,123184,1,0,0:0:0:0:
124,144,123315,1,8,0:0:0:0:
124,144,123380,1,0,0:0:0:0:
124,144,123445,2,0,L|56:121,1,68,8|8,0:0|0:0,0:0:0:0:
196,91,123706,2,0,L|271:72,1,68,8|8,0:0|0:0,0:0:0:0:
335,175,123967,1,8,0:0:0:0:
247,161,124097,1,8,0:0:0:0:
175,213,124228,6,0,P|169:283|216:350,1,144.500002756119,12|0,0:2|0:0,0:0:0:0:
300,363,124619,1,0,0:0:0:0:
300,363,124750,2,0,B|333:334|333:334|449:348,1,144.500002756119,8|0,0:0|0:0,0:0:0:0:
481,265,125141,1,0,0:0:0:0:
410,202,125271,6,0,P|296:183|246:197,1,152.999995330811,8|0,0:0|0:0,0:0:0:0:
184,248,125663,1,0,0:0:0:0:
184,248,125793,2,0,P|206:207|217:90,1,152.999995330811,8|0,0:0|0:0,0:0:0:0:
167,22,126184,1,0,0:0:0:0:
75,51,126315,6,0,L|88:219,1,161.499995687485,8|0,0:0|0:0,0:0:0:0:
45,300,126706,1,0,0:0:0:0:
45,300,126837,2,0,B|82:319|126:304|126:304|141:336|189:354,1,161.499995687485,10|0,0:2|0:0,0:0:0:0:
256,286,127228,1,0,0:0:0:0:
328,352,127358,6,0,B|376:334|392:299|392:299|441:315|482:294,1,170,10|0,0:2|0:0,0:0:0:0:
433,209,127750,1,0,0:0:0:0:
433,209,127880,2,0,B|399:160|388:89|388:89|387:110|379:130,1,170,10|0,0:2|0:0,0:0:0:0:
256,357,128402,5,4,0:2:0:0:
240,349,128663,1,0,0:0:0:0:
284,324,128924,1,8,0:0:0:0:
202,302,129184,1,8,0:0:0:0:
317,272,129445,1,8,0:0:0:0:
170,227,129706,1,8,0:0:0:0:
352,186,129967,1,8,0:3:0:0:
143,113,130228,1,8,0:3:0:0:
406,16,130489,6,0,L|417:75,3,46.7500014266968,8|8|8|8,0:0|0:0|0:0|0:0,0:0:0:0:
343,121,130750,1,0,0:0:0:0:
343,121,130815,1,0,0:0:0:0:
343,121,130880,2,0,L|354:180,3,46.7500014266968,8|8|8|8,0:3|0:3|0:3|0:3,0:0:0:0:
280,226,131141,1,0,0:0:0:0:
280,226,131206,1,0,0:0:0:0:
280,226,131271,2,0,L|291:285,3,46.7500014266968,8|8|0|0,0:0|0:0|3:3|3:3,0:0:0:0:
191,249,131532,6,0,B|168:198|168:198|187:140,1,110.499994941712,2|8,0:2|0:3,0:0:0:0:
285,69,131793,1,8,3:0:0:0:
366,248,131924,2,0,B|364:303|364:303|323:348,1,110.499994941712,0|8,3:0|0:0,0:0:0:0:
186,324,132184,1,2,0:2:0:0:
105,145,132445,6,0,B|171:137|171:137|219:167|219:167|286:159,1,187.000005706787,4|0,0:2|0:0,0:0:0:0:
404,43,132837,2,0,P|369:152|353:237,1,187.000005706787,8|2,0:0|0:2,0:0:0:0:
414,346,133228,1,0,0:0:0:0:
474,262,133358,2,0,P|462:193|459:149,1,93.5000028533936,8|0,0:0|0:0,0:0:0:0:
251,251,133619,6,0,P|279:288|316:324,1,93.5000028533936,2|0,0:2|0:0,0:0:0:0:
282,159,133880,2,0,P|220:160|156:262,1,187.000005706787,8|2,0:2|0:2,0:0:0:0:
210,377,134271,1,0,0:0:0:0:
251,251,134402,1,8,0:0:0:0:
299,344,134532,6,0,L|102:356,1,187.000005706787,4|0,0:0|0:0,0:0:0:0:
41,161,134924,2,0,P|125:168|153:263,1,187.000005706787,8|2,0:0|0:2,0:0:0:0:
51,268,135315,1,0,0:0:0:0:
24,143,135445,2,0,P|28:82|41:43,1,93.5000028533936,8|0,0:0|0:0,0:0:0:0:
223,149,135706,6,0,P|236:191|241:247,2,93.5000028533936,2|0|8,0:2|0:0|0:0,0:0:0:0:
141,215,136097,2,0,P|186:197|333:170,1,187.000005706787,2|2,0:2|0:2,0:0:0:0:
372,352,136489,1,8,0:0:0:0:
442,278,136619,6,0,P|373:265|246:270,1,187.000005706787,4|0,0:0|0:0,0:0:0:0:
117,311,137011,2,0,P|164:331|201:355,1,93.5000028533936,8|0,0:0|0:0,0:0:0:0:
213,170,137271,2,0,P|155:189|118:211,1,93.5000028533936,2|0,0:2|0:0,0:0:0:0:
322,206,137532,1,8,0:0:0:0:
322,206,137793,6,0,L|337:103,1,93.5000028533936,2|0,0:2|0:0,0:0:0:0:
249,34,138054,1,8,0:0:0:0:
153,147,138184,2,0,P|224:122|351:114,1,187.000005706787,2|2,0:2|0:2,0:0:0:0:
421,188,138576,1,8,0:0:0:0:
227,258,138706,6,0,P|139:253|37:223,1,187.000005706787,4|0,0:0|0:0,0:0:0:0:
98,58,139097,2,0,P|111:120|115:163,1,93.5000028533936,8|0,0:0|0:0,0:0:0:0:
60,321,139358,1,2,0:2:0:0:
60,321,139489,1,0,0:0:0:0:
28,196,139619,2,0,B|129:167|108:247|222:208,1,187.000005706787,8|4,0:0|0:0,0:0:0:0:
265,109,140011,5,0,0:0:0:0:
161,41,140141,2,0,P|168:93|170:146,1,93.5000028533936,8|0,0:0|0:0,0:0:0:0:
169,133,140337,1,0,0:0:0:0:
169,133,140402,1,8,0:0:0:0:
82,197,140532,1,8,0:3:0:0:
66,96,140663,1,8,0:3:0:0:
161,41,140793,6,0,B|205:19|254:26|254:26|280:66|324:85,1,187.000005706787,4|0,0:2|0:0,0:0:0:0:
479,102,141184,2,0,P|404:50|321:85,1,187.000005706787,8|2,0:0|0:2,0:0:0:0:
294,207,141576,1,0,0:0:0:0:
416,225,141706,2,0,P|409:171|394:130,1,93.5000028533936,8|0,0:0|0:0,0:0:0:0:
235,60,141967,6,0,P|182:79|136:112,1,93.5000028533936,2|0,0:2|0:0,0:0:0:0:
98,279,142228,1,8,0:0:0:0:
98,279,142489,2,0,P|100:224|95:173,1,93.5000028533936,2|0,0:2|0:0,0:0:0:0:
15,330,142750,1,8,0:0:0:0:
185,314,142880,6,0,B|247:322|247:322|303:302|303:302|372:317,1,187.000005706787,4|2,0:0|0:2,0:0:0:0:
464,204,143271,2,0,L|361:224,1,93.5000028533936,8|0,0:0|0:0,0:0:0:0:
246,119,143532,2,0,L|347:137,1,93.5000028533936,8|0,0:0|0:0,0:0:0:0:
362,139,143728,1,0,0:0:0:0:
361,138,143793,2,0,B|380:95|380:95|366:39,1,93.5000028533936,8|0,0:0|0:0,0:0:0:0:
246,11,144054,5,2,0:2:0:0:
159,101,144184,2,0,L|164:151,2,46.7500014266968,8|8|10,0:0|0:0|0:2,0:0:0:0:
271,162,144445,2,0,P|254:210|239:267,1,93.5000028533936,8|10,0:0|0:2,0:0:0:0:
363,287,144706,2,0,L|351:230,3,46.7500014266968,8|8|8|8,0:0|0:0|0:0|0:0,0:0:0:0:
363,199,144967,6,0,B|411:171|411:171|473:205|475:281,1,187.000005706787,4|0,0:2|0:0,0:0:0:0:
340,370,145358,2,0,P|287:351|234:342,1,93.5000028533936,8|0,0:0|0:0,0:0:0:0:
156,253,145619,2,0,P|213:230|258:203,1,93.5000028533936,2|0,0:2|0:0,0:0:0:0:
227,74,145880,1,8,0:0:0:0:
161,150,146011,1,2,0:2:0:0:
73,99,146141,6,0,L|271:122,1,187.000005706787,2|8,0:2|0:0,0:0:0:0:
388,18,146532,2,0,B|345:8|345:8|296:34,1,93.5000028533936,2|0,0:2|0:0,0:0:0:0:
328,196,146793,2,0,B|371:206|371:206|420:180,1,93.5000028533936,2|8,0:2|0:0,0:0:0:0:
359,106,147054,6,0,P|366:199|385:309,1,187.000005706787,4|0,0:0|0:0,0:0:0:0:
224,362,147445,2,0,P|217:269|198:159,1,187.000005706787,8|2,0:0|0:2,0:0:0:0:
149,86,147837,1,0,0:0:0:0:
127,252,147967,1,8,0:0:0:0:
127,252,148228,6,0,P|184:238|245:230,1,93.5000028533936,2|0,0:2|0:0,0:0:0:0:
65,324,148489,1,8,0:0:0:0:
87,167,148619,2,0,P|72:110|56:71,1,93.5000028533936,8|0,0:0|0:0,0:0:0:0:
201,1,148880,2,0,P|183:61|172:115,1,93.5000028533936,0|8,0:0|0:0,0:0:0:0:
311,207,149141,6,0,P|352:131|288:73,1,187.000005706787,4|0,0:0|0:0,0:0:0:0:
210,224,149532,2,0,P|193:287|299:335,1,187.000005706787,8|2,0:0|0:2,0:0:0:0:
385,255,149924,1,0,0:0:0:0:
405,359,150054,2,0,P|350:342|296:333,1,93.5000028533936,8|0,0:0|0:0,0:0:0:0:
481,210,150315,6,0,P|479:268|480:324,1,93.5000028533936,2|0,0:2|0:0,0:0:0:0:
389,157,150576,1,8,0:0:0:0:
310,230,150706,2,0,P|231:241|115:205,1,187.000005706787,2|2,0:2|0:2,0:0:0:0:
284,124,151097,1,8,0:0:0:0:
389,157,151228,6,0,P|408:242|459:336,1,187.000005706787,4|2,0:0|0:2,0:0:0:0:
487,144,151619,1,8,0:0:0:0:
487,144,151880,1,2,0:2:0:0:
378,132,152011,1,0,0:0:0:0:
306,213,152141,2,0,P|319:265|341:311,1,93.5000028533936,8|0,0:0|0:0,0:0:0:0:
510,251,152402,6,0,P|442:231|397:225,1,93.5000028533936,4|0,0:0|0:0,0:0:0:0:
225,285,152663,1,8,0:0:0:0:
335,301,152793,1,8,0:0:0:0:
419,227,152924,2,0,B|428:182|428:182|407:138,2,93.5000028533936,2|0|8,0:2|0:0|0:0,0:0:0:0:
229,251,153315,6,0,B|246:62,1,187.000005706787,4|0,0:2|0:0,0:0:0:0:
92,18,153706,2,0,B|64:60|64:60|87:204,1,187.000005706787,8|2,0:0|0:2,0:0:0:0:
108,342,154097,1,0,0:0:0:0:
10,276,154228,2,0,L|113:216,1,93.5000028533936,8|0,0:0|0:0,0:0:0:0:
208,281,154489,6,0,L|297:324,1,93.5000028533936,2|0,0:2|0:0,0:0:0:0:
327,153,154750,2,0,P|247:122|177:202,1,187.000005706787,8|2,0:0|0:2,0:0:0:0:
199,320,155141,1,0,0:0:0:0:
261,203,155271,1,8,0:0:0:0:
141,259,155402,6,0,P|84:246|65:132,1,187.000005706787,4|0,0:0|0:0,0:0:0:0:
196,50,155793,2,0,P|279:79|377:87,1,187.000005706787,8|2,0:0|0:2,0:0:0:0:
319,3,156184,1,0,0:0:0:0:
221,148,156315,1,8,0:0:0:0:
221,148,156576,6,0,P|172:132|117:121,1,93.5000028533936,2|0,0:2|0:0,0:0:0:0:
236,238,156837,1,8,0:0:0:0:
307,120,156967,1,8,0:0:0:0:
197,38,157097,2,0,L|218:137,1,93.5000028533936,2|2,0:2|0:2,0:0:0:0:
323,208,157358,1,8,0:0:0:0:
451,105,157489,6,0,P|374:63|306:119,1,187.000005706787,4|0,0:2|0:0,0:0:0:0:
398,281,157880,2,0,P|367:215|345:192,1,93.5000028533936,8|0,0:0|0:0,0:0:0:0:
278,293,158141,2,0,P|309:359|331:382,1,93.5000028533936,8|0,0:0|0:0,0:0:0:0:
322,373,158337,1,0,0:0:0:0:
322,373,158402,1,8,0:0:0:0:
398,281,158532,6,0,P|444:227|401:116,1,187.000005706787,4|0,0:2|0:0,0:0:0:0:
288,39,158924,2,0,L|316:142,1,93.5000028533936,8|0,0:0|0:0,0:0:0:0:
199,222,159184,2,0,L|212:116,1,93.5000028533936,8|0,0:0|0:0,0:0:0:0:
210,129,159380,1,0,0:0:0:0:
210,129,159445,1,8,0:0:0:0:
111,211,159576,6,0,B|171:202|171:202|227:242|227:242|287:235,1,187.000005706787,4|0,0:2|0:0,0:0:0:0:
146,299,159967,2,0,L|51:311,1,93.5000028533936,8|0,0:0|0:0,0:0:0:0:
207,378,160228,1,8,0:0:0:0:
292,324,160358,1,0,0:0:0:0:
292,324,160424,1,0,0:0:0:0:
292,324,160489,2,0,B|302:278|302:278|281:229,1,93.5000028533936,8|0,0:0|0:0,0:0:0:0:
181,129,160750,6,0,B|171:175|171:175|192:224,1,93.5000028533936,8|0,0:0|0:0,0:0:0:0:
361,185,161011,2,0,B|378:127|361:75|361:75|351:87|337:97,1,140.25000428009,8|0,0:0|0:0,0:0:0:0:
252,64,161271,2,0,P|254:36|263:1,2,62.3333352355958,8|8|8,0:0|0:0|0:3,0:0:0:0:
270,154,161532,2,0,P|278:186|282:220,2,62.3333352355958,8|0|8,3:0|3:0|3:0,0:0:0:0:
340,94,161793,1,4,0:2:0:0:
340,94,162837,6,0,B|309:85|309:85|287:108|287:108|253:95|208:102,1,136,2|0,2:0|3:0,0:0:0:0:
173,166,163184,2,0,P|196:174|231:180,2,45.3333333333333,0|0|8,3:0|3:0|0:0,0:0:0:0:
173,166,163880,5,4,0:2:0:0:
267,123,164011,2,2,P|255:187|243:295,1,170,2|0,0:0|0:0,0:0:0:0:
337,197,164402,2,0,P|339:253|353:374,1,170,8|2,0:0|0:0,0:0:0:0:
427,239,164793,2,0,B|437:187|437:187|417:130|417:130|427:68,2,170,2|8|0,0:0|0:0|0:0,0:0:0:0:
337,197,165445,1,8,0:0:0:0:
276,275,165576,2,0,P|228:273|157:160,1,170,2|0,0:2|0:0,0:0:0:0:
190,83,165967,5,2,0:2:0:0:
57,144,166097,2,2,P|22:196|29:304,1,170,10|0,0:0|0:0,0:0:0:0:
135,356,166489,2,0,B|158:319|158:319|131:229,2,127.5,10|2|2,0:0|0:2|0:0,0:0:0:0:
233,248,167011,2,0,B|239:204|239:204|179:132,2,127.5,12|2|2,0:0|0:0|0:0,0:0:0:0:
324,152,167532,1,12,0:0:0:0:
232,56,167663,2,2,P|173:103|79:156,1,170,2|0,0:0|0:0,0:0:0:0:
96,296,168054,5,4,0:0:0:0:
21,228,168184,2,0,P|106:253|213:268,1,170,0|0,0:0|0:0,0:0:0:0:
267,333,168576,2,0,P|331:308|423:245,1,170,8|0,0:0|0:0,0:0:0:0:
282,94,168967,2,0,P|245:178|322:202,2,170,0|10|0,0:0|0:0|0:0,0:0:0:0:
445,105,169619,2,2,P|399:133|362:150,1,85,12|2,0:0|0:0,0:0:0:0:
366,281,169880,2,2,P|412:253|449:236,1,85,2|8,0:0|0:0,0:0:0:0:
347,375,170141,5,4,0:2:0:0:
226,347,170271,2,0,L|180:335,2,38.2499988327027,8|0|10,0:0|0:0|0:0,0:0:0:0:
366,281,170532,5,4,0:2:0:0:
254,217,170663,2,0,L|212:191,2,42.5,8|0|10,0:0|0:0|0:0,0:0:0:0:
420,199,170924,5,4,0:2:0:0:
322,106,171054,2,0,L|280:66,2,46.7500014266968,8|0|10,0:0|0:0|0:0,0:0:0:0:
494,137,171315,5,4,0:2:0:0:
334,192,171445,2,2,P|289:215|240:248,1,101.999996887207,10|10,0:0|0:0,0:0:0:0:
404,261,171706,1,8,0:0:0:0:
266,338,171837,1,8,0:0:0:0:
364,349,171967,1,8,0:0:0:0:
246,243,172097,2,2,B|187:263|166:317|166:317|132:291|132:291|111:301|84:300,1,203.999993774414,8|2,0:0|0:0,0:0:0:0:
48,132,172489,6,0,P|75:181|90:213,1,85,12|0,0:2|0:0,0:0:0:0:
175,41,172750,2,0,P|161:102|149:141,1,85,8|0,0:0|0:0,0:0:0:0:
330,52,173011,2,0,P|280:89|245:111,1,85,8|0,0:0|0:0,0:0:0:0:
192,225,173271,5,6,0:0:0:0:
320,293,173402,2,2,P|378:229|326:141,1,170
430,95,173793,2,0,P|379:58|278:90,1,170,8|0,0:0|0:0,0:0:0:0:
256,182,174184,2,2,P|185:213|84:155,2,170,2|10|2,0:0|0:0|0:0,0:0:0:0:
348,234,174837,5,8,0:0:0:0:
282,315,174967,2,2,P|344:279|459:304,1,170
224,98,175489,2,0,B|137:119|153:59|57:89,1,170,8|0,0:0|0:0,0:0:0:0:
49,246,175880,2,2,P|80:214|108:170,1,85,10|0,0:0|0:0,0:0:0:0:
204,194,176141,1,10,0:0:0:0:
157,304,176271,1,10,0:0:0:0:
49,246,176402,5,4,0:2:0:0:
49,246,177445,1,8,0:3:0:0:
210,313,177576,5,8,0:3:0:0:
103,175,177837,1,8,0:3:0:0:
126,346,178097,1,8,0:3:0:0:
210,313,178228,2,0,L|345:261,1,136,0|4,0:0|0:2,0:0:0:0:
256,192,178554,12,2,180445,3:2:0:0:
356,165,183706,5,8,0:0:0:0:
161,227,183837,5,6,0:0:0:0:
161,101,184097,1,14,0:0:0:0:
282,61,184358,1,6,0:0:0:0:
282,267,184619,6,0,P|219:336|112:349,1,187.000005706787,4|0,0:2|0:0,0:0:0:0:
36,220,185011,2,0,P|98:241|147:265,1,93.5000028533936,8|0,0:0|0:0,0:0:0:0:
237,174,185271,1,2,0:2:0:0:
122,154,185402,1,0,0:0:0:0:
112,40,185532,2,0,P|128:95|136:140,1,93.5000028533936,8|0,0:0|0:0,0:0:0:0:
229,283,185793,6,0,P|244:215|257:177,1,93.5000028533936,2|0,0:2|0:0,0:0:0:0:
123,252,186054,1,8,0:0:0:0:
183,368,186184,2,0,P|245:376|324:274,1,187.000005706787,2|0,0:2|0:0,0:0:0:0:
279,180,186576,1,8,0:0:0:0:
229,283,186706,6,0,P|296:270|435:266,1,187.000005706787,4|0,0:0|0:0,0:0:0:0:
437,100,187097,2,0,P|398:146|367:190,1,93.5000028533936,8|0,0:0|0:0,0:0:0:0:
379,354,187358,1,2,0:2:0:0:
379,354,187489,1,0,0:0:0:0:
469,288,187619,2,0,P|395:260|260:251,1,187.000005706787,8|4,0:0|0:0,0:0:0:0:
186,299,188011,5,0,0:0:0:0:
292,335,188141,2,0,B|307:292|307:292|287:247,1,93.5000028533936,8|0,0:0|0:0,0:0:0:0:
281,236,188337,1,0,0:0:0:0:
274,224,188402,1,8,0:0:0:0:
166,184,188532,1,8,0:3:0:0:
186,299,188663,1,8,0:3:0:0:
274,224,188793,6,0,P|267:124|276:28,1,187.000005706787,4|0,0:2|0:0,0:0:0:0:
381,200,189184,1,8,0:0:0:0:
381,200,189445,2,0,P|371:260|366:304,1,93.5000028533936,2|0,0:2|0:0,0:0:0:0:
173,256,189706,2,0,P|204:291|246:325,1,93.5000028533936,8|0,0:0|0:0,0:0:0:0:
260,177,189967,6,0,P|229:142|187:108,1,93.5000028533936,2|0,0:2|0:0,0:0:0:0:
20,230,190228,2,0,B|46:254|54:287|54:287|115:287|152:226,1,187.000005706787,8|2,0:0|0:2,0:0:0:0:
179,88,190619,1,0,0:0:0:0:
88,167,190750,1,8,0:0:0:0:
107,37,190880,6,0,L|306:63,1,187.000005706787,4|2,0:0|0:2,0:0:0:0:
415,143,191271,2,0,L|312:157,1,93.5000028533936,8|0,0:0|0:0,0:0:0:0:
307,171,191467,1,0,0:0:0:0:
307,171,191532,2,0,P|295:227|302:271,1,93.5000028533936,8|0,0:0|0:0,0:0:0:0:
439,319,191793,1,8,0:0:0:0:
390,228,191924,1,0,0:0:0:0:
326,361,192054,6,0,P|280:346|218:338,1,93.5000028533936,2|8,0:2|0:0,0:0:0:0:
235,338,192250,1,8,0:0:0:0:
235,338,192315,1,8,0:0:0:0:
140,272,192445,2,0,P|95:292|44:307,1,93.5000028533936,10|8,0:2|3:0,0:0:0:0:
135,157,192706,2,0,P|167:161|190:169,3,46.7500014266968,8|8|8|8,0:0|0:0|0:0|0:0,0:0:0:0:
219,187,192967,6,0,P|272:181|302:63,1,187.000005706787,4|0,0:2|0:0,0:0:0:0:
118,36,193358,2,0,L|132:157,1,93.5000028533936,8|0,0:0|0:0,0:0:0:0:
207,279,193619,2,0,L|220:172,1,93.5000028533936,2|0,0:2|0:0,0:0:0:0:
109,297,193880,1,8,0:0:0:0:
109,297,194011,1,2,0:2:0:0:
304,330,194141,6,0,B|349:338|349:338|399:312,1,93.5000028533936,2|0,0:2|0:0,0:0:0:0:
207,279,194402,1,8,0:0:0:0:
107,334,194532,2,0,P|54:307|53:186,1,187.000005706787,2|2,0:2|0:2,0:0:0:0:
187,255,194924,1,8,0:0:0:0:
298,219,195054,6,0,P|300:145|264:25,1,187.000005706787,4|0,0:0|0:0,0:0:0:0:
212,153,195445,2,0,P|274:134|406:123,1,187.000005706787,8|2,0:0|0:2,0:0:0:0:
496,189,195837,1,0,0:0:0:0:
392,250,195967,2,0,P|389:189|380:145,1,93.5000028533936,8|2,0:0|0:2,0:0:0:0:
472,0,196228,6,0,P|475:61|484:105,1,93.5000028533936,2|0,0:2|0:0,0:0:0:0:
383,157,196489,1,8,0:0:0:0:
285,27,196619,2,0,P|346:43|394:60,1,93.5000028533936,8|2,0:0|0:2,0:0:0:0:
241,148,196880,2,0,P|185:158|143:173,1,93.5000028533936,0|8,0:0|0:0,0:0:0:0:
311,254,197141,6,0,B|333:267|351:284|351:284|397:239|382:150,1,187.000005706787,4|0,0:0|0:0,0:0:0:0:
204,259,197532,2,0,P|210:315|220:359,1,93.5000028533936,8|0,0:0|0:0,0:0:0:0:
65,365,197793,2,0,P|75:316|95:266,1,93.5000028533936,2|0,0:2|0:0,0:0:0:0:
241,148,198054,1,8,0:0:0:0:
241,148,198315,6,0,B|197:166|197:166|143:159,1,93.5000028533936,2|0,0:2|0:0,0:0:0:0:
20,141,198576,1,8,0:0:0:0:
87,3,198706,2,0,L|97:100,1,93.5000028533936,2|0,0:2|0:0,0:0:0:0:
139,280,198967,2,0,L|157:187,1,93.5000028533936,2|8,0:2|0:0,0:0:0:0:
187,65,199228,6,0,B|91:92|111:32|2:59,1,187.000005706787,4|0,0:0|0:0,0:0:0:0:
185,164,199619,2,0,P|259:133|276:18,1,187.000005706787,8|2,0:0|0:2,0:0:0:0:
187,65,200011,1,0,0:0:0:0:
285,222,200141,2,0,P|290:274|288:323,1,93.5000028533936,8|0,0:0|0:0,0:0:0:0:
358,140,200402,6,0,P|374:92|394:48,1,93.5000028533936,4|0,0:0|0:0,0:0:0:0:
285,222,200663,2,0,P|232:238|185:244,1,93.5000028533936,8|8,0:0|0:0,0:0:0:0:
176,244,200858,1,0,0:0:0:0:
158,243,200924,1,8,0:0:0:0:
204,132,201054,1,8,0:0:0:0:
285,222,201184,1,8,0:0:0:0:
242,336,201315,6,0,L|43:313,1,187.000005706787,4|0,0:2|0:0,0:0:0:0:
45,128,201706,2,0,L|77:219,1,93.5000028533936,12|0,0:0|0:0,0:0:0:0:
152,49,201967,2,0,L|162:151,1,93.5000028533936,12|0,0:0|0:0,0:0:0:0:
182,162,202163,1,0,0:0:0:0:
182,162,202228,2,0,L|165:260,1,93.5000028533936,12|0,0:0|0:0,0:0:0:0:
295,327,202489,5,12,0:0:0:0:
267,227,202619,1,2,0:2:0:0:
339,151,202750,2,0,B|385:142|385:142|438:167,1,93.5000028533936,12|2,0:0|0:2,0:0:0:0:
267,227,203011,2,0,B|221:236|221:236|168:211,1,93.5000028533936,12|2,0:0|0:2,0:0:0:0:
236,129,203271,1,10,0:2:0:0:
369,251,203402,6,0,B|396:287|403:338|403:338|431:294|472:273,1,187.000005706787,4|0,0:0|0:0,0:0:0:0:
300,327,203793,2,0,P|246:332|193:342,1,93.5000028533936,12|0,0:0|0:0,0:0:0:0:
149,183,204054,2,0,P|199:203|247:227,1,93.5000028533936,12|0,0:0|0:0,0:0:0:0:
362,92,204315,2,0,P|297:100|249:111,1,93.5000028533936,12|0,0:0|0:0,0:0:0:0:
251,112,204511,1,0,0:0:0:0:
251,112,204576,6,0,L|263:15,1,93.5000028533936,12|2,0:0|0:2,0:0:0:0:
149,183,204837,2,0,L|161:280,1,93.5000028533936,12|2,0:0|0:2,0:0:0:0:
164,295,205032,1,0,0:0:0:0:
167,314,205097,1,12,0:0:0:0:
260,251,205228,1,2,0:2:0:0:
324,354,205358,1,12,0:0:0:0:
399,246,205489,6,0,B|421:205|421:205|392:60,1,187.000005706787,4|0,0:2|0:0,0:0:0:0:
227,51,205880,2,0,P|268:96|296:139,1,93.5000028533936,8|0,0:0|0:0,0:0:0:0:
234,238,206141,2,0,P|169:229|129:229,1,93.5000028533936,8|0,0:0|0:0,0:0:0:0:
141,228,206337,1,0,0:0:0:0:
141,228,206402,1,8,0:0:0:0:
115,108,206532,6,0,P|175:99|308:59,1,187.000005706787,4|0,0:2|0:0,0:0:0:0:
412,130,206924,1,8,0:0:0:0:
335,237,207054,1,0,0:0:0:0:
335,237,207119,1,0,0:0:0:0:
335,237,207184,2,0,L|323:140,1,93.5000028533936,8|0,0:0|0:0,0:0:0:0:
235,279,207445,1,8,0:0:0:0:
141,228,207576,6,0,P|126:161|196:69,1,187.000005706787,4|0,0:2|0:0,0:0:0:0:
374,130,207967,2,0,P|305:137|263:135,1,93.5000028533936,8|0,0:0|0:0,0:0:0:0:
235,279,208228,2,0,P|304:272|346:274,1,93.5000028533936,8|0,0:0|0:0,0:0:0:0:
201,361,208489,1,8,0:0:0:0:
141,228,208619,1,2,0:2:0:0:
274,170,208750,6,0,P|244:235|232:273,1,93.5000028533936,2|0,0:2|0:0,0:0:0:0:
141,57,209011,2,0,P|168:110|185:155,1,93.5000028533936,8|0,0:0|0:0,0:0:0:0:
124,312,209271,1,12,0:0:0:0:
11,195,209402,2,0,L|67:186,3,46.7500014266968,0|0|8|8,0:0|0:0|0:0|0:0,0:0:0:0:
93,213,209663,6,2,B|153:229|153:229|210:215|210:215|272:236,1,187.000005706787,4|2,0:2|0:0,0:0:0:0:
408,370,210054,2,0,L|378:267,1,93.5000028533936,10|0,0:0|2:0,0:0:0:0:
208,322,210315,2,0,L|301:356,1,93.5000028533936,2|0,0:2|2:0,0:0:0:0:
495,298,210576,2,0,L|468:207,1,93.5000028533936,8|2,0:0|2:0,0:0:0:0:
272,147,210837,2,0,L|368:182,2,93.5000028533936,2|0|8,0:0|0:0|0:0,0:0:0:0:
171,113,211228,1,2,0:0:0:0:
88,179,211358,2,0,P|83:227|94:282,1,93.5000028533936,2|2,0:2|0:2,0:0:0:0:
103,302,211554,1,0,2:0:0:0:
103,302,211619,1,8,0:0:0:0:
269,188,211750,6,2,P|281:99|233:-6,1,187.000005706787,2|2,0:2|0:0,0:0:0:0:
179,230,212141,2,0,P|200:275|219:325,1,93.5000028533936,10|0,0:0|2:0,0:0:0:0:
370,174,212402,2,0,P|378:131|397:68,1,93.5000028533936,2|0,0:2|2:0,0:0:0:0:
317,271,212663,2,0,P|374:280|432:294,1,93.5000028533936,8|2,0:0|2:0,0:0:0:0:
236,106,212924,2,2,P|190:117|127:124,1,93.5000028533936
151,319,213185,2,0,P|167:274|181:219,1,93.5000028533936,8|0,0:0|0:0,0:0:0:0:
56,297,213445,1,2,0:2:0:0:
256,300,213576,2,0,P|302:293|352:281,1,93.5000028533936,2|8,0:2|0:0,0:0:0:0:
249,136,213837,6,2,B|212:113|162:111|162:111|125:143|71:139,1,187.000005706787,2|2,0:2|0:0,0:0:0:0:
254,16,214228,2,0,P|297:32|342:57,1,93.5000028533936,10|0,0:0|2:0,0:0:0:0:
447,213,214489,2,0,P|400:193|344:165,1,93.5000028533936,2|0,0:2|2:0,0:0:0:0:
482,7,214750,2,0,L|449:104,1,93.5000028533936,8|2,0:0|2:0,0:0:0:0:
249,136,215011,2,0,L|219:224,2,93.5000028533936,2|0|8,0:0|0:0|0:0,0:0:0:0:
339,55,215402,1,2,0:0:0:0:
361,174,215532,2,0,B|379:284,1,93.5000028533936,2|2,0:2|0:2,0:0:0:0:
382,299,215728,1,0,2:0:0:0:
382,299,215793,1,8,0:0:0:0:
215,319,215924,6,2,P|232:245|250:121,1,187.000005706787,4|2,0:0|0:0,0:0:0:0:
87,65,216315,2,0,B|130:82|130:82|181:71,1,93.5000028533936,10|0,0:0|0:0,0:0:0:0:
448,132,216576,2,0,B|405:149|405:149|354:138,1,93.5000028533936,10|0,0:0|0:0,0:0:0:0:
342,135,216771,1,0,0:0:0:0:
342,135,216837,2,2,L|324:35,1,93.5000028533936,8|2,0:0|0:0,0:0:0:0:
176,72,217098,1,8,0:0:0:0:
326,131,217228,5,6,0:0:0:0:
157,196,217489,1,6,0:0:0:0:
353,253,217750,1,6,0:0:0:0:
141,318,218011,1,6,0:0:0:0:
256,192,218076,12,0,222315,0:0:0:0:
