osu file format v14

[General]
AudioFilename: audio.mp3
AudioLeadIn: 0
PreviewTime: 59989
Countdown: 0
SampleSet: Soft
StackLeniency: 0.5
Mode: 0
LetterboxInBreaks: 0
WidescreenStoryboard: 0

[Editor]
DistanceSpacing: 0.9
BeatDivisor: 4
GridSize: 8
TimelineZoom: 1.2

[Metadata]
Title:Countdown
TitleUnicode:Countdown
Artist:Imy
ArtistUnicode:Imy
Creator:jonathanlfj
Version:Genesis
Source:osu!
Tags:featured artist captin1 Deca meiikyuu Aitsuki Nakuru 藍月なくる Mirin みゅー Myu Last Words Japanese Rock
BeatmapID:2591255
BeatmapSetID:1246683

[Difficulty]
HPDrainRate:6.5
CircleSize:4
OverallDifficulty:9.2
ApproachRate:9.8
SliderMultiplier:1.8
SliderTickRate:1

[Events]
//Background and Video events
0,0,"last words.jpg",0,0
//Break Periods
2,91037,98705
//Storyboard Layer 0 (Background)
//Storyboard Layer 1 (Fail)
//Storyboard Layer 2 (Pass)
//Storyboard Layer 3 (Foreground)
//Storyboard Layer 4 (Overlay)
//Storyboard Sound Samples

[TimingPoints]
1098,260.869565217391,4,1,1,60,1,0
3184,-142.857142857143,4,2,1,40,0,0
4489,-100,4,2,1,45,0,0
4750,-100,4,1,1,50,0,0
5141,-100,4,1,1,60,0,0
9315,-125,4,1,1,60,0,0
11532,-111.111111111111,4,1,1,60,0,0
11924,-100,4,1,1,65,0,0
12315,-90.9090909090909,4,1,1,70,0,0
13097,-76.9230769230769,4,1,1,70,0,0
13489,-90.9090909090909,4,1,1,70,0,1
13554,-90.9090909090909,4,1,1,70,0,0
21967,-142.857142857143,4,2,1,30,0,0
22489,-142.857142857143,4,2,1,40,0,0
23011,-142.857142857143,4,2,1,50,0,0
23402,-100,4,1,1,60,0,0
23924,-100,4,1,1,60,0,0
39706,-83.3333333333333,4,1,1,60,0,0
40619,-90.9090909090909,4,1,1,65,0,0
44793,-111.111111111111,4,1,1,65,0,0
46880,-100,4,1,1,65,0,0
48967,-125,4,1,1,60,0,0
57315,-200,4,1,1,60,0,0
60054,-166.666666666667,4,2,1,60,0,0
61489,-83.3333333333333,4,1,1,70,0,1
69837,-90.9090909090909,4,1,1,70,0,1
74011,-83.3333333333333,4,1,1,70,0,1
82358,-90.9090909090909,4,1,1,70,0,1
86532,-83.3333333333333,4,1,1,70,0,1
90837,-100,4,1,1,60,0,0
99184,-100,4,1,1,60,0,0
103358,-100,4,1,1,65,0,0
105445,-200,4,1,1,60,0,0
106750,-100,4,1,1,60,0,0
107011,-200,4,1,1,60,0,0
107467,-200,4,1,1,5,0,0
107532,-125,4,1,1,60,0,0
111641,-125,4,1,1,5,0,0
111706,-125,4,1,1,60,0,0
124228,-117.647058823529,4,1,1,50,0,0
125271,-111.111111111111,4,1,1,50,0,0
126315,-105.263157894737,4,1,1,50,0,0
127358,-100,4,1,1,50,0,0
128402,-100,4,1,1,55,0,0
129445,-100,4,1,1,60,0,0
130489,-90.9090909090909,4,1,1,65,0,0
131271,-76.9230769230769,4,1,1,65,0,0
131532,-90.9090909090909,4,1,1,65,0,0
132054,-71.4285714285714,4,1,1,65,0,0
132445,-83.3333333333333,4,1,1,70,0,1
140793,-90.9090909090909,4,1,1,70,0,1
144967,-83.3333333333333,4,1,1,70,0,1
153314,-90.9090909090909,4,1,1,70,0,1
157488,-83.3333333333333,4,1,1,70,0,1
161793,-200,4,1,1,60,0,0
162837,-125,4,1,1,60,0,0
163880,-90.9090909090909,4,1,1,65,0,0
167011,-76.9230769230769,4,1,1,65,0,0
167532,-90.9090909090909,4,1,1,65,0,0
170141,-100,4,1,1,55,0,0
170532,-83.3333333333333,4,1,1,60,0,0
170924,-71.4285714285714,4,1,1,65,0,0
171315,-71.4285714285714,4,1,1,70,0,0
172489,-90.9090909090909,4,1,1,70,0,0
176402,-200,4,1,1,60,0,0
180445,-125,4,2,1,50,0,0
183706,-80,4,1,1,70,0,1
183771,-80,4,1,1,70,0,0
184619,-80,4,1,1,70,0,1
188793,-86.9565217391304,4,1,1,70,0,1
191663,-80,4,1,1,70,0,1
192054,-71.4285714285714,4,1,1,70,0,1
192967,-80,4,1,1,70,0,1
201315,-86.9565217391304,4,1,1,70,0,1
205489,-80,4,1,1,70,0,1
209663,-86.9565217391304,4,1,1,70,0,0
218076,-100,4,2,1,30,0,0
222315,-100,4,2,1,5,0,0

[Colours]
Combo1 : 78,167,201
Combo2 : 211,158,58
Combo3 : 203,80,80

[HitObjects]
113,285,445,5,0,0:0:0:0:
113,285,511,1,0,0:0:0:0:
113,285,576,1,8,0:0:0:0:
263,187,706,1,0,0:0:0:0:
97,179,837,1,8,0:0:0:0:
290,295,967,1,0,0:0:0:0:
403,113,1098,6,0,B|416:70|416:70|399:21,1,90,12|0,0:0|0:0,0:0:0:0:
178,151,1358,1,0,0:0:0:0:
370,224,1489,2,0,B|343:184|343:184|286:169,1,90,12|0,0:0|0:0,0:0:0:0:
300,375,1750,1,0,0:0:0:0:
485,245,1880,6,0,P|475:159|402:112,1,180,12|0,0:0|0:0,0:0:0:0:
129,276,2271,2,0,P|139:189|212:142,1,180,12|0,0:0|0:0,0:0:0:0:
379,318,2663,2,2,P|320:328|270:350,1,90,14|0,0:0|0:0,0:0:0:0:
21,150,2924,2,2,P|63:165|136:176,1,90,10|0,0:0|0:0,0:0:0:0:
331,83,3184,5,2,0:0:0:0:
242,48,3315,2,0,P|253:118|260:193,1,125.999996154785
219,314,3706,1,0,0:0:0:0:
133,246,3837,2,0,L|205:230,1,62.9999980773926,2|0,0:0|0:0,0:0:0:0:
305,295,4097,2,0,L|441:320,1,125.999996154785,2|2,0:0|0:0,0:0:0:0:
439,313,4424,1,0,0:0:0:0:
450,307,4489,1,2,0:0:0:0:
460,303,4554,1,0,0:0:0:0:
470,298,4619,6,0,L|412:283,1,45,0|0,1:0|1:0,1:0:0:0:
219,239,4750,1,8,0:0:0:0:
446,171,4880,1,8,0:0:0:0:
172,118,5011,1,8,0:0:0:0:
421,32,5141,6,2,B|411:89|411:89|430:146|430:146|417:212,1,180,4|2,0:2|0:0,0:0:0:0:
272,339,5532,2,0,P|265:296|252:240,1,90,10|0,0:0|2:0,0:0:0:0:
87,55,5793,2,0,P|81:98|69:143,1,90,2|0,0:2|2:0,0:0:0:0:
109,363,6054,2,0,P|113:309|122:260,1,90,8|0,0:0|2:0,0:0:0:0:
288,10,6315,6,0,P|294:53|305:98,1,90,2|0,0:2|2:0,0:0:0:0:
9,241,6576,2,0,P|43:214|76:181,1,90,8|0,0:0|2:0,0:0:0:0:
367,367,6837,2,0,P|326:350|281:337,1,90,2|0,0:2|2:0,0:0:0:0:
196,71,7097,1,8,0:0:0:0:
347,131,7228,6,2,P|263:149|162:180,1,180,0|2,0:0|0:0,0:0:0:0:
379,242,7619,2,0,L|481:259,1,90,10|0,0:0|2:0,0:0:0:0:
171,298,7880,2,0,L|74:314,1,90,2|0,0:2|2:0,0:0:0:0:
412,361,8141,2,0,L|513:344,1,90,8|0,0:0|2:0,0:0:0:0:
172,176,8402,6,0,L|83:161,1,90,2|0,0:2|2:0,0:0:0:0:
455,0,8663,2,0,P|465:47|457:99,1,90,8|0,0:0|0:0,0:0:0:0:
443,121,8858,1,0,0:0:0:0:
443,121,8924,1,10,0:0:0:0:
214,86,9054,1,10,0:0:0:0:
370,49,9184,1,8,0:0:0:0:
172,177,9315,6,0,P|131:139|126:39,1,144,4|0,0:0|0:0,0:0:0:0:
276,162,9706,2,0,P|264:207|255:257,1,72,0|0,0:0|2:0,0:0:0:0:
425,319,9967,2,0,P|349:297|287:343,1,144,8|0,0:0|0:0,0:0:0:0:
296,328,10358,1,0,0:0:0:0:
358,194,10489,5,2,0:2:0:0:
258,231,10619,2,0,P|194:202|192:108,1,144,8|0,0:0|0:0,0:0:0:0:
320,11,11011,1,10,0:2:0:0:
408,119,11141,2,0,P|330:99|250:92,1,144
67,150,11532,5,10,0:2:0:0:
74,173,11597,1,0,0:0:0:0:
77,198,11663,1,0,0:0:0:0:
77,223,11728,1,0,0:0:0:0:
75,248,11793,2,0,L|124:258,1,40.4999987640381,0|0,3:0|3:0,3:0:0:0:
196,210,11924,5,8,0:0:0:0:
206,180,11989,1,0,0:0:0:0:
205,148,12054,1,0,0:0:0:0:
197,117,12119,1,0,0:0:0:0:
184,88,12184,2,0,L|244:81,1,45,0|0,3:0|3:0,3:0:0:0:
322,132,12315,5,8,0:0:0:0:
329,165,12380,1,0,0:0:0:0:
328,199,12445,1,0,0:0:0:0:
319,232,12511,1,0,0:0:0:0:
303,262,12576,5,8,0:3:0:0:
344,278,12641,1,8,0:3:0:0:
388,276,12706,1,0,0:0:0:0:
426,254,12771,1,0,0:0:0:0:
451,218,12836,1,8,0:3:0:0:
458,174,12902,1,8,0:3:0:0:
444,132,12967,1,0,0:0:0:0:
414,100,13032,1,0,0:0:0:0:
372,85,13097,6,0,L|362:152,1,58.4999973220826,10|0,0:0|2:0,0:0:0:0:
335,370,13228,1,2,0:0:0:0:
335,370,13489,6,2,B|271:336|184:335|184:335|204:325|223:310,1,198.000006042481,4|2,0:2|0:0,0:0:0:0:
243,107,13880,2,0,P|254:156|261:217,1,99.0000030212403,10|0,0:0|2:0,0:0:0:0:
459,298,14141,2,0,P|466:236|475:187,1,99.0000030212403,2|0,0:2|2:0,0:0:0:0:
131,216,14402,2,0,P|121:269|105:321,1,99.0000030212403,8|2,0:0|2:0,0:0:0:0:
88,80,14663,5,2,0:0:0:0:
394,178,14793,1,0,0:0:0:0:
141,193,14924,1,8,0:0:0:0:
345,59,15054,1,2,0:0:0:0:
186,6,15184,6,0,L|180:62,1,49.5000015106202,2|0,0:2|2:0,0:0:0:0:
249,123,15315,2,0,L|243:179,1,49.5000015106202,2|0,0:2|2:0,0:0:0:0:
312,240,15445,2,0,L|306:296,1,49.5000015106202,8|0,0:0|2:0,0:0:0:0:
173,213,15576,6,2,L|383:185,1,198.000006042481,2|2,0:2|0:0,0:0:0:0:
190,326,15967,2,0,P|130:310|69:301,1,99.0000030212403,10|0,0:0|2:0,0:0:0:0:
283,94,16228,2,0,P|333:88|393:75,1,99.0000030212403,2|0,0:2|2:0,0:0:0:0:
97,191,16489,2,0,P|47:197|-13:209,1,99.0000030212403,8|2,0:0|2:0,0:0:0:0:
260,244,16750,5,2,0:0:0:0:
69,10,16880,1,2,0:0:0:0:
312,65,17011,1,8,0:0:0:0:
116,193,17141,1,0,0:0:0:0:
373,202,17271,6,0,P|352:194|324:178,1,49.5000015106202,2|0,0:2|2:0,0:0:0:0:
219,46,17402,2,0,P|222:76|223:118,1,49.5000015106202,2|0,0:2|2:0,0:0:0:0:
173,256,17531,1,8,0:0:0:0:
403,374,17663,6,2,P|445:310|394:205,1,198.000006042481,2|2,0:2|0:0,0:0:0:0:
116,193,18054,2,0,P|129:250|143:302,1,99.0000030212403,10|0,0:0|2:0,0:0:0:0:
377,99,18315,2,0,P|368:160|357:213,1,99.0000030212403,2|0,0:2|2:0,0:0:0:0:
154,3,18576,2,0,P|162:52|177:111,1,99.0000030212403,8|2,0:0|2:0,0:0:0:0:
318,332,18837,5,2,0:0:0:0:
276,32,18967,1,0,0:0:0:0:
210,287,19098,1,8,0:0:0:0:
376,76,19228,1,2,0:0:0:0:
168,188,19358,6,0,L|228:170,1,49.5000015106202,2|0,0:2|2:0,0:0:0:0:
319,237,19489,2,0,L|373:248,1,49.5000015106202,2|0,0:2|2:0,0:0:0:0:
446,157,19619,2,0,L|496:143,1,49.5000015106202,8|0,0:0|2:0,0:0:0:0:
347,211,19750,6,2,B|190:184|190:184|226:217,1,198.000006042481,4|2,0:0|0:0,0:0:0:0:
353,324,20141,1,10,0:0:0:0:
283,95,20271,1,0,0:0:0:0:
193,308,20402,1,10,0:0:0:0:
398,121,20532,1,0,0:0:0:0:
398,121,20597,1,0,0:0:0:0:
398,121,20663,2,2,P|386:70|378:20,1,99.0000030212403,8|2,0:0|0:0,0:0:0:0:
131,116,20924,5,8,0:0:0:0:
443,220,21054,1,6,0:0:0:0:
60,270,21315,1,6,0:0:0:0:
457,364,21576,1,6,0:0:0:0:
245,78,21837,1,6,0:0:0:0:
222,165,21967,6,0,L|297:157,1,62.9999980773926
169,239,22228,2,0,L|124:178,1,62.9999980773926
261,247,22489,2,0,L|230:315,1,62.9999980773926
169,239,22750,1,0,0:0:0:0:
222,165,22880,1,0,0:0:0:0:
261,247,23011,5,0,0:0:0:0:
130,157,23141,1,0,0:0:0:0:
271,92,23271,1,0,0:0:0:0:
169,239,23402,5,0,0:0:0:0:
169,239,23467,1,0,0:0:0:0:
169,239,23532,1,8,0:0:0:0:
230,17,23663,1,8,0:0:0:0:
392,178,23793,1,8,0:0:0:0:
148,119,23924,6,0,B|210:127|210:127|265:99|265:99|321:107,1,180,4|0,0:2|0:0,0:0:0:0:
306,291,24315,2,0,L|287:197,1,90,8|0,0:0|0:0,0:0:0:0:
222,366,24576,1,0,0:0:0:0:
412,231,24706,2,0,L|418:125,1,90,2|8,0:2|0:0,0:0:0:0:
463,354,24967,1,0,0:0:0:0:
284,180,25097,6,0,P|213:182|159:283,1,180,2|8,0:2|0:0,0:0:0:0:
338,93,25489,2,0,P|395:112|448:120,1,90,2|0,0:2|0:0,0:0:0:0:
316,276,25750,1,0,0:0:0:0:
241,87,25880,1,8,0:0:0:0:
105,203,26011,6,0,L|299:178,1,180,2|0,0:2|0:0,0:0:0:0:
80,20,26402,2,0,B|68:63|68:63|84:112,1,90,8|0,0:0|0:0,0:0:0:0:
191,321,26663,2,0,L|199:223,1,90,0|2,0:0|0:2,0:0:0:0:
209,61,26924,1,8,0:0:0:0:
410,186,27054,6,0,P|356:131|259:155,1,180
152,312,27445,1,10,0:2:0:0:
335,335,27576,2,0,P|328:280|324:222,1,90
166,82,27837,2,0,P|156:141|144:190,1,90,2|8,0:2|0:0,0:0:0:0:
435,236,28097,6,0,P|443:166|463:36,1,180,4|0,0:0|0:0,0:0:0:0:
266,119,28489,2,0,P|316:137|370:167,1,90,8|0,0:0|0:0,0:0:0:0:
411,361,28750,1,2,0:2:0:0:
274,226,28880,1,0,0:0:0:0:
477,235,29011,1,8,0:0:0:0:
306,327,29141,1,2,0:2:0:0:
168,179,29271,6,0,P|159:114|158:83,1,90,2|0,0:2|0:0,0:0:0:0:
398,122,29532,2,0,L|290:129,1,90,8|0,0:0|0:0,0:0:0:0:
112,262,29793,2,0,L|214:274,1,90,2|0,0:2|0:0,0:0:0:0:
61,172,30054,1,8,0:0:0:0:
167,367,30184,6,0,P|242:365|303:287,1,180,4|0,0:0|0:0,0:0:0:0:
254,97,30576,2,0,P|255:142|267:196,1,90,8|0,0:0|0:0,0:0:0:0:
423,326,30837,1,2,0:2:0:0:
359,132,30967,1,0,0:0:0:0:
201,272,31097,2,0,L|359:247,1,135,8|0,0:0|2:0,0:0:0:0:
417,237,31358,5,12,0:0:0:0:
120,217,31489,1,4,0:0:0:0:
187,141,31750,1,4,0:0:0:0:
108,78,32011,1,4,0:0:0:0:
42,154,32271,6,0,P|133:159|234:176,1,180,4|0,0:2|0:0,0:0:0:0:
341,25,32663,2,0,P|294:62|267:90,1,90,8|0,0:0|0:0,0:0:0:0:
234,275,32924,1,2,0:2:0:0:
371,131,33054,1,0,0:0:0:0:
168,53,33184,2,0,P|173:104|185:151,1,90,8|0,0:0|0:0,0:0:0:0:
406,232,33445,6,0,P|350:221|295:219,1,90,2|0,0:2|0:0,0:0:0:0:
128,298,33706,1,8,0:0:0:0:
252,363,33837,2,0,L|230:257,1,90,2|0,0:2|0:0,0:0:0:0:
338,126,34097,1,2,0:2:0:0:
351,318,34228,1,8,0:0:0:0:
245,103,34358,6,0,L|430:72,1,180,4|0,0:0|0:0,0:0:0:0:
181,194,34750,2,0,B|135:174|135:174|98:110|133:39,1,180,8|2,0:0|0:2,0:0:0:0:
308,157,35141,1,0,0:0:0:0:
118,262,35271,1,8,0:0:0:0:
150,31,35402,1,0,0:0:0:0:
243,268,35532,6,0,P|242:311|236:369,1,90,2|0,0:2|0:0,0:0:0:0:
125,144,35793,1,8,0:0:0:0:
360,74,35924,2,0,P|400:87|449:113,1,90,2|0,0:2|0:0,0:0:0:0:
117,323,36184,2,0,P|106:266|108:222,1,90,2|8,0:2|0:0,0:0:0:0:
420,242,36445,6,0,P|340:175|243:191,1,180,4|0,0:0|0:0,0:0:0:0:
85,117,36837,2,0,P|134:110|188:99,1,90,8|0,0:0|0:0,0:0:0:0:
281,303,37097,2,0,P|231:273|187:252,1,90,2|0,0:2|0:0,0:0:0:0:
293,63,37358,2,0,P|342:43|386:17,1,90,8|0,0:0|0:0,0:0:0:0:
115,22,37619,6,0,P|129:93|115:207,1,180,2|8,0:2|0:0,0:0:0:0:
281,303,38011,1,0,0:0:0:0:
452,232,38141,2,0,P|388:217|346:217,1,90,2|0,0:2|0:0,0:0:0:0:
161,303,38402,1,8,0:0:0:0:
396,313,38532,6,0,P|377:248|381:103,1,180,4|0,0:0|0:0,0:0:0:0:
446,20,38924,1,8,0:0:0:0:
297,78,39054,1,0,0:0:0:0:
478,127,39184,1,8,0:0:0:0:
287,181,39315,1,0,0:0:0:0:
265,178,39380,1,0,0:0:0:0:
243,176,39445,1,8,0:0:0:0:
385,294,39576,1,0,0:0:0:0:
390,100,39706,5,2,0:2:0:0:
206,276,39837,2,0,L|271:269,1,53.9999983520508,8|0,0:0|0:0,0:0:0:0:
471,250,39967,1,8,0:0:0:0:
294,94,40097,5,10,0:0:0:0:
245,364,40228,1,8,0:0:0:0:
159,116,40359,1,10,0:0:0:0:
122,328,40489,1,8,0:0:0:0:
35,139,40619,6,2,L|247:157,1,198.000006042481,4|2,0:2|0:0,0:0:0:0:
443,188,41011,2,0,P|392:196|345:209,1,99.0000030212403,10|0,0:0|2:0,0:0:0:0:
94,240,41272,2,0,P|143:246|193:259,1,99.0000030212403,2|0,0:2|2:0,0:0:0:0:
501,305,41533,2,0,P|445:313|397:326,1,99.0000030212403,8|0,0:0|2:0,0:0:0:0:
253,183,41794,6,0,P|242:139|233:84,1,99.0000030212403,2|0,0:2|2:0,0:0:0:0:
5,263,42055,2,0,P|17:310|27:369,1,99.0000030212403,8|0,0:0|2:0,0:0:0:0:
335,254,42316,2,0,P|346:205|364:148,1,99.0000030212403,2|0,0:2|2:0,0:0:0:0:
139,37,42576,1,8,0:0:0:0:
282,346,42707,6,2,B|376:381|441:337|441:337|417:319|386:312,1,198.000006042481,0|2,0:0|0:0,0:0:0:0:
173,264,43098,2,0,P|160:315|140:375,1,99.0000030212403,10|0,0:0|2:0,0:0:0:0:
316,156,43359,2,0,P|324:207|338:266,1,99.0000030212403,2|0,0:2|2:0,0:0:0:0:
105,70,43620,2,0,P|91:123|70:185,1,99.0000030212403,8|0,0:0|2:0,0:0:0:0:
450,329,43881,6,0,P|462:278|470:219,1,99.0000030212403,2|0,0:2|2:0,0:0:0:0:
203,3,44142,2,0,L|212:102,1,99.0000030212403,8|0,0:0|0:0,0:0:0:0:
216,138,44337,1,0,0:0:0:0:
216,138,44403,1,10,0:0:0:0:
476,125,44533,1,10,0:0:0:0:
299,45,44663,1,8,0:0:0:0:
215,240,44793,6,0,P|278:222|381:215,1,161.999995056153,4|0,0:0|0:0,0:0:0:0:
399,41,45184,2,0,P|387:86|379:136,1,80.9999975280763,0|0,0:0|2:0,0:0:0:0:
402,305,45445,2,0,P|461:253|462:175,1,161.999995056153,8|0,0:0|0:0,0:0:0:0:
291,160,45836,1,0,0:0:0:0:
374,214,45967,5,2,0:2:0:0:
206,215,46097,2,0,P|152:179|152:85,1,161.999995056153,8|0,0:0|2:0,0:0:0:0:
291,160,46489,1,10,0:2:0:0:
169,306,46619,2,0,P|121:293|80:272,1,80.9999975280763,0|0,2:0|0:0,0:0:0:0:
255,363,46880,6,0,P|306:342|434:332,1,180,4|0,0:0|0:0,0:0:0:0:
289,178,47271,2,0,P|265:227|254:272,1,90,0|0,0:0|2:0,0:0:0:0:
386,155,47532,1,8,0:0:0:0:
232,104,47663,1,0,0:0:0:0:
358,253,47793,1,8,0:0:0:0:
495,131,47924,1,8,0:0:0:0:
324,8,48054,6,0,B|312:51|312:51|325:107,1,90,2|0,0:2|0:0,0:0:0:0:
329,120,48250,1,8,0:0:0:0:
336,144,48315,1,8,0:0:0:0:
467,20,48445,1,8,0:0:0:0:
234,51,48576,1,8,0:0:0:0:
492,163,48706,1,8,0:0:0:0:
215,194,48837,1,8,0:0:0:0:
469,297,48967,6,0,B|429:273|429:273|323:292,1,144,4|0,0:2|0:0,0:0:0:0:
65,335,49358,1,2,0:2:0:0:
206,366,49619,5,8,0:0:0:0:
206,366,49880,1,0,2:0:0:0:
156,262,50141,1,0,0:0:0:0:
156,262,50402,1,0,2:0:0:0:
234,177,50663,1,8,0:0:0:0:
234,177,50924,1,0,2:0:0:0:
158,92,51054,6,0,P|103:88|2:59,1,144,4|0,0:0|0:0,0:0:0:0:
248,13,51445,1,2,0:2:0:0:
306,112,51706,5,8,0:0:0:0:
306,112,51967,1,0,2:0:0:0:
414,73,52097,1,0,0:0:0:0:
500,151,52228,1,0,0:0:0:0:
391,186,52358,2,0,L|234:234,1,144,8|0,0:0|0:0,0:0:0:0:
224,236,52684,1,0,0:0:0:0:
224,236,52750,2,0,B|203:203|203:203|206:166,2,72,8|0|8,0:0|2:0|0:0,0:0:0:0:
277,91,53141,6,0,P|206:63|128:95,1,144,4|0,0:0|0:0,0:0:0:0:
21,279,53532,1,2,0:2:0:0:
130,210,53793,1,8,0:0:0:0:
130,210,54054,1,0,2:0:0:0:
29,128,54315,1,0,0:0:0:0:
29,128,54576,5,0,0:0:0:0:
31,113,54641,1,0,0:0:0:0:
33,98,54706,1,0,0:0:0:0:
35,83,54771,1,0,0:0:0:0:
37,68,54837,2,0,B|108:39|104:102|176:68,1,144,8|8,0:0|0:0,0:0:0:0:
371,12,55228,6,0,P|312:39|279:111,1,144,4|0,0:0|0:0,0:0:0:0:
375,343,55619,1,2,0:2:0:0:
439,254,55880,2,0,B|407:230|362:230|362:230|301:265|230:251,1,216,8|8,0:0|0:0,0:0:0:0:
232,251,56337,1,0,0:0:0:0:
232,251,56402,1,0,0:0:0:0:
127,194,56532,6,0,P|139:265|148:361,1,144,8|0,0:0|0:0,0:0:0:0:
190,109,56924,1,8,0:0:0:0:
46,132,57054,2,0,P|28:188|19:225,1,72,0|0,0:0|2:0,0:0:0:0:
232,251,57315,6,0,B|314:273|396:210|405:125|329:51|329:51|365:21|416:19|416:19|497:60|515:158|515:158|455:122|388:127,1,720,0|0,0:0|0:0,2:0:0:0:
387,127,60054,5,0,0:0:0:0:
312,194,60184,2,0,P|254:179|131:164,1,161.999995056153,2|0,0:0|0:0,0:0:0:0:
109,348,60837,1,2,0:0:0:0:
79,248,60967,2,0,P|127:260|199:271,1,107.999996704102,0|2,0:0|0:0,0:0:0:0:
368,73,61489,6,0,P|281:15|178:72,1,215.999993408203,4|0,0:2|0:0,0:0:0:0:
321,279,61880,2,0,P|328:215|341:161,1,107.999996704102,8|0,0:0|0:0,0:0:0:0:
92,53,62141,1,2,0:2:0:0:
231,223,62271,1,0,0:0:0:0:
451,141,62402,2,0,P|462:92|469:25,1,107.999996704102,8|0,0:0|0:0,0:0:0:0:
127,157,62663,6,0,B|204:152|204:152|260:178|260:178|337:172,1,215.999993408203,2|8,0:2|0:0,0:0:0:0:
492,311,63054,2,0,L|377:322,1,107.999996704102,0|0,0:0|0:2,0:0:0:0:
180,262,63315,1,2,0:2:0:0:
282,72,63445,1,8,0:0:0:0:
272,329,63576,6,0,P|210:308|45:297,1,215.999993408203,4|2,0:0|0:2,0:0:0:0:
336,172,63967,2,0,P|396:161|447:146,1,107.999996704102,8|0,0:0|0:0,0:0:0:0:
201,97,64228,1,2,0:2:0:0:
379,280,64358,1,0,0:0:0:0:
157,345,64489,2,0,B|138:290|138:290|152:236,1,107.999996704102,8|0,0:0|0:0,0:0:0:0:
43,23,64750,6,0,B|60:71|60:71|19:239,1,215.999993408203,2|8,0:2|0:0,0:0:0:0:
264,340,65141,2,0,L|244:210,1,107.999996704102,2|0,0:2|0:0,0:0:0:0:
197,18,65402,2,0,L|174:141,1,107.999996704102,2|8,0:2|0:0,0:0:0:0:
398,320,65663,6,0,P|478:308|479:181,1,215.999993408203,4|0,0:0|0:0,0:0:0:0:
300,134,66054,2,0,P|365:124|415:112,1,107.999996704102,8|0,0:0|0:0,0:0:0:0:
247,233,66315,1,2,0:2:0:0:
85,72,66445,1,0,0:0:0:0:
317,27,66576,2,0,P|312:80|299:133,1,107.999996704102,8|0,0:0|0:0,0:0:0:0:
107,310,66837,6,0,P|96:231|82:177,1,107.999996704102,2|0,0:2|0:0,0:0:0:0:
386,194,67097,1,8,0:0:0:0:
189,96,67228,2,0,P|202:182|210:214,1,107.999996704102,2|0,0:2|0:0,0:0:0:0:
360,340,67489,1,0,0:0:0:0:
299,133,67619,1,8,0:0:0:0:
454,288,67750,6,0,P|385:302|227:313,1,215.999993408203,4|0,0:0|0:0,0:0:0:0:
67,182,68141,2,0,P|124:188|191:203,1,107.999996704102,8|0,0:0|0:0,0:0:0:0:
397,64,68402,1,2,0:2:0:0:
138,84,68532,1,0,0:0:0:0:
392,178,68663,2,0,P|450:171|498:159,1,107.999996704102,8|0,0:0|0:0,0:0:0:0:
263,10,68924,6,0,L|277:123,1,107.999996704102,4|0,0:0|0:0,0:0:0:0:
193,280,69184,1,8,0:0:0:0:
160,80,69315,1,8,0:0:0:0:
160,80,69380,1,8,0:0:0:0:
160,80,69445,5,8,0:0:0:0:
303,298,69576,1,8,0:3:0:0:
57,361,69706,1,8,0:3:0:0:
263,194,69837,6,0,B|303:164|355:168|355:168|394:204|452:198,1,198.000006042481,4|0,0:2|0:0,0:0:0:0:
193,280,70228,2,0,P|103:286|51:167,1,198.000006042481,8|2,0:0|0:2,0:0:0:0:
239,105,70619,1,0,0:0:0:0:
107,32,70750,2,0,P|122:91|132:145,1,99.0000030212403,8|0,0:0|0:0,0:0:0:0:
347,252,71011,6,0,P|323:315|311:358,1,99.0000030212403,2|0,0:2|0:0,0:0:0:0:
441,94,71271,2,0,P|363:128|239:140,1,198.000006042481,8|2,0:0|0:2,0:0:0:0:
44,86,71663,1,0,0:0:0:0:
279,46,71793,1,8,0:0:0:0:
157,208,71924,6,0,B|142:148|142:148|155:79|155:79|138:15,1,198.000006042481,4|0,0:0|0:0,0:0:0:0:
31,200,72315,2,0,L|12:303,1,99.0000030212403,8|0,0:0|0:0,0:0:0:0:
71,356,72511,1,0,0:0:0:0:
71,356,72576,2,0,B|118:368|118:368|176:346,1,99.0000030212403,8|0,0:0|0:0,0:0:0:0:
200,275,72771,1,0,0:0:0:0:
200,275,72836,2,0,B|247:263|247:263|294:280,1,99.0000030212403,8|0,0:0|0:0,0:0:0:0:
512,360,73097,5,2,0:2:0:0:
348,339,73228,1,8,0:0:0:0:
329,309,73293,1,8,0:0:0:0:
328,274,73358,1,8,0:0:0:0:
342,242,73424,1,8,0:0:0:0:
370,222,73489,2,0,L|436:230,1,49.5000015106202,0|0,3:0|3:0,3:0:0:0:
297,158,73619,2,0,L|231:166,1,49.5000015106202,0|0,3:0|3:0,3:0:0:0:
382,109,73750,5,8,0:0:0:0:
392,60,73815,1,8,0:0:0:0:
366,17,73880,1,8,0:0:0:0:
318,5,73945,1,8,0:0:0:0:
272,24,74011,6,0,P|341:47|484:58,1,215.999993408203,4|0,0:2|0:0,0:0:0:0:
229,150,74402,2,0,P|156:137|96:133,1,107.999996704102,8|0,0:0|0:0,0:0:0:0:
303,271,74663,1,2,0:2:0:0:
179,30,74793,1,0,0:0:0:0:
28,236,74924,2,0,P|41:291|50:357,1,107.999996704102,8|0,0:0|0:0,0:0:0:0:
325,173,75184,6,0,P|338:112|354:58,1,107.999996704102,2|0,0:2|0:0,0:0:0:0:
202,244,75445,1,8,0:0:0:0:
15,116,75576,2,0,P|87:130|145:134,1,107.999996704102,2|0,0:2|0:0,0:0:0:0:
290,346,75837,2,0,P|209:356|172:362,1,107.999996704102,2|8,0:2|0:0,0:0:0:0:
409,290,76097,6,0,P|477:273|484:139,1,215.999993408203,4|0,0:0|0:0,0:0:0:0:
285,241,76489,2,0,B|273:291|273:291|290:348,1,107.999996704102,8|0,0:0|0:0,0:0:0:0:
372,108,76750,2,0,L|357:-14,1,107.999996704102,2|0,0:2|0:0,0:0:0:0:
198,111,77011,1,8,0:0:0:0:
418,205,77141,1,0,0:2:0:0:
159,235,77271,6,0,P|228:222|287:218,1,107.999996704102,2|0,0:2|0:0,0:0:0:0:
462,85,77532,1,8,0:0:0:0:
198,111,77663,1,8,0:0:0:0:
418,205,77793,1,2,0:2:0:0:
228,326,77924,1,0,0:0:0:0:
334,116,78054,1,8,0:0:0:0:
112,38,78184,6,0,P|82:116|167:218,1,215.999993408203,4|0,0:0|0:0,0:0:0:0:
347,340,78576,2,0,P|333:278|301:234,1,107.999996704102,8|0,0:0|0:0,0:0:0:0:
27,244,78837,1,2,0:2:0:0:
228,326,78967,1,0,0:0:0:0:
357,135,79097,2,0,P|288:129|238:144,1,107.999996704102,8|0,0:0|0:0,0:0:0:0:
15,46,79358,6,0,B|57:73|57:73|138:79|223:29,1,215.999993408203,2|8,0:2|0:0,0:0:0:0:
308,241,79750,2,0,P|273:295|244:357,1,107.999996704102
53,309,80011,2,0,P|26:231|9:190,1,107.999996704102,2|8,0:2|0:0,0:0:0:0:
224,6,80271,6,0,P|199:96|173:225,1,215.999993408203,4|0,0:0|0:0,0:0:0:0:
432,191,80663,2,0,P|378:160|319:137,1,107.999996704102,8|0,0:0|0:0,0:0:0:0:
128,308,80924,1,2,0:2:0:0:
343,257,81054,1,0,0:0:0:0:
77,169,81185,2,0,P|130:197|182:218,1,107.999996704102,8|0,0:0|0:0,0:0:0:0:
372,46,81445,6,0,B|317:39|317:39|261:71,1,107.999996704102,4|0,0:0|0:0,0:0:0:0:
217,342,81706,1,8,0:0:0:0:
335,142,81837,1,8,0:0:0:0:
174,215,81967,5,0,0:0:0:0:
387,251,82097,1,0,0:0:0:0:
473,51,82228,1,8,0:0:0:0:
267,24,82358,6,0,B|239:69|239:69|265:221,1,198.000006042481,4|0,0:2|0:0,0:0:0:0:
468,342,82750,2,0,P|401:295|288:331,1,198.000006042481,8|2,0:0|0:2,0:0:0:0:
194,138,83141,1,0,0:0:0:0:
94,315,83272,2,0,P|158:304|209:289,1,99.0000030212403,8|0,0:0|0:0,0:0:0:0:
296,43,83533,6,0,P|248:17|191:-5,1,99.0000030212403,2|0,0:2|0:0,0:0:0:0:
3,152,83793,2,0,B|111:105|85:195|221:126,1,198.000006042481,8|2,0:0|0:2,0:0:0:0:
57,238,84185,1,0,0:0:0:0:
138,57,84315,1,8,0:0:0:0:
258,228,84446,6,0,P|301:148|259:51,1,198.000006042481,4|0,0:0|0:0,0:0:0:0:
157,269,84837,2,0,P|171:326|289:376,1,198.000006042481,8|2,0:0|0:2,0:0:0:0:
501,289,85228,1,0,0:0:0:0:
353,155,85358,2,0,P|376:227|386:268,1,99.0000030212403,8|0,0:0|0:0,0:0:0:0:
155,127,85619,6,0,P|167:58|176:16,1,99.0000030212403,2|0,0:2|0:0,0:0:0:0:
249,213,85880,1,8,0:0:0:0:
2,261,86011,1,8,0:0:0:0:
58,91,86141,5,2,0:2:0:0:
159,279,86271,1,0,0:0:0:0:
266,65,86402,1,8,0:0:0:0:
331,300,86532,6,0,P|391:328|502:216,1,215.999993408203,4|0,0:2|0:0,0:0:0:0:
407,29,86924,2,0,P|395:94|390:152,1,107.999996704102,8|0,0:0|0:0,0:0:0:0:
155,110,87184,2,0,P|168:167|179:225,1,107.999996704102,8|0,0:0|0:0,0:0:0:0:
181,252,87380,1,0,0:0:0:0:
179,287,87445,1,8,0:0:0:0:
47,120,87576,6,0,P|71:41|203:11,1,215.999993408203,4|0,0:2|0:0,0:0:0:0:
422,164,87967,2,0,P|370:154|308:135,1,107.999996704102,8|0,0:0|0:0,0:0:0:0:
253,95,88163,1,0,0:0:0:0:
253,95,88228,2,0,P|265:163|270:222,1,107.999996704102,8|0,0:0|0:0,0:0:0:0:
51,291,88489,1,8,0:0:0:0:
207,374,88619,6,0,P|175:283|148:160,1,215.999993408203,4|0,0:2|0:0,0:0:0:0:
371,254,89011,2,0,P|349:323|337:374,1,107.999996704102,8|0,0:0|0:0,0:0:0:0:
488,235,89271,1,8,0:0:0:0:
268,201,89402,1,0,0:0:0:0:
268,201,89467,1,0,0:0:0:0:
268,201,89532,2,0,P|252:139|244:85,1,107.999996704102,8|0,0:0|0:0,0:0:0:0:
481,14,89793,5,8,0:0:0:0:
348,132,89924,1,0,0:0:0:0:
507,204,90054,1,8,0:0:0:0:
366,20,90184,1,0,0:0:0:0:
366,20,90250,1,0,0:0:0:0:
366,20,90315,6,0,P|330:16|291:6,2,71.9999978027344,8|8|8,0:0|0:0|0:3,0:0:0:0:
247,119,90576,2,0,P|213:123|167:134,2,71.9999978027344,8|0|8,3:0|3:0|3:0,3:0:0:0:
367,213,90837,1,4,0:2:0:0:
68,348,99184,5,4,0:2:0:0:
47,223,99445,1,0,0:0:0:0:
163,319,99706,1,0,0:0:0:0:
142,178,99967,1,0,0:0:0:0:
258,290,100228,1,0,0:0:0:0:
237,133,100489,1,0,0:0:0:0:
353,261,100750,1,0,0:0:0:0:
332,88,101011,5,0,0:0:0:0:
258,290,101141,1,8,0:0:0:0:
462,359,101271,5,2,0:2:0:0:
487,203,101532,1,0,0:0:0:0:
336,306,101793,1,0,0:2:0:0:
362,119,102054,1,0,0:0:0:0:
210,253,102315,1,0,0:2:0:0:
240,40,102576,1,0,0:0:0:0:
84,200,102837,5,0,0:2:0:0:
286,153,102967,1,8,0:0:0:0:
65,78,103097,1,8,0:0:0:0:
210,253,103228,1,8,0:0:0:0:
357,65,103358,5,2,0:2:0:0:
159,107,103619,1,0,0:0:0:0:
399,165,103880,1,0,0:0:0:0:
121,204,104141,1,0,0:0:0:0:
443,264,104402,1,0,0:0:0:0:
82,301,104663,1,0,0:0:0:0:
415,261,104924,5,0,0:0:0:0:
144,207,105054,1,8,0:0:0:0:
389,139,105184,1,8,0:0:0:0:
169,81,105315,1,8,0:0:0:0:
264,275,105445,6,0,B|316:235|311:156|258:121|258:121|293:104|314:59|298:20|298:20|260:29|257:66,1,360,4|0,0:2|2:0,0:0:0:0:
257,60,106750,6,0,P|251:35|235:11,2,45
176,177,107011,2,0,P|121:132|165:76,1,157.5,8|0,0:0|2:0,0:0:0:0:
257,60,107532,6,0,P|367:79|420:84,1,144,4|0,0:2|2:0,0:0:0:0:
268,230,107924,2,0,P|334:212|419:179,1,144,2|0,0:2|2:0,0:0:0:0:
407,344,108315,2,0,P|438:298|459:264,1,72,2|0,0:2|2:0,0:0:0:0:
287,319,108576,6,0,P|246:266|163:255,1,144,8|0,0:0|2:0,0:0:0:0:
60,319,108967,2,0,P|126:309|177:243,1,144,0|0,0:2|2:0,0:0:0:0:
170,109,109358,2,0,P|157:128|149:194,1,72,0|0,0:2|2:0,0:0:0:0:
266,85,109619,5,2,0:2:0:0:
139,10,109750,2,0,P|66:11|14:88,1,144,0|2,0:0|0:2,0:0:0:0:
14,191,110141,1,8,0:0:0:0:
188,163,110271,1,0,0:0:0:0:
101,84,110402,1,2,0:2:0:0:
159,264,110532,1,0,0:0:0:0:
317,178,110663,6,0,L|298:27,1,144,4|0,0:0|0:0,0:0:0:0:
216,19,111011,2,0,L|225:88,1,48
232,149,111184,2,0,B|428:125|428:125|392:175,1,252,8|0,0:0|2:0,0:0:0:0:
347,238,111706,6,0,P|351:291|409:365,1,144,4|0,0:0|0:0,0:0:0:0:
270,351,112097,2,0,P|313:321|348:233,1,144,2|0,0:2|0:0,0:0:0:0:
169,245,112489,2,0,P|183:299|205:321,1,72,2|0,0:2|0:0,0:0:0:0:
209,159,112750,5,8,0:0:0:0:
71,255,112880,2,0,P|28:249|5:140,1,144,2|0,0:2|0:0,0:0:0:0:
56,41,113271,2,0,P|118:67|194:79,1,144,2|0,0:2|0:0,0:0:0:0:
294,180,113663,1,8,0:0:0:0:
452,44,113793,6,0,P|360:51|303:72,1,144,2|0,0:2|0:0,0:0:0:0:
303,74,114119,1,0,0:0:0:0:
294,81,114184,1,2,0:2:0:0:
286,88,114250,1,0,0:0:0:0:
279,96,114315,2,0,P|269:42|263:14,1,72,0|0,0:0|2:0,0:0:0:0:
206,177,114576,1,2,0:2:0:0:
397,135,114706,1,0,0:0:0:0:
175,78,114837,6,0,P|116:84|73:156,1,144,8|0,0:0|0:0,0:0:0:0:
240,185,115228,1,0,0:0:0:0:
313,25,115358,2,0,P|372:31|415:103,1,144,10|0,0:2|2:0,0:0:0:0:
281,322,115880,6,0,P|266:252|240:185,1,144,4|0,0:0|2:0,0:0:0:0:
426,223,116271,2,0,P|366:162|301:121,1,144,2|0,0:2|2:0,0:0:0:0:
113,338,116663,2,0,P|132:268|140:197,1,144,8|0,0:0|2:0,0:0:0:0:
280,321,117054,5,0,0:0:0:0:
247,176,117184,2,0,P|229:232|220:272,1,72,2|0,2:0|0:0,0:0:0:0:
386,339,117445,2,0,P|373:290|367:252,1,72,8|0,0:0|2:0,0:0:0:0:
125,257,117706,2,0,P|127:298|133:333,1,72,2|0,0:2|2:0,0:0:0:0:
265,153,117967,5,2,0:2:0:0:
157,156,118097,2,0,P|117:121|136:28,1,144,8|2,0:0|2:0,0:0:0:0:
353,97,118489,2,0,P|368:140|371:176,1,72,8|0,0:2|2:0,0:0:0:0:
227,305,118750,1,0,0:0:0:0:
265,153,118880,1,8,0:0:0:0:
265,153,118945,1,0,0:0:0:0:
265,153,119011,1,2,0:2:0:0:
394,299,119141,6,0,P|329:284|240:278,1,144,8|0,0:0|0:0,0:0:0:0:
111,225,119532,2,0,P|157:218|188:212,1,72,8|0,0:0|2:0,0:0:0:0:
323,84,119793,1,8,0:0:0:0:
123,41,119924,1,8,0:0:0:0:
295,190,120054,6,0,P|357:184|460:186,1,144,4|0,0:0|2:0,0:0:0:0:
152,252,120445,2,0,P|188:190|219:125,1,144,8|0,0:2|2:0,0:0:0:0:
255,289,120837,1,2,0:2:0:0:
118,350,120967,2,0,P|64:352|29:357,1,72,8|0,0:0|2:0,0:0:0:0:
18,137,121228,6,0,P|72:156|172:173,1,144,8|0,0:0|0:0,0:0:0:0:
300,60,121619,2,0,P|283:99|269:135,1,72,8|0,0:0|2:0,0:0:0:0:
264,302,121880,1,2,0:2:0:0:
374,135,122011,1,0,0:0:0:0:
470,281,122141,5,2,0:2:0:0:
315,212,122271,1,8,0:0:0:0:
388,361,122402,2,0,L|372:273,1,72,0|0,0:0|2:0,0:0:0:0:
178,170,122663,2,0,B|168:219|168:219|182:266|182:266|174:312,1,144,8|2,0:0|0:2,0:0:0:0:
75,275,123054,1,8,0:0:0:0:
273,215,123184,5,0,0:0:0:0:
81,104,123315,1,8,0:0:0:0:
77,128,123380,1,0,0:0:0:0:
73,152,123445,1,8,0:0:0:0:
291,101,123576,1,8,0:0:0:0:
99,8,123706,5,8,0:0:0:0:
178,170,123837,1,8,0:0:0:0:
382,114,123967,1,8,0:0:0:0:
197,65,124097,1,8,0:0:0:0:
376,220,124228,6,0,P|424:213|485:118,1,153.000002918243,12|0,0:2|0:0,0:0:0:0:
272,152,124619,1,0,0:0:0:0:
132,244,124750,6,0,P|84:237|23:142,1,153.000002918243,8|0,0:0|0:0,0:0:0:0:
245,142,125141,1,0,0:0:0:0:
392,301,125271,6,0,P|447:294|508:199,1,161.999995056153,8|0,0:0|0:0,0:0:0:0:
281,129,125663,1,0,0:0:0:0:
118,346,125793,6,0,P|63:337|2:242,1,161.999995056153,8|0,0:0|0:0,0:0:0:0:
238,116,126185,1,0,0:0:0:0:
376,214,126315,6,0,P|390:271|354:390,1,170.999995433807,8|0,0:0|0:0,0:0:0:0:
196,285,126706,1,0,0:0:0:0:
118,171,126837,6,0,P|104:114|140:-5,1,170.999995433807,10|0,0:2|0:0,0:0:0:0:
425,111,127228,1,0,0:0:0:0:
396,257,127358,6,0,P|341:307|236:363,1,180,10|0,0:2|0:0,0:0:0:0:
56,263,127750,1,0,0:0:0:0:
110,103,127880,6,0,P|165:53|270:-3,1,180,10|0,0:2|0:0,0:0:0:0:
249,358,128402,5,4,0:2:0:0:
193,185,128663,1,0,0:0:0:0:
369,221,128924,1,8,0:0:0:0:
106,305,129184,1,8,0:0:0:0:
259,82,129445,1,8,0:0:0:0:
367,371,129706,1,8,0:0:0:0:
22,217,129967,1,8,0:3:0:0:
406,82,130228,1,8,0:3:0:0:
159,341,130489,5,8,0:0:0:0:
143,315,130554,1,8,0:0:0:0:
141,285,130619,1,8,0:0:0:0:
149,256,130684,1,8,0:0:0:0:
170,234,130750,1,0,0:0:0:0:
197,222,130815,1,0,0:0:0:0:
226,222,130880,5,8,0:3:0:0:
204,188,130945,1,8,0:3:0:0:
169,167,131011,1,8,0:3:0:0:
129,162,131076,1,8,0:3:0:0:
91,174,131141,1,0,0:0:0:0:
59,197,131206,1,0,0:0:0:0:
40,231,131271,6,8,P|48:259|56:299,1,58.4999973220826
152,139,131402,2,0,P|158:114|163:75,1,58.4999973220826,0|0,3:3|3:3,3:3:0:0:
268,245,131532,5,2,0:2:0:0:
317,245,131597,1,0,0:0:0:0:
360,222,131662,1,8,0:3:0:0:
388,182,131727,1,0,0:0:0:0:
394,133,131792,1,8,3:0:0:0:
377,87,131858,1,0,3:0:0:0:
335,58,131924,1,0,3:0:0:0:
286,51,131989,1,0,3:0:0:0:
238,67,132054,6,0,P|244:102|247:136,1,62.9999980773926,8|0,0:0|2:0,0:0:0:0:
229,358,132184,1,2,0:2:0:0:
77,236,132445,6,0,B|121:226|151:195|151:195|199:246|268:244,1,215.999993408203,4|0,0:2|0:0,0:0:0:0:
464,323,132837,2,0,P|396:340|348:355,1,107.999996704102,8|0,0:0|0:0,0:0:0:0:
512,214,133097,1,2,0:2:0:0:
342,51,133228,1,0,0:0:0:0:
391,231,133358,2,0,P|411:178|425:124,1,107.999996704102,8|0,0:0|0:0,0:0:0:0:
120,66,133619,6,0,P|174:80|232:92,1,107.999996704102,2|0,0:2|0:0,0:0:0:0:
423,342,133880,2,0,P|372:328|311:316,1,107.999996704102,8|0,0:2|0:0,0:0:0:0:
98,336,134141,1,2,0:2:0:0:
320,179,134271,1,0,0:0:0:0:
49,127,134402,1,8,0:0:0:0:
213,325,134532,6,0,B|223:258|223:258|199:191|199:191|212:116,1,215.999993408203,4|0,0:0|0:0,0:0:0:0:
110,270,134924,2,0,L|332:243,1,215.999993408203,8|2,0:0|0:2,0:0:0:0:
264,10,135315,1,0,0:0:0:0:
433,118,135445,2,0,B|380:126|380:126|310:108,1,107.999996704102,8|0,0:0|0:0,0:0:0:0:
103,75,135706,6,0,B|136:117|136:117|156:187,1,107.999996704102,2|0,0:2|0:0,0:0:0:0:
231,382,135967,1,8,0:0:0:0:
31,330,136097,2,0,P|100:309|148:287,1,107.999996704102,2|0,0:2|0:0,0:0:0:0:
395,297,136358,2,0,P|312:263|271:255,1,107.999996704102,2|8,0:2|0:0,0:0:0:0:
23,98,136619,6,0,B|133:121|123:39|231:70,1,215.999993408203,4|0,0:0|0:0,0:0:0:0:
222,287,137011,2,0,P|196:229|191:164,1,107.999996704102,8|0,0:0|0:0,0:0:0:0:
451,131,137271,1,2,0:2:0:0:
378,354,137402,1,0,0:0:0:0:
315,126,137532,2,0,P|333:67|366:22,1,107.999996704102,8|0,0:0|0:0,0:0:0:0:
488,287,137793,6,0,P|423:241|278:267,1,215.999993408203,2|8,0:2|0:0,0:0:0:0:
157,82,138184,2,0,P|169:136|192:190,1,107.999996704102,2|0,0:2|0:0,0:0:0:0:
378,354,138445,1,2,0:2:0:0:
281,104,138576,1,8,0:0:0:0:
87,294,138706,6,0,B|138:271|138:271|225:282|225:282|292:255,1,215.999993408203,4|0,0:0|0:0,0:0:0:0:
487,168,139097,2,0,L|371:131,1,107.999996704102,8|0,0:0|0:0,0:0:0:0:
40,97,139358,2,0,L|163:58,1,107.999996704102,2|0,0:2|0:0,0:0:0:0:
288,356,139619,2,0,B|307:309|307:309|291:254,1,107.999996704102,8|0,0:0|0:0,0:0:0:0:
37,213,139880,5,4,0:0:0:0:
195,305,140011,1,0,0:0:0:0:
300,156,140141,1,8,0:0:0:0:
143,65,140271,1,0,0:0:0:0:
143,65,140337,1,0,0:0:0:0:
143,65,140402,5,8,0:0:0:0:
307,274,140532,1,8,0:3:0:0:
508,97,140663,1,8,0:3:0:0:
267,8,140793,6,0,L|242:218,1,198.000006042481,4|0,0:2|0:0,0:0:0:0:
466,347,141184,2,0,B|356:314|378:384|261:359,1,198.000006042481,8|2,0:0|0:2,0:0:0:0:
74,284,141576,1,0,0:0:0:0:
203,198,141706,2,0,P|193:269|179:326,1,99.0000030212403,8|0,0:0|0:0,0:0:0:0:
7,189,141967,5,2,0:2:0:0:
189,73,142097,1,0,0:0:0:0:
63,15,142228,2,0,P|81:75|95:126,1,99.0000030212403,8|0,0:0|0:0,0:0:0:0:
55,329,142489,2,0,P|81:266|107:217,1,99.0000030212403,2|0,0:2|0:0,0:0:0:0:
311,103,142750,1,8,0:0:0:0:
223,267,142880,6,0,P|215:192|185:61,1,198.000006042481,4|2,0:0|0:2,0:0:0:0:
162,341,143271,1,8,0:0:0:0:
312,212,143402,1,0,0:0:0:0:
340,205,143467,1,0,0:0:0:0:
369,207,143532,1,8,0:0:0:0:
178,170,143663,1,0,0:0:0:0:
150,180,143728,1,0,0:0:0:0:
120,182,143793,2,0,P|60:166|0:158,1,99.0000030212403,8|0,0:0|0:0,0:0:0:0:
223,267,144054,5,2,0:2:0:0:
319,67,144184,1,8,0:0:0:0:
319,67,144250,1,8,0:0:0:0:
319,67,144315,2,0,P|314:39|305:5,1,49.5000015106202,10|0,0:2|2:0,0:0:0:0:
354,155,144445,2,0,P|380:164|414:173,1,49.5000015106202,8|0,0:0|2:0,0:0:0:0:
260,140,144576,2,0,P|238:158|213:183,1,49.5000015106202,10|0,0:2|2:0,0:0:0:0:
222,355,144706,5,8,0:0:0:0:
270,346,144771,1,8,0:0:0:0:
305,312,144836,1,8,0:0:0:0:
316,265,144901,1,8,0:0:0:0:
300,219,144967,6,0,B|224:212|224:212|161:243|161:243|85:238,1,215.999993408203,4|0,0:2|0:0,0:0:0:0:
30,71,145358,2,0,P|91:99|150:120,1,107.999996704102,8|0,0:0|0:0,0:0:0:0:
397,113,145619,1,2,0:2:0:0:
203,24,145750,1,0,0:0:0:0:
289,253,145880,1,8,0:0:0:0:
328,10,146011,1,2,0:2:0:0:
502,134,146141,6,0,P|436:116|377:112,1,107.999996704102,2|0,0:2|0:0,0:0:0:0:
266,287,146402,1,8,0:0:0:0:
112,138,146532,2,0,L|237:154,1,107.999996704102,2|0,0:2|0:0,0:0:0:0:
429,242,146793,1,2,0:2:0:0:
155,251,146924,1,8,0:0:0:0:
390,350,147054,6,0,B|412:307|412:307|390:133,1,215.999993408203,4|0,0:0|0:0,0:0:0:0:
189,27,147445,2,0,P|177:82|168:144,1,107.999996704102,8|0,0:0|0:0,0:0:0:0:
56,359,147706,2,0,P|36:284|29:245,1,107.999996704102,2|0,0:2|0:0,0:0:0:0:
289,98,147967,2,0,P|280:163|272:207,1,107.999996704102,8|0,0:0|0:0,0:0:0:0:
173,338,148228,5,2,0:2:0:0:
360,234,148358,1,0,0:0:0:0:
169,133,148489,1,8,0:0:0:0:
305,358,148619,5,8,0:0:0:0:
85,238,148750,1,0,0:0:0:0:
302,116,148880,1,0,0:0:0:0:
234,237,149011,1,8,0:0:0:0:
233,3,149141,6,0,B|415:27|415:27|382:57,1,215.999993408203,4|0,0:0|0:0,0:0:0:0:
143,166,149532,2,0,L|20:151,1,107.999996704102,8|0,0:0|0:0,0:0:0:0:
234,237,149793,1,2,0:2:0:0:
449,183,149924,1,0,0:0:0:0:
256,102,150054,2,0,L|239:208,1,107.999996704102,8|0,0:0|0:0,0:0:0:0:
429,360,150315,5,2,0:2:0:0:
346,175,150445,1,0,0:0:0:0:
162,289,150576,1,8,0:0:0:0:
429,252,150706,2,0,P|458:191|457:142,1,107.999996704102,2|0,0:2|0:0,0:0:0:0:
161,65,150967,2,0,P|132:126|133:175,1,107.999996704102,2|8,0:2|0:0,0:0:0:0:
284,363,151228,6,0,P|198:335|67:327,1,215.999993408203,4|2,0:0|0:2,0:0:0:0:
260,161,151619,2,0,P|324:151|381:156,1,107.999996704102,8|0,0:0|0:0,0:0:0:0:
186,248,151880,1,2,0:2:0:0:
306,50,152011,1,0,0:0:0:0:
429,252,152141,2,0,P|365:262|308:257,1,107.999996704102,8|0,0:0|0:0,0:0:0:0:
91,109,152402,5,4,0:0:0:0:
260,161,152532,1,0,0:0:0:0:
115,368,152663,1,8,0:0:0:0:
161,180,152793,1,8,0:0:0:0:
12,313,152924,5,2,0:2:0:0:
234,285,153054,1,0,0:0:0:0:
0,167,153184,1,8,0:0:0:0:
273,122,153315,6,0,P|342:132|366:244,1,198.000006042481,4|0,0:2|0:0,0:0:0:0:
161,180,153706,2,0,P|106:106|156:20,1,198.000006042481,8|2,0:0|0:2,0:0:0:0:
297,200,154097,1,0,0:0:0:0:
110,292,154228,2,0,P|47:298|-1:308,1,99.0000030212403,8|0,0:0|0:0,0:0:0:0:
239,103,154489,6,0,P|293:110|350:116,1,99.0000030212403,2|0,0:2|0:0,0:0:0:0:
177,368,154750,2,0,P|162:306|141:169,1,198.000006042481,8|2,0:0|0:2,0:0:0:0:
301,25,155141,1,0,0:0:0:0:
278,241,155271,1,8,0:0:0:0:
507,164,155402,6,0,P|425:114|329:142,1,198.000006042481,4|0,0:0|0:0,0:0:0:0:
180,20,155793,2,0,P|214:75|239:134,1,99.0000030212403,8|0,0:0|0:0,0:0:0:0:
248,259,156054,1,2,0:2:0:0:
301,25,156184,1,0,0:0:0:0:
128,157,156315,2,0,P|200:139|253:131,1,99.0000030212403,8|0,0:0|0:0,0:0:0:0:
466,283,156576,6,0,P|392:267|343:264,1,99.0000030212403,2|0,0:2|0:0,0:0:0:0:
202,279,156837,1,8,0:0:0:0:
432,175,156967,1,8,0:0:0:0:
184,53,157097,5,2,0:2:0:0:
335,253,157228,1,2,0:2:0:0:
119,372,157358,1,8,0:0:0:0:
85,116,157489,6,0,L|305:82,1,215.999993408203,4|0,0:2|0:0,0:0:0:0:
245,317,157880,2,0,B|220:267|220:267|230:199,1,107.999996704102,8|0,0:0|0:0,0:0:0:0:
412,44,158141,1,8,0:0:0:0:
335,253,158271,1,0,0:0:0:0:
335,253,158337,1,0,0:0:0:0:
335,253,158402,1,8,0:0:0:0:
113,228,158532,6,0,P|78:161|151:51,1,215.999993408203,4|0,0:2|0:0,0:0:0:0:
436,204,158924,2,0,P|442:266|428:320,1,107.999996704102,8|0,0:0|0:0,0:0:0:0:
172,340,159184,1,8,0:0:0:0:
258,84,159315,1,0,0:0:0:0:
258,84,159380,1,0,0:0:0:0:
258,84,159445,1,8,0:0:0:0:
321,364,159576,6,0,P|275:266|206:173,1,215.999993408203,4|0,0:2|0:0,0:0:0:0:
361,78,159967,1,8,0:0:0:0:
180,306,160097,1,0,0:0:0:0:
155,53,160228,1,8,0:0:0:0:
405,260,160358,1,0,0:0:0:0:
405,260,160424,1,0,0:0:0:0:
405,260,160489,2,0,L|513:238,1,107.999996704102,8|0,0:0|0:0,0:0:0:0:
314,172,160750,5,8,0:0:0:0:
224,376,160880,1,0,0:0:0:0:
47,205,161011,1,8,0:0:0:0:
319,300,161141,1,0,0:0:0:0:
319,300,161207,1,0,0:0:0:0:
319,300,161272,6,0,P|337:337|346:370,2,71.9999978027344,8|8|8,0:0|0:0|0:3,0:0:0:0:
205,160,161533,2,0,P|221:122|243:87,2,71.9999978027344,8|0|8,3:0|3:0|3:0,3:0:0:0:
137,326,161793,6,0,B|110:344|74:342|74:342|55:301|77:258|120:250,1,180,4|0,0:2|2:0,0:0:0:0:
114,251,162837,6,0,L|189:252,2,48,2|0|0,2:0|2:0|2:0,2:0:0:0:
57,204,163097,1,0,3:0:0:0:
61,131,163184,1,0,3:0:0:0:
128,99,163271,1,0,3:0:0:0:
192,138,163358,2,2,P|189:199|199:299,1,144,8|2,0:0|2:1,0:0:0:0:
478,352,163880,5,4,0:2:0:0:
491,235,164011,2,2,P|430:259|290:300,1,198.000006042481,2|0,0:0|0:0,0:0:0:0:
138,172,164402,2,0,P|191:180|258:206,1,99.0000030212403,8|0,0:0|0:0,0:0:0:0:
363,12,164663,5,2,0:0:0:0:
494,140,164793,2,2,P|412:116|277:93,1,198.000006042481,2|8,0:0|0:0,0:0:0:0:
72,201,165184,1,0,0:0:0:0:
273,190,165315,1,0,0:0:0:0:
100,80,165445,5,8,0:0:0:0:
232,285,165576,2,0,B|349:312|317:234|446:273,1,198.000006042481,2|0,0:2|0:0,0:0:0:0:
273,190,165967,1,2,0:2:0:0:
147,351,166097,2,2,P|81:323|94:199,1,198.000006042481,10|0,0:0|0:0,0:0:0:0:
293,93,166489,6,2,P|277:161|271:207,1,99.0000030212403,10|0,0:0|0:0,0:0:0:0:
183,163,166684,2,0,P|132:115|95:86,1,99.0000030212403,2|0,0:2|2:0,0:0:0:0:
179,38,166880,2,2,P|205:34|234:26,1,49.5000015106202,2|0,0:0|2:0,0:0:0:0:
403,75,167011,6,2,B|352:101|352:101|284:91,1,116.999994644165,12|0,0:0|0:0,0:0:0:0:
162,207,167206,2,2,B|213:181|213:181|281:191,1,116.999994644165,2|0,0:0|2:0,0:0:0:0:
403,272,167402,2,2,L|320:262,1,58.4999973220826,2|0,0:0|2:0,0:0:0:0:
167,317,167532,5,12,0:0:0:0:
461,349,167663,2,2,B|416:298|414:236|414:236|428:209|428:209|420:163,1,198.000006042481,2|0,0:0|0:0,0:0:0:0:
292,46,168054,5,4,0:0:0:0:
210,178,168184,2,2,L|324:149,1,99.0000030212403,0|2,0:0|0:0,0:0:0:0:
158,277,168445,1,0,0:0:0:0:
126,104,168576,2,0,L|106:1,1,99.0000030212403,8|0,0:0|0:0,0:0:0:0:
78,203,168837,1,0,0:0:0:0:
218,39,168967,1,0,0:0:0:0:
218,39,169032,1,0,0:0:0:0:
218,39,169097,6,2,P|261:27|322:17,1,99.0000030212403,4|10,0:0|0:0,0:0:0:0:
482,171,169358,1,2,0:0:0:0:
286,117,169489,1,0,0:0:0:0:
211,295,169619,1,12,0:0:0:0:
377,172,169750,1,2,0:0:0:0:
469,328,169880,2,2,P|421:296|362:273,1,99.0000030212403,2|8,0:0|0:0,0:0:0:0:
149,244,170141,5,4,0:2:0:0:
295,350,170271,2,0,L|301:286,1,45,8|0,0:0|0:0,0:0:0:0:
315,168,170402,1,10,0:0:0:0:
90,345,170532,5,4,0:2:0:0:
110,126,170663,2,0,L|170:171,1,53.9999983520508,8|0,0:0|0:0,0:0:0:0:
288,256,170793,1,10,0:0:0:0:
14,228,170924,5,4,0:2:0:0:
216,375,171054,2,0,L|224:299,1,62.9999980773926,8|0,0:0|0:0,0:0:0:0:
243,121,171185,1,10,0:0:0:0:
90,344,171315,5,4,0:2:0:0:
117,39,171445,1,10,0:0:0:0:
364,219,171576,1,10,0:0:0:0:
171,202,171706,5,8,0:0:0:0:
350,71,171837,1,8,0:0:0:0:
494,237,171967,1,8,0:0:0:0:
315,368,172097,2,2,B|277:318|277:318|290:255,1,125.999996154785,8|2,0:0|0:0,0:0:0:0:
294,237,172293,1,0,0:0:0:0:
298,218,172358,1,2,0:0:0:0:
302,199,172424,1,0,0:0:0:0:
307,178,172489,6,0,P|257:190|199:200,1,99.0000030212403,12|0,0:2|0:0,0:0:0:0:
469,330,172750,2,0,P|443:263|419:222,1,99.0000030212403,8|0,0:0|0:0,0:0:0:0:
133,324,173011,2,0,P|228:323|302:333,1,148.50000453186,8|0,0:0|2:0,0:0:0:0:
365,350,173271,5,6,0:0:0:0:
314,148,173402,2,0,L|297:74,2,66.0000020141602,2|2|0,0:0|2:2|2:0,0:0:0:0:
256,193,173663,1,2,0:0:0:0:
191,160,173750,1,2,2:0:0:0:
128,196,173837,1,2,2:0:0:0:
129,268,173924,6,0,L|149:338,2,66.0000020141602,2|2|2,2:1|2:0|2:1,0:0:0:0:
65,232,174184,1,2,0:0:0:0:
65,159,174271,1,2,2:0:0:0:
128,123,174358,1,2,2:0:0:0:
191,160,174445,6,0,L|249:153,1,49.5000015106202,10|0,0:0|2:0,0:0:0:0:
324,74,174576,2,0,L|390:88,1,49.5000015106202,2|2,0:0|2:1,0:0:0:0:
454,176,174706,6,0,P|447:203|442:259,2,66.0000020141602,2|2|0,0:0|2:0|2:0,0:0:0:0:
353,239,174967,2,0,P|316:265|259:290,1,99.0000030212403,2|0,0:0|2:0,0:0:0:0:
372,84,175228,2,2,P|316:47|275:4,1,99.0000030212403,2|0,0:0|2:0,0:0:0:0:
152,196,175489,6,2,P|215:160|259:147,1,99.0000030212403,8|2,0:0|2:1,0:0:0:0:
403,336,175750,1,0,0:0:0:0:
240,253,175880,1,10,0:0:0:0:
436,204,176011,1,0,0:0:0:0:
254,363,176141,1,10,0:0:0:0:
345,107,176271,1,10,0:0:0:0:
107,219,176402,6,2,B|155:283|243:289|296:223|296:223|286:171|239:151,1,315,4|0,0:2|0:0,0:0:0:0:
223,146,177380,1,0,0:0:0:0:
206,144,177445,1,8,0:3:0:0:
364,326,177576,5,8,0:3:0:0:
469,276,177837,1,8,0:3:0:0:
372,212,178097,1,8,0:3:0:0:
123,341,178228,5,0,0:0:0:0:
40,251,178489,2,0,B|-20:170|22:81|22:81|71:67|103:103|103:103|133:140|182:134|182:134|141:65|185:-10|261:-23|345:21|313:115|242:88,1,675,4|2,0:2|3:2,0:0:0:0:
243,88,180837,5,2,0:0:0:0:
298,191,181097,1,0,0:0:0:0:
213,272,181358,1,2,0:0:0:0:
108,222,181619,6,0,P|87:176|73:78,1,144,2|0,0:0|0:0,0:0:0:0:
101,9,182011,1,0,0:0:0:0:
256,120,182271,1,0,0:0:0:0:
411,9,182532,6,0,B|470:23|494:78|460:127|460:127|431:108|401:107,1,216,2|0,0:0|0:0,0:0:0:0:
274,200,183184,1,2,0:0:0:0:
339,344,183445,1,2,0:0:0:0:
406,200,183706,5,8,0:0:0:0:
60,296,183837,1,6,0:0:0:0:
271,12,184097,1,14,0:0:0:0:
263,367,184358,1,6,0:0:0:0:
57,78,184619,6,0,B|139:86|139:86|182:120|182:120|272:128,1,225,4|0,0:2|0:0,0:0:0:0:
466,7,185011,2,0,B|410:13|410:13|358:60,1,112.5,8|0,0:0|0:0,0:0:0:0:
424,323,185271,1,2,0:2:0:0:
457,115,185402,1,0,0:0:0:0:
233,227,185532,2,0,L|357:202,1,112.5,8|0,0:0|0:0,0:0:0:0:
138,98,185793,6,0,P|80:81|3:70,1,112.5,2|0,0:2|0:0,0:0:0:0:
141,309,186053,1,8,0:0:0:0:
274,116,186184,2,0,P|293:66|308:6,1,112.5,2|0,0:2|0:0,0:0:0:0:
96,202,186445,1,0,0:0:0:0:
354,196,186575,1,8,0:0:0:0:
198,370,186706,6,0,B|219:278|215:198|215:198|226:226|243:253,1,225,4|0,0:0|0:0,0:0:0:0:
458,155,187097,2,0,P|366:164|342:173,1,112.5,8|0,0:0|0:0,0:0:0:0:
116,308,187358,1,2,0:2:0:0:
367,347,187488,1,0,0:0:0:0:
192,116,187619,2,0,P|176:56|170:-7,1,112.5,8|0,0:0|0:0,0:0:0:0:
324,187,187880,5,4,0:0:0:0:
113,233,188011,1,0,0:0:0:0:
69,23,188141,1,8,0:0:0:0:
282,45,188271,1,0,0:0:0:0:
282,45,188337,1,0,0:0:0:0:
282,45,188402,5,8,0:0:0:0:
10,143,188532,1,8,0:3:0:0:
281,292,188663,1,8,0:3:0:0:
152,52,188793,6,0,P|135:146|124:270,1,207.000003948212,4|0,0:2|0:0,0:0:0:0:
407,323,189184,2,0,P|388:247|381:205,1,103.500001974106,8|0,0:0|0:0,0:0:0:0:
381,55,189445,1,2,0:2:0:0:
281,292,189576,1,0,0:0:0:0:
83,135,189706,2,0,P|148:151|203:158,1,103.500001974106,8|0,0:0|0:0,0:0:0:0:
511,113,189967,6,0,P|438:128|390:141,1,103.500001974106,2|0,0:2|0:0,0:0:0:0:
171,269,190228,2,0,P|243:257|298:145,1,207.000003948212,8|2,0:0|0:2,0:0:0:0:
25,6,190619,1,0,0:0:0:0:
184,156,190750,1,8,0:0:0:0:
359,16,190880,6,0,B|254:66|270:-12|160:39,1,207.000003948212,4|2,0:0|0:2,0:0:0:0:
33,200,191271,1,8,0:0:0:0:
204,307,191402,2,0,L|211:244,1,51.7500009870529
224,129,191532,1,8,0:0:0:0:
320,346,191663,6,0,L|328:273,1,56.25
344,114,191793,1,8,0:0:0:0:
149,188,191924,1,0,0:0:0:0:
405,207,192054,5,2,0:2:0:0:
284,24,192184,1,8,0:0:0:0:
251,53,192249,1,8,0:0:0:0:
235,94,192314,1,8,0:0:0:0:
239,138,192380,1,8,0:0:0:0:
260,176,192445,2,0,P|289:191|319:211,1,62.9999980773926,10|0,0:2|2:0,3:0:0:0:
246,333,192575,2,0,P|241:306|243:259,1,62.9999980773926,8|0,3:0|2:0,3:0:0:0:
138,173,192706,5,8,0:0:0:0:
141,229,192771,1,8,0:0:0:0:
107,274,192836,1,8,0:0:0:0:
51,286,192901,1,8,0:0:0:0:
1,258,192967,6,0,B|111:211|95:309|221:257,1,225,4|0,0:2|0:0,0:0:0:0:
450,275,193358,2,0,P|410:332|380:386,1,112.5,8|0,0:0|0:0,0:0:0:0:
158,152,193619,2,0,P|138:72|125:32,1,112.5,2|0,0:2|0:0,0:0:0:0:
290,172,193880,1,8,0:0:0:0:
129,352,194011,1,2,0:2:0:0:
47,177,194141,5,2,0:2:0:0:
241,282,194271,1,0,0:0:0:0:
385,112,194402,1,8,0:0:0:0:
172,118,194532,2,0,L|288:142,1,112.5,2|0,0:2|0:0,0:0:0:0:
505,335,194793,2,0,L|389:311,1,112.5,2|8,0:2|0:0,0:0:0:0:
71,325,195054,6,0,B|123:347|123:347|301:285,1,225,4|0,0:0|0:0,0:0:0:0:
455,84,195445,2,0,P|428:136|411:194,1,112.5,8|0,0:0|0:0,0:0:0:0:
148,17,195706,2,0,P|184:80|204:136,1,112.5,2|0,0:2|0:0,0:0:0:0:
148,344,195967,1,8,0:0:0:0:
72,119,196097,1,2,0:2:0:0:
305,166,196228,6,0,P|257:205|201:236,1,112.5,2|0,0:2|0:0,0:0:0:0:
292,47,196489,1,8,0:0:0:0:
338,292,196619,1,8,0:0:0:0:
198,117,196750,5,2,0:2:0:0:
423,176,196880,1,0,0:0:0:0:
180,236,197011,1,8,0:0:0:0:
412,348,197141,6,0,P|345:330|180:334,1,225,4|0,0:0|0:0,0:0:0:0:
110,115,197532,2,0,B|130:93|144:65|144:65|242:53|274:142,1,225,8|2,0:0|0:2,0:0:0:0:
66,288,197924,1,0,0:0:0:0:
36,46,198054,2,0,P|92:25|165:22,1,112.5,8|0,0:0|0:0,0:0:0:0:
408,158,198315,6,0,P|334:138|278:137,1,112.5,2|0,0:2|0:0,0:0:0:0:
71,191,198576,1,8,0:0:0:0:
225,337,198706,2,0,B|246:287|246:287|230:229,1,112.5,2|0,0:2|0:0,0:0:0:0:
184,18,198967,2,0,B|163:68|163:68|179:126,1,112.5,2|8,0:2|0:0,0:0:0:0:
510,180,199228,6,0,B|430:177|430:177|377:138|377:138|293:135,1,225,4|0,0:0|0:0,0:0:0:0:
87,249,199619,2,0,L|211:232,1,112.5,8|0,0:0|0:0,0:0:0:0:
389,323,199880,1,2,0:2:0:0:
156,350,200011,1,0,0:0:0:0:
151,117,200141,2,0,L|270:133,1,112.5,8|0,0:0|0:0,0:0:0:0:
450,204,200402,5,4,0:0:0:0:
198,233,200532,1,0,0:0:0:0:
386,89,200663,1,8,0:0:0:0:
296,318,200793,1,8,0:0:0:0:
296,318,200858,1,0,0:0:0:0:
296,318,200924,5,8,0:0:0:0:
36,227,201054,1,8,0:0:0:0:
340,201,201184,1,8,0:0:0:0:
76,112,201315,6,0,P|66:185|63:321,1,207.000003948212,4|0,0:2|0:0,0:0:0:0:
339,169,201706,2,0,P|326:101|317:58,1,103.500001974106,12|0,0:0|0:0,0:0:0:0:
246,150,201902,1,0,0:0:0:0:
246,150,201967,2,0,P|193:195|160:224,1,103.500001974106,12|0,0:0|0:0,0:0:0:0:
275,241,202163,1,0,0:0:0:0:
275,241,202228,2,0,P|340:263|382:277,1,103.500001974106,12|0,0:0|0:0,0:0:0:0:
446,215,202424,1,0,0:0:0:0:
446,215,202489,5,12,0:0:0:0:
319,67,202619,2,0,L|304:132,1,51.7500009870529,2|0,0:2|0:0,0:0:0:0:
275,241,202750,1,12,0:0:0:0:
441,95,202880,1,2,0:2:0:0:
213,12,203011,5,12,0:0:0:0:
366,247,203141,1,2,0:2:0:0:
85,298,203271,1,10,0:2:0:0:
271,141,203402,6,0,B|192:128|114:97|114:97|136:118|153:147,1,207.000003948212,4|0,0:0|0:0,0:0:0:0:
233,344,203793,2,0,P|218:281|211:217,1,103.500001974106,12|0,0:0|0:0,0:0:0:0:
358,74,204054,1,12,0:0:0:0:
409,232,204184,1,0,0:0:0:0:
368,221,204250,1,0,0:0:0:0:
333,199,204315,1,12,0:0:0:0:
236,34,204445,1,0,0:0:0:0:
244,75,204511,1,0,0:0:0:0:
245,116,204576,5,12,0:0:0:0:
105,289,204706,1,2,0:2:0:0:
140,85,204837,1,12,0:0:0:0:
262,256,204967,2,0,L|175:231,1,51.7500009870529,2|0,0:2|0:0,0:0:0:0:
28,191,205097,5,12,0:0:0:0:
250,345,205228,1,2,0:2:0:0:
453,169,205358,1,12,0:0:0:0:
231,15,205489,6,0,B|204:123|204:123|253:229,1,225,4|0,0:2|0:0,0:0:0:0:
490,338,205880,2,0,L|354:293,1,112.5,8|0,0:0|0:0,0:0:0:0:
116,201,206141,1,8,0:0:0:0:
320,66,206271,2,0,L|304:129,1,56.25
250,322,206402,1,8,0:0:0:0:
13,175,206532,6,0,B|56:142|116:155|116:155|153:207|217:210,1,225,4|0,0:2|0:0,0:0:0:0:
458,150,206924,1,8,0:0:0:0:
208,49,207054,2,0,P|210:83|218:129,1,56.25
348,315,207184,1,8,0:0:0:0:
309,70,207315,1,0,0:0:0:0:
163,322,207445,1,8,0:0:0:0:
430,188,207576,6,0,B|322:245|319:158|212:210,1,225,4|0,0:2|0:0,0:0:0:0:
68,74,207967,2,0,P|133:86|192:93,1,112.5,8|0,0:0|0:0,0:0:0:0:
274,304,208228,2,0,P|211:313|147:325,1,112.5,8|0,0:0|0:0,0:0:0:0:
406,341,208489,1,8,0:0:0:0:
309,134,208619,1,2,0:2:0:0:
81,184,208750,6,0,P|146:198|200:206,1,112.5,2|0,0:2|0:0,0:0:0:0:
502,55,209011,2,0,P|437:41|377:34,1,112.5,8|0,0:0|0:0,0:0:0:0:
159,94,209271,1,12,0:0:0:0:
321,269,209402,1,0,0:0:0:0:
357,234,209467,1,0,0:0:0:0:
364,184,209532,1,8,0:0:0:0:
339,139,209597,1,8,0:0:0:0:
294,114,209663,6,2,B|271:107|236:118|236:118|202:187|243:262,1,207.000003948212,4|2,0:2|0:0,0:0:0:0:
446,350,210054,2,0,P|458:297|463:232,1,103.500001974106,10|0,0:0|2:0,0:0:0:0:
123,199,210315,2,0,P|136:253|159:310,1,103.500001974106,2|0,0:2|2:0,0:0:0:0:
498,108,210576,2,0,P|472:62|437:9,1,103.500001974106,8|2,0:0|2:0,0:0:0:0:
84,47,210837,5,2,0:0:0:0:
387,114,210967,1,0,0:0:0:0:
219,0,211098,1,8,0:0:0:0:
273,258,211228,1,2,0:0:0:0:
48,244,211358,6,0,L|119:223,1,51.7500009870529,2|0,0:2|2:0,0:0:0:0:
236,175,211489,2,0,L|191:131,1,51.7500009870529,2|0,0:2|2:0,0:0:0:0:
84,47,211619,2,0,L|68:100,1,51.7500009870529,8|0,0:0|2:0,0:0:0:0:
210,282,211750,6,2,B|281:272|281:272|328:235|328:235|403:225,1,207.000003948212,2|2,0:2|0:0,0:0:0:0:
116,196,212141,2,0,P|65:179|-6:167,1,103.500001974106,10|0,0:0|2:0,0:0:0:0:
392,337,212402,2,0,P|439:322|502:291,1,103.500001974106,2|0,0:2|2:0,0:0:0:0:
109,334,212663,2,0,P|64:344|0:369,1,103.500001974106,8|2,0:0|2:0,0:0:0:0:
297,361,212924,5,2,0:0:0:0:
192,61,213054,1,2,0:0:0:0:
209,315,213185,1,8,0:0:0:0:
294,84,213315,1,0,0:0:0:0:
150,233,213445,6,0,L|203:216,1,51.7500009870529,2|0,0:2|2:0,0:0:0:0:
310,276,213576,2,0,L|375:297,1,51.7500009870529,2|0,0:2|2:0,0:0:0:0:
454,212,213706,1,8,0:0:0:0:
123,133,213837,6,2,P|43:214|70:304,1,207.000003948212,2|2,0:2|0:0,0:0:0:0:
256,101,214228,2,0,P|246:50|231:-8,1,103.500001974106,10|0,0:0|2:0,0:0:0:0:
425,232,214489,2,0,P|435:180|449:128,1,103.500001974106,2|0,0:2|2:0,0:0:0:0:
174,333,214750,2,0,P|164:280|148:228,1,103.500001974106,8|2,0:0|2:0,0:0:0:0:
359,39,215011,5,2,0:0:0:0:
282,330,215141,1,0,0:0:0:0:
222,93,215272,1,8,0:0:0:0:
427,260,215402,1,2,0:0:0:0:
183,229,215532,6,0,L|243:221,1,51.7500009870529,2|0,0:2|2:0,0:0:0:0:
311,143,215663,2,0,L|367:136,1,51.7500009870529,2|0,0:2|2:0,0:0:0:0:
437,58,215793,2,0,L|490:51,1,51.7500009870529,8|0,0:0|2:0,0:0:0:0:
288,119,215924,6,2,B|226:117|181:67|181:67|135:67|103:100,1,207.000003948212,4|2,0:0|0:0,0:0:0:0:
107,348,216315,1,10,0:0:0:0:
343,233,216445,1,0,0:0:0:0:
59,183,216576,1,10,0:0:0:0:
293,341,216706,1,0,0:0:0:0:
293,341,216771,1,0,0:0:0:0:
293,341,216837,2,2,B|342:356|342:356|410:341,1,103.500001974106,8|2,0:0|0:0,0:0:0:0:
245,59,217098,5,8,0:0:0:0:
152,351,217228,1,6,0:0:0:0:
384,77,217489,1,6,0:0:0:0:
42,277,217750,1,6,0:0:0:0:
475,189,218011,5,6,0:0:0:0:
256,192,218076,12,0,222315,0:0:0:0:
