osu file format v14

[General]
AudioFilename: audio.mp3
AudioLeadIn: 0
PreviewTime: 59938
Countdown: 0
SampleSet: Soft
StackLeniency: 0.7
Mode: 3
LetterboxInBreaks: 0
SpecialStyle: 0
WidescreenStoryboard: 0

[Editor]
DistanceSpacing: 0.8
BeatDivisor: 4
GridSize: 4
TimelineZoom: 2.899997

[Metadata]
Title:Countdown
TitleUnicode:Countdown
Artist:Imy
ArtistUnicode:Imy
Creator:eZmmR
Version:Affection
Source:
Tags:アイミー みゅー myu 藍月なくる Aitsuki Nakuru Last Words j-rock Jrock Japanese rock featured artist fa Takane6 Ihram-san
BeatmapID:4386466
BeatmapSetID:2092486

[Difficulty]
HPDrainRate:8.5
CircleSize:4
OverallDifficulty:7.7
ApproachRate:5
SliderMultiplier:1.8
SliderTickRate:1

[Events]
//Background and Video events
0,0,"imy321.jpg",0,0
//Break Periods
//Storyboard Layer 0 (Background)
//Storyboard Layer 1 (Fail)
//Storyboard Layer 2 (Pass)
//Storyboard Layer 3 (Foreground)
//Storyboard Layer 4 (Overlay)
//Storyboard Sound Samples

[TimingPoints]
1015,260.869565217391,4,2,1,50,1,0
61406,-100,4,2,1,50,0,1
90754,-100,4,2,1,50,0,0
132362,-100,4,2,1,50,0,1
161710,-100,4,2,1,50,0,0
184536,-100,4,2,1,50,0,1
209580,-100,4,2,1,50,0,0

[HitObjects]
64,192,362,5,0,0:0:0:0:
192,192,362,1,0,0:0:0:0:
320,192,428,1,0,0:0:0:0:
448,192,428,1,0,0:0:0:0:
64,192,493,128,0,623:0:0:0:0:
192,192,493,128,0,623:0:0:0:0:
320,192,623,1,0,0:0:0:0:
448,192,623,1,0,0:0:0:0:
320,192,754,128,0,884:0:0:0:0:
448,192,754,128,0,884:0:0:0:0:
64,192,884,1,0,0:0:0:0:
192,192,884,1,0,0:0:0:0:
64,192,1015,1,0,0:0:0:0:
192,192,1015,128,0,1210:0:0:0:0:
448,192,1015,128,0,1210:0:0:0:0:
320,192,1145,1,0,0:0:0:0:
64,192,1145,1,0,0:0:0:0:
192,192,1275,1,0,0:0:0:0:
448,192,1275,1,0,0:0:0:0:
64,192,1406,1,0,0:0:0:0:
320,192,1406,128,0,1601:0:0:0:0:
448,192,1406,128,0,1601:0:0:0:0:
192,192,1536,1,0,0:0:0:0:
64,192,1536,1,0,0:0:0:0:
320,192,1667,1,0,0:0:0:0:
448,192,1667,1,0,0:0:0:0:
448,192,1797,1,0,0:0:0:0:
320,192,1797,128,0,1993:0:0:0:0:
64,192,1797,128,0,1993:0:0:0:0:
192,192,1928,1,0,0:0:0:0:
448,192,1928,1,0,0:0:0:0:
64,192,2058,1,0,0:0:0:0:
320,192,2058,1,0,0:0:0:0:
64,192,2188,128,0,2384:0:0:0:0:
192,192,2188,128,0,2384:0:0:0:0:
448,192,2188,1,0,0:0:0:0:
448,192,2319,1,0,0:0:0:0:
320,192,2319,1,0,0:0:0:0:
192,192,2449,1,0,0:0:0:0:
64,192,2449,1,0,0:0:0:0:
192,192,2580,128,0,2775:0:0:0:0:
320,192,2580,128,0,2775:0:0:0:0:
448,192,2580,1,0,0:0:0:0:
64,192,2710,1,0,0:0:0:0:
448,192,2710,1,0,0:0:0:0:
64,192,2841,128,0,3036:0:0:0:0:
448,192,2841,128,0,3036:0:0:0:0:
192,192,2841,1,0,0:0:0:0:
192,192,2971,1,0,0:0:0:0:
320,192,2971,1,0,0:0:0:0:
64,192,3101,128,0,4014:0:0:0:0:
448,192,3101,1,0,0:0:0:0:
320,192,3232,128,0,3362:0:0:0:0:
448,192,3493,128,0,3558:0:0:0:0:
320,192,3623,128,0,3688:0:0:0:0:
192,192,3754,128,0,3819:0:0:0:0:
448,192,3754,1,0,0:0:0:0:
320,192,3884,128,0,3949:0:0:0:0:
448,192,4014,128,0,4275:0:0:0:0:
192,192,4014,1,0,0:0:0:0:
320,192,4275,128,0,4341:0:0:0:0:
448,192,4341,128,0,4406:0:0:0:0:
320,192,4406,128,0,4471:0:0:0:0:
448,192,4471,128,0,4536:0:0:0:0:
192,192,4536,1,0,0:0:0:0:
64,192,4536,1,0,0:0:0:0:
320,192,4601,1,0,0:0:0:0:
448,192,4667,1,0,0:0:0:0:
192,192,4667,1,0,0:0:0:0:
64,192,4667,1,0,0:0:0:0:
64,192,4797,1,0,0:0:0:0:
192,192,4797,1,0,0:0:0:0:
448,192,4797,1,0,0:0:0:0:
448,192,4928,1,0,0:0:0:0:
192,192,4928,1,0,0:0:0:0:
64,192,4928,1,0,0:0:0:0:
448,192,5058,1,0,0:0:0:0:
64,192,5058,1,0,0:0:0:0:
320,192,5058,128,0,5319:0:0:0:0:
64,192,5319,1,0,0:0:0:0:
192,192,5319,1,0,0:0:0:0:
448,192,5319,1,0,0:0:0:0:
64,192,5449,128,0,5580:0:0:0:0:
192,192,5449,128,0,5580:0:0:0:0:
448,192,5449,128,0,5580:0:0:0:0:
64,192,5710,128,0,5841:0:0:0:0:
192,192,5710,128,0,5841:0:0:0:0:
448,192,5710,128,0,5841:0:0:0:0:
64,192,5971,128,0,6101:0:0:0:0:
192,192,5971,128,0,6101:0:0:0:0:
448,192,5971,128,0,6101:0:0:0:0:
64,192,6232,128,0,6362:0:0:0:0:
192,192,6232,128,0,6362:0:0:0:0:
448,192,6232,128,0,6362:0:0:0:0:
64,192,6493,128,0,6623:0:0:0:0:
192,192,6493,128,0,6623:0:0:0:0:
448,192,6493,128,0,6623:0:0:0:0:
64,192,6754,128,0,6884:0:0:0:0:
192,192,6754,128,0,6884:0:0:0:0:
448,192,6754,128,0,6884:0:0:0:0:
64,192,7014,1,0,0:0:0:0:
192,192,7014,1,0,0:0:0:0:
448,192,7014,1,0,0:0:0:0:
192,192,7145,1,0,0:0:0:0:
320,192,7145,1,0,0:0:0:0:
448,192,7145,128,0,7406:0:0:0:0:
64,192,7406,1,0,0:0:0:0:
192,192,7406,1,0,0:0:0:0:
320,192,7406,1,0,0:0:0:0:
64,192,7536,128,0,7667:0:0:0:0:
192,192,7536,128,0,7667:0:0:0:0:
320,192,7536,128,0,7667:0:0:0:0:
64,192,7797,128,0,7928:0:0:0:0:
320,192,7797,128,0,7928:0:0:0:0:
192,192,7797,128,0,7928:0:0:0:0:
64,192,8058,128,0,8188:0:0:0:0:
192,192,8058,128,0,8188:0:0:0:0:
320,192,8058,128,0,8188:0:0:0:0:
64,192,8319,128,0,8449:0:0:0:0:
192,192,8319,128,0,8449:0:0:0:0:
320,192,8319,128,0,8449:0:0:0:0:
64,192,8580,128,0,8710:0:0:0:0:
192,192,8580,128,0,8710:0:0:0:0:
320,192,8580,128,0,8710:0:0:0:0:
448,192,8710,1,0,0:0:0:0:
320,192,8775,1,0,0:0:0:0:
192,192,8841,1,0,0:0:0:0:
64,192,8841,1,0,0:0:0:0:
448,192,8841,1,0,0:0:0:0:
192,192,8971,1,0,0:0:0:0:
320,192,8971,1,0,0:0:0:0:
448,192,8971,1,0,0:0:0:0:
64,192,9101,1,0,0:0:0:0:
320,192,9101,1,0,0:0:0:0:
448,192,9101,1,0,0:0:0:0:
320,192,9232,1,0,0:0:0:0:
64,192,9232,1,0,0:0:0:0:
192,192,9232,128,0,10406:0:0:0:0:
320,192,9493,1,0,0:0:0:0:
448,192,9493,1,0,0:0:0:0:
320,192,9623,1,0,0:0:0:0:
448,192,9623,1,0,0:0:0:0:
64,192,9884,1,0,0:0:0:0:
320,192,9884,1,0,0:0:0:0:
448,192,9884,1,0,0:0:0:0:
320,192,10145,1,0,0:0:0:0:
64,192,10145,1,0,0:0:0:0:
320,192,10275,1,0,0:0:0:0:
64,192,10275,1,0,0:0:0:0:
448,192,10406,128,0,10928:0:0:0:0:
192,192,10536,1,0,0:0:0:0:
64,192,10536,1,0,0:0:0:0:
320,192,10536,1,0,0:0:0:0:
64,192,10797,1,0,0:0:0:0:
192,192,10797,1,0,0:0:0:0:
320,192,10928,1,0,0:0:0:0:
192,192,10928,1,0,0:0:0:0:
64,192,10928,128,0,11319:0:0:0:0:
320,192,11058,1,0,0:0:0:0:
448,192,11058,1,0,0:0:0:0:
320,192,11319,1,0,0:0:0:0:
448,192,11319,1,0,0:0:0:0:
64,192,11449,1,0,0:0:0:0:
192,192,11449,1,0,0:0:0:0:
320,192,11514,1,0,0:0:0:0:
448,192,11514,1,0,0:0:0:0:
192,192,11580,1,0,0:0:0:0:
64,192,11580,1,0,0:0:0:0:
320,192,11645,1,0,0:0:0:0:
448,192,11645,1,0,0:0:0:0:
64,192,11710,1,0,0:0:0:0:
192,192,11775,1,0,0:0:0:0:
448,192,11841,1,0,0:0:0:0:
320,192,11841,1,0,0:0:0:0:
192,192,11906,1,0,0:0:0:0:
64,192,11906,1,0,0:0:0:0:
448,192,11971,1,0,0:0:0:0:
320,192,11971,1,0,0:0:0:0:
192,192,12036,1,0,0:0:0:0:
64,192,12036,1,0,0:0:0:0:
448,192,12101,1,0,0:0:0:0:
320,192,12167,1,0,0:0:0:0:
192,192,12232,1,0,0:0:0:0:
64,192,12232,1,0,0:0:0:0:
448,192,12297,1,0,0:0:0:0:
320,192,12297,1,0,0:0:0:0:
64,192,12362,1,0,0:0:0:0:
192,192,12428,1,0,0:0:0:0:
320,192,12493,1,0,0:0:0:0:
448,192,12493,1,0,0:0:0:0:
192,192,12558,1,0,0:0:0:0:
64,192,12558,1,0,0:0:0:0:
320,192,12623,1,0,0:0:0:0:
64,192,12688,1,0,0:0:0:0:
448,192,12754,1,0,0:0:0:0:
320,192,12754,1,0,0:0:0:0:
64,192,12819,1,0,0:0:0:0:
192,192,12819,1,0,0:0:0:0:
448,192,12884,1,0,0:0:0:0:
192,192,12949,1,0,0:0:0:0:
320,192,13014,1,0,0:0:0:0:
448,192,13014,1,0,0:0:0:0:
64,192,13014,128,0,13341:0:0:0:0:
320,192,13145,128,0,13341:0:0:0:0:
448,192,13145,128,0,13341:0:0:0:0:
192,192,13406,128,0,13667:0:0:0:0:
64,192,13406,128,0,13667:0:0:0:0:
448,192,13406,128,0,13536:0:0:0:0:
448,192,13667,128,0,13797:0:0:0:0:
320,192,13667,1,0,0:0:0:0:
192,192,13797,128,0,13928:0:0:0:0:
320,192,13797,1,0,0:0:0:0:
64,192,13797,1,0,0:0:0:0:
448,192,13928,128,0,14058:0:0:0:0:
64,192,14058,128,0,14188:0:0:0:0:
192,192,14058,1,0,0:0:0:0:
320,192,14188,128,0,14319:0:0:0:0:
448,192,14188,1,0,0:0:0:0:
448,192,14319,1,0,0:0:0:0:
192,192,14319,1,0,0:0:0:0:
64,192,14319,128,0,14449:0:0:0:0:
192,192,14449,128,0,14580:0:0:0:0:
448,192,14580,128,0,14710:0:0:0:0:
320,192,14580,1,0,0:0:0:0:
192,192,14710,1,0,0:0:0:0:
64,192,14710,128,0,14841:0:0:0:0:
192,192,14841,1,0,0:0:0:0:
448,192,14841,1,0,0:0:0:0:
320,192,14841,128,0,14971:0:0:0:0:
64,192,14971,128,0,15101:0:0:0:0:
192,192,15101,128,0,15167:0:0:0:0:
448,192,15101,1,0,0:0:0:0:
64,192,15167,128,0,15232:0:0:0:0:
192,192,15232,128,0,15362:0:0:0:0:
448,192,15232,1,0,0:0:0:0:
64,192,15297,128,0,15362:0:0:0:0:
448,192,15362,1,0,0:0:0:0:
320,192,15362,1,0,0:0:0:0:
320,192,15493,128,0,15623:0:0:0:0:
192,192,15493,128,0,15754:0:0:0:0:
64,192,15493,128,0,15754:0:0:0:0:
320,192,15754,1,0,0:0:0:0:
448,192,15754,128,0,15884:0:0:0:0:
192,192,15884,1,0,0:0:0:0:
64,192,15884,1,0,0:0:0:0:
320,192,15884,128,0,16014:0:0:0:0:
192,192,16014,128,0,16145:0:0:0:0:
64,192,16145,128,0,16275:0:0:0:0:
448,192,16145,1,0,0:0:0:0:
320,192,16275,128,0,16406:0:0:0:0:
192,192,16275,1,0,0:0:0:0:
448,192,16406,1,0,0:0:0:0:
192,192,16406,1,0,0:0:0:0:
64,192,16406,128,0,16536:0:0:0:0:
448,192,16536,128,0,16667:0:0:0:0:
192,192,16667,128,0,16797:0:0:0:0:
64,192,16667,1,0,0:0:0:0:
448,192,16797,128,0,16928:0:0:0:0:
320,192,16797,1,0,0:0:0:0:
320,192,16928,1,0,0:0:0:0:
64,192,16928,1,0,0:0:0:0:
192,192,16928,128,0,17058:0:0:0:0:
448,192,17058,128,0,17188:0:0:0:0:
320,192,17188,128,0,17254:0:0:0:0:
64,192,17188,1,0,0:0:0:0:
448,192,17254,128,0,17319:0:0:0:0:
64,192,17319,1,0,0:0:0:0:
320,192,17319,128,0,17449:0:0:0:0:
448,192,17384,128,0,17449:0:0:0:0:
192,192,17449,1,0,0:0:0:0:
64,192,17449,1,0,0:0:0:0:
448,192,17580,128,0,17841:0:0:0:0:
320,192,17580,128,0,17841:0:0:0:0:
192,192,17580,128,0,17710:0:0:0:0:
64,192,17841,128,0,17971:0:0:0:0:
192,192,17841,1,0,0:0:0:0:
448,192,17971,128,0,18101:0:0:0:0:
192,192,17971,128,0,18101:0:0:0:0:
320,192,17971,128,0,18232:0:0:0:0:
64,192,18101,128,0,18362:0:0:0:0:
448,192,18232,128,0,18362:0:0:0:0:
192,192,18232,128,0,18362:0:0:0:0:
320,192,18362,128,0,18493:0:0:0:0:
448,192,18493,128,0,18623:0:0:0:0:
64,192,18493,128,0,18623:0:0:0:0:
192,192,18493,128,0,18754:0:0:0:0:
320,192,18623,128,0,18884:0:0:0:0:
448,192,18754,128,0,18884:0:0:0:0:
64,192,18754,128,0,18884:0:0:0:0:
192,192,18884,128,0,19014:0:0:0:0:
320,192,19014,128,0,19145:0:0:0:0:
448,192,19014,128,0,19145:0:0:0:0:
64,192,19014,128,0,19275:0:0:0:0:
192,192,19145,128,0,19275:0:0:0:0:
320,192,19275,128,0,19341:0:0:0:0:
448,192,19275,1,0,0:0:0:0:
192,192,19341,128,0,19406:0:0:0:0:
320,192,19406,128,0,19536:0:0:0:0:
192,192,19471,128,0,19536:0:0:0:0:
448,192,19536,1,0,0:0:0:0:
64,192,19536,1,0,0:0:0:0:
448,192,19667,128,0,19928:0:0:0:0:
320,192,19667,128,0,19928:0:0:0:0:
64,192,19667,128,0,19797:0:0:0:0:
192,192,19928,1,0,0:0:0:0:
64,192,19928,1,0,0:0:0:0:
448,192,20058,128,0,20123:0:0:0:0:
192,192,20058,128,0,20123:0:0:0:0:
320,192,20058,128,0,20123:0:0:0:0:
448,192,20188,1,0,0:0:0:0:
64,192,20188,1,0,0:0:0:0:
320,192,20319,128,0,20384:0:0:0:0:
192,192,20319,128,0,20384:0:0:0:0:
64,192,20319,128,0,20384:0:0:0:0:
448,192,20449,1,0,0:0:0:0:
320,192,20449,1,0,0:0:0:0:
64,192,20514,1,0,0:0:0:0:
320,192,20580,128,0,20645:0:0:0:0:
448,192,20580,128,0,20645:0:0:0:0:
192,192,20580,128,0,20645:0:0:0:0:
192,192,20710,1,0,0:0:0:0:
64,192,20710,1,0,0:0:0:0:
64,192,20841,128,0,20906:0:0:0:0:
320,192,20841,128,0,20906:0:0:0:0:
448,192,20841,128,0,20906:0:0:0:0:
192,192,20971,128,0,21101:0:0:0:0:
320,192,20971,128,0,21101:0:0:0:0:
448,192,20971,128,0,21101:0:0:0:0:
192,192,21232,128,0,21362:0:0:0:0:
320,192,21232,128,0,21362:0:0:0:0:
448,192,21232,128,0,21362:0:0:0:0:
192,192,21493,128,0,21623:0:0:0:0:
320,192,21493,128,0,21623:0:0:0:0:
448,192,21493,128,0,21623:0:0:0:0:
192,192,21754,128,0,21884:0:0:0:0:
320,192,21754,128,0,21884:0:0:0:0:
448,192,21754,128,0,22014:0:0:0:0:
320,192,22014,128,0,22058:0:0:0:0:
192,192,22058,128,0,22188:0:0:0:0:
448,192,22188,128,0,22319:0:0:0:0:
64,192,22319,128,0,22449:0:0:0:0:
320,192,22449,128,0,22580:0:0:0:0:
192,192,22580,128,0,22710:0:0:0:0:
448,192,22710,128,0,22797:0:0:0:0:
64,192,22797,128,0,22928:0:0:0:0:
320,192,22928,128,0,23058:0:0:0:0:
64,192,23058,128,0,23188:0:0:0:0:
448,192,23188,128,0,23232:0:0:0:0:
320,192,23232,128,0,23275:0:0:0:0:
192,192,23275,128,0,23319:0:0:0:0:
448,192,23319,1,0,0:0:0:0:
64,192,23319,1,0,0:0:0:0:
320,192,23384,1,0,0:0:0:0:
64,192,23449,1,0,0:0:0:0:
192,192,23449,1,0,0:0:0:0:
448,192,23449,1,0,0:0:0:0:
64,192,23580,1,0,0:0:0:0:
192,192,23580,1,0,0:0:0:0:
448,192,23580,1,0,0:0:0:0:
448,192,23710,1,0,0:0:0:0:
192,192,23710,1,0,0:0:0:0:
64,192,23710,1,0,0:0:0:0:
64,192,23841,1,0,0:0:0:0:
320,192,23841,128,0,24101:0:0:0:0:
448,192,23841,128,0,24101:0:0:0:0:
64,192,24101,1,0,0:0:0:0:
192,192,24101,1,0,0:0:0:0:
64,192,24232,128,0,25797:0:0:0:0:
192,192,24232,1,0,0:0:0:0:
448,192,24232,1,0,0:0:0:0:
192,192,24493,1,0,0:0:0:0:
448,192,24493,1,0,0:0:0:0:
320,192,24623,1,0,0:0:0:0:
448,192,24623,1,0,0:0:0:0:
192,192,24754,1,0,0:0:0:0:
320,192,24754,1,0,0:0:0:0:
448,192,24754,1,0,0:0:0:0:
192,192,25014,1,0,0:0:0:0:
320,192,25014,1,0,0:0:0:0:
192,192,25275,1,0,0:0:0:0:
320,192,25275,1,0,0:0:0:0:
448,192,25275,1,0,0:0:0:0:
320,192,25536,1,0,0:0:0:0:
448,192,25536,1,0,0:0:0:0:
192,192,25667,1,0,0:0:0:0:
448,192,25667,1,0,0:0:0:0:
192,192,25797,1,0,0:0:0:0:
320,192,25797,1,0,0:0:0:0:
448,192,25797,1,0,0:0:0:0:
320,192,25928,128,0,26188:0:0:0:0:
64,192,25928,128,0,26188:0:0:0:0:
192,192,26188,1,0,0:0:0:0:
448,192,26188,1,0,0:0:0:0:
64,192,26319,1,0,0:0:0:0:
192,192,26319,1,0,0:0:0:0:
448,192,26319,128,0,26580:0:0:0:0:
320,192,26449,128,0,26710:0:0:0:0:
192,192,26580,128,0,26841:0:0:0:0:
64,192,26580,1,0,0:0:0:0:
448,192,26710,1,0,0:0:0:0:
64,192,26841,1,0,0:0:0:0:
320,192,26841,128,0,26971:0:0:0:0:
448,192,26841,1,0,0:0:0:0:
64,192,26971,128,0,27362:0:0:0:0:
192,192,27101,1,0,0:0:0:0:
448,192,27101,1,0,0:0:0:0:
320,192,27232,1,0,0:0:0:0:
448,192,27232,1,0,0:0:0:0:
192,192,27362,1,0,0:0:0:0:
320,192,27362,1,0,0:0:0:0:
448,192,27362,128,0,27623:0:0:0:0:
64,192,27493,128,0,27754:0:0:0:0:
320,192,27623,1,0,0:0:0:0:
192,192,27623,1,0,0:0:0:0:
320,192,27754,128,0,28014:0:0:0:0:
192,192,27754,1,0,0:0:0:0:
192,192,27884,1,0,0:0:0:0:
448,192,27884,1,0,0:0:0:0:
64,192,27884,1,0,0:0:0:0:
448,192,28014,128,0,29058:0:0:0:0:
64,192,28014,128,0,28275:0:0:0:0:
320,192,28275,1,0,0:0:0:0:
192,192,28275,1,0,0:0:0:0:
192,192,28406,1,0,0:0:0:0:
64,192,28406,1,0,0:0:0:0:
320,192,28406,1,0,0:0:0:0:
64,192,28667,1,0,0:0:0:0:
192,192,28667,1,0,0:0:0:0:
64,192,28797,1,0,0:0:0:0:
320,192,28797,1,0,0:0:0:0:
64,192,28928,1,0,0:0:0:0:
192,192,28928,1,0,0:0:0:0:
320,192,28928,1,0,0:0:0:0:
192,192,29188,1,0,0:0:0:0:
448,192,29188,1,0,0:0:0:0:
64,192,29319,1,0,0:0:0:0:
320,192,29319,1,0,0:0:0:0:
64,192,29449,1,0,0:0:0:0:
192,192,29449,1,0,0:0:0:0:
448,192,29449,128,0,29710:0:0:0:0:
320,192,29710,1,0,0:0:0:0:
64,192,29710,128,0,29971:0:0:0:0:
192,192,29841,1,0,0:0:0:0:
448,192,29841,1,0,0:0:0:0:
192,192,29971,1,0,0:0:0:0:
448,192,29971,1,0,0:0:0:0:
320,192,29971,128,0,30101:0:0:0:0:
64,192,30101,128,0,30754:0:0:0:0:
192,192,30101,128,0,30362:0:0:0:0:
320,192,30362,1,0,0:0:0:0:
448,192,30362,1,0,0:0:0:0:
192,192,30493,1,0,0:0:0:0:
320,192,30493,1,0,0:0:0:0:
448,192,30493,1,0,0:0:0:0:
192,192,30754,1,0,0:0:0:0:
320,192,30754,1,0,0:0:0:0:
64,192,30884,1,0,0:0:0:0:
448,192,30884,1,0,0:0:0:0:
192,192,31014,1,0,0:0:0:0:
320,192,31014,1,0,0:0:0:0:
448,192,31014,128,0,31275:0:0:0:0:
64,192,31275,128,0,31406:0:0:0:0:
192,192,31275,1,0,0:0:0:0:
192,192,31406,128,0,31536:0:0:0:0:
320,192,31406,128,0,31536:0:0:0:0:
448,192,31406,128,0,31536:0:0:0:0:
64,192,31667,128,0,31797:0:0:0:0:
448,192,31667,128,0,31797:0:0:0:0:
320,192,31667,128,0,31797:0:0:0:0:
64,192,31928,128,0,32058:0:0:0:0:
192,192,31928,128,0,32058:0:0:0:0:
448,192,31928,128,0,32058:0:0:0:0:
320,192,32188,128,0,32841:0:0:0:0:
192,192,32188,1,0,0:0:0:0:
64,192,32188,128,0,32449:0:0:0:0:
192,192,32449,1,0,0:0:0:0:
448,192,32449,1,0,0:0:0:0:
192,192,32580,1,0,0:0:0:0:
64,192,32580,1,0,0:0:0:0:
448,192,32580,1,0,0:0:0:0:
64,192,32841,1,0,0:0:0:0:
192,192,32841,1,0,0:0:0:0:
192,192,32971,1,0,0:0:0:0:
320,192,32971,1,0,0:0:0:0:
320,192,33101,1,0,0:0:0:0:
64,192,33101,128,0,33362:0:0:0:0:
448,192,33101,1,0,0:0:0:0:
320,192,33362,1,0,0:0:0:0:
448,192,33362,128,0,33493:0:0:0:0:
64,192,33493,1,0,0:0:0:0:
192,192,33493,1,0,0:0:0:0:
192,192,33623,1,0,0:0:0:0:
320,192,33623,1,0,0:0:0:0:
448,192,33623,128,0,33754:0:0:0:0:
320,192,33754,1,0,0:0:0:0:
64,192,33754,128,0,34014:0:0:0:0:
448,192,34014,128,0,34275:0:0:0:0:
192,192,34014,1,0,0:0:0:0:
64,192,34145,1,0,0:0:0:0:
192,192,34145,1,0,0:0:0:0:
320,192,34145,1,0,0:0:0:0:
64,192,34275,128,0,34928:0:0:0:0:
320,192,34275,128,0,34536:0:0:0:0:
448,192,34536,1,0,0:0:0:0:
192,192,34536,1,0,0:0:0:0:
192,192,34667,1,0,0:0:0:0:
320,192,34667,1,0,0:0:0:0:
448,192,34667,1,0,0:0:0:0:
320,192,34928,1,0,0:0:0:0:
448,192,34928,1,0,0:0:0:0:
320,192,35058,1,0,0:0:0:0:
192,192,35058,1,0,0:0:0:0:
64,192,35188,1,0,0:0:0:0:
192,192,35188,1,0,0:0:0:0:
448,192,35188,128,0,35449:0:0:0:0:
320,192,35449,1,0,0:0:0:0:
64,192,35449,128,0,35710:0:0:0:0:
192,192,35580,1,0,0:0:0:0:
448,192,35580,1,0,0:0:0:0:
192,192,35710,1,0,0:0:0:0:
320,192,35710,1,0,0:0:0:0:
448,192,35710,128,0,35841:0:0:0:0:
192,192,35841,128,0,35971:0:0:0:0:
64,192,35841,1,0,0:0:0:0:
320,192,35971,1,0,0:0:0:0:
448,192,35971,1,0,0:0:0:0:
448,192,36101,128,0,36362:0:0:0:0:
192,192,36101,1,0,0:0:0:0:
320,192,36232,1,0,0:0:0:0:
64,192,36232,1,0,0:0:0:0:
192,192,36232,1,0,0:0:0:0:
64,192,36362,128,0,37275:0:0:0:0:
320,192,36362,128,0,36623:0:0:0:0:
192,192,36623,1,0,0:0:0:0:
448,192,36623,1,0,0:0:0:0:
192,192,36754,1,0,0:0:0:0:
320,192,36754,1,0,0:0:0:0:
448,192,36754,1,0,0:0:0:0:
320,192,37014,1,0,0:0:0:0:
448,192,37014,1,0,0:0:0:0:
192,192,37275,1,0,0:0:0:0:
320,192,37275,1,0,0:0:0:0:
448,192,37275,128,0,37406:0:0:0:0:
64,192,37536,1,0,0:0:0:0:
192,192,37536,128,0,37667:0:0:0:0:
320,192,37797,1,0,0:0:0:0:
448,192,37797,1,0,0:0:0:0:
64,192,37797,128,0,38058:0:0:0:0:
192,192,38058,1,0,0:0:0:0:
448,192,38058,128,0,38319:0:0:0:0:
192,192,38319,1,0,0:0:0:0:
64,192,38319,1,0,0:0:0:0:
320,192,38319,128,0,38449:0:0:0:0:
192,192,38449,128,0,38710:0:0:0:0:
64,192,38449,1,0,0:0:0:0:
448,192,38449,128,0,38580:0:0:0:0:
64,192,38710,1,0,0:0:0:0:
448,192,38710,1,0,0:0:0:0:
320,192,38841,1,0,0:0:0:0:
64,192,38841,1,0,0:0:0:0:
192,192,38841,1,0,0:0:0:0:
64,192,38971,1,0,0:0:0:0:
448,192,38971,1,0,0:0:0:0:
320,192,39101,1,0,0:0:0:0:
448,192,39101,1,0,0:0:0:0:
192,192,39101,128,0,39232:0:0:0:0:
64,192,39232,1,0,0:0:0:0:
320,192,39232,1,0,0:0:0:0:
448,192,39297,1,0,0:0:0:0:
192,192,39362,5,0,0:0:0:0:
64,192,39362,1,0,0:0:0:0:
320,192,39362,1,0,0:0:0:0:
64,192,39493,1,0,0:0:0:0:
448,192,39493,1,0,0:0:0:0:
192,192,39623,1,0,0:0:0:0:
320,192,39623,1,0,0:0:0:0:
448,192,39623,128,0,39754:0:0:0:0:
64,192,39754,1,0,0:0:0:0:
192,192,39754,1,0,0:0:0:0:
320,192,39819,1,0,0:0:0:0:
448,192,39819,1,0,0:0:0:0:
192,192,39884,1,0,0:0:0:0:
64,192,39884,1,0,0:0:0:0:
64,192,40014,128,0,40145:0:0:0:0:
320,192,40014,1,0,0:0:0:0:
448,192,40014,1,0,0:0:0:0:
192,192,40145,1,0,0:0:0:0:
320,192,40145,1,0,0:0:0:0:
192,192,40275,1,0,0:0:0:0:
64,192,40275,1,0,0:0:0:0:
448,192,40275,128,0,40406:0:0:0:0:
320,192,40406,1,0,0:0:0:0:
192,192,40406,1,0,0:0:0:0:
64,192,40536,1,0,0:0:0:0:
448,192,40536,1,0,0:0:0:0:
320,192,40536,128,0,40797:0:0:0:0:
64,192,40797,1,0,0:0:0:0:
192,192,40797,1,0,0:0:0:0:
448,192,40797,1,0,0:0:0:0:
64,192,40928,128,0,41058:0:0:0:0:
320,192,40928,128,0,41058:0:0:0:0:
448,192,40928,128,0,41058:0:0:0:0:
64,192,41188,128,0,41319:0:0:0:0:
320,192,41188,128,0,41319:0:0:0:0:
448,192,41188,128,0,41319:0:0:0:0:
64,192,41449,128,0,41580:0:0:0:0:
448,192,41449,128,0,41580:0:0:0:0:
320,192,41449,128,0,41580:0:0:0:0:
64,192,41710,128,0,41841:0:0:0:0:
448,192,41710,128,0,41841:0:0:0:0:
320,192,41710,128,0,41841:0:0:0:0:
64,192,41971,128,0,42101:0:0:0:0:
320,192,41971,128,0,42101:0:0:0:0:
448,192,41971,128,0,42101:0:0:0:0:
64,192,42232,128,0,42362:0:0:0:0:
320,192,42232,128,0,42362:0:0:0:0:
448,192,42232,128,0,42362:0:0:0:0:
64,192,42493,1,0,0:0:0:0:
320,192,42493,1,0,0:0:0:0:
448,192,42493,1,0,0:0:0:0:
320,192,42623,1,0,0:0:0:0:
192,192,42623,1,0,0:0:0:0:
64,192,42623,128,0,42884:0:0:0:0:
192,192,42884,1,0,0:0:0:0:
320,192,42884,1,0,0:0:0:0:
448,192,42884,1,0,0:0:0:0:
192,192,43014,128,0,43145:0:0:0:0:
320,192,43014,128,0,43145:0:0:0:0:
448,192,43014,128,0,43145:0:0:0:0:
192,192,43275,128,0,43406:0:0:0:0:
320,192,43275,128,0,43406:0:0:0:0:
448,192,43275,128,0,43406:0:0:0:0:
192,192,43536,128,0,43667:0:0:0:0:
320,192,43536,128,0,43667:0:0:0:0:
448,192,43536,128,0,43667:0:0:0:0:
192,192,43797,128,0,43928:0:0:0:0:
320,192,43797,128,0,43928:0:0:0:0:
448,192,43797,128,0,43928:0:0:0:0:
192,192,44058,128,0,44188:0:0:0:0:
320,192,44058,128,0,44188:0:0:0:0:
448,192,44058,128,0,44188:0:0:0:0:
64,192,44188,1,0,0:0:0:0:
192,192,44254,1,0,0:0:0:0:
64,192,44319,1,0,0:0:0:0:
320,192,44319,1,0,0:0:0:0:
448,192,44319,1,0,0:0:0:0:
192,192,44449,1,0,0:0:0:0:
320,192,44449,1,0,0:0:0:0:
448,192,44449,1,0,0:0:0:0:
64,192,44580,1,0,0:0:0:0:
192,192,44580,1,0,0:0:0:0:
448,192,44580,1,0,0:0:0:0:
448,192,44710,1,0,0:0:0:0:
64,192,44710,1,0,0:0:0:0:
320,192,44710,128,0,45884:0:0:0:0:
64,192,44971,1,0,0:0:0:0:
192,192,44971,1,0,0:0:0:0:
64,192,45101,1,0,0:0:0:0:
192,192,45101,1,0,0:0:0:0:
64,192,45362,1,0,0:0:0:0:
192,192,45362,1,0,0:0:0:0:
448,192,45362,1,0,0:0:0:0:
192,192,45623,1,0,0:0:0:0:
448,192,45623,1,0,0:0:0:0:
192,192,45754,1,0,0:0:0:0:
448,192,45754,1,0,0:0:0:0:
64,192,45884,128,0,46406:0:0:0:0:
192,192,46014,1,0,0:0:0:0:
320,192,46014,1,0,0:0:0:0:
448,192,46014,1,0,0:0:0:0:
192,192,46145,1,0,0:0:0:0:
448,192,46145,1,0,0:0:0:0:
448,192,46406,128,0,46797:0:0:0:0:
192,192,46406,1,0,0:0:0:0:
320,192,46406,1,0,0:0:0:0:
64,192,46667,1,0,0:0:0:0:
320,192,46667,1,0,0:0:0:0:
192,192,46797,128,0,47841:0:0:0:0:
64,192,46797,1,0,0:0:0:0:
320,192,46797,1,0,0:0:0:0:
320,192,47058,1,0,0:0:0:0:
448,192,47058,1,0,0:0:0:0:
320,192,47188,1,0,0:0:0:0:
448,192,47188,1,0,0:0:0:0:
64,192,47449,1,0,0:0:0:0:
320,192,47449,1,0,0:0:0:0:
448,192,47449,1,0,0:0:0:0:
320,192,47580,1,0,0:0:0:0:
64,192,47580,1,0,0:0:0:0:
64,192,47710,1,0,0:0:0:0:
320,192,47710,1,0,0:0:0:0:
448,192,47710,1,0,0:0:0:0:
448,192,47841,1,0,0:0:0:0:
320,192,47841,1,0,0:0:0:0:
192,192,47971,128,0,48036:0:0:0:0:
448,192,47971,128,0,48036:0:0:0:0:
64,192,47971,1,0,0:0:0:0:
64,192,48101,1,0,0:0:0:0:
192,192,48101,1,0,0:0:0:0:
320,192,48167,1,0,0:0:0:0:
448,192,48167,1,0,0:0:0:0:
192,192,48232,1,0,0:0:0:0:
64,192,48232,1,0,0:0:0:0:
192,192,48362,1,0,0:0:0:0:
320,192,48362,1,0,0:0:0:0:
448,192,48362,1,0,0:0:0:0:
64,192,48493,1,0,0:0:0:0:
320,192,48493,1,0,0:0:0:0:
448,192,48493,1,0,0:0:0:0:
192,192,48623,1,0,0:0:0:0:
64,192,48623,1,0,0:0:0:0:
320,192,48623,1,0,0:0:0:0:
192,192,48754,1,0,0:0:0:0:
64,192,48754,1,0,0:0:0:0:
448,192,48754,1,0,0:0:0:0:
448,192,48884,128,0,49275:0:0:0:0:
64,192,48884,128,0,49014:0:0:0:0:
192,192,48884,128,0,49014:0:0:0:0:
64,192,49145,1,0,0:0:0:0:
320,192,49145,1,0,0:0:0:0:
320,192,49275,128,0,49536:0:0:0:0:
64,192,49275,128,0,49406:0:0:0:0:
192,192,49536,128,0,49797:0:0:0:0:
64,192,49536,1,0,0:0:0:0:
448,192,49536,1,0,0:0:0:0:
64,192,49797,128,0,50058:0:0:0:0:
192,192,50058,128,0,50319:0:0:0:0:
448,192,50058,1,0,0:0:0:0:
320,192,50319,128,0,50580:0:0:0:0:
448,192,50580,128,0,50841:0:0:0:0:
64,192,50580,1,0,0:0:0:0:
192,192,50580,1,0,0:0:0:0:
320,192,50841,128,0,50971:0:0:0:0:
192,192,50971,128,0,51362:0:0:0:0:
64,192,50971,128,0,51101:0:0:0:0:
448,192,50971,128,0,51101:0:0:0:0:
64,192,51232,1,0,0:0:0:0:
320,192,51232,1,0,0:0:0:0:
64,192,51362,128,0,51623:0:0:0:0:
320,192,51362,128,0,51493:0:0:0:0:
448,192,51623,1,0,0:0:0:0:
192,192,51623,1,0,0:0:0:0:
320,192,51623,1,0,0:0:0:0:
64,192,51884,128,0,52145:0:0:0:0:
320,192,52014,1,0,0:0:0:0:
448,192,52014,1,0,0:0:0:0:
448,192,52145,128,0,52406:0:0:0:0:
320,192,52145,1,0,0:0:0:0:
64,192,52275,1,0,0:0:0:0:
192,192,52275,1,0,0:0:0:0:
320,192,52275,1,0,0:0:0:0:
192,192,52406,128,0,52536:0:0:0:0:
320,192,52536,1,0,0:0:0:0:
448,192,52536,1,0,0:0:0:0:
192,192,52601,1,0,0:0:0:0:
64,192,52601,1,0,0:0:0:0:
320,192,52667,1,0,0:0:0:0:
448,192,52667,128,0,52928:0:0:0:0:
320,192,52928,128,0,53058:0:0:0:0:
64,192,52928,1,0,0:0:0:0:
448,192,53058,128,0,53188:0:0:0:0:
64,192,53058,128,0,53449:0:0:0:0:
192,192,53058,128,0,53188:0:0:0:0:
448,192,53319,1,0,0:0:0:0:
320,192,53319,1,0,0:0:0:0:
320,192,53449,128,0,53710:0:0:0:0:
448,192,53449,128,0,53580:0:0:0:0:
448,192,53710,128,0,53971:0:0:0:0:
192,192,53710,1,0,0:0:0:0:
64,192,53710,1,0,0:0:0:0:
320,192,53971,128,0,54232:0:0:0:0:
192,192,54232,128,0,54493:0:0:0:0:
64,192,54232,1,0,0:0:0:0:
448,192,54493,1,0,0:0:0:0:
64,192,54493,128,0,54754:0:0:0:0:
320,192,54558,1,0,0:0:0:0:
448,192,54623,1,0,0:0:0:0:
320,192,54688,1,0,0:0:0:0:
192,192,54754,1,0,0:0:0:0:
448,192,54754,128,0,55014:0:0:0:0:
320,192,55014,1,0,0:0:0:0:
64,192,55014,128,0,55145:0:0:0:0:
192,192,55145,128,0,55275:0:0:0:0:
320,192,55145,128,0,55275:0:0:0:0:
448,192,55145,128,0,55536:0:0:0:0:
64,192,55406,1,0,0:0:0:0:
320,192,55406,1,0,0:0:0:0:
320,192,55536,128,0,55667:0:0:0:0:
64,192,55536,128,0,55797:0:0:0:0:
192,192,55797,1,0,0:0:0:0:
320,192,55797,1,0,0:0:0:0:
448,192,55797,1,0,0:0:0:0:
448,192,56188,1,0,0:0:0:0:
64,192,56188,1,0,0:0:0:0:
320,192,56254,1,0,0:0:0:0:
192,192,56319,1,0,0:0:0:0:
64,192,56319,128,0,56710:0:0:0:0:
320,192,56449,1,0,0:0:0:0:
448,192,56449,1,0,0:0:0:0:
192,192,56449,1,0,0:0:0:0:
192,192,56710,1,0,0:0:0:0:
448,192,56710,1,0,0:0:0:0:
64,192,56841,1,0,0:0:0:0:
320,192,56841,128,0,57232:0:0:0:0:
448,192,56841,1,0,0:0:0:0:
192,192,56971,1,0,0:0:0:0:
64,192,56971,1,0,0:0:0:0:
192,192,57232,1,0,0:0:0:0:
64,192,57232,128,0,58406:0:0:0:0:
320,192,58145,128,0,58536:0:0:0:0:
448,192,58406,128,0,59058:0:0:0:0:
320,192,58928,128,0,59319:0:0:0:0:
64,192,59319,1,0,0:0:0:0:
192,192,59319,1,0,0:0:0:0:
448,192,59971,128,0,60036:0:0:0:0:
320,192,60036,128,0,60101:0:0:0:0:
192,192,60101,128,0,60167:0:0:0:0:
64,192,60167,128,0,60525:0:0:0:0:
192,192,60525,128,0,60558:0:0:0:0:
320,192,60558,128,0,60786:0:0:0:0:
192,192,60786,128,0,60819:0:0:0:0:
64,192,60819,128,0,61080:0:0:0:0:
192,192,60917,128,0,61080:0:0:0:0:
320,192,61014,128,0,61080:0:0:0:0:
448,192,61145,128,0,61178:0:0:0:0:
320,192,61178,128,0,61210:0:0:0:0:
192,192,61210,128,0,61406:0:0:0:0:
320,192,61406,5,0,0:0:0:0:
64,192,61406,128,0,61667:0:0:0:0:
448,192,61406,128,0,61536:0:0:0:0:
192,192,61536,128,0,61732:0:0:0:0:
448,192,61667,1,0,0:0:0:0:
320,192,61667,128,0,61960:0:0:0:0:
192,192,61797,1,0,0:0:0:0:
64,192,61797,1,0,0:0:0:0:
448,192,61797,128,0,61928:0:0:0:0:
192,192,61928,128,0,61993:0:0:0:0:
64,192,61960,128,0,62188:0:0:0:0:
320,192,62058,1,0,0:0:0:0:
448,192,62058,1,0,0:0:0:0:
192,192,62188,1,0,0:0:0:0:
320,192,62188,1,0,0:0:0:0:
64,192,62319,1,0,0:0:0:0:
448,192,62319,128,0,62710:0:0:0:0:
320,192,62319,1,0,0:0:0:0:
192,192,62449,1,0,0:0:0:0:
320,192,62580,128,0,62710:0:0:0:0:
64,192,62580,128,0,62841:0:0:0:0:
192,192,62710,1,0,0:0:0:0:
448,192,62841,1,0,0:0:0:0:
320,192,62841,128,0,62971:0:0:0:0:
192,192,62841,1,0,0:0:0:0:
64,192,62971,128,0,63297:0:0:0:0:
192,192,63101,1,0,0:0:0:0:
448,192,63101,1,0,0:0:0:0:
192,192,63232,128,0,63297:0:0:0:0:
320,192,63264,128,0,63493:0:0:0:0:
448,192,63297,128,0,63428:0:0:0:0:
64,192,63362,1,0,0:0:0:0:
192,192,63362,128,0,63493:0:0:0:0:
448,192,63493,128,0,63623:0:0:0:0:
64,192,63493,128,0,63754:0:0:0:0:
192,192,63623,128,0,63819:0:0:0:0:
320,192,63754,128,0,64047:0:0:0:0:
448,192,63754,1,0,0:0:0:0:
448,192,63884,128,0,64014:0:0:0:0:
64,192,63884,1,0,0:0:0:0:
192,192,63884,1,0,0:0:0:0:
192,192,64014,128,0,64080:0:0:0:0:
64,192,64047,128,0,64275:0:0:0:0:
448,192,64145,1,0,0:0:0:0:
320,192,64145,1,0,0:0:0:0:
320,192,64275,1,0,0:0:0:0:
192,192,64275,1,0,0:0:0:0:
64,192,64406,1,0,0:0:0:0:
192,192,64406,128,0,64797:0:0:0:0:
448,192,64406,1,0,0:0:0:0:
320,192,64536,1,0,0:0:0:0:
64,192,64667,128,0,64797:0:0:0:0:
448,192,64667,128,0,64928:0:0:0:0:
320,192,64797,1,0,0:0:0:0:
192,192,64928,1,0,0:0:0:0:
64,192,64928,1,0,0:0:0:0:
320,192,64928,128,0,65058:0:0:0:0:
448,192,65058,1,0,0:0:0:0:
192,192,65058,128,0,65319:0:0:0:0:
64,192,65058,128,0,65384:0:0:0:0:
448,192,65188,1,0,0:0:0:0:
320,192,65319,128,0,65580:0:0:0:0:
448,192,65351,128,0,65514:0:0:0:0:
64,192,65449,1,0,0:0:0:0:
192,192,65449,128,0,65580:0:0:0:0:
64,192,65580,128,0,65710:0:0:0:0:
448,192,65580,128,0,65841:0:0:0:0:
320,192,65710,128,0,65906:0:0:0:0:
192,192,65841,128,0,66134:0:0:0:0:
64,192,65841,1,0,0:0:0:0:
64,192,65971,128,0,66101:0:0:0:0:
448,192,65971,1,0,0:0:0:0:
320,192,65971,1,0,0:0:0:0:
320,192,66101,128,0,66167:0:0:0:0:
448,192,66134,128,0,66362:0:0:0:0:
64,192,66232,1,0,0:0:0:0:
192,192,66232,1,0,0:0:0:0:
192,192,66362,1,0,0:0:0:0:
320,192,66362,1,0,0:0:0:0:
448,192,66493,1,0,0:0:0:0:
320,192,66493,1,0,0:0:0:0:
64,192,66493,128,0,66754:0:0:0:0:
192,192,66623,1,0,0:0:0:0:
320,192,66754,128,0,67014:0:0:0:0:
448,192,66754,128,0,66884:0:0:0:0:
64,192,66884,1,0,0:0:0:0:
192,192,66884,1,0,0:0:0:0:
192,192,67014,1,0,0:0:0:0:
64,192,67014,128,0,67275:0:0:0:0:
448,192,67014,1,0,0:0:0:0:
320,192,67145,128,0,67471:0:0:0:0:
192,192,67275,1,0,0:0:0:0:
448,192,67275,1,0,0:0:0:0:
448,192,67406,128,0,67471:0:0:0:0:
192,192,67438,128,0,67667:0:0:0:0:
64,192,67471,128,0,67601:0:0:0:0:
448,192,67536,1,0,0:0:0:0:
320,192,67536,128,0,67667:0:0:0:0:
448,192,67667,128,0,67928:0:0:0:0:
64,192,67667,128,0,67797:0:0:0:0:
320,192,67797,128,0,67993:0:0:0:0:
64,192,67928,1,0,0:0:0:0:
192,192,67928,128,0,68123:0:0:0:0:
64,192,68058,1,0,0:0:0:0:
320,192,68058,128,0,68188:0:0:0:0:
448,192,68091,128,0,68254:0:0:0:0:
64,192,68286,128,0,68449:0:0:0:0:
448,192,68319,128,0,68710:0:0:0:0:
320,192,68319,1,0,0:0:0:0:
192,192,68449,1,0,0:0:0:0:
320,192,68449,1,0,0:0:0:0:
320,192,68580,1,0,0:0:0:0:
192,192,68580,128,0,68645:0:0:0:0:
64,192,68612,128,0,68841:0:0:0:0:
192,192,68841,128,0,68938:0:0:0:0:
320,192,68873,128,0,69004:0:0:0:0:
448,192,68906,128,0,69362:0:0:0:0:
64,192,68971,1,0,0:0:0:0:
192,192,69101,1,0,0:0:0:0:
320,192,69101,1,0,0:0:0:0:
64,192,69232,1,0,0:0:0:0:
192,192,69297,1,0,0:0:0:0:
320,192,69362,128,0,69460:0:0:0:0:
192,192,69395,128,0,69525:0:0:0:0:
64,192,69428,128,0,69884:0:0:0:0:
448,192,69493,1,0,0:0:0:0:
320,192,69623,1,0,0:0:0:0:
192,192,69754,128,0,69884:0:0:0:0:
448,192,69754,1,0,0:0:0:0:
320,192,69786,128,0,70014:0:0:0:0:
448,192,69884,128,0,70145:0:0:0:0:
192,192,70014,128,0,70275:0:0:0:0:
64,192,70014,1,0,0:0:0:0:
64,192,70145,128,0,70406:0:0:0:0:
320,192,70145,1,0,0:0:0:0:
320,192,70275,128,0,70601:0:0:0:0:
192,192,70406,128,0,70569:0:0:0:0:
448,192,70406,1,0,0:0:0:0:
64,192,70536,128,0,70732:0:0:0:0:
448,192,70536,1,0,0:0:0:0:
192,192,70667,128,0,70797:0:0:0:0:
320,192,70699,128,0,70862:0:0:0:0:
448,192,70732,128,0,70928:0:0:0:0:
192,192,70928,128,0,71058:0:0:0:0:
64,192,70960,128,0,71058:0:0:0:0:
320,192,70993,128,0,71058:0:0:0:0:
448,192,71058,1,0,0:0:0:0:
64,192,71188,128,0,71514:0:0:0:0:
320,192,71188,1,0,0:0:0:0:
448,192,71188,128,0,71319:0:0:0:0:
448,192,71449,128,0,71841:0:0:0:0:
320,192,71482,128,0,71645:0:0:0:0:
192,192,71514,128,0,71645:0:0:0:0:
64,192,71580,128,0,71775:0:0:0:0:
192,192,71710,1,0,0:0:0:0:
320,192,71710,128,0,71841:0:0:0:0:
64,192,71841,128,0,71971:0:0:0:0:
192,192,71841,128,0,72101:0:0:0:0:
320,192,71971,128,0,72167:0:0:0:0:
448,192,72101,128,0,72395:0:0:0:0:
64,192,72101,1,0,0:0:0:0:
192,192,72232,1,0,0:0:0:0:
320,192,72232,1,0,0:0:0:0:
64,192,72232,128,0,72362:0:0:0:0:
320,192,72362,128,0,72428:0:0:0:0:
192,192,72395,128,0,72493:0:0:0:0:
64,192,72493,1,0,0:0:0:0:
320,192,72493,1,0,0:0:0:0:
448,192,72493,1,0,0:0:0:0:
192,192,72623,1,0,0:0:0:0:
320,192,72688,1,0,0:0:0:0:
448,192,72754,1,0,0:0:0:0:
192,192,72754,1,0,0:0:0:0:
64,192,72754,128,0,73080:0:0:0:0:
448,192,72884,1,0,0:0:0:0:
192,192,73014,128,0,73145:0:0:0:0:
320,192,73014,1,0,0:0:0:0:
320,192,73145,1,0,0:0:0:0:
448,192,73145,1,0,0:0:0:0:
192,192,73210,1,0,0:0:0:0:
64,192,73210,1,0,0:0:0:0:
320,192,73275,1,0,0:0:0:0:
448,192,73275,1,0,0:0:0:0:
64,192,73341,1,0,0:0:0:0:
192,192,73406,1,0,0:0:0:0:
320,192,73406,1,0,0:0:0:0:
448,192,73471,1,0,0:0:0:0:
64,192,73471,1,0,0:0:0:0:
192,192,73536,1,0,0:0:0:0:
320,192,73601,1,0,0:0:0:0:
64,192,73667,1,0,0:0:0:0:
448,192,73667,1,0,0:0:0:0:
192,192,73732,1,0,0:0:0:0:
320,192,73732,1,0,0:0:0:0:
64,192,73797,1,0,0:0:0:0:
448,192,73797,1,0,0:0:0:0:
320,192,73862,1,0,0:0:0:0:
192,192,73862,1,0,0:0:0:0:
448,192,73928,128,0,74188:0:0:0:0:
64,192,73928,128,0,74058:0:0:0:0:
320,192,74058,128,0,74254:0:0:0:0:
64,192,74188,1,0,0:0:0:0:
192,192,74188,128,0,74482:0:0:0:0:
320,192,74319,1,0,0:0:0:0:
448,192,74319,1,0,0:0:0:0:
64,192,74319,128,0,74449:0:0:0:0:
320,192,74449,128,0,74514:0:0:0:0:
448,192,74482,128,0,74710:0:0:0:0:
192,192,74580,1,0,0:0:0:0:
64,192,74580,1,0,0:0:0:0:
320,192,74710,1,0,0:0:0:0:
192,192,74710,1,0,0:0:0:0:
448,192,74841,1,0,0:0:0:0:
64,192,74841,128,0,75232:0:0:0:0:
192,192,74841,1,0,0:0:0:0:
320,192,74971,1,0,0:0:0:0:
192,192,75101,128,0,75232:0:0:0:0:
448,192,75101,128,0,75362:0:0:0:0:
320,192,75232,1,0,0:0:0:0:
64,192,75362,1,0,0:0:0:0:
320,192,75362,1,0,0:0:0:0:
192,192,75362,128,0,75493:0:0:0:0:
448,192,75493,128,0,75819:0:0:0:0:
320,192,75623,1,0,0:0:0:0:
64,192,75623,1,0,0:0:0:0:
320,192,75754,128,0,75819:0:0:0:0:
192,192,75786,128,0,76014:0:0:0:0:
64,192,75819,128,0,75949:0:0:0:0:
448,192,75884,1,0,0:0:0:0:
320,192,75884,128,0,76014:0:0:0:0:
64,192,76014,128,0,76145:0:0:0:0:
448,192,76014,128,0,76275:0:0:0:0:
320,192,76145,128,0,76341:0:0:0:0:
192,192,76275,128,0,76569:0:0:0:0:
64,192,76275,1,0,0:0:0:0:
64,192,76406,128,0,76536:0:0:0:0:
448,192,76406,1,0,0:0:0:0:
320,192,76406,1,0,0:0:0:0:
320,192,76536,128,0,76601:0:0:0:0:
448,192,76569,128,0,76797:0:0:0:0:
64,192,76667,1,0,0:0:0:0:
192,192,76667,1,0,0:0:0:0:
192,192,76797,1,0,0:0:0:0:
320,192,76797,1,0,0:0:0:0:
64,192,76928,1,0,0:0:0:0:
448,192,76928,128,0,77188:0:0:0:0:
320,192,76928,1,0,0:0:0:0:
192,192,77058,128,0,77319:0:0:0:0:
64,192,77188,128,0,77449:0:0:0:0:
320,192,77188,1,0,0:0:0:0:
320,192,77319,1,0,0:0:0:0:
448,192,77319,1,0,0:0:0:0:
320,192,77449,1,0,0:0:0:0:
192,192,77449,1,0,0:0:0:0:
448,192,77449,128,0,77710:0:0:0:0:
64,192,77580,1,0,0:0:0:0:
192,192,77580,1,0,0:0:0:0:
320,192,77580,128,0,77906:0:0:0:0:
64,192,77710,1,0,0:0:0:0:
192,192,77710,128,0,77808:0:0:0:0:
448,192,77841,128,0,77906:0:0:0:0:
192,192,77873,128,0,78101:0:0:0:0:
64,192,77906,128,0,78036:0:0:0:0:
448,192,77971,1,0,0:0:0:0:
320,192,77971,128,0,78101:0:0:0:0:
448,192,78101,128,0,78232:0:0:0:0:
64,192,78101,128,0,78362:0:0:0:0:
192,192,78232,128,0,78428:0:0:0:0:
320,192,78362,128,0,78656:0:0:0:0:
448,192,78362,1,0,0:0:0:0:
448,192,78493,128,0,78623:0:0:0:0:
64,192,78493,1,0,0:0:0:0:
192,192,78493,1,0,0:0:0:0:
192,192,78623,128,0,78688:0:0:0:0:
64,192,78656,128,0,78884:0:0:0:0:
448,192,78754,1,0,0:0:0:0:
320,192,78754,1,0,0:0:0:0:
320,192,78884,1,0,0:0:0:0:
192,192,78884,1,0,0:0:0:0:
64,192,79014,1,0,0:0:0:0:
192,192,79014,1,0,0:0:0:0:
448,192,79014,128,0,79275:0:0:0:0:
320,192,79145,1,0,0:0:0:0:
192,192,79275,128,0,79536:0:0:0:0:
64,192,79275,128,0,79406:0:0:0:0:
448,192,79406,1,0,0:0:0:0:
320,192,79406,1,0,0:0:0:0:
320,192,79536,1,0,0:0:0:0:
448,192,79536,128,0,79797:0:0:0:0:
64,192,79536,1,0,0:0:0:0:
192,192,79667,128,0,79993:0:0:0:0:
320,192,79797,1,0,0:0:0:0:
64,192,79797,1,0,0:0:0:0:
64,192,79928,128,0,79993:0:0:0:0:
320,192,79960,128,0,80188:0:0:0:0:
448,192,79993,128,0,80123:0:0:0:0:
64,192,80058,1,0,0:0:0:0:
192,192,80058,128,0,80188:0:0:0:0:
64,192,80188,128,0,80449:0:0:0:0:
448,192,80188,128,0,80319:0:0:0:0:
192,192,80319,128,0,80514:0:0:0:0:
448,192,80449,1,0,0:0:0:0:
320,192,80449,128,0,80645:0:0:0:0:
448,192,80580,1,0,0:0:0:0:
192,192,80580,128,0,80710:0:0:0:0:
64,192,80612,128,0,80775:0:0:0:0:
320,192,80808,128,0,80971:0:0:0:0:
64,192,80841,128,0,81232:0:0:0:0:
448,192,80841,1,0,0:0:0:0:
192,192,80971,1,0,0:0:0:0:
448,192,80971,1,0,0:0:0:0:
192,192,81101,1,0,0:0:0:0:
320,192,81101,128,0,81167:0:0:0:0:
448,192,81134,128,0,81362:0:0:0:0:
320,192,81362,128,0,81460:0:0:0:0:
192,192,81395,128,0,81525:0:0:0:0:
64,192,81428,128,0,81884:0:0:0:0:
448,192,81493,1,0,0:0:0:0:
448,192,81623,1,0,0:0:0:0:
320,192,81623,1,0,0:0:0:0:
320,192,81754,1,0,0:0:0:0:
192,192,81754,1,0,0:0:0:0:
192,192,81884,128,0,81982:0:0:0:0:
320,192,81917,128,0,82047:0:0:0:0:
448,192,81949,128,0,82406:0:0:0:0:
64,192,82014,1,0,0:0:0:0:
320,192,82145,1,0,0:0:0:0:
192,192,82145,1,0,0:0:0:0:
320,192,82275,128,0,82406:0:0:0:0:
192,192,82275,1,0,0:0:0:0:
64,192,82308,128,0,82536:0:0:0:0:
192,192,82406,128,0,82667:0:0:0:0:
320,192,82536,128,0,82797:0:0:0:0:
448,192,82536,1,0,0:0:0:0:
448,192,82667,128,0,82928:0:0:0:0:
64,192,82667,1,0,0:0:0:0:
64,192,82797,128,0,83123:0:0:0:0:
192,192,82928,128,0,83091:0:0:0:0:
320,192,82928,1,0,0:0:0:0:
320,192,83058,128,0,83254:0:0:0:0:
448,192,83058,1,0,0:0:0:0:
192,192,83188,128,0,83319:0:0:0:0:
64,192,83221,128,0,83384:0:0:0:0:
448,192,83254,128,0,83449:0:0:0:0:
320,192,83449,128,0,83580:0:0:0:0:
64,192,83482,128,0,83580:0:0:0:0:
192,192,83514,128,0,83580:0:0:0:0:
448,192,83580,1,0,0:0:0:0:
448,192,83710,128,0,84036:0:0:0:0:
192,192,83710,128,0,83841:0:0:0:0:
64,192,83710,1,0,0:0:0:0:
320,192,83971,128,0,84036:0:0:0:0:
192,192,84004,128,0,84167:0:0:0:0:
64,192,84036,128,0,84167:0:0:0:0:
448,192,84101,128,0,84297:0:0:0:0:
320,192,84101,128,0,84362:0:0:0:0:
64,192,84232,1,0,0:0:0:0:
192,192,84232,128,0,84362:0:0:0:0:
448,192,84362,1,0,0:0:0:0:
64,192,84362,128,0,84623:0:0:0:0:
192,192,84493,128,0,84688:0:0:0:0:
320,192,84623,128,0,84884:0:0:0:0:
448,192,84623,1,0,0:0:0:0:
64,192,84754,1,0,0:0:0:0:
192,192,84754,128,0,84949:0:0:0:0:
448,192,84754,1,0,0:0:0:0:
64,192,84884,128,0,85014:0:0:0:0:
320,192,85014,1,0,0:0:0:0:
448,192,85014,128,0,85341:0:0:0:0:
64,192,85145,1,0,0:0:0:0:
320,192,85145,128,0,85406:0:0:0:0:
64,192,85275,1,0,0:0:0:0:
192,192,85275,128,0,85471:0:0:0:0:
64,192,85406,128,0,85471:0:0:0:0:
320,192,85536,1,0,0:0:0:0:
448,192,85536,1,0,0:0:0:0:
192,192,85667,1,0,0:0:0:0:
320,192,85667,1,0,0:0:0:0:
192,192,85797,1,0,0:0:0:0:
64,192,85797,1,0,0:0:0:0:
448,192,85797,128,0,85928:0:0:0:0:
192,192,85928,1,0,0:0:0:0:
64,192,85928,1,0,0:0:0:0:
320,192,86058,1,0,0:0:0:0:
448,192,86058,1,0,0:0:0:0:
64,192,86058,128,0,86384:0:0:0:0:
320,192,86188,1,0,0:0:0:0:
448,192,86188,1,0,0:0:0:0:
192,192,86286,128,0,86384:0:0:0:0:
320,192,86319,128,0,86384:0:0:0:0:
448,192,86319,128,0,86384:0:0:0:0:
192,192,86449,128,0,86775:0:0:0:0:
64,192,86449,128,0,86775:0:0:0:0:
320,192,86449,1,0,0:0:0:0:
448,192,86580,128,0,86775:0:0:0:0:
320,192,86710,128,0,86841:0:0:0:0:
64,192,86841,128,0,86906:0:0:0:0:
192,192,86841,128,0,86906:0:0:0:0:
448,192,86841,128,0,86906:0:0:0:0:
64,192,86971,1,0,0:0:0:0:
320,192,86971,1,0,0:0:0:0:
192,192,87101,128,0,87167:0:0:0:0:
320,192,87101,128,0,87167:0:0:0:0:
448,192,87101,128,0,87167:0:0:0:0:
64,192,87232,1,0,0:0:0:0:
448,192,87232,1,0,0:0:0:0:
320,192,87297,1,0,0:0:0:0:
64,192,87362,128,0,87428:0:0:0:0:
192,192,87362,128,0,87428:0:0:0:0:
448,192,87362,128,0,87428:0:0:0:0:
192,192,87493,1,0,0:0:0:0:
320,192,87493,128,0,87819:0:0:0:0:
448,192,87493,128,0,87819:0:0:0:0:
64,192,87623,128,0,87819:0:0:0:0:
192,192,87754,128,0,87884:0:0:0:0:
64,192,87884,128,0,87949:0:0:0:0:
320,192,87884,128,0,87949:0:0:0:0:
448,192,87884,128,0,87949:0:0:0:0:
64,192,88014,1,0,0:0:0:0:
192,192,88014,1,0,0:0:0:0:
320,192,88080,1,0,0:0:0:0:
192,192,88145,128,0,88210:0:0:0:0:
64,192,88145,128,0,88210:0:0:0:0:
448,192,88145,128,0,88210:0:0:0:0:
64,192,88275,1,0,0:0:0:0:
320,192,88275,1,0,0:0:0:0:
192,192,88406,128,0,88471:0:0:0:0:
320,192,88406,128,0,88471:0:0:0:0:
448,192,88406,128,0,88471:0:0:0:0:
64,192,88536,128,0,88732:0:0:0:0:
192,192,88536,128,0,88732:0:0:0:0:
448,192,88536,128,0,88732:0:0:0:0:
64,192,88797,1,0,0:0:0:0:
320,192,88797,1,0,0:0:0:0:
64,192,88928,128,0,88993:0:0:0:0:
192,192,88928,128,0,88993:0:0:0:0:
448,192,88928,128,0,88993:0:0:0:0:
448,192,89058,1,0,0:0:0:0:
320,192,89058,1,0,0:0:0:0:
64,192,89188,128,0,89254:0:0:0:0:
320,192,89188,128,0,89254:0:0:0:0:
192,192,89188,128,0,89254:0:0:0:0:
64,192,89319,1,0,0:0:0:0:
192,192,89319,1,0,0:0:0:0:
448,192,89384,1,0,0:0:0:0:
64,192,89449,128,0,89514:0:0:0:0:
192,192,89449,128,0,89514:0:0:0:0:
320,192,89449,128,0,89514:0:0:0:0:
320,192,89580,1,0,0:0:0:0:
448,192,89580,1,0,0:0:0:0:
64,192,89710,128,0,89775:0:0:0:0:
192,192,89710,128,0,89775:0:0:0:0:
448,192,89710,128,0,89775:0:0:0:0:
192,192,89841,1,0,0:0:0:0:
320,192,89841,1,0,0:0:0:0:
64,192,89971,128,0,90036:0:0:0:0:
320,192,89971,128,0,90036:0:0:0:0:
448,192,89971,128,0,90036:0:0:0:0:
64,192,90101,1,0,0:0:0:0:
192,192,90101,1,0,0:0:0:0:
320,192,90167,1,0,0:0:0:0:
64,192,90232,1,0,0:0:0:0:
192,192,90232,1,0,0:0:0:0:
448,192,90232,1,0,0:0:0:0:
320,192,90319,1,0,0:0:0:0:
192,192,90406,1,0,0:0:0:0:
448,192,90406,128,0,90667:0:0:0:0:
64,192,90493,1,0,0:0:0:0:
320,192,90493,128,0,90667:0:0:0:0:
192,192,90580,128,0,90667:0:0:0:0:
64,192,90667,1,0,0:0:0:0:
448,192,90754,1,0,0:0:0:0:
192,192,90754,128,0,92775:0:0:0:0:
320,192,90754,128,0,92775:0:0:0:0:
64,192,92710,128,0,92906:0:0:0:0:
448,192,92775,128,0,92906:0:0:0:0:
320,192,92841,128,0,94862:0:0:0:0:
192,192,92841,128,0,94862:0:0:0:0:
64,192,93232,128,0,94862:0:0:0:0:
448,192,93623,128,0,94862:0:0:0:0:
64,192,94928,128,0,99036:0:0:0:0:
448,192,94928,128,0,99036:0:0:0:0:
320,192,97014,128,0,97341:0:0:0:0:
192,192,97014,128,0,97145:0:0:0:0:
192,192,97210,128,0,97732:0:0:0:0:
320,192,97406,128,0,98514:0:0:0:0:
192,192,97797,128,0,99036:0:0:0:0:
320,192,98580,128,0,99036:0:0:0:0:
448,192,99101,128,0,100928:0:0:0:0:
64,192,99101,128,0,99232:0:0:0:0:
192,192,99101,128,0,99232:0:0:0:0:
64,192,99362,128,0,99493:0:0:0:0:
192,192,99362,128,0,99493:0:0:0:0:
64,192,99623,128,0,99754:0:0:0:0:
192,192,99623,128,0,99754:0:0:0:0:
192,192,99884,128,0,100014:0:0:0:0:
64,192,99884,128,0,100014:0:0:0:0:
64,192,100145,128,0,100275:0:0:0:0:
192,192,100145,128,0,100275:0:0:0:0:
64,192,100406,128,0,100536:0:0:0:0:
192,192,100406,128,0,100536:0:0:0:0:
64,192,100667,128,0,100797:0:0:0:0:
192,192,100667,128,0,100797:0:0:0:0:
64,192,100928,128,0,101058:0:0:0:0:
192,192,100928,128,0,101058:0:0:0:0:
320,192,101058,1,0,0:0:0:0:
448,192,101058,128,0,101188:0:0:0:0:
64,192,101188,128,0,102754:0:0:0:0:
192,192,101188,128,0,101319:0:0:0:0:
320,192,101188,128,0,101319:0:0:0:0:
192,192,101449,128,0,101580:0:0:0:0:
320,192,101449,128,0,101580:0:0:0:0:
192,192,101710,128,0,101841:0:0:0:0:
320,192,101710,128,0,101841:0:0:0:0:
192,192,101971,128,0,102101:0:0:0:0:
320,192,101971,128,0,102101:0:0:0:0:
192,192,102232,128,0,102362:0:0:0:0:
320,192,102232,128,0,102362:0:0:0:0:
192,192,102493,128,0,102623:0:0:0:0:
320,192,102493,128,0,102623:0:0:0:0:
320,192,102754,128,0,102884:0:0:0:0:
192,192,102754,128,0,102884:0:0:0:0:
64,192,102884,1,0,0:0:0:0:
448,192,102884,1,0,0:0:0:0:
192,192,103014,1,0,0:0:0:0:
320,192,103014,1,0,0:0:0:0:
64,192,103145,1,0,0:0:0:0:
448,192,103145,1,0,0:0:0:0:
448,192,103275,128,0,104841:0:0:0:0:
64,192,103275,128,0,103406:0:0:0:0:
320,192,103275,128,0,103406:0:0:0:0:
64,192,103536,128,0,103667:0:0:0:0:
320,192,103536,128,0,103667:0:0:0:0:
64,192,103797,128,0,103928:0:0:0:0:
320,192,103797,128,0,103928:0:0:0:0:
64,192,104058,128,0,104188:0:0:0:0:
320,192,104058,128,0,104188:0:0:0:0:
64,192,104319,128,0,104449:0:0:0:0:
320,192,104319,128,0,104449:0:0:0:0:
64,192,104580,128,0,104710:0:0:0:0:
320,192,104580,128,0,104710:0:0:0:0:
64,192,104841,1,0,0:0:0:0:
320,192,104841,1,0,0:0:0:0:
64,192,104971,1,0,0:0:0:0:
320,192,104971,1,0,0:0:0:0:
192,192,105101,1,0,0:0:0:0:
448,192,105101,1,0,0:0:0:0:
448,192,105232,1,0,0:0:0:0:
192,192,105232,1,0,0:0:0:0:
320,192,105362,128,0,106601:0:0:0:0:
448,192,105362,128,0,106601:0:0:0:0:
64,192,105362,1,0,0:0:0:0:
64,192,106406,128,0,106601:0:0:0:0:
320,192,106667,1,0,0:0:0:0:
448,192,106667,1,0,0:0:0:0:
192,192,106732,1,0,0:0:0:0:
64,192,106732,1,0,0:0:0:0:
448,192,106797,1,0,0:0:0:0:
320,192,106797,1,0,0:0:0:0:
192,192,106862,1,0,0:0:0:0:
64,192,106928,1,0,0:0:0:0:
320,192,106928,1,0,0:0:0:0:
448,192,106928,1,0,0:0:0:0:
320,192,107449,128,0,107710:0:0:0:0:
448,192,107449,128,0,107710:0:0:0:0:
64,192,107449,128,0,108101:0:0:0:0:
320,192,107841,128,0,108101:0:0:0:0:
448,192,107841,128,0,108101:0:0:0:0:
192,192,107841,128,0,108362:0:0:0:0:
64,192,108232,128,0,108362:0:0:0:0:
448,192,108232,128,0,108362:0:0:0:0:
320,192,108232,128,0,108362:0:0:0:0:
448,192,108493,128,0,109797:0:0:0:0:
64,192,108493,128,0,108754:0:0:0:0:
192,192,108493,1,0,0:0:0:0:
320,192,108493,128,0,108754:0:0:0:0:
64,192,108884,128,0,109145:0:0:0:0:
320,192,108884,128,0,109145:0:0:0:0:
64,192,109275,128,0,109406:0:0:0:0:
320,192,109275,128,0,109406:0:0:0:0:
64,192,109536,128,0,109797:0:0:0:0:
192,192,109536,128,0,109797:0:0:0:0:
192,192,109928,128,0,110058:0:0:0:0:
448,192,109928,1,0,0:0:0:0:
448,192,110058,1,0,0:0:0:0:
320,192,110058,1,0,0:0:0:0:
64,192,110058,1,0,0:0:0:0:
320,192,110188,1,0,0:0:0:0:
192,192,110188,1,0,0:0:0:0:
64,192,110319,128,0,110449:0:0:0:0:
320,192,110449,1,0,0:0:0:0:
448,192,110449,1,0,0:0:0:0:
320,192,110580,128,0,110710:0:0:0:0:
448,192,110580,128,0,110710:0:0:0:0:
64,192,110580,128,0,110841:0:0:0:0:
320,192,110841,1,0,0:0:0:0:
448,192,110841,1,0,0:0:0:0:
192,192,110928,1,0,0:0:0:0:
64,192,110928,1,0,0:0:0:0:
320,192,111014,1,0,0:0:0:0:
448,192,111014,1,0,0:0:0:0:
64,192,111101,128,0,111493:0:0:0:0:
192,192,111101,128,0,111493:0:0:0:0:
448,192,111101,128,0,111493:0:0:0:0:
64,192,111623,128,0,111884:0:0:0:0:
448,192,111623,128,0,111884:0:0:0:0:
320,192,111623,128,0,112145:0:0:0:0:
192,192,111884,1,0,0:0:0:0:
192,192,112014,128,0,112536:0:0:0:0:
64,192,112014,128,0,112275:0:0:0:0:
448,192,112014,128,0,112275:0:0:0:0:
320,192,112275,1,0,0:0:0:0:
64,192,112406,128,0,112536:0:0:0:0:
448,192,112406,128,0,112536:0:0:0:0:
320,192,112536,1,0,0:0:0:0:
64,192,112667,1,0,0:0:0:0:
192,192,112667,1,0,0:0:0:0:
448,192,112667,1,0,0:0:0:0:
320,192,112667,128,0,113971:0:0:0:0:
64,192,112797,128,0,112928:0:0:0:0:
448,192,112797,128,0,112928:0:0:0:0:
64,192,113058,128,0,113319:0:0:0:0:
448,192,113058,128,0,113319:0:0:0:0:
192,192,113188,128,0,113319:0:0:0:0:
64,192,113449,1,0,0:0:0:0:
192,192,113449,1,0,0:0:0:0:
192,192,113580,128,0,113841:0:0:0:0:
64,192,113580,128,0,113841:0:0:0:0:
448,192,113580,1,0,0:0:0:0:
448,192,113710,128,0,113971:0:0:0:0:
64,192,113971,1,0,0:0:0:0:
192,192,113971,1,0,0:0:0:0:
320,192,114036,1,0,0:0:0:0:
448,192,114101,1,0,0:0:0:0:
64,192,114101,1,0,0:0:0:0:
320,192,114167,1,0,0:0:0:0:
64,192,114232,128,0,114688:0:0:0:0:
192,192,114232,1,0,0:0:0:0:
192,192,114493,128,0,114688:0:0:0:0:
448,192,114493,1,0,0:0:0:0:
320,192,114623,128,0,114688:0:0:0:0:
448,192,114623,1,0,0:0:0:0:
64,192,114754,128,0,115145:0:0:0:0:
192,192,114754,128,0,115014:0:0:0:0:
320,192,114754,1,0,0:0:0:0:
320,192,115014,1,0,0:0:0:0:
448,192,115014,1,0,0:0:0:0:
320,192,115145,1,0,0:0:0:0:
192,192,115145,1,0,0:0:0:0:
448,192,115275,1,0,0:0:0:0:
64,192,115275,128,0,115667:0:0:0:0:
192,192,115275,128,0,115667:0:0:0:0:
448,192,115536,128,0,115667:0:0:0:0:
320,192,115667,128,0,115797:0:0:0:0:
448,192,115797,128,0,116058:0:0:0:0:
64,192,115797,128,0,116449:0:0:0:0:
192,192,115797,128,0,116058:0:0:0:0:
192,192,116188,128,0,116449:0:0:0:0:
320,192,116188,128,0,116449:0:0:0:0:
448,192,116188,128,0,116678:0:0:0:0:
320,192,116580,128,0,116710:0:0:0:0:
192,192,116612,128,0,116743:0:0:0:0:
64,192,116645,128,0,117232:0:0:0:0:
192,192,116971,1,0,0:0:0:0:
448,192,116971,1,0,0:0:0:0:
320,192,117101,128,0,117493:0:0:0:0:
192,192,117232,1,0,0:0:0:0:
448,192,117232,1,0,0:0:0:0:
448,192,117362,128,0,117754:0:0:0:0:
64,192,117362,1,0,0:0:0:0:
192,192,117493,1,0,0:0:0:0:
64,192,117623,1,0,0:0:0:0:
320,192,117623,128,0,117884:0:0:0:0:
192,192,117754,128,0,117884:0:0:0:0:
448,192,117884,128,0,118406:0:0:0:0:
64,192,117884,128,0,118732:0:0:0:0:
192,192,118014,1,0,0:0:0:0:
320,192,118014,1,0,0:0:0:0:
320,192,118145,1,0,0:0:0:0:
192,192,118406,128,0,118797:0:0:0:0:
320,192,118406,1,0,0:0:0:0:
448,192,118667,1,0,0:0:0:0:
320,192,118667,128,0,118862:0:0:0:0:
64,192,118797,1,0,0:0:0:0:
192,192,118862,1,0,0:0:0:0:
320,192,118928,128,0,119188:0:0:0:0:
448,192,118928,1,0,0:0:0:0:
64,192,119058,1,0,0:0:0:0:
192,192,119058,1,0,0:0:0:0:
64,192,119188,128,0,119710:0:0:0:0:
448,192,119319,1,0,0:0:0:0:
320,192,119319,128,0,119580:0:0:0:0:
448,192,119449,1,0,0:0:0:0:
192,192,119449,128,0,119710:0:0:0:0:
448,192,119710,1,0,0:0:0:0:
320,192,119710,1,0,0:0:0:0:
192,192,119841,1,0,0:0:0:0:
64,192,119841,1,0,0:0:0:0:
320,192,119906,1,0,0:0:0:0:
448,192,119971,128,0,121243:0:0:0:0:
192,192,119971,128,0,120232:0:0:0:0:
64,192,119971,128,0,120232:0:0:0:0:
64,192,120362,128,0,120623:0:0:0:0:
192,192,120362,128,0,120623:0:0:0:0:
320,192,120362,1,0,0:0:0:0:
64,192,120754,1,0,0:0:0:0:
192,192,120754,1,0,0:0:0:0:
64,192,120884,128,0,121014:0:0:0:0:
320,192,120884,128,0,121014:0:0:0:0:
320,192,121145,128,0,121275:0:0:0:0:
192,192,121178,128,0,121308:0:0:0:0:
64,192,121210,128,0,122058:0:0:0:0:
320,192,121406,1,0,0:0:0:0:
448,192,121406,1,0,0:0:0:0:
320,192,121536,1,0,0:0:0:0:
192,192,121536,1,0,0:0:0:0:
448,192,121536,1,0,0:0:0:0:
448,192,121797,1,0,0:0:0:0:
192,192,121797,128,0,122058:0:0:0:0:
320,192,121928,128,0,122058:0:0:0:0:
448,192,122058,128,0,122449:0:0:0:0:
320,192,122188,128,0,122319:0:0:0:0:
192,192,122188,1,0,0:0:0:0:
64,192,122319,1,0,0:0:0:0:
192,192,122319,1,0,0:0:0:0:
64,192,122449,128,0,122841:0:0:0:0:
192,192,122580,1,0,0:0:0:0:
448,192,122580,1,0,0:0:0:0:
320,192,122580,128,0,122710:0:0:0:0:
448,192,122841,128,0,123101:0:0:0:0:
192,192,122841,1,0,0:0:0:0:
64,192,122971,1,0,0:0:0:0:
320,192,122971,128,0,123101:0:0:0:0:
64,192,123101,1,0,0:0:0:0:
192,192,123101,1,0,0:0:0:0:
320,192,123232,1,0,0:0:0:0:
448,192,123232,1,0,0:0:0:0:
192,192,123297,1,0,0:0:0:0:
64,192,123297,1,0,0:0:0:0:
320,192,123362,1,0,0:0:0:0:
448,192,123362,1,0,0:0:0:0:
64,192,123493,1,0,0:0:0:0:
192,192,123493,1,0,0:0:0:0:
448,192,123493,1,0,0:0:0:0:
192,192,123623,1,0,0:0:0:0:
64,192,123623,1,0,0:0:0:0:
320,192,123623,1,0,0:0:0:0:
64,192,123754,1,0,0:0:0:0:
320,192,123754,1,0,0:0:0:0:
448,192,123754,1,0,0:0:0:0:
192,192,123884,1,0,0:0:0:0:
320,192,123884,1,0,0:0:0:0:
448,192,123884,1,0,0:0:0:0:
64,192,124014,1,0,0:0:0:0:
192,192,124014,1,0,0:0:0:0:
448,192,124014,1,0,0:0:0:0:
64,192,124145,128,0,124601:0:0:0:0:
320,192,124145,128,0,124341:0:0:0:0:
448,192,124145,128,0,124341:0:0:0:0:
448,192,124406,1,0,0:0:0:0:
320,192,124406,1,0,0:0:0:0:
320,192,124536,1,0,0:0:0:0:
448,192,124536,1,0,0:0:0:0:
448,192,124667,128,0,125123:0:0:0:0:
64,192,124667,128,0,124862:0:0:0:0:
192,192,124667,128,0,124862:0:0:0:0:
64,192,124928,1,0,0:0:0:0:
192,192,124928,1,0,0:0:0:0:
192,192,125058,1,0,0:0:0:0:
64,192,125058,1,0,0:0:0:0:
64,192,125188,128,0,125645:0:0:0:0:
320,192,125188,128,0,125254:0:0:0:0:
448,192,125188,128,0,125254:0:0:0:0:
448,192,125319,128,0,125514:0:0:0:0:
192,192,125319,128,0,125514:0:0:0:0:
320,192,125580,1,0,0:0:0:0:
192,192,125580,1,0,0:0:0:0:
448,192,125710,128,0,126167:0:0:0:0:
64,192,125710,128,0,125906:0:0:0:0:
192,192,125710,128,0,125906:0:0:0:0:
64,192,125971,1,0,0:0:0:0:
192,192,125971,1,0,0:0:0:0:
192,192,126101,1,0,0:0:0:0:
64,192,126101,1,0,0:0:0:0:
320,192,126232,128,0,126688:0:0:0:0:
448,192,126232,128,0,126297:0:0:0:0:
64,192,126232,128,0,126297:0:0:0:0:
192,192,126362,128,0,126558:0:0:0:0:
64,192,126362,128,0,126558:0:0:0:0:
448,192,126623,1,0,0:0:0:0:
192,192,126623,1,0,0:0:0:0:
448,192,126754,128,0,127210:0:0:0:0:
64,192,126754,128,0,127210:0:0:0:0:
192,192,126754,1,0,0:0:0:0:
192,192,127014,128,0,127210:0:0:0:0:
320,192,127014,128,0,127536:0:0:0:0:
448,192,127275,128,0,127471:0:0:0:0:
64,192,127275,128,0,127471:0:0:0:0:
192,192,127275,128,0,127536:0:0:0:0:
64,192,127536,128,0,127601:0:0:0:0:
448,192,127536,128,0,127601:0:0:0:0:
192,192,127667,128,0,127732:0:0:0:0:
320,192,127667,128,0,127732:0:0:0:0:
64,192,127797,128,0,127993:0:0:0:0:
192,192,127797,128,0,127993:0:0:0:0:
448,192,127797,128,0,128254:0:0:0:0:
64,192,128058,128,0,128254:0:0:0:0:
192,192,128058,128,0,128254:0:0:0:0:
320,192,128319,128,0,128514:0:0:0:0:
448,192,128319,128,0,128514:0:0:0:0:
64,192,128319,128,0,128775:0:0:0:0:
320,192,128580,128,0,128775:0:0:0:0:
448,192,128580,128,0,128775:0:0:0:0:
64,192,128841,128,0,129036:0:0:0:0:
320,192,128841,128,0,129036:0:0:0:0:
448,192,128841,128,0,129036:0:0:0:0:
192,192,129101,128,0,129297:0:0:0:0:
64,192,129101,128,0,129297:0:0:0:0:
320,192,129101,128,0,129297:0:0:0:0:
64,192,129362,128,0,129558:0:0:0:0:
192,192,129362,128,0,129558:0:0:0:0:
448,192,129362,128,0,129558:0:0:0:0:
192,192,129623,128,0,129819:0:0:0:0:
320,192,129623,128,0,129819:0:0:0:0:
448,192,129623,128,0,129819:0:0:0:0:
64,192,129884,128,0,130080:0:0:0:0:
320,192,129884,128,0,130080:0:0:0:0:
448,192,129884,128,0,130080:0:0:0:0:
192,192,129884,128,0,130080:0:0:0:0:
64,192,130145,128,0,130341:0:0:0:0:
320,192,130145,128,0,130341:0:0:0:0:
448,192,130145,128,0,130341:0:0:0:0:
192,192,130145,128,0,130341:0:0:0:0:
64,192,130406,5,0,0:0:0:0:
192,192,130406,1,0,0:0:0:0:
320,192,130471,1,0,0:0:0:0:
448,192,130471,1,0,0:0:0:0:
192,192,130536,1,0,0:0:0:0:
64,192,130536,1,0,0:0:0:0:
320,192,130601,1,0,0:0:0:0:
448,192,130601,1,0,0:0:0:0:
64,192,130667,1,0,0:0:0:0:
192,192,130732,1,0,0:0:0:0:
448,192,130797,1,0,0:0:0:0:
320,192,130797,1,0,0:0:0:0:
192,192,130862,1,0,0:0:0:0:
64,192,130862,1,0,0:0:0:0:
448,192,130928,1,0,0:0:0:0:
320,192,130928,1,0,0:0:0:0:
64,192,130993,1,0,0:0:0:0:
320,192,131058,1,0,0:0:0:0:
192,192,131123,1,0,0:0:0:0:
448,192,131188,5,0,0:0:0:0:
64,192,131188,1,0,0:0:0:0:
192,192,131254,1,0,0:0:0:0:
320,192,131254,1,0,0:0:0:0:
448,192,131319,1,0,0:0:0:0:
64,192,131319,1,0,0:0:0:0:
320,192,131384,1,0,0:0:0:0:
192,192,131449,1,0,0:0:0:0:
64,192,131449,1,0,0:0:0:0:
320,192,131514,1,0,0:0:0:0:
448,192,131514,1,0,0:0:0:0:
192,192,131580,1,0,0:0:0:0:
64,192,131580,1,0,0:0:0:0:
320,192,131645,1,0,0:0:0:0:
448,192,131645,1,0,0:0:0:0:
192,192,131710,1,0,0:0:0:0:
64,192,131710,1,0,0:0:0:0:
320,192,131775,1,0,0:0:0:0:
448,192,131775,1,0,0:0:0:0:
64,192,131841,1,0,0:0:0:0:
192,192,131906,1,0,0:0:0:0:
448,192,131971,1,0,0:0:0:0:
320,192,131971,1,0,0:0:0:0:
64,192,131971,1,0,0:0:0:0:
320,192,132101,128,0,132362:0:0:0:0:
192,192,132101,1,0,0:0:0:0:
192,192,132362,5,0,0:0:0:0:
448,192,132362,128,0,132623:0:0:0:0:
64,192,132362,128,0,132493:0:0:0:0:
320,192,132493,128,0,132688:0:0:0:0:
64,192,132623,1,0,0:0:0:0:
192,192,132623,128,0,132917:0:0:0:0:
320,192,132754,1,0,0:0:0:0:
64,192,132754,128,0,132884:0:0:0:0:
448,192,132754,1,0,0:0:0:0:
320,192,132884,128,0,132949:0:0:0:0:
448,192,132917,128,0,133145:0:0:0:0:
192,192,133014,1,0,0:0:0:0:
64,192,133014,1,0,0:0:0:0:
192,192,133145,1,0,0:0:0:0:
320,192,133145,1,0,0:0:0:0:
448,192,133275,1,0,0:0:0:0:
192,192,133275,1,0,0:0:0:0:
64,192,133275,128,0,133667:0:0:0:0:
320,192,133406,1,0,0:0:0:0:
192,192,133536,128,0,133667:0:0:0:0:
448,192,133536,128,0,133797:0:0:0:0:
320,192,133667,1,0,0:0:0:0:
320,192,133797,1,0,0:0:0:0:
64,192,133797,1,0,0:0:0:0:
192,192,133797,128,0,134058:0:0:0:0:
320,192,133928,128,0,134058:0:0:0:0:
448,192,134058,128,0,134254:0:0:0:0:
64,192,134058,1,0,0:0:0:0:
320,192,134188,128,0,134254:0:0:0:0:
192,192,134221,128,0,134449:0:0:0:0:
64,192,134254,128,0,134384:0:0:0:0:
320,192,134319,128,0,134449:0:0:0:0:
448,192,134319,1,0,0:0:0:0:
64,192,134449,128,0,134580:0:0:0:0:
448,192,134449,128,0,134710:0:0:0:0:
320,192,134580,128,0,134775:0:0:0:0:
192,192,134710,128,0,135004:0:0:0:0:
64,192,134710,1,0,0:0:0:0:
448,192,134841,1,0,0:0:0:0:
320,192,134841,1,0,0:0:0:0:
64,192,134841,128,0,134971:0:0:0:0:
320,192,134971,128,0,135036:0:0:0:0:
448,192,135004,128,0,135232:0:0:0:0:
64,192,135101,1,0,0:0:0:0:
192,192,135101,1,0,0:0:0:0:
320,192,135232,1,0,0:0:0:0:
192,192,135232,1,0,0:0:0:0:
448,192,135362,1,0,0:0:0:0:
64,192,135362,1,0,0:0:0:0:
320,192,135362,128,0,135754:0:0:0:0:
192,192,135493,1,0,0:0:0:0:
448,192,135623,128,0,135754:0:0:0:0:
64,192,135623,128,0,135884:0:0:0:0:
192,192,135754,1,0,0:0:0:0:
448,192,135884,1,0,0:0:0:0:
192,192,135884,128,0,136014:0:0:0:0:
320,192,135884,1,0,0:0:0:0:
64,192,136014,1,0,0:0:0:0:
448,192,136014,128,0,136341:0:0:0:0:
320,192,136014,128,0,136275:0:0:0:0:
64,192,136145,1,0,0:0:0:0:
192,192,136275,128,0,136536:0:0:0:0:
64,192,136308,128,0,136471:0:0:0:0:
448,192,136406,1,0,0:0:0:0:
320,192,136406,128,0,136536:0:0:0:0:
448,192,136536,128,0,136667:0:0:0:0:
64,192,136536,128,0,136797:0:0:0:0:
192,192,136667,128,0,136862:0:0:0:0:
320,192,136797,128,0,137091:0:0:0:0:
448,192,136797,1,0,0:0:0:0:
64,192,136928,1,0,0:0:0:0:
192,192,136928,1,0,0:0:0:0:
448,192,136928,128,0,137058:0:0:0:0:
192,192,137058,128,0,137123:0:0:0:0:
64,192,137091,128,0,137319:0:0:0:0:
320,192,137188,1,0,0:0:0:0:
448,192,137188,1,0,0:0:0:0:
320,192,137319,1,0,0:0:0:0:
192,192,137319,1,0,0:0:0:0:
64,192,137449,1,0,0:0:0:0:
448,192,137449,128,0,137710:0:0:0:0:
192,192,137449,1,0,0:0:0:0:
320,192,137580,1,0,0:0:0:0:
192,192,137710,128,0,137971:0:0:0:0:
64,192,137710,128,0,137841:0:0:0:0:
320,192,137841,1,0,0:0:0:0:
448,192,137841,1,0,0:0:0:0:
64,192,137971,1,0,0:0:0:0:
320,192,137971,1,0,0:0:0:0:
448,192,137971,128,0,138232:0:0:0:0:
192,192,138101,128,0,138428:0:0:0:0:
320,192,138232,1,0,0:0:0:0:
64,192,138232,1,0,0:0:0:0:
64,192,138362,128,0,138428:0:0:0:0:
320,192,138395,128,0,138623:0:0:0:0:
448,192,138428,128,0,138558:0:0:0:0:
192,192,138493,128,0,138623:0:0:0:0:
64,192,138493,1,0,0:0:0:0:
64,192,138623,128,0,138884:0:0:0:0:
448,192,138623,128,0,138754:0:0:0:0:
192,192,138754,128,0,138949:0:0:0:0:
320,192,138884,128,0,139080:0:0:0:0:
448,192,138884,1,0,0:0:0:0:
192,192,139014,128,0,139145:0:0:0:0:
448,192,139014,1,0,0:0:0:0:
64,192,139047,128,0,139210:0:0:0:0:
448,192,139243,128,0,139797:0:0:0:0:
64,192,139275,128,0,139406:0:0:0:0:
320,192,139275,1,0,0:0:0:0:
192,192,139406,1,0,0:0:0:0:
320,192,139406,1,0,0:0:0:0:
64,192,139536,1,0,0:0:0:0:
320,192,139536,128,0,139667:0:0:0:0:
192,192,139536,128,0,139601:0:0:0:0:
320,192,139797,128,0,139895:0:0:0:0:
192,192,139830,128,0,139960:0:0:0:0:
64,192,139862,128,0,140319:0:0:0:0:
448,192,139928,1,0,0:0:0:0:
320,192,140058,1,0,0:0:0:0:
192,192,140058,1,0,0:0:0:0:
448,192,140188,1,0,0:0:0:0:
320,192,140254,1,0,0:0:0:0:
192,192,140319,128,0,140417:0:0:0:0:
320,192,140351,128,0,140482:0:0:0:0:
448,192,140384,128,0,140841:0:0:0:0:
64,192,140449,1,0,0:0:0:0:
192,192,140580,1,0,0:0:0:0:
64,192,140710,128,0,140971:0:0:0:0:
192,192,140710,1,0,0:0:0:0:
320,192,140743,128,0,140841:0:0:0:0:
192,192,140841,128,0,141101:0:0:0:0:
320,192,140971,1,0,0:0:0:0:
448,192,140971,128,0,141232:0:0:0:0:
64,192,141101,1,0,0:0:0:0:
320,192,141101,128,0,141362:0:0:0:0:
64,192,141232,128,0,141558:0:0:0:0:
192,192,141362,128,0,141525:0:0:0:0:
448,192,141362,1,0,0:0:0:0:
448,192,141493,128,0,141688:0:0:0:0:
320,192,141493,1,0,0:0:0:0:
320,192,141623,128,0,141754:0:0:0:0:
192,192,141656,128,0,141819:0:0:0:0:
64,192,141688,128,0,141884:0:0:0:0:
320,192,141884,128,0,142014:0:0:0:0:
448,192,141917,128,0,142014:0:0:0:0:
192,192,141949,128,0,142014:0:0:0:0:
64,192,142014,1,0,0:0:0:0:
64,192,142145,128,0,142275:0:0:0:0:
448,192,142145,128,0,142471:0:0:0:0:
192,192,142145,1,0,0:0:0:0:
64,192,142406,128,0,142797:0:0:0:0:
192,192,142438,128,0,142601:0:0:0:0:
320,192,142471,128,0,142601:0:0:0:0:
448,192,142536,128,0,142732:0:0:0:0:
192,192,142667,128,0,142797:0:0:0:0:
320,192,142667,1,0,0:0:0:0:
448,192,142797,128,0,142928:0:0:0:0:
320,192,142797,128,0,143058:0:0:0:0:
192,192,142928,128,0,143123:0:0:0:0:
448,192,143058,1,0,0:0:0:0:
64,192,143058,128,0,143351:0:0:0:0:
448,192,143188,128,0,143319:0:0:0:0:
320,192,143188,1,0,0:0:0:0:
192,192,143188,1,0,0:0:0:0:
192,192,143319,128,0,143384:0:0:0:0:
320,192,143351,128,0,143449:0:0:0:0:
448,192,143449,1,0,0:0:0:0:
64,192,143449,1,0,0:0:0:0:
192,192,143449,1,0,0:0:0:0:
320,192,143580,1,0,0:0:0:0:
192,192,143645,1,0,0:0:0:0:
448,192,143710,128,0,144036:0:0:0:0:
64,192,143710,1,0,0:0:0:0:
320,192,143710,1,0,0:0:0:0:
64,192,143841,1,0,0:0:0:0:
320,192,143971,128,0,144101:0:0:0:0:
192,192,143971,1,0,0:0:0:0:
192,192,144101,1,0,0:0:0:0:
64,192,144101,1,0,0:0:0:0:
320,192,144167,1,0,0:0:0:0:
448,192,144167,1,0,0:0:0:0:
192,192,144232,1,0,0:0:0:0:
64,192,144232,1,0,0:0:0:0:
448,192,144297,1,0,0:0:0:0:
320,192,144362,1,0,0:0:0:0:
192,192,144362,1,0,0:0:0:0:
64,192,144428,1,0,0:0:0:0:
448,192,144493,1,0,0:0:0:0:
320,192,144493,1,0,0:0:0:0:
192,192,144558,1,0,0:0:0:0:
448,192,144623,1,0,0:0:0:0:
64,192,144623,1,0,0:0:0:0:
320,192,144688,1,0,0:0:0:0:
192,192,144688,1,0,0:0:0:0:
64,192,144754,1,0,0:0:0:0:
448,192,144754,1,0,0:0:0:0:
192,192,144819,1,0,0:0:0:0:
320,192,144819,1,0,0:0:0:0:
64,192,144884,128,0,145145:0:0:0:0:
448,192,144884,128,0,145014:0:0:0:0:
192,192,145014,128,0,145210:0:0:0:0:
320,192,145145,128,0,145438:0:0:0:0:
448,192,145145,1,0,0:0:0:0:
192,192,145275,1,0,0:0:0:0:
448,192,145275,128,0,145406:0:0:0:0:
64,192,145275,1,0,0:0:0:0:
192,192,145406,128,0,145471:0:0:0:0:
64,192,145438,128,0,145667:0:0:0:0:
320,192,145536,1,0,0:0:0:0:
448,192,145536,1,0,0:0:0:0:
320,192,145667,1,0,0:0:0:0:
192,192,145667,1,0,0:0:0:0:
320,192,145797,1,0,0:0:0:0:
64,192,145797,1,0,0:0:0:0:
448,192,145797,128,0,146058:0:0:0:0:
192,192,145928,128,0,146188:0:0:0:0:
320,192,146058,128,0,146188:0:0:0:0:
64,192,146058,128,0,146319:0:0:0:0:
448,192,146188,1,0,0:0:0:0:
320,192,146319,128,0,146449:0:0:0:0:
192,192,146319,1,0,0:0:0:0:
448,192,146319,1,0,0:0:0:0:
64,192,146449,128,0,146775:0:0:0:0:
192,192,146580,1,0,0:0:0:0:
448,192,146580,1,0,0:0:0:0:
192,192,146710,128,0,146775:0:0:0:0:
320,192,146743,128,0,146971:0:0:0:0:
448,192,146775,128,0,146906:0:0:0:0:
192,192,146841,128,0,146971:0:0:0:0:
64,192,146841,1,0,0:0:0:0:
448,192,146971,128,0,147101:0:0:0:0:
64,192,146971,128,0,147232:0:0:0:0:
192,192,147101,128,0,147297:0:0:0:0:
320,192,147232,128,0,147525:0:0:0:0:
448,192,147232,1,0,0:0:0:0:
448,192,147362,128,0,147493:0:0:0:0:
192,192,147362,1,0,0:0:0:0:
64,192,147362,1,0,0:0:0:0:
192,192,147493,128,0,147558:0:0:0:0:
64,192,147525,128,0,147754:0:0:0:0:
320,192,147623,1,0,0:0:0:0:
448,192,147623,1,0,0:0:0:0:
192,192,147754,1,0,0:0:0:0:
320,192,147754,1,0,0:0:0:0:
448,192,147884,1,0,0:0:0:0:
192,192,147884,1,0,0:0:0:0:
64,192,147884,128,0,148145:0:0:0:0:
320,192,148014,1,0,0:0:0:0:
448,192,148145,128,0,148406:0:0:0:0:
192,192,148145,128,0,148275:0:0:0:0:
64,192,148275,1,0,0:0:0:0:
320,192,148275,128,0,148406:0:0:0:0:
64,192,148406,128,0,148667:0:0:0:0:
192,192,148406,1,0,0:0:0:0:
448,192,148536,1,0,0:0:0:0:
192,192,148536,128,0,148862:0:0:0:0:
320,192,148536,1,0,0:0:0:0:
448,192,148667,1,0,0:0:0:0:
320,192,148667,128,0,148764:0:0:0:0:
64,192,148797,128,0,148862:0:0:0:0:
320,192,148830,128,0,149058:0:0:0:0:
448,192,148862,128,0,148993:0:0:0:0:
64,192,148928,1,0,0:0:0:0:
192,192,148928,128,0,149058:0:0:0:0:
448,192,149058,128,0,149319:0:0:0:0:
64,192,149058,128,0,149188:0:0:0:0:
320,192,149188,128,0,149384:0:0:0:0:
192,192,149319,128,0,149612:0:0:0:0:
64,192,149319,1,0,0:0:0:0:
64,192,149449,128,0,149580:0:0:0:0:
320,192,149449,1,0,0:0:0:0:
448,192,149449,1,0,0:0:0:0:
320,192,149580,128,0,149645:0:0:0:0:
448,192,149612,128,0,149841:0:0:0:0:
192,192,149710,1,0,0:0:0:0:
64,192,149710,1,0,0:0:0:0:
192,192,149841,1,0,0:0:0:0:
320,192,149841,1,0,0:0:0:0:
448,192,149971,1,0,0:0:0:0:
64,192,149971,128,0,150232:0:0:0:0:
320,192,149971,1,0,0:0:0:0:
192,192,150101,1,0,0:0:0:0:
320,192,150232,128,0,150493:0:0:0:0:
448,192,150232,128,0,150362:0:0:0:0:
192,192,150362,1,0,0:0:0:0:
64,192,150362,1,0,0:0:0:0:
192,192,150493,1,0,0:0:0:0:
448,192,150493,1,0,0:0:0:0:
64,192,150493,128,0,150754:0:0:0:0:
320,192,150623,128,0,150949:0:0:0:0:
192,192,150754,1,0,0:0:0:0:
448,192,150754,1,0,0:0:0:0:
448,192,150884,128,0,150949:0:0:0:0:
192,192,150917,128,0,151145:0:0:0:0:
64,192,150949,128,0,151080:0:0:0:0:
448,192,151014,1,0,0:0:0:0:
320,192,151014,128,0,151145:0:0:0:0:
64,192,151145,128,0,151275:0:0:0:0:
448,192,151145,128,0,151406:0:0:0:0:
320,192,151275,128,0,151471:0:0:0:0:
192,192,151406,128,0,151601:0:0:0:0:
64,192,151406,1,0,0:0:0:0:
320,192,151536,128,0,151667:0:0:0:0:
64,192,151536,1,0,0:0:0:0:
448,192,151569,128,0,151732:0:0:0:0:
448,192,151797,1,0,0:0:0:0:
192,192,151797,128,0,151928:0:0:0:0:
64,192,151830,128,0,152319:0:0:0:0:
320,192,151928,1,0,0:0:0:0:
448,192,151928,1,0,0:0:0:0:
192,192,152058,1,0,0:0:0:0:
320,192,152058,128,0,152123:0:0:0:0:
448,192,152058,128,0,152188:0:0:0:0:
192,192,152319,128,0,152417:0:0:0:0:
320,192,152351,128,0,152482:0:0:0:0:
448,192,152384,128,0,152841:0:0:0:0:
64,192,152449,1,0,0:0:0:0:
64,192,152580,1,0,0:0:0:0:
192,192,152580,1,0,0:0:0:0:
192,192,152710,1,0,0:0:0:0:
320,192,152710,1,0,0:0:0:0:
320,192,152841,128,0,152938:0:0:0:0:
192,192,152873,128,0,153004:0:0:0:0:
64,192,152906,128,0,153362:0:0:0:0:
448,192,152971,1,0,0:0:0:0:
320,192,153101,1,0,0:0:0:0:
192,192,153101,1,0,0:0:0:0:
192,192,153232,128,0,153362:0:0:0:0:
320,192,153232,1,0,0:0:0:0:
448,192,153264,128,0,153493:0:0:0:0:
320,192,153362,128,0,153623:0:0:0:0:
192,192,153493,128,0,153754:0:0:0:0:
64,192,153493,1,0,0:0:0:0:
64,192,153623,128,0,153884:0:0:0:0:
448,192,153623,1,0,0:0:0:0:
448,192,153754,128,0,154080:0:0:0:0:
192,192,153884,1,0,0:0:0:0:
320,192,153884,128,0,154047:0:0:0:0:
192,192,154014,128,0,154341:0:0:0:0:
64,192,154014,1,0,0:0:0:0:
320,192,154145,128,0,154308:0:0:0:0:
448,192,154178,128,0,154275:0:0:0:0:
64,192,154210,128,0,154406:0:0:0:0:
448,192,154406,128,0,154536:0:0:0:0:
192,192,154438,128,0,154536:0:0:0:0:
320,192,154471,128,0,154536:0:0:0:0:
64,192,154536,1,0,0:0:0:0:
64,192,154667,128,0,154993:0:0:0:0:
448,192,154667,1,0,0:0:0:0:
320,192,154667,128,0,154797:0:0:0:0:
192,192,154928,128,0,154993:0:0:0:0:
320,192,154960,128,0,155123:0:0:0:0:
448,192,154993,128,0,155123:0:0:0:0:
64,192,155058,128,0,155254:0:0:0:0:
192,192,155058,128,0,155319:0:0:0:0:
448,192,155188,1,0,0:0:0:0:
320,192,155188,128,0,155319:0:0:0:0:
448,192,155319,128,0,155580:0:0:0:0:
64,192,155319,1,0,0:0:0:0:
320,192,155449,128,0,155645:0:0:0:0:
64,192,155580,1,0,0:0:0:0:
192,192,155580,128,0,155841:0:0:0:0:
320,192,155710,128,0,155906:0:0:0:0:
64,192,155710,1,0,0:0:0:0:
448,192,155710,1,0,0:0:0:0:
448,192,155841,128,0,155971:0:0:0:0:
192,192,155971,1,0,0:0:0:0:
64,192,155971,128,0,156297:0:0:0:0:
448,192,156101,1,0,0:0:0:0:
192,192,156101,128,0,156362:0:0:0:0:
448,192,156232,1,0,0:0:0:0:
320,192,156232,128,0,156428:0:0:0:0:
448,192,156362,128,0,156428:0:0:0:0:
64,192,156493,1,0,0:0:0:0:
192,192,156493,1,0,0:0:0:0:
192,192,156623,1,0,0:0:0:0:
320,192,156623,1,0,0:0:0:0:
320,192,156754,1,0,0:0:0:0:
448,192,156754,1,0,0:0:0:0:
64,192,156754,128,0,156884:0:0:0:0:
320,192,156884,1,0,0:0:0:0:
448,192,156884,1,0,0:0:0:0:
192,192,157014,1,0,0:0:0:0:
448,192,157014,128,0,157341:0:0:0:0:
64,192,157014,1,0,0:0:0:0:
64,192,157145,1,0,0:0:0:0:
192,192,157145,1,0,0:0:0:0:
320,192,157243,128,0,157341:0:0:0:0:
64,192,157275,128,0,157341:0:0:0:0:
192,192,157275,128,0,157341:0:0:0:0:
192,192,157406,1,0,0:0:0:0:
320,192,157406,128,0,157732:0:0:0:0:
448,192,157406,128,0,157732:0:0:0:0:
64,192,157536,128,0,157732:0:0:0:0:
192,192,157667,128,0,157797:0:0:0:0:
320,192,157797,128,0,157862:0:0:0:0:
448,192,157797,128,0,157862:0:0:0:0:
64,192,157797,128,0,157862:0:0:0:0:
192,192,157928,1,0,0:0:0:0:
448,192,157928,1,0,0:0:0:0:
64,192,158058,128,0,158123:0:0:0:0:
192,192,158058,128,0,158123:0:0:0:0:
320,192,158058,128,0,158123:0:0:0:0:
448,192,158188,1,0,0:0:0:0:
320,192,158188,1,0,0:0:0:0:
192,192,158254,1,0,0:0:0:0:
64,192,158319,128,0,158384:0:0:0:0:
320,192,158319,128,0,158384:0:0:0:0:
448,192,158319,128,0,158384:0:0:0:0:
64,192,158449,128,0,158775:0:0:0:0:
192,192,158449,128,0,158775:0:0:0:0:
320,192,158449,1,0,0:0:0:0:
448,192,158580,128,0,158775:0:0:0:0:
320,192,158710,128,0,158841:0:0:0:0:
64,192,158841,128,0,158906:0:0:0:0:
192,192,158841,128,0,158906:0:0:0:0:
448,192,158841,128,0,158906:0:0:0:0:
320,192,158971,1,0,0:0:0:0:
64,192,158971,1,0,0:0:0:0:
192,192,159036,1,0,0:0:0:0:
64,192,159101,128,0,159167:0:0:0:0:
320,192,159101,128,0,159167:0:0:0:0:
448,192,159101,128,0,159167:0:0:0:0:
192,192,159232,1,0,0:0:0:0:
448,192,159232,1,0,0:0:0:0:
64,192,159362,128,0,159428:0:0:0:0:
192,192,159362,128,0,159428:0:0:0:0:
320,192,159362,128,0,159428:0:0:0:0:
320,192,159493,128,0,159688:0:0:0:0:
64,192,159493,128,0,159688:0:0:0:0:
448,192,159493,128,0,159688:0:0:0:0:
448,192,159754,1,0,0:0:0:0:
320,192,159754,1,0,0:0:0:0:
64,192,159884,128,0,159949:0:0:0:0:
448,192,159884,128,0,159949:0:0:0:0:
192,192,159884,128,0,159949:0:0:0:0:
320,192,160014,1,0,0:0:0:0:
192,192,160014,1,0,0:0:0:0:
448,192,160145,128,0,160210:0:0:0:0:
320,192,160145,128,0,160210:0:0:0:0:
64,192,160145,128,0,160210:0:0:0:0:
192,192,160275,1,0,0:0:0:0:
448,192,160275,1,0,0:0:0:0:
64,192,160341,1,0,0:0:0:0:
448,192,160406,128,0,160471:0:0:0:0:
192,192,160406,128,0,160471:0:0:0:0:
320,192,160406,128,0,160471:0:0:0:0:
192,192,160536,1,0,0:0:0:0:
64,192,160536,1,0,0:0:0:0:
448,192,160667,128,0,160732:0:0:0:0:
64,192,160667,128,0,160732:0:0:0:0:
320,192,160667,128,0,160732:0:0:0:0:
192,192,160797,1,0,0:0:0:0:
320,192,160797,1,0,0:0:0:0:
64,192,160928,128,0,160993:0:0:0:0:
448,192,160928,128,0,160993:0:0:0:0:
192,192,160928,128,0,160993:0:0:0:0:
448,192,161058,1,0,0:0:0:0:
320,192,161058,1,0,0:0:0:0:
192,192,161123,1,0,0:0:0:0:
448,192,161188,1,0,0:0:0:0:
64,192,161188,1,0,0:0:0:0:
320,192,161188,1,0,0:0:0:0:
192,192,161275,1,0,0:0:0:0:
320,192,161362,1,0,0:0:0:0:
64,192,161362,128,0,161623:0:0:0:0:
448,192,161449,1,0,0:0:0:0:
192,192,161449,128,0,161623:0:0:0:0:
320,192,161536,128,0,161623:0:0:0:0:
448,192,161623,1,0,0:0:0:0:
192,192,161710,128,0,162493:0:0:0:0:
320,192,161710,128,0,162232:0:0:0:0:
64,192,161710,128,0,162884:0:0:0:0:
192,192,162819,128,0,162949:0:0:0:0:
320,192,162884,128,0,163014:0:0:0:0:
448,192,162949,128,0,163014:0:0:0:0:
64,192,163014,128,0,163101:0:0:0:0:
192,192,163014,128,0,163101:0:0:0:0:
320,192,163101,128,0,163188:0:0:0:0:
448,192,163101,128,0,163188:0:0:0:0:
192,192,163188,128,0,163275:0:0:0:0:
64,192,163188,128,0,163275:0:0:0:0:
320,192,163275,128,0,163732:0:0:0:0:
448,192,163275,128,0,163732:0:0:0:0:
192,192,163667,128,0,163797:0:0:0:0:
64,192,163732,128,0,163797:0:0:0:0:
320,192,163797,128,0,163862:0:0:0:0:
448,192,163797,128,0,163862:0:0:0:0:
448,192,163928,128,0,166014:0:0:0:0:
320,192,163928,128,0,164841:0:0:0:0:
64,192,164188,1,0,0:0:0:0:
192,192,164319,1,0,0:0:0:0:
64,192,164319,1,0,0:0:0:0:
192,192,164449,1,0,0:0:0:0:
64,192,164580,1,0,0:0:0:0:
64,192,164710,1,0,0:0:0:0:
192,192,164841,128,0,165362:0:0:0:0:
64,192,164971,1,0,0:0:0:0:
320,192,164971,1,0,0:0:0:0:
64,192,165232,1,0,0:0:0:0:
320,192,165232,1,0,0:0:0:0:
64,192,165362,128,0,165884:0:0:0:0:
320,192,165362,1,0,0:0:0:0:
320,192,165493,1,0,0:0:0:0:
320,192,165754,1,0,0:0:0:0:
320,192,165884,128,0,166014:0:0:0:0:
64,192,166014,128,0,166341:0:0:0:0:
192,192,166014,128,0,166145:0:0:0:0:
448,192,166145,128,0,166275:0:0:0:0:
320,192,166275,128,0,166406:0:0:0:0:
192,192,166275,128,0,166341:0:0:0:0:
448,192,166341,128,0,166406:0:0:0:0:
64,192,166406,128,0,166601:0:0:0:0:
192,192,166438,128,0,166569:0:0:0:0:
320,192,166471,128,0,166536:0:0:0:0:
448,192,166601,128,0,166797:0:0:0:0:
320,192,166634,128,0,166764:0:0:0:0:
192,192,166667,128,0,166732:0:0:0:0:
64,192,166797,128,0,166960:0:0:0:0:
192,192,166830,128,0,166928:0:0:0:0:
448,192,166928,128,0,167123:0:0:0:0:
320,192,166960,128,0,167091:0:0:0:0:
192,192,166993,128,0,167058:0:0:0:0:
64,192,167123,128,0,167319:0:0:0:0:
192,192,167156,128,0,167286:0:0:0:0:
320,192,167188,128,0,167254:0:0:0:0:
448,192,167319,128,0,167482:0:0:0:0:
320,192,167351,128,0,167449:0:0:0:0:
64,192,167449,128,0,167514:0:0:0:0:
192,192,167482,128,0,167547:0:0:0:0:
320,192,167514,128,0,167580:0:0:0:0:
64,192,167580,128,0,168297:0:0:0:0:
448,192,167580,128,0,167906:0:0:0:0:
192,192,167710,128,0,167906:0:0:0:0:
320,192,167906,128,0,167971:0:0:0:0:
192,192,167971,128,0,168232:0:0:0:0:
448,192,168036,128,0,168101:0:0:0:0:
320,192,168101,128,0,168167:0:0:0:0:
448,192,168232,128,0,168297:0:0:0:0:
320,192,168297,128,0,168362:0:0:0:0:
192,192,168362,128,0,168428:0:0:0:0:
448,192,168362,1,0,0:0:0:0:
64,192,168428,128,0,168493:0:0:0:0:
320,192,168493,128,0,168623:0:0:0:0:
448,192,168493,128,0,168754:0:0:0:0:
192,192,168558,128,0,168688:0:0:0:0:
64,192,168623,128,0,168819:0:0:0:0:
320,192,168688,128,0,168819:0:0:0:0:
192,192,168754,128,0,168884:0:0:0:0:
448,192,168819,128,0,169014:0:0:0:0:
320,192,168884,128,0,168949:0:0:0:0:
64,192,168949,128,0,169080:0:0:0:0:
192,192,169014,128,0,169145:0:0:0:0:
320,192,169080,128,0,169145:0:0:0:0:
448,192,169145,128,0,169471:0:0:0:0:
64,192,169145,128,0,169341:0:0:0:0:
320,192,169275,128,0,169471:0:0:0:0:
64,192,169406,128,0,169601:0:0:0:0:
192,192,169406,128,0,169601:0:0:0:0:
320,192,169536,128,0,169732:0:0:0:0:
448,192,169536,128,0,169862:0:0:0:0:
64,192,169667,128,0,169862:0:0:0:0:
192,192,169667,128,0,169993:0:0:0:0:
320,192,169797,128,0,169993:0:0:0:0:
64,192,169928,128,0,169993:0:0:0:0:
448,192,169928,128,0,169993:0:0:0:0:
64,192,170058,1,0,0:0:0:0:
192,192,170058,128,0,170188:0:0:0:0:
320,192,170091,128,0,170156:0:0:0:0:
64,192,170188,1,0,0:0:0:0:
448,192,170188,128,0,170384:0:0:0:0:
320,192,170254,1,0,0:0:0:0:
192,192,170319,128,0,170384:0:0:0:0:
64,192,170319,128,0,170384:0:0:0:0:
448,192,170449,1,0,0:0:0:0:
320,192,170449,128,0,170580:0:0:0:0:
192,192,170482,128,0,170547:0:0:0:0:
64,192,170580,128,0,170775:0:0:0:0:
448,192,170580,1,0,0:0:0:0:
192,192,170645,1,0,0:0:0:0:
320,192,170710,128,0,170775:0:0:0:0:
448,192,170710,128,0,170775:0:0:0:0:
192,192,170841,128,0,170971:0:0:0:0:
64,192,170841,1,0,0:0:0:0:
320,192,170873,128,0,170938:0:0:0:0:
64,192,170971,1,0,0:0:0:0:
448,192,170971,128,0,171167:0:0:0:0:
320,192,171036,1,0,0:0:0:0:
192,192,171101,128,0,171167:0:0:0:0:
64,192,171101,128,0,171167:0:0:0:0:
320,192,171232,128,0,171428:0:0:0:0:
192,192,171232,1,0,0:0:0:0:
448,192,171264,128,0,171428:0:0:0:0:
64,192,171362,128,0,171428:0:0:0:0:
192,192,171362,128,0,171558:0:0:0:0:
320,192,171493,128,0,171558:0:0:0:0:
448,192,171493,128,0,171558:0:0:0:0:
64,192,171493,128,0,171623:0:0:0:0:
192,192,171623,128,0,171688:0:0:0:0:
320,192,171623,128,0,171688:0:0:0:0:
448,192,171623,128,0,171754:0:0:0:0:
64,192,171754,128,0,171819:0:0:0:0:
192,192,171754,128,0,171819:0:0:0:0:
320,192,171754,128,0,171884:0:0:0:0:
448,192,171884,128,0,171949:0:0:0:0:
64,192,171884,128,0,171949:0:0:0:0:
192,192,171884,128,0,172014:0:0:0:0:
64,192,172014,128,0,172145:0:0:0:0:
320,192,172014,128,0,172080:0:0:0:0:
448,192,172014,128,0,172145:0:0:0:0:
192,192,172145,128,0,172210:0:0:0:0:
320,192,172145,1,0,0:0:0:0:
64,192,172210,128,0,172275:0:0:0:0:
448,192,172210,1,0,0:0:0:0:
192,192,172275,128,0,172341:0:0:0:0:
320,192,172275,1,0,0:0:0:0:
64,192,172341,128,0,172406:0:0:0:0:
320,192,172406,128,0,172601:0:0:0:0:
192,192,172406,128,0,172601:0:0:0:0:
448,192,172406,128,0,172471:0:0:0:0:
64,192,172536,1,0,0:0:0:0:
448,192,172536,128,0,172601:0:0:0:0:
448,192,172667,128,0,172862:0:0:0:0:
64,192,172667,128,0,172862:0:0:0:0:
192,192,172667,128,0,172732:0:0:0:0:
192,192,172797,128,0,172862:0:0:0:0:
320,192,172797,1,0,0:0:0:0:
448,192,172928,128,0,173123:0:0:0:0:
192,192,172928,128,0,173123:0:0:0:0:
64,192,172928,128,0,173123:0:0:0:0:
448,192,173188,1,0,0:0:0:0:
320,192,173188,128,0,173275:0:0:0:0:
192,192,173232,128,0,173362:0:0:0:0:
448,192,173319,128,0,173449:0:0:0:0:
64,192,173319,128,0,173449:0:0:0:0:
320,192,173406,128,0,173580:0:0:0:0:
192,192,173493,128,0,173580:0:0:0:0:
64,192,173580,128,0,173667:0:0:0:0:
448,192,173580,1,0,0:0:0:0:
192,192,173667,128,0,173841:0:0:0:0:
320,192,173710,128,0,173797:0:0:0:0:
448,192,173710,128,0,173884:0:0:0:0:
64,192,173797,128,0,173884:0:0:0:0:
320,192,173884,128,0,173971:0:0:0:0:
192,192,173928,128,0,174014:0:0:0:0:
448,192,173971,128,0,174058:0:0:0:0:
64,192,173971,1,0,0:0:0:0:
320,192,174058,128,0,174145:0:0:0:0:
192,192,174101,128,0,174188:0:0:0:0:
64,192,174101,128,0,174275:0:0:0:0:
448,192,174188,128,0,174319:0:0:0:0:
320,192,174275,128,0,174362:0:0:0:0:
64,192,174362,128,0,174493:0:0:0:0:
192,192,174362,128,0,174449:0:0:0:0:
448,192,174428,128,0,174493:0:0:0:0:
320,192,174493,128,0,174819:0:0:0:0:
192,192,174558,128,0,174688:0:0:0:0:
64,192,174623,1,0,0:0:0:0:
448,192,174623,128,0,174754:0:0:0:0:
64,192,174754,128,0,174884:0:0:0:0:
192,192,174754,128,0,175145:0:0:0:0:
448,192,174884,128,0,175058:0:0:0:0:
320,192,174884,128,0,175014:0:0:0:0:
64,192,174971,128,0,175145:0:0:0:0:
320,192,175101,128,0,175275:0:0:0:0:
448,192,175145,128,0,175232:0:0:0:0:
192,192,175232,128,0,175319:0:0:0:0:
64,192,175232,128,0,175362:0:0:0:0:
448,192,175319,128,0,175493:0:0:0:0:
320,192,175362,128,0,175449:0:0:0:0:
192,192,175406,128,0,175536:0:0:0:0:
64,192,175449,128,0,175580:0:0:0:0:
320,192,175536,128,0,175623:0:0:0:0:
448,192,175580,128,0,175667:0:0:0:0:
192,192,175623,128,0,175710:0:0:0:0:
64,192,175667,128,0,175710:0:0:0:0:
320,192,175710,128,0,175754:0:0:0:0:
448,192,175754,128,0,175841:0:0:0:0:
64,192,175797,128,0,175971:0:0:0:0:
192,192,175797,128,0,175884:0:0:0:0:
320,192,175841,128,0,175971:0:0:0:0:
448,192,175928,128,0,175971:0:0:0:0:
192,192,175971,128,0,176058:0:0:0:0:
64,192,176058,1,0,0:0:0:0:
320,192,176058,1,0,0:0:0:0:
448,192,176058,1,0,0:0:0:0:
64,192,176188,1,0,0:0:0:0:
320,192,176188,1,0,0:0:0:0:
448,192,176188,1,0,0:0:0:0:
64,192,176319,1,0,0:0:0:0:
320,192,176319,1,0,0:0:0:0:
192,192,176319,128,0,177297:0:0:0:0:
448,192,176319,1,0,0:0:0:0:
320,192,177232,128,0,177362:0:0:0:0:
448,192,177297,128,0,177362:0:0:0:0:
64,192,177362,1,0,0:0:0:0:
192,192,177362,128,0,177493:0:0:0:0:
64,192,177493,1,0,0:0:0:0:
320,192,177493,1,0,0:0:0:0:
448,192,177493,128,0,177623:0:0:0:0:
192,192,177623,128,0,177754:0:0:0:0:
64,192,177754,1,0,0:0:0:0:
448,192,177754,1,0,0:0:0:0:
320,192,177754,128,0,177884:0:0:0:0:
64,192,177884,128,0,178014:0:0:0:0:
192,192,178014,1,0,0:0:0:0:
320,192,178014,1,0,0:0:0:0:
448,192,178014,128,0,178145:0:0:0:0:
192,192,178145,1,0,0:0:0:0:
64,192,178145,128,0,178275:0:0:0:0:
320,192,178145,1,0,0:0:0:0:
320,192,178275,128,0,178406:0:0:0:0:
64,192,178406,128,0,180297:0:0:0:0:
192,192,178406,128,0,180297:0:0:0:0:
448,192,178406,128,0,178928:0:0:0:0:
320,192,178928,128,0,179319:0:0:0:0:
320,192,179449,128,0,179710:0:0:0:0:
448,192,179710,128,0,179841:0:0:0:0:
320,192,179841,128,0,180101:0:0:0:0:
448,192,180101,128,0,180362:0:0:0:0:
64,192,180362,1,0,0:0:0:0:
192,192,180362,128,0,180917:0:0:0:0:
320,192,180884,128,0,180949:0:0:0:0:
448,192,180917,128,0,180982:0:0:0:0:
64,192,181275,128,0,181536:0:0:0:0:
320,192,181536,128,0,181797:0:0:0:0:
64,192,181797,128,0,181928:0:0:0:0:
320,192,181928,128,0,182188:0:0:0:0:
192,192,182188,128,0,182449:0:0:0:0:
448,192,182449,128,0,183004:0:0:0:0:
320,192,182971,128,0,183036:0:0:0:0:
192,192,183004,128,0,183069:0:0:0:0:
192,192,183362,128,0,183623:0:0:0:0:
64,192,183623,1,0,0:0:0:0:
448,192,183623,1,0,0:0:0:0:
320,192,183623,1,0,0:0:0:0:
64,192,183754,128,0,183884:0:0:0:0:
448,192,183754,128,0,183884:0:0:0:0:
192,192,183754,128,0,183884:0:0:0:0:
64,192,184014,128,0,184145:0:0:0:0:
448,192,184014,128,0,184145:0:0:0:0:
192,192,184014,128,0,184145:0:0:0:0:
64,192,184275,128,0,184406:0:0:0:0:
448,192,184275,128,0,184406:0:0:0:0:
192,192,184275,128,0,184406:0:0:0:0:
64,192,184536,128,0,184667:0:0:0:0:
448,192,184536,128,0,184797:0:0:0:0:
192,192,184536,128,0,184667:0:0:0:0:
320,192,184667,128,0,184862:0:0:0:0:
192,192,184797,128,0,185091:0:0:0:0:
64,192,184797,1,0,0:0:0:0:
64,192,184928,128,0,185058:0:0:0:0:
448,192,184928,1,0,0:0:0:0:
320,192,184928,1,0,0:0:0:0:
320,192,185058,128,0,185123:0:0:0:0:
448,192,185091,128,0,185319:0:0:0:0:
64,192,185188,1,0,0:0:0:0:
192,192,185188,1,0,0:0:0:0:
192,192,185319,1,0,0:0:0:0:
320,192,185319,1,0,0:0:0:0:
64,192,185449,128,0,185710:0:0:0:0:
320,192,185449,1,0,0:0:0:0:
448,192,185449,1,0,0:0:0:0:
192,192,185580,1,0,0:0:0:0:
320,192,185710,128,0,185971:0:0:0:0:
448,192,185710,128,0,185841:0:0:0:0:
64,192,185841,1,0,0:0:0:0:
192,192,185841,1,0,0:0:0:0:
192,192,185971,1,0,0:0:0:0:
64,192,185971,128,0,186232:0:0:0:0:
448,192,185971,1,0,0:0:0:0:
320,192,186101,128,0,186428:0:0:0:0:
192,192,186232,1,0,0:0:0:0:
448,192,186232,1,0,0:0:0:0:
448,192,186362,128,0,186428:0:0:0:0:
192,192,186395,128,0,186623:0:0:0:0:
64,192,186428,128,0,186558:0:0:0:0:
448,192,186493,1,0,0:0:0:0:
320,192,186493,128,0,186623:0:0:0:0:
448,192,186623,128,0,186884:0:0:0:0:
64,192,186623,128,0,186754:0:0:0:0:
320,192,186754,128,0,186949:0:0:0:0:
64,192,186884,1,0,0:0:0:0:
192,192,186884,128,0,187080:0:0:0:0:
64,192,187014,1,0,0:0:0:0:
320,192,187014,128,0,187145:0:0:0:0:
448,192,187047,128,0,187210:0:0:0:0:
64,192,187243,128,0,187406:0:0:0:0:
448,192,187275,128,0,187667:0:0:0:0:
192,192,187275,1,0,0:0:0:0:
192,192,187406,1,0,0:0:0:0:
320,192,187406,1,0,0:0:0:0:
320,192,187536,1,0,0:0:0:0:
192,192,187536,128,0,187601:0:0:0:0:
64,192,187569,128,0,187830:0:0:0:0:
192,192,187797,128,0,187895:0:0:0:0:
320,192,187830,128,0,187960:0:0:0:0:
448,192,187862,128,0,188351:0:0:0:0:
64,192,187928,1,0,0:0:0:0:
192,192,188058,1,0,0:0:0:0:
320,192,188058,1,0,0:0:0:0:
64,192,188188,1,0,0:0:0:0:
192,192,188254,1,0,0:0:0:0:
320,192,188319,128,0,188417:0:0:0:0:
192,192,188351,128,0,188482:0:0:0:0:
64,192,188384,128,0,188841:0:0:0:0:
448,192,188449,1,0,0:0:0:0:
320,192,188580,1,0,0:0:0:0:
448,192,188710,128,0,188971:0:0:0:0:
320,192,188710,1,0,0:0:0:0:
192,192,188743,128,0,188841:0:0:0:0:
320,192,188841,128,0,189101:0:0:0:0:
192,192,188971,128,0,189232:0:0:0:0:
64,192,188971,1,0,0:0:0:0:
64,192,189101,128,0,189362:0:0:0:0:
448,192,189101,1,0,0:0:0:0:
320,192,189232,128,0,189558:0:0:0:0:
192,192,189362,128,0,189525:0:0:0:0:
448,192,189362,1,0,0:0:0:0:
64,192,189493,128,0,189688:0:0:0:0:
448,192,189493,1,0,0:0:0:0:
192,192,189623,128,0,189754:0:0:0:0:
320,192,189656,128,0,189819:0:0:0:0:
448,192,189688,128,0,189884:0:0:0:0:
192,192,189884,128,0,190014:0:0:0:0:
64,192,189917,128,0,190014:0:0:0:0:
320,192,189949,128,0,190014:0:0:0:0:
448,192,190014,1,0,0:0:0:0:
64,192,190145,128,0,190471:0:0:0:0:
320,192,190145,1,0,0:0:0:0:
448,192,190145,128,0,190275:0:0:0:0:
448,192,190406,128,0,190797:0:0:0:0:
192,192,190438,128,0,190601:0:0:0:0:
320,192,190471,128,0,190601:0:0:0:0:
64,192,190536,128,0,190732:0:0:0:0:
192,192,190667,1,0,0:0:0:0:
320,192,190667,128,0,190797:0:0:0:0:
64,192,190797,128,0,190928:0:0:0:0:
192,192,190797,128,0,191058:0:0:0:0:
320,192,190928,128,0,191123:0:0:0:0:
448,192,191058,128,0,191351:0:0:0:0:
64,192,191058,1,0,0:0:0:0:
192,192,191188,1,0,0:0:0:0:
320,192,191188,1,0,0:0:0:0:
64,192,191188,128,0,191319:0:0:0:0:
320,192,191319,128,0,191384:0:0:0:0:
192,192,191351,128,0,191449:0:0:0:0:
64,192,191449,1,0,0:0:0:0:
320,192,191449,1,0,0:0:0:0:
448,192,191449,1,0,0:0:0:0:
192,192,191580,1,0,0:0:0:0:
320,192,191580,1,0,0:0:0:0:
448,192,191710,1,0,0:0:0:0:
192,192,191710,1,0,0:0:0:0:
64,192,191710,128,0,192036:0:0:0:0:
320,192,191841,1,0,0:0:0:0:
448,192,191841,128,0,191971:0:0:0:0:
192,192,191971,128,0,192101:0:0:0:0:
320,192,191971,1,0,0:0:0:0:
320,192,192101,1,0,0:0:0:0:
448,192,192101,1,0,0:0:0:0:
192,192,192167,1,0,0:0:0:0:
64,192,192167,1,0,0:0:0:0:
320,192,192232,1,0,0:0:0:0:
448,192,192232,1,0,0:0:0:0:
64,192,192297,1,0,0:0:0:0:
192,192,192362,1,0,0:0:0:0:
448,192,192362,1,0,0:0:0:0:
320,192,192428,1,0,0:0:0:0:
64,192,192493,1,0,0:0:0:0:
448,192,192493,1,0,0:0:0:0:
192,192,192558,1,0,0:0:0:0:
320,192,192623,1,0,0:0:0:0:
64,192,192623,1,0,0:0:0:0:
448,192,192688,1,0,0:0:0:0:
192,192,192688,1,0,0:0:0:0:
320,192,192754,1,0,0:0:0:0:
64,192,192754,1,0,0:0:0:0:
192,192,192819,1,0,0:0:0:0:
448,192,192819,1,0,0:0:0:0:
320,192,192884,128,0,193145:0:0:0:0:
64,192,192884,128,0,193014:0:0:0:0:
192,192,193014,128,0,193210:0:0:0:0:
64,192,193145,128,0,193438:0:0:0:0:
448,192,193145,1,0,0:0:0:0:
192,192,193275,1,0,0:0:0:0:
320,192,193275,1,0,0:0:0:0:
448,192,193275,128,0,193406:0:0:0:0:
192,192,193406,128,0,193471:0:0:0:0:
320,192,193438,128,0,193667:0:0:0:0:
64,192,193536,1,0,0:0:0:0:
192,192,193536,1,0,0:0:0:0:
448,192,193667,1,0,0:0:0:0:
64,192,193667,1,0,0:0:0:0:
448,192,193797,1,0,0:0:0:0:
64,192,193797,128,0,194188:0:0:0:0:
192,192,193797,1,0,0:0:0:0:
320,192,193928,128,0,194058:0:0:0:0:
192,192,194058,128,0,194188:0:0:0:0:
448,192,194058,128,0,194319:0:0:0:0:
320,192,194188,1,0,0:0:0:0:
64,192,194319,1,0,0:0:0:0:
320,192,194319,1,0,0:0:0:0:
192,192,194319,128,0,194449:0:0:0:0:
448,192,194449,128,0,194775:0:0:0:0:
320,192,194580,1,0,0:0:0:0:
64,192,194580,1,0,0:0:0:0:
320,192,194710,128,0,194775:0:0:0:0:
192,192,194743,128,0,194971:0:0:0:0:
64,192,194775,128,0,194906:0:0:0:0:
448,192,194841,1,0,0:0:0:0:
320,192,194841,128,0,194971:0:0:0:0:
64,192,194971,128,0,195101:0:0:0:0:
448,192,194971,128,0,195232:0:0:0:0:
320,192,195101,128,0,195297:0:0:0:0:
192,192,195232,128,0,195525:0:0:0:0:
64,192,195232,1,0,0:0:0:0:
64,192,195362,128,0,195493:0:0:0:0:
448,192,195362,1,0,0:0:0:0:
320,192,195362,1,0,0:0:0:0:
320,192,195493,128,0,195558:0:0:0:0:
448,192,195525,128,0,195754:0:0:0:0:
64,192,195623,1,0,0:0:0:0:
192,192,195623,1,0,0:0:0:0:
192,192,195754,1,0,0:0:0:0:
320,192,195754,1,0,0:0:0:0:
64,192,195884,1,0,0:0:0:0:
448,192,195884,128,0,196145:0:0:0:0:
320,192,195884,1,0,0:0:0:0:
192,192,196014,128,0,196275:0:0:0:0:
64,192,196145,128,0,196406:0:0:0:0:
320,192,196145,1,0,0:0:0:0:
320,192,196275,1,0,0:0:0:0:
448,192,196275,1,0,0:0:0:0:
320,192,196406,1,0,0:0:0:0:
192,192,196406,1,0,0:0:0:0:
448,192,196406,128,0,196667:0:0:0:0:
64,192,196536,1,0,0:0:0:0:
192,192,196536,1,0,0:0:0:0:
320,192,196536,128,0,196862:0:0:0:0:
64,192,196667,1,0,0:0:0:0:
192,192,196667,128,0,196764:0:0:0:0:
448,192,196797,128,0,196862:0:0:0:0:
192,192,196830,128,0,197058:0:0:0:0:
64,192,196862,128,0,196993:0:0:0:0:
448,192,196928,1,0,0:0:0:0:
320,192,196928,128,0,197058:0:0:0:0:
448,192,197058,128,0,197188:0:0:0:0:
64,192,197058,128,0,197319:0:0:0:0:
192,192,197188,128,0,197384:0:0:0:0:
320,192,197319,128,0,197612:0:0:0:0:
448,192,197319,1,0,0:0:0:0:
448,192,197449,128,0,197580:0:0:0:0:
64,192,197449,1,0,0:0:0:0:
192,192,197449,1,0,0:0:0:0:
192,192,197580,128,0,197645:0:0:0:0:
64,192,197612,128,0,197841:0:0:0:0:
448,192,197710,1,0,0:0:0:0:
320,192,197710,1,0,0:0:0:0:
320,192,197841,1,0,0:0:0:0:
192,192,197841,1,0,0:0:0:0:
64,192,197971,1,0,0:0:0:0:
192,192,197971,1,0,0:0:0:0:
448,192,197971,128,0,198232:0:0:0:0:
320,192,198101,1,0,0:0:0:0:
192,192,198232,128,0,198493:0:0:0:0:
64,192,198232,128,0,198362:0:0:0:0:
448,192,198362,1,0,0:0:0:0:
320,192,198362,1,0,0:0:0:0:
320,192,198493,1,0,0:0:0:0:
448,192,198493,128,0,198754:0:0:0:0:
64,192,198493,1,0,0:0:0:0:
192,192,198623,128,0,198949:0:0:0:0:
320,192,198754,1,0,0:0:0:0:
64,192,198754,1,0,0:0:0:0:
64,192,198884,128,0,198949:0:0:0:0:
320,192,198917,128,0,199145:0:0:0:0:
448,192,198949,128,0,199080:0:0:0:0:
64,192,199014,1,0,0:0:0:0:
192,192,199014,128,0,199145:0:0:0:0:
64,192,199145,128,0,199406:0:0:0:0:
448,192,199145,128,0,199275:0:0:0:0:
192,192,199275,128,0,199471:0:0:0:0:
448,192,199406,1,0,0:0:0:0:
320,192,199406,128,0,199601:0:0:0:0:
448,192,199536,1,0,0:0:0:0:
192,192,199536,128,0,199667:0:0:0:0:
64,192,199569,128,0,199732:0:0:0:0:
320,192,199764,128,0,199928:0:0:0:0:
64,192,199797,128,0,200188:0:0:0:0:
192,192,199797,1,0,0:0:0:0:
192,192,199928,1,0,0:0:0:0:
448,192,199928,1,0,0:0:0:0:
192,192,200058,1,0,0:0:0:0:
320,192,200058,128,0,200123:0:0:0:0:
448,192,200091,128,0,200319:0:0:0:0:
320,192,200319,128,0,200417:0:0:0:0:
192,192,200351,128,0,200482:0:0:0:0:
64,192,200384,128,0,200580:0:0:0:0:
448,192,200449,1,0,0:0:0:0:
192,192,200580,128,0,200678:0:0:0:0:
320,192,200612,128,0,200743:0:0:0:0:
448,192,200645,128,0,200841:0:0:0:0:
64,192,200710,1,0,0:0:0:0:
192,192,200775,1,0,0:0:0:0:
320,192,200841,128,0,200938:0:0:0:0:
192,192,200873,128,0,201004:0:0:0:0:
64,192,200906,128,0,201101:0:0:0:0:
448,192,200971,1,0,0:0:0:0:
192,192,201101,1,0,0:0:0:0:
320,192,201101,128,0,201232:0:0:0:0:
64,192,201232,128,0,201428:0:0:0:0:
192,192,201232,128,0,201428:0:0:0:0:
448,192,201232,128,0,201428:0:0:0:0:
64,192,201493,1,0,0:0:0:0:
320,192,201493,1,0,0:0:0:0:
320,192,201623,128,0,201819:0:0:0:0:
448,192,201623,128,0,201819:0:0:0:0:
192,192,201623,128,0,201688:0:0:0:0:
64,192,201623,128,0,201688:0:0:0:0:
64,192,201754,1,0,0:0:0:0:
192,192,201754,1,0,0:0:0:0:
192,192,201884,128,0,202080:0:0:0:0:
64,192,201884,128,0,202080:0:0:0:0:
320,192,201884,128,0,201949:0:0:0:0:
448,192,201884,128,0,201949:0:0:0:0:
448,192,202014,1,0,0:0:0:0:
320,192,202080,1,0,0:0:0:0:
192,192,202145,128,0,202341:0:0:0:0:
448,192,202145,128,0,202341:0:0:0:0:
64,192,202145,128,0,202210:0:0:0:0:
64,192,202275,1,0,0:0:0:0:
320,192,202275,1,0,0:0:0:0:
64,192,202406,128,0,202601:0:0:0:0:
448,192,202406,128,0,202601:0:0:0:0:
192,192,202406,128,0,202471:0:0:0:0:
320,192,202406,128,0,202471:0:0:0:0:
192,192,202536,1,0,0:0:0:0:
320,192,202601,1,0,0:0:0:0:
192,192,202667,128,0,202862:0:0:0:0:
448,192,202667,128,0,202732:0:0:0:0:
64,192,202667,128,0,202862:0:0:0:0:
320,192,202797,1,0,0:0:0:0:
448,192,202797,1,0,0:0:0:0:
320,192,202928,128,0,203123:0:0:0:0:
448,192,202928,128,0,203123:0:0:0:0:
64,192,202928,128,0,202993:0:0:0:0:
192,192,202928,128,0,202993:0:0:0:0:
64,192,203058,1,0,0:0:0:0:
192,192,203058,1,0,0:0:0:0:
64,192,203188,128,0,203254:0:0:0:0:
448,192,203188,128,0,203254:0:0:0:0:
192,192,203188,128,0,203254:0:0:0:0:
192,192,203319,128,0,203514:0:0:0:0:
320,192,203319,128,0,203514:0:0:0:0:
448,192,203319,128,0,203514:0:0:0:0:
64,192,203580,1,0,0:0:0:0:
448,192,203580,1,0,0:0:0:0:
192,192,203645,1,0,0:0:0:0:
64,192,203710,128,0,203775:0:0:0:0:
448,192,203710,128,0,203906:0:0:0:0:
320,192,203710,128,0,203906:0:0:0:0:
64,192,203841,1,0,0:0:0:0:
192,192,203841,1,0,0:0:0:0:
192,192,203971,128,0,204167:0:0:0:0:
448,192,203971,128,0,204036:0:0:0:0:
64,192,203971,128,0,204167:0:0:0:0:
320,192,203971,128,0,204036:0:0:0:0:
448,192,204101,1,0,0:0:0:0:
320,192,204101,1,0,0:0:0:0:
64,192,204232,128,0,204428:0:0:0:0:
320,192,204232,128,0,204297:0:0:0:0:
448,192,204232,128,0,204428:0:0:0:0:
192,192,204232,128,0,204297:0:0:0:0:
192,192,204362,1,0,0:0:0:0:
320,192,204428,1,0,0:0:0:0:
64,192,204493,128,0,204688:0:0:0:0:
192,192,204493,128,0,204688:0:0:0:0:
448,192,204493,128,0,204558:0:0:0:0:
320,192,204623,1,0,0:0:0:0:
448,192,204623,1,0,0:0:0:0:
320,192,204754,128,0,204949:0:0:0:0:
448,192,204754,128,0,204949:0:0:0:0:
192,192,204754,128,0,204819:0:0:0:0:
64,192,204754,128,0,204819:0:0:0:0:
64,192,204884,1,0,0:0:0:0:
192,192,204949,1,0,0:0:0:0:
448,192,205014,128,0,205080:0:0:0:0:
320,192,205014,128,0,205210:0:0:0:0:
64,192,205014,128,0,205210:0:0:0:0:
192,192,205145,1,0,0:0:0:0:
448,192,205145,1,0,0:0:0:0:
64,192,205275,128,0,205341:0:0:0:0:
448,192,205275,128,0,205341:0:0:0:0:
192,192,205275,128,0,205341:0:0:0:0:
320,192,205341,128,0,205406:0:0:0:0:
448,192,205406,1,0,0:0:0:0:
64,192,205406,128,0,205830:0:0:0:0:
192,192,205406,128,0,205699:0:0:0:0:
320,192,205536,128,0,205732:0:0:0:0:
448,192,205667,128,0,205764:0:0:0:0:
192,192,205797,128,0,205993:0:0:0:0:
320,192,205830,128,0,205960:0:0:0:0:
448,192,205862,128,0,206058:0:0:0:0:
64,192,205928,1,0,0:0:0:0:
320,192,206058,128,0,206123:0:0:0:0:
192,192,206091,128,0,206188:0:0:0:0:
64,192,206123,128,0,206384:0:0:0:0:
448,192,206188,1,0,0:0:0:0:
320,192,206254,1,0,0:0:0:0:
192,192,206319,128,0,206384:0:0:0:0:
448,192,206319,128,0,206384:0:0:0:0:
64,192,206449,1,0,0:0:0:0:
448,192,206449,128,0,206873:0:0:0:0:
320,192,206449,128,0,206743:0:0:0:0:
192,192,206580,128,0,206775:0:0:0:0:
64,192,206710,128,0,206808:0:0:0:0:
320,192,206841,128,0,207036:0:0:0:0:
192,192,206873,128,0,207004:0:0:0:0:
64,192,206906,128,0,207101:0:0:0:0:
448,192,206971,1,0,0:0:0:0:
192,192,207101,128,0,207167:0:0:0:0:
320,192,207134,128,0,207232:0:0:0:0:
448,192,207167,128,0,207428:0:0:0:0:
64,192,207232,1,0,0:0:0:0:
192,192,207232,1,0,0:0:0:0:
64,192,207362,128,0,207428:0:0:0:0:
320,192,207362,128,0,207428:0:0:0:0:
64,192,207493,128,0,207623:0:0:0:0:
192,192,207493,128,0,207754:0:0:0:0:
448,192,207493,1,0,0:0:0:0:
320,192,207623,128,0,207917:0:0:0:0:
64,192,207754,1,0,0:0:0:0:
448,192,207754,128,0,207884:0:0:0:0:
192,192,207884,128,0,207949:0:0:0:0:
64,192,207917,128,0,208275:0:0:0:0:
448,192,208014,1,0,0:0:0:0:
320,192,208014,1,0,0:0:0:0:
192,192,208145,1,0,0:0:0:0:
448,192,208145,128,0,208275:0:0:0:0:
320,192,208275,1,0,0:0:0:0:
192,192,208341,1,0,0:0:0:0:
320,192,208406,1,0,0:0:0:0:
448,192,208406,128,0,208601:0:0:0:0:
64,192,208406,128,0,208536:0:0:0:0:
192,192,208471,128,0,208569:0:0:0:0:
320,192,208536,128,0,208601:0:0:0:0:
192,192,208667,1,0,0:0:0:0:
64,192,208667,128,0,208862:0:0:0:0:
448,192,208667,128,0,208797:0:0:0:0:
320,192,208732,128,0,208830:0:0:0:0:
192,192,208797,128,0,208862:0:0:0:0:
320,192,208928,1,0,0:0:0:0:
64,192,208928,128,0,209058:0:0:0:0:
448,192,208928,128,0,209123:0:0:0:0:
192,192,208993,128,0,209091:0:0:0:0:
320,192,209058,128,0,209123:0:0:0:0:
64,192,209188,128,0,209319:0:0:0:0:
192,192,209188,128,0,209319:0:0:0:0:
448,192,209188,128,0,209254:0:0:0:0:
320,192,209319,1,0,0:0:0:0:
448,192,209319,1,0,0:0:0:0:
192,192,209384,1,0,0:0:0:0:
64,192,209384,1,0,0:0:0:0:
320,192,209449,1,0,0:0:0:0:
448,192,209449,1,0,0:0:0:0:
192,192,209514,1,0,0:0:0:0:
64,192,209514,1,0,0:0:0:0:
320,192,209580,128,0,209841:0:0:0:0:
448,192,209580,128,0,209841:0:0:0:0:
64,192,209841,128,0,209971:0:0:0:0:
192,192,209841,1,0,0:0:0:0:
320,192,209971,128,0,210101:0:0:0:0:
192,192,209971,1,0,0:0:0:0:
448,192,209971,1,0,0:0:0:0:
64,192,210101,128,0,210232:0:0:0:0:
448,192,210232,128,0,210362:0:0:0:0:
320,192,210232,1,0,0:0:0:0:
192,192,210362,128,0,210493:0:0:0:0:
64,192,210362,1,0,0:0:0:0:
64,192,210493,1,0,0:0:0:0:
320,192,210493,1,0,0:0:0:0:
448,192,210493,128,0,210623:0:0:0:0:
320,192,210623,128,0,210754:0:0:0:0:
64,192,210754,128,0,210884:0:0:0:0:
192,192,210754,1,0,0:0:0:0:
320,192,210884,1,0,0:0:0:0:
448,192,210884,128,0,211014:0:0:0:0:
320,192,211014,1,0,0:0:0:0:
64,192,211014,1,0,0:0:0:0:
192,192,211014,128,0,211145:0:0:0:0:
448,192,211145,128,0,211275:0:0:0:0:
320,192,211275,128,0,211341:0:0:0:0:
64,192,211275,1,0,0:0:0:0:
448,192,211341,128,0,211406:0:0:0:0:
320,192,211406,128,0,211536:0:0:0:0:
64,192,211406,1,0,0:0:0:0:
448,192,211471,128,0,211536:0:0:0:0:
64,192,211536,1,0,0:0:0:0:
192,192,211536,1,0,0:0:0:0:
192,192,211667,128,0,211797:0:0:0:0:
320,192,211667,128,0,211928:0:0:0:0:
448,192,211667,128,0,211928:0:0:0:0:
192,192,211928,1,0,0:0:0:0:
64,192,211928,128,0,212058:0:0:0:0:
320,192,212058,1,0,0:0:0:0:
448,192,212058,1,0,0:0:0:0:
192,192,212058,128,0,212188:0:0:0:0:
320,192,212188,128,0,212319:0:0:0:0:
448,192,212319,128,0,212449:0:0:0:0:
64,192,212319,1,0,0:0:0:0:
192,192,212449,128,0,212580:0:0:0:0:
320,192,212449,1,0,0:0:0:0:
64,192,212580,1,0,0:0:0:0:
320,192,212580,1,0,0:0:0:0:
448,192,212580,128,0,212710:0:0:0:0:
64,192,212710,128,0,212841:0:0:0:0:
320,192,212841,128,0,212971:0:0:0:0:
448,192,212841,1,0,0:0:0:0:
64,192,212971,128,0,213101:0:0:0:0:
192,192,212971,1,0,0:0:0:0:
192,192,213101,1,0,0:0:0:0:
448,192,213101,1,0,0:0:0:0:
320,192,213101,128,0,213232:0:0:0:0:
64,192,213232,128,0,213362:0:0:0:0:
192,192,213362,128,0,213428:0:0:0:0:
448,192,213362,1,0,0:0:0:0:
64,192,213428,128,0,213493:0:0:0:0:
448,192,213493,1,0,0:0:0:0:
192,192,213493,128,0,213623:0:0:0:0:
64,192,213558,128,0,213623:0:0:0:0:
320,192,213623,1,0,0:0:0:0:
448,192,213623,1,0,0:0:0:0:
64,192,213754,128,0,214014:0:0:0:0:
192,192,213754,128,0,214014:0:0:0:0:
320,192,213754,128,0,213884:0:0:0:0:
448,192,214014,128,0,214145:0:0:0:0:
320,192,214014,1,0,0:0:0:0:
64,192,214145,128,0,214275:0:0:0:0:
320,192,214145,128,0,214275:0:0:0:0:
192,192,214145,128,0,214406:0:0:0:0:
448,192,214275,128,0,214536:0:0:0:0:
64,192,214406,128,0,214536:0:0:0:0:
320,192,214406,128,0,214536:0:0:0:0:
192,192,214536,128,0,214667:0:0:0:0:
64,192,214667,128,0,214797:0:0:0:0:
448,192,214667,128,0,214797:0:0:0:0:
320,192,214667,128,0,214928:0:0:0:0:
192,192,214797,128,0,215058:0:0:0:0:
64,192,214928,128,0,215058:0:0:0:0:
448,192,214928,128,0,215058:0:0:0:0:
320,192,215058,128,0,215188:0:0:0:0:
192,192,215188,128,0,215319:0:0:0:0:
64,192,215188,128,0,215319:0:0:0:0:
448,192,215188,128,0,215449:0:0:0:0:
320,192,215319,128,0,215449:0:0:0:0:
192,192,215449,128,0,215514:0:0:0:0:
64,192,215449,1,0,0:0:0:0:
320,192,215514,128,0,215580:0:0:0:0:
192,192,215580,128,0,215710:0:0:0:0:
320,192,215645,128,0,215710:0:0:0:0:
64,192,215710,1,0,0:0:0:0:
448,192,215710,1,0,0:0:0:0:
64,192,215841,128,0,216101:0:0:0:0:
192,192,215841,128,0,216101:0:0:0:0:
448,192,215841,128,0,215971:0:0:0:0:
320,192,216101,1,0,0:0:0:0:
448,192,216101,1,0,0:0:0:0:
64,192,216232,128,0,216297:0:0:0:0:
320,192,216232,128,0,216297:0:0:0:0:
192,192,216232,128,0,216297:0:0:0:0:
64,192,216362,1,0,0:0:0:0:
448,192,216362,1,0,0:0:0:0:
192,192,216493,128,0,216558:0:0:0:0:
320,192,216493,128,0,216558:0:0:0:0:
448,192,216493,128,0,216558:0:0:0:0:
64,192,216623,1,0,0:0:0:0:
192,192,216623,1,0,0:0:0:0:
448,192,216688,1,0,0:0:0:0:
64,192,216754,128,0,216819:0:0:0:0:
192,192,216754,128,0,216819:0:0:0:0:
320,192,216754,128,0,216819:0:0:0:0:
448,192,216884,1,0,0:0:0:0:
320,192,216884,1,0,0:0:0:0:
320,192,217014,128,0,217080:0:0:0:0:
192,192,217014,128,0,217080:0:0:0:0:
64,192,217014,128,0,217080:0:0:0:0:
64,192,217145,128,0,217275:0:0:0:0:
192,192,217145,128,0,217275:0:0:0:0:
448,192,217145,128,0,217275:0:0:0:0:
64,192,217406,128,0,217536:0:0:0:0:
192,192,217406,128,0,217536:0:0:0:0:
448,192,217406,128,0,217536:0:0:0:0:
64,192,217667,128,0,217797:0:0:0:0:
192,192,217667,128,0,217797:0:0:0:0:
448,192,217667,128,0,217797:0:0:0:0:
448,192,217928,128,0,222297:0:0:0:0:
64,192,217928,128,0,218841:0:0:0:0:
192,192,217928,128,0,218884:0:0:0:0:
64,192,218938,128,0,219069:0:0:0:0:
192,192,218971,128,0,219101:0:0:0:0:
320,192,219058,128,0,222297:0:0:0:0:
64,192,219150,128,0,222297:0:0:0:0:
