osu file format v14

[General]
AudioFilename: audio.mp3
AudioLeadIn: 0
PreviewTime: 76592
Countdown: 0
SampleSet: Soft
StackLeniency: 0.7
Mode: 0
LetterboxInBreaks: 0
WidescreenStoryboard: 0

[Editor]
Bookmarks: 67362
DistanceSpacing: 0.5
BeatDivisor: 4
GridSize: 32
TimelineZoom: 2.1

[Metadata]
Title:FUBUKI
TitleUnicode:FUBUKI
Artist:Imperial Dead Circus Decadence
ArtistUnicode:Imperial Dead Circus Decadence
Creator:fstapled
Version:SNOW STORM
Source:
Tags:icdd
BeatmapID:1848862
BeatmapSetID:884550

[Difficulty]
HPDrainRate:5
CircleSize:4.2
OverallDifficulty:9
ApproachRate:9.8
SliderMultiplier:2
SliderTickRate:1

[Events]
//Background and Video events
0,0,"BG.jpg",0,0
//Break Periods
2,199254,209036
2,220177,223190
//Storyboard Layer 0 (Background)
//Storyboard Layer 1 (Fail)
//Storyboard Layer 2 (Pass)
//Storyboard Layer 3 (Foreground)
//Storyboard Sound Samples

[TimingPoints]
1887,333.333333333333,4,2,0,50,1,0
1887,-133.333333333333,4,2,0,50,0,0
7886,-100,4,2,0,50,0,0
12553,-133.333333333333,4,2,0,50,0,0
14439,307.692307692308,4,2,0,100,1,0
18054,-100,4,2,0,5,0,0
18131,-100,4,2,0,100,0,0
34131,-333.333333333333,4,2,0,100,0,0
34362,-333.333333333333,4,2,0,5,0,0
34439,-100,4,2,0,100,0,0
42746,-66.6666666666667,4,2,0,100,0,0
45208,-100,4,2,0,100,0,0
55054,-133.333333333333,4,2,0,100,0,0
58746,-100,4,2,0,100,0,0
59977,-76.9230769230769,4,2,0,100,0,0
66746,-133.333333333333,4,2,0,100,0,0
67362,-76.9230769230769,4,2,0,100,0,1
68439,-133.333333333333,4,2,0,100,0,1
68592,-76.9230769230769,4,2,0,100,0,1
69669,-133.333333333333,4,2,0,100,0,1
69823,-76.9230769230769,4,2,0,100,0,1
80900,-66.6666666666667,4,2,0,100,0,1
84592,-200,4,2,0,100,0,1
86439,-100,4,2,0,100,0,1
87054,-76.9230769230769,4,2,0,100,0,1
91900,-76.9230769230769,4,2,0,5,0,1
91977,-100,4,2,0,100,0,0
96900,-76.9230769230769,4,2,0,100,0,0
105515,-333.333333333333,4,2,0,100,0,0
105746,-333.333333333333,4,2,0,5,0,0
105823,-333.333333333333,4,2,0,100,0,0
106746,-100,4,2,0,100,0,0
109131,-100,4,2,0,5,0,0
109208,-100,4,2,0,100,0,0
116592,-66.6666666666667,4,2,0,100,0,0
116746,-100,4,2,0,100,0,0
117746,-100,4,2,0,5,0,0
117823,-100,4,2,0,100,0,0
118054,-100,4,2,0,5,0,0
118131,-100,4,2,0,100,0,0
119054,-125,4,2,0,100,0,0
120131,-50,4,2,0,100,0,0
120208,-50,4,2,0,5,0,0
120439,-50,4,2,0,100,0,0
120515,-50,4,2,0,5,0,0
120746,-50,4,2,0,100,0,0
120823,-50,4,2,0,5,0,0
121054,-50,4,2,0,100,0,0
121131,-50,4,2,0,5,0,0
121208,-50,4,2,0,100,0,0
121515,-133.333333333333,4,2,0,100,0,0
123592,-133.333333333333,4,2,0,5,0,0
123669,-133.333333333333,4,2,0,100,0,0
123900,-133.333333333333,4,2,0,5,0,0
123977,-133.333333333333,4,2,0,100,0,0
126439,-100,4,2,0,100,0,0
131362,-117.647058823529,4,2,0,100,0,0
132823,-117.647058823529,4,2,0,5,0,0
132900,-117.647058823529,4,2,0,100,0,0
133131,-117.647058823529,4,2,0,5,0,0
133208,-117.647058823529,4,2,0,100,0,0
133823,-100,4,2,0,100,0,0
138131,-133.333333333333,4,2,0,100,0,0
138746,-66.6666666666667,4,2,0,100,0,1
152285,-55.5555555555556,4,2,0,100,0,1
153439,-55.5555555555556,4,2,0,5,0,1
153515,-55.5555555555556,4,2,0,100,0,1
155977,-100,4,2,0,100,0,1
157823,-133.333333333333,4,2,0,100,0,1
158439,-100,4,2,0,100,0,1
165669,-66.6666666666667,4,2,0,100,0,1
165977,-100,4,2,0,100,0,1
168515,-100,4,2,0,5,0,1
168592,-100,4,2,0,100,0,1
174131,-83.3333333333333,4,2,0,100,0,1
174592,-71.4285714285714,4,2,0,100,0,1
175054,-66.6666666666667,4,2,0,100,0,1
175362,-100,4,2,0,100,0,1
178131,-100,4,2,0,100,0,0
180823,-100,4,2,0,5,0,0
180900,-100,4,2,0,100,0,0
182977,-100,4,2,0,5,0,0
183054,-100,4,2,0,100,0,0
184054,-100,4,2,0,5,0,0
184131,-100,4,2,0,100,0,0
185439,-100,4,2,0,5,0,0
185515,-100,4,2,0,100,0,0
196592,-200,4,2,0,100,0,0
199054,-200,4,2,0,5,0,0
199746,-200,4,2,0,100,0,0
209977,-100,4,2,0,100,0,0
213746,-100,4,2,0,5,0,0
213823,-100,4,2,0,100,0,0
223669,-200,4,2,0,100,0,0
224900,-133.333333333333,4,2,0,100,0,0
229823,-100,4,2,0,100,0,0
234746,-62.5,4,2,0,100,0,1
242131,-250,4,2,0,100,0,1
242439,-250,4,2,0,5,0,1
242669,-250,4,2,0,5,0,1
242746,-166.666666666667,4,2,0,100,0,1
243054,-166.666666666667,4,2,0,5,0,1
243285,-166.666666666667,4,2,0,5,0,1
243362,-100,4,2,0,100,0,1
244592,-100,4,2,0,100,0,0
246977,-100,4,2,0,5,0,0
247054,-100,4,2,0,100,0,0
247285,-100,4,2,0,5,0,0
247362,-100,4,2,0,100,0,0
249439,-100,4,2,0,5,0,0
249515,-100,4,2,0,100,0,0
251362,-66.6666666666667,4,2,0,100,0,0
251900,-66.6666666666667,4,2,0,5,0,0
251977,-100,4,2,0,100,0,1
254362,-100,4,2,0,5,0,1
254439,-100,4,2,0,100,0,1
255669,-100,4,2,0,100,0,0

[HitObjects]
103,240,1886,6,0,B|203:194|203:194|317:205,1,200
412,218,2386,1,0,0:0:0:0:
412,218,2470,1,0,0:0:0:0:
412,218,2553,1,0,0:0:0:0:
135,46,3220,2,0,B|133:92|133:92|141:121|141:121|114:152|114:176|114:176|137:206,1,150.000005722046
115,313,3720,1,0,0:0:0:0:
283,285,3886,1,0,0:0:0:0:
396,336,4553,6,0,B|397:279|397:279|413:259|413:259|396:238|396:238|394:192,1,150.000005722046
185,274,5053,1,0,0:0:0:0:
185,274,5136,1,0,0:0:0:0:
185,274,5220,1,0,0:0:0:0:
259,74,5720,5,0,0:0:0:0:
67,130,5887,1,0,0:0:0:0:
192,232,6386,5,0,0:0:0:0:
121,33,6552,1,0,0:0:0:0:
334,77,7553,6,0,L|316:204,1,112.500004291535
270,274,7886,2,0,L|195:265,2,66.6666666666667
434,197,8220,2,0,L|450:275,2,66.6666666666667
374,126,8553,5,0,0:0:0:0:
323,86,8664,1,0,0:0:0:0:
260,103,8775,1,0,0:0:0:0:
236,162,8886,1,0,0:0:0:0:
211,221,8998,1,0,0:0:0:0:
149,238,9109,1,0,0:0:0:0:
98,198,9220,1,0,0:0:0:0:
343,194,9553,6,0,L|322:351,1,150
220,290,9886,1,0,0:0:0:0:
316,75,10386,1,0,0:0:0:0:
316,75,10470,1,0,0:0:0:0:
316,75,10553,2,0,B|326:119|326:119|324:163,2,66.6666666666667
199,233,10886,2,0,L|272:243,2,66.6666666666667
415,218,11220,2,0,P|439:198|465:169,2,66.6666666666667
336,91,11553,5,0,0:0:0:0:
344,197,11664,1,0,0:0:0:0:
352,303,11775,1,0,0:0:0:0:
252,264,11886,1,0,0:0:0:0:
237,62,12553,2,0,B|241:142|241:142|219:229,1,150.000005722046
143,290,13053,1,0,0:0:0:0:
402,210,13220,6,0,B|361:188|355:139|355:139|323:206|247:215|183:169|175:107|175:107|207:151|246:162|272:160|296:143,1,450.000017166138
271,328,14439,5,0,0:0:0:0:
228,302,14515,1,0,0:0:0:0:
208,258,14592,1,0,0:0:0:0:
218,209,14669,1,0,0:0:0:0:
254,176,14746,1,0,0:0:0:0:
297,150,14823,1,0,0:0:0:0:
317,106,14900,1,0,0:0:0:0:
307,57,14977,1,0,0:0:0:0:
271,24,15054,5,0,0:0:0:0:
283,71,15131,1,0,0:0:0:0:
318,106,15208,1,0,0:0:0:0:
366,119,15285,1,0,0:0:0:0:
413,106,15362,1,0,0:0:0:0:
448,71,15439,5,0,0:0:0:0:
435,118,15515,1,0,0:0:0:0:
439,167,15592,1,0,0:0:0:0:
457,213,15669,1,0,0:0:0:0:
117,347,16131,5,0,0:0:0:0:
385,330,16285,1,0,0:0:0:0:
379,180,16746,5,0,0:0:0:0:
111,163,16900,1,0,0:0:0:0:
134,42,17361,5,0,0:0:0:0:
402,25,17515,1,0,0:0:0:0:
282,66,17823,2,0,B|275:102|275:102|298:143|298:143|287:188|297:238,1,150
295,229,18131,1,0,0:0:0:0:
129,355,18592,1,0,0:0:0:0:
371,271,18746,1,0,0:0:0:0:
185,108,19208,1,0,0:0:0:0:
257,337,19362,5,0,0:0:0:0:
346,249,19515,1,0,0:0:0:0:
462,254,19669,1,0,0:0:0:0:
335,241,19823,1,0,0:0:0:0:
299,73,19977,1,0,0:0:0:0:
155,179,20131,1,0,0:0:0:0:
155,179,20208,1,0,0:0:0:0:
155,179,20285,1,0,0:0:0:0:
444,320,20592,5,0,0:0:0:0:
270,110,21054,1,0,0:0:0:0:
214,367,21208,1,0,0:0:0:0:
412,91,21669,1,0,0:0:0:0:
90,135,21823,1,0,0:0:0:0:
277,237,22746,5,0,0:0:0:0:
81,115,23054,1,0,0:0:0:0:
106,72,23130,1,0,0:0:0:0:
151,54,23207,1,0,0:0:0:0:
199,66,23284,1,0,0:0:0:0:
229,105,23361,5,0,0:0:0:0:
267,137,23439,1,0,0:0:0:0:
316,140,23516,1,0,0:0:0:0:
357,113,23593,1,0,0:0:0:0:
375,67,23670,1,0,0:0:0:0:
368,49,23977,1,0,0:0:0:0:
349,206,24285,1,0,0:0:0:0:
194,168,24439,5,0,0:0:0:0:
262,349,24592,1,0,0:0:0:0:
357,223,24900,1,0,0:0:0:0:
284,137,25054,5,0,0:0:0:0:
243,111,25130,1,0,0:0:0:0:
198,129,25207,1,0,0:0:0:0:
186,175,25284,1,0,0:0:0:0:
174,221,25362,1,0,0:0:0:0:
129,239,25439,1,0,0:0:0:0:
88,213,25515,5,0,0:0:0:0:
366,191,25669,1,0,0:0:0:0:
172,126,25823,2,0,P|141:69|150:22,1,100
176,296,26131,1,0,0:0:0:0:
357,118,26285,1,0,0:0:0:0:
323,377,26439,1,0,0:0:0:0:
202,166,26592,5,0,0:0:0:0:
202,166,26669,1,0,0:0:0:0:
202,166,26746,1,0,0:0:0:0:
401,244,26900,1,0,0:0:0:0:
110,294,27054,1,0,0:0:0:0:
326,145,27208,1,0,0:0:0:0:
140,49,27362,2,0,L|144:167,1,100
312,345,27669,2,0,L|306:224,1,100
306,226,27900,5,0,0:0:0:0:
306,226,27977,1,0,0:0:0:0:
75,124,28131,1,0,0:0:0:0:
162,342,28285,1,0,0:0:0:0:
416,164,28439,2,0,L|351:137,1,50
145,92,28592,1,0,0:0:0:0:
361,310,28746,1,0,0:0:0:0:
316,71,28900,1,0,0:0:0:0:
245,272,29054,5,0,0:0:0:0:
239,291,29131,1,0,0:0:0:0:
234,310,29208,1,0,0:0:0:0:
119,108,29362,1,0,0:0:0:0:
363,262,29515,1,0,0:0:0:0:
70,377,29669,1,0,0:0:0:0:
255,101,29823,6,0,L|324:87,1,50
419,71,29977,1,0,0:0:0:0:
200,235,30131,2,0,L|269:221,1,50
364,205,30285,1,0,0:0:0:0:
94,140,30439,1,0,0:0:0:0:
259,344,30592,1,0,0:0:0:0:
259,344,30669,1,0,0:0:0:0:
259,344,30746,2,0,P|291:296|277:245,1,100
252,144,31054,5,0,0:0:0:0:
146,353,31208,1,0,0:0:0:0:
146,353,31285,1,0,0:0:0:0:
146,353,31362,1,0,0:0:0:0:
141,43,31515,1,0,0:0:0:0:
236,127,31669,2,0,L|255:235,1,100
448,187,31977,1,0,0:0:0:0:
371,351,32131,2,0,L|250:332,1,100
298,175,32439,5,0,0:0:0:0:
124,298,32592,2,0,B|119:277|119:277|126:234|126:234|120:181,1,100
132,49,32900,1,0,0:0:0:0:
274,144,33054,1,0,0:0:0:0:
274,144,33131,1,0,0:0:0:0:
274,144,33208,2,0,L|276:253,1,100
376,57,33515,1,0,0:0:0:0:
179,215,33669,5,0,0:0:0:0:
179,215,33746,1,0,0:0:0:0:
179,215,33823,1,0,0:0:0:0:
339,295,33977,1,0,0:0:0:0:
355,138,34131,2,0,L|299:131,1,44.999998626709
226,84,34439,5,0,0:0:0:0:
219,133,34515,1,0,0:0:0:0:
213,183,34592,1,0,0:0:0:0:
207,232,34669,1,0,0:0:0:0:
201,282,34746,1,0,0:0:0:0:
363,206,35054,1,0,0:0:0:0:
414,335,35362,1,0,0:0:0:0:
223,235,35515,1,0,0:0:0:0:
319,158,35669,6,0,P|363:114|381:61,1,100
268,250,35977,2,0,P|355:266|439:181,1,200
434,102,36439,1,0,0:0:0:0:
334,188,36592,2,0,B|325:146|281:107|281:107|246:147|168:121,1,200
88,97,37054,1,0,0:0:0:0:
200,311,37208,2,0,P|230:244|223:195,1,100
159,108,37515,2,0,P|134:190|134:209,1,100
262,176,37823,5,0,0:0:0:0:
132,314,37977,1,0,0:0:0:0:
337,264,38131,2,0,B|373:221|373:221|390:168,1,100
267,325,38439,2,0,B|321:351|321:351|381:352,1,100
207,242,38746,2,0,B|154:236|154:236|102:258,1,100
427,10,39054,6,0,L|443:125,1,100
306,224,39362,2,0,L|327:113,1,100
186,241,39669,2,0,L|192:347,1,100
64,171,39977,1,0,0:0:0:0:
170,62,40131,1,0,0:0:0:0:
289,289,40285,2,0,L|399:275,1,100
343,244,40592,5,0,0:0:0:0:
477,358,40746,1,0,0:0:0:0:
384,155,40900,2,0,P|321:144|269:171,1,100
309,121,41208,1,0,0:0:0:0:
290,303,41362,1,0,0:0:0:0:
136,205,41515,2,0,B|121:175|121:175|129:104,1,100
98,179,41823,1,0,0:0:0:0:
405,92,41977,1,0,0:0:0:0:
266,275,42131,6,0,B|209:264|209:264|171:235,1,100
424,188,42439,2,0,B|452:237|452:237|461:300,1,100
312,112,42746,2,0,B|273:73|191:93|191:93|232:126,1,150.000005722046
325,130,43054,1,0,0:0:0:0:
437,314,43208,1,0,0:0:0:0:
419,326,43362,2,0,B|380:344|341:334|341:334|299:324|258:346,1,150.000005722046
46,234,43669,2,0,P|119:242|159:162,1,150.000005722046
127,79,43977,5,0,0:0:0:0:
299,216,44131,1,0,0:0:0:0:
148,306,44285,1,0,0:0:0:0:
305,130,44439,1,0,0:0:0:0:
40,170,44592,5,0,0:0:0:0:
257,43,44746,1,0,0:0:0:0:
209,300,44900,1,0,0:0:0:0:
119,58,45054,1,0,0:0:0:0:
262,229,45208,6,0,L|278:348,1,100
476,186,45515,2,0,B|433:217|433:217|367:219,1,100
242,65,45823,2,0,P|305:37|376:140,1,200
349,207,46285,1,0,0:0:0:0:
457,100,46439,2,0,B|481:177|481:177|456:309,1,200
422,377,46900,1,0,0:0:0:0:
312,259,47054,6,0,B|325:320|325:320|320:396,1,100
243,177,47362,2,0,B|225:135|225:135|218:70,1,100
173,232,47669,1,0,0:0:0:0:
351,139,47823,1,0,0:0:0:0:
88,182,47977,2,0,P|85:235|94:291,1,100
252,124,48285,2,0,P|256:62|248:25,1,100
286,248,48592,2,0,P|352:212|365:178,1,100
243,357,48900,5,0,0:0:0:0:
180,144,49054,1,0,0:0:0:0:
357,238,49208,1,0,0:0:0:0:
127,297,49362,1,0,0:0:0:0:
294,40,49515,2,0,L|302:148,1,100
193,141,49823,2,0,L|166:252,1,100
419,94,50131,5,0,0:0:0:0:
369,88,50207,1,0,0:0:0:0:
319,82,50284,1,0,0:0:0:0:
270,76,50361,1,0,0:0:0:0:
220,70,50438,1,0,0:0:0:0:
170,64,50515,1,0,0:0:0:0:
121,57,50592,2,0,L|57:50,1,50
222,237,50746,5,0,0:0:0:0:
260,206,50822,1,0,0:0:0:0:
271,158,50899,1,0,0:0:0:0:
249,114,50976,1,0,0:0:0:0:
205,92,51053,1,0,0:0:0:0:
157,106,51131,1,0,0:0:0:0:
136,151,51208,2,0,P|128:180|137:217,1,50
283,333,51362,5,0,0:0:0:0:
313,294,51438,1,0,0:0:0:0:
315,245,51515,1,0,0:0:0:0:
288,205,51592,1,0,0:0:0:0:
258,166,51669,1,0,0:0:0:0:
256,117,51746,1,0,0:0:0:0:
283,77,51823,2,0,P|306:61|334:58,1,50
454,91,51977,5,0,0:0:0:0:
455,139,52053,1,0,0:0:0:0:
420,172,52130,1,0,0:0:0:0:
372,168,52207,1,0,0:0:0:0:
323,163,52285,1,0,0:0:0:0:
288,196,52362,1,0,0:0:0:0:
288,243,52439,2,0,P|299:270|329:289,1,50
353,102,52592,5,0,0:0:0:0:
309,79,52668,1,0,0:0:0:0:
263,94,52745,1,0,0:0:0:0:
241,137,52822,1,0,0:0:0:0:
218,180,52900,1,0,0:0:0:0:
172,195,52977,1,0,0:0:0:0:
129,172,53054,2,0,P|112:153|93:110,1,50
174,75,53208,5,0,0:0:0:0:
220,93,53284,1,0,0:0:0:0:
241,137,53361,1,0,0:0:0:0:
229,184,53439,1,0,0:0:0:0:
216,230,53516,1,0,0:0:0:0:
238,274,53593,1,0,0:0:0:0:
283,293,53669,2,0,P|312:299|348:290,1,50
319,189,53823,5,0,0:0:0:0:
279,160,53899,1,0,0:0:0:0:
231,166,53976,1,0,0:0:0:0:
200,204,54053,1,0,0:0:0:0:
205,252,54131,1,0,0:0:0:0:
181,295,54207,1,0,0:0:0:0:
137,317,54284,1,0,0:0:0:0:
88,311,54361,1,0,0:0:0:0:
51,278,54438,5,0,0:0:0:0:
74,234,54515,1,0,0:0:0:0:
119,214,54592,1,0,0:0:0:0:
166,227,54669,1,0,0:0:0:0:
195,269,54746,2,0,P|193:309|184:344,3,50
157,380,55054,5,0,0:0:0:0:
264,248,55515,1,0,0:0:0:0:
180,162,55669,1,0,0:0:0:0:
271,30,56131,5,0,0:0:0:0:
323,126,56285,2,0,L|292:277,2,150.000005722046
57,365,57208,1,0,0:0:0:0:
56,328,57284,1,0,0:0:0:0:
77,297,57361,1,0,0:0:0:0:
112,285,57438,1,0,0:0:0:0:
142,292,57515,2,0,B|185:307|215:289|215:289|252:266|295:293,1,150.000005722046
336,356,57977,1,0,0:0:0:0:
404,245,58131,2,0,P|418:171|374:111,1,150.000005722046
276,280,58746,5,0,0:0:0:0:
145,122,58900,1,0,0:0:0:0:
356,185,59054,1,0,0:0:0:0:
128,278,59208,1,0,0:0:0:0:
261,77,59362,1,0,0:0:0:0:
272,60,59439,1,0,0:0:0:0:
282,43,59515,1,0,0:0:0:0:
358,263,59669,2,0,B|400:199|395:172|375:148|375:148|334:206,1,150
255,197,59977,6,0,B|220:198|197:166|197:166|173:186|114:173,1,129.999994049073
32,166,60285,1,0,0:0:0:0:
254,101,60439,1,0,0:0:0:0:
183,259,60592,2,0,B|168:298|136:314|136:314|158:339|159:368,1,129.999994049073
230,179,60900,2,0,B|246:145|270:117|270:117|248:109|230:68,1,129.999994049073
272,283,61208,2,0,P|317:315|401:262,1,129.999994049073
278,148,61515,6,0,P|223:115|159:150,1,129.999994049073
373,235,61823,2,0,P|434:271|479:240,1,129.999994049073
385,126,62131,2,0,P|399:58|369:7,1,129.999994049073
153,135,62439,5,0,0:0:0:0:
275,278,62592,1,0,0:0:0:0:
303,66,62746,1,0,0:0:0:0:
135,149,62900,1,0,0:0:0:0:
285,297,63054,1,0,0:0:0:0:
314,58,63208,1,0,0:0:0:0:
250,193,63362,2,0,P|196:215|110:195,1,129.999994049073
395,237,63669,5,0,0:0:0:0:
285,60,63823,1,0,0:0:0:0:
315,342,63977,1,0,0:0:0:0:
397,103,64131,5,0,0:0:0:0:
202,198,64285,1,0,0:0:0:0:
446,266,64439,1,0,0:0:0:0:
212,66,64592,5,0,0:0:0:0:
334,278,64746,1,0,0:0:0:0:
101,294,64900,5,0,0:0:0:0:
219,78,65054,1,0,0:0:0:0:
215,262,65208,5,0,0:0:0:0:
166,29,65362,1,0,0:0:0:0:
285,22,65515,5,0,0:0:0:0:
53,176,65669,1,0,0:0:0:0:
252,334,65823,5,0,0:0:0:0:
300,292,65899,1,0,0:0:0:0:
317,230,65976,1,0,0:0:0:0:
294,171,66053,1,0,0:0:0:0:
241,135,66130,5,0,0:0:0:0:
450,324,66285,1,0,0:0:0:0:
503,52,66439,1,0,0:0:0:0:
107,277,66746,6,0,B|129:238|129:238|243:233,1,150.000005722046
354,263,67208,2,0,L|360:211,1,37.5000014305115
112,251,67362,5,0,0:0:0:0:
96,189,67438,1,0,0:0:0:0:
130,135,67515,1,0,0:0:0:0:
192,122,67592,1,0,0:0:0:0:
244,158,67669,1,0,0:0:0:0:
296,193,67746,1,0,0:0:0:0:
358,180,67823,1,0,0:0:0:0:
391,126,67900,1,0,0:0:0:0:
376,65,67976,1,0,0:0:0:0:
334,109,68054,5,0,0:0:0:0:
339,127,68131,1,0,0:0:0:0:
345,145,68208,1,0,0:0:0:0:
351,162,68285,1,0,0:0:0:0:
358,180,68362,1,0,0:0:0:0:
362,194,68439,2,0,L|380:251,1,37.5000014305115
356,330,68592,5,0,0:0:0:0:
292,331,68668,1,0,0:0:0:0:
243,291,68745,1,0,0:0:0:0:
233,228,68822,1,0,0:0:0:0:
268,174,68899,5,0,0:0:0:0:
253,236,68977,1,0,0:0:0:0:
197,263,69054,1,0,0:0:0:0:
139,237,69131,1,0,0:0:0:0:
133,172,69208,2,0,L|155:87,4,64.9999970245363
250,42,69592,2,0,L|233:138,2,64.9999970245363
244,197,69823,5,0,0:0:0:0:
285,149,69899,1,0,0:0:0:0:
348,148,69976,1,0,0:0:0:0:
389,196,70053,1,0,0:0:0:0:
380,258,70131,1,0,0:0:0:0:
397,317,70207,1,0,0:0:0:0:
458,329,70284,1,0,0:0:0:0:
498,281,70361,1,0,0:0:0:0:
474,224,70438,5,0,0:0:0:0:
437,173,70515,1,0,0:0:0:0:
448,111,70592,1,0,0:0:0:0:
502,78,70669,1,0,0:0:0:0:
479,137,70746,1,0,0:0:0:0:
420,161,70823,1,0,0:0:0:0:
362,137,70900,1,0,0:0:0:0:
339,78,70977,5,0,0:0:0:0:
385,124,71054,1,0,0:0:0:0:
374,182,71130,1,0,0:0:0:0:
363,239,71207,1,0,0:0:0:0:
352,297,71284,1,0,0:0:0:0:
294,320,71362,1,0,0:0:0:0:
236,294,71439,1,0,0:0:0:0:
216,234,71516,1,0,0:0:0:0:
246,178,71593,5,0,0:0:0:0:
290,132,71669,1,0,0:0:0:0:
290,69,71746,1,0,0:0:0:0:
246,24,71823,1,0,0:0:0:0:
183,22,71900,1,0,0:0:0:0:
137,66,71977,1,0,0:0:0:0:
135,131,72054,5,0,0:0:0:0:
140,176,72130,1,0,0:0:0:0:
145,221,72207,1,0,0:0:0:0:
206,245,72285,1,0,0:0:0:0:
292,232,72387,1,0,0:0:0:0:
377,220,72490,1,0,0:0:0:0:
351,289,72592,5,0,0:0:0:0:
338,203,72694,1,0,0:0:0:0:
325,117,72797,1,0,0:0:0:0:
257,63,72900,5,0,0:0:0:0:
270,148,73002,1,0,0:0:0:0:
283,234,73105,1,0,0:0:0:0:
199,209,73208,5,0,0:0:0:0:
284,198,73310,1,0,0:0:0:0:
370,187,73413,1,0,0:0:0:0:
456,180,73515,5,0,0:0:0:0:
265,309,73669,1,0,0:0:0:0:
324,56,73823,1,0,0:0:0:0:
459,246,73977,1,0,0:0:0:0:
201,129,74131,1,0,0:0:0:0:
426,357,74285,2,0,B|428:313|428:313|441:299|441:299|434:275|434:275|441:208,1,129.999994049073
451,134,74592,1,0,0:0:0:0:
263,269,74746,6,0,B|292:255|292:255|365:249,2,86.6666626993817
168,152,75054,2,0,B|138:165|138:165|66:172,2,86.6666626993817
327,88,75362,2,0,B|312:46|312:46|309:0,2,86.6666626993817
419,98,75669,1,0,0:0:0:0:
449,177,75771,1,0,0:0:0:0:
430,260,75874,1,0,0:0:0:0:
355,304,75977,2,0,B|307:303|307:303|258:280,2,86.6666626993817
226,183,76285,2,0,B|179:162|179:162|122:167,2,86.6666626993817
181,38,76592,5,0,0:0:0:0:
107,0,76694,1,0,0:0:0:0:
41,48,76797,1,0,0:0:0:0:
55,130,76899,1,0,0:0:0:0:
126,171,77003,5,0,0:0:0:0:
139,252,77105,1,0,0:0:0:0:
53,322,77208,5,0,0:0:0:0:
83,265,77284,1,0,0:0:0:0:
140,235,77361,1,0,0:0:0:0:
203,242,77438,1,0,0:0:0:0:
252,283,77515,1,0,0:0:0:0:
304,316,77592,1,0,0:0:0:0:
362,293,77669,1,0,0:0:0:0:
376,232,77746,1,0,0:0:0:0:
333,186,77823,5,0,0:0:0:0:
281,222,77900,1,0,0:0:0:0:
267,284,77977,1,0,0:0:0:0:
298,340,78054,1,0,0:0:0:0:
358,361,78131,1,0,0:0:0:0:
417,337,78208,1,0,0:0:0:0:
436,275,78285,2,0,P|443:239|439:195,1,64.9999970245363
397,113,78439,5,0,0:0:0:0:
343,78,78515,1,0,0:0:0:0:
281,90,78592,1,0,0:0:0:0:
245,142,78669,1,0,0:0:0:0:
255,205,78746,1,0,0:0:0:0:
243,267,78823,1,0,0:0:0:0:
191,302,78900,1,0,0:0:0:0:
129,289,78977,1,0,0:0:0:0:
95,236,79054,6,0,P|88:198|92:160,4,64.9999970245363
187,133,79439,2,0,P|193:95|190:56,2,64.9999970245363
252,226,79669,1,0,0:0:0:0:
306,257,79745,1,0,0:0:0:0:
366,239,79822,1,0,0:0:0:0:
394,182,79899,1,0,0:0:0:0:
379,118,79977,2,0,P|356:79|332:60,1,64.9999970245363
476,275,80131,5,0,0:0:0:0:
442,221,80207,1,0,0:0:0:0:
380,205,80284,1,0,0:0:0:0:
325,237,80361,1,0,0:0:0:0:
307,298,80438,1,0,0:0:0:0:
269,349,80515,5,0,0:0:0:0:
207,362,80592,1,0,0:0:0:0:
151,332,80669,1,0,0:0:0:0:
130,271,80746,2,0,P|129:234|147:202,1,64.9999970245363
252,48,80900,5,0,0:0:0:0:
295,106,80976,1,0,0:0:0:0:
279,176,81053,1,0,0:0:0:0:
215,210,81130,1,0,0:0:0:0:
147,183,81207,5,0,0:0:0:0:
206,141,81285,1,0,0:0:0:0:
276,161,81362,1,0,0:0:0:0:
303,228,81439,1,0,0:0:0:0:
266,290,81516,1,0,0:0:0:0:
279,362,81592,1,0,0:0:0:0:
344,393,81669,1,0,0:0:0:0:
408,360,81746,1,0,0:0:0:0:
417,285,81823,2,0,P|411:239|399:208,3,75.0000028610231
294,70,82131,5,0,0:0:0:0:
157,98,82233,1,0,0:0:0:0:
235,187,82336,5,0,0:0:0:0:
98,215,82438,1,0,0:0:0:0:
149,291,82541,5,0,0:0:0:0:
83,67,82643,1,0,0:0:0:0:
189,189,82746,1,0,0:0:0:0:
435,282,83362,5,0,0:0:0:0:
386,102,83464,1,0,0:0:0:0:
499,176,83567,1,0,0:0:0:0:
277,260,83669,5,0,0:0:0:0:
390,186,83772,1,0,0:0:0:0:
341,366,83874,1,0,0:0:0:0:
279,154,83977,1,0,0:0:0:0:
300,347,84490,5,0,0:0:0:0:
346,279,84592,2,0,L|333:194,1,66.6666666666667
164,196,84900,2,0,L|177:126,1,66.6666666666667
293,104,85208,2,0,L|287:18,1,66.6666666666667
286,17,85515,1,0,0:0:0:0:
415,145,85721,1,0,0:0:0:0:
319,246,85823,5,0,0:0:0:0:
188,134,86131,1,0,0:0:0:0:
102,315,86439,5,0,0:0:0:0:
123,270,86515,1,0,0:0:0:0:
164,244,86592,1,0,0:0:0:0:
214,245,86669,1,0,0:0:0:0:
254,273,86746,1,0,0:0:0:0:
294,300,86823,1,0,0:0:0:0:
344,301,86900,1,0,0:0:0:0:
385,275,86977,1,0,0:0:0:0:
406,231,87054,5,0,0:0:0:0:
353,195,87130,1,0,0:0:0:0:
290,202,87207,1,0,0:0:0:0:
247,249,87284,1,0,0:0:0:0:
245,313,87361,1,0,0:0:0:0:
210,365,87439,1,0,0:0:0:0:
148,381,87516,1,0,0:0:0:0:
91,354,87593,1,0,0:0:0:0:
64,296,87669,5,0,0:0:0:0:
80,234,87746,1,0,0:0:0:0:
134,200,87823,1,0,0:0:0:0:
196,211,87900,1,0,0:0:0:0:
235,261,87977,1,0,0:0:0:0:
174,279,88054,1,0,0:0:0:0:
120,246,88131,1,0,0:0:0:0:
108,184,88208,1,0,0:0:0:0:
145,134,88285,5,0,0:0:0:0:
178,80,88361,1,0,0:0:0:0:
155,22,88438,1,0,0:0:0:0:
95,5,88515,1,0,0:0:0:0:
45,44,88592,1,0,0:0:0:0:
35,106,88669,1,0,0:0:0:0:
73,156,88746,1,0,0:0:0:0:
136,161,88823,1,0,0:0:0:0:
182,118,88900,5,0,0:0:0:0:
232,79,88977,1,0,0:0:0:0:
294,89,89054,1,0,0:0:0:0:
329,142,89131,1,0,0:0:0:0:
313,204,89208,1,0,0:0:0:0:
324,266,89285,1,0,0:0:0:0:
377,299,89362,1,0,0:0:0:0:
438,282,89439,1,0,0:0:0:0:
466,226,89516,5,0,0:0:0:0:
415,187,89592,1,0,0:0:0:0:
352,193,89669,1,0,0:0:0:0:
310,241,89746,1,0,0:0:0:0:
313,305,89823,1,0,0:0:0:0:
267,349,89900,1,0,0:0:0:0:
204,354,89977,1,0,0:0:0:0:
152,317,90054,5,0,0:0:0:0:
136,255,90131,2,0,P|135:214|154:184,1,64.9999970245363
403,319,90285,1,0,0:0:0:0:
403,319,90362,1,0,0:0:0:0:
403,319,90439,6,0,B|369:268|369:268|368:188,1,129.999994049073
377,72,90746,1,0,0:0:0:0:
472,195,90900,1,0,0:0:0:0:
269,262,91054,1,0,0:0:0:0:
359,177,91208,1,0,0:0:0:0:
143,66,91362,2,0,L|141:148,1,64.9999970245363
130,249,91515,1,0,0:0:0:0:
290,166,91669,2,0,P|358:141|303:198,1,194.999991073609
205,193,91977,5,0,0:0:0:0:
321,320,92131,2,0,L|435:306,2,100
137,122,92592,2,0,L|119:239,2,100
298,97,93054,1,0,0:0:0:0:
343,185,93208,2,0,L|448:196,2,100
259,262,93669,1,0,0:0:0:0:
153,187,93823,2,0,L|167:77,2,100
77,275,94285,1,0,0:0:0:0:
273,204,94439,5,0,0:0:0:0:
356,290,94592,1,0,0:0:0:0:
392,257,94668,1,0,0:0:0:0:
406,209,94745,1,0,0:0:0:0:
393,162,94822,1,0,0:0:0:0:
357,128,94899,1,0,0:0:0:0:
105,235,95054,5,0,0:0:0:0:
130,193,95130,1,0,0:0:0:0:
177,183,95207,1,0,0:0:0:0:
217,211,95284,1,0,0:0:0:0:
256,239,95362,1,0,0:0:0:0:
303,229,95439,1,0,0:0:0:0:
329,186,95515,2,0,P|339:168|337:137,1,50
403,43,95669,5,0,0:0:0:0:
403,92,95745,1,0,0:0:0:0:
403,142,95822,1,0,0:0:0:0:
404,192,95899,1,0,0:0:0:0:
404,242,95976,5,0,0:0:0:0:
372,279,96054,1,0,0:0:0:0:
324,291,96131,1,0,0:0:0:0:
278,273,96208,1,0,0:0:0:0:
250,233,96285,1,0,0:0:0:0:
250,184,96362,5,0,0:0:0:0:
246,135,96439,1,0,0:0:0:0:
213,98,96516,1,0,0:0:0:0:
165,88,96593,1,0,0:0:0:0:
120,107,96670,1,0,0:0:0:0:
95,150,96747,1,0,0:0:0:0:
100,199,96824,1,0,0:0:0:0:
170,254,96900,6,0,B|218:273|268:254|268:254|304:289|304:289|363:260|434:286,1,259.999988098145
236,113,97362,1,0,0:0:0:0:
140,201,97515,2,0,P|110:295|128:337,1,129.999994049073
318,203,97823,2,0,P|336:102|314:71,1,129.999994049073
229,286,98131,2,0,P|288:329|354:310,1,129.999994049073
307,114,98439,5,0,0:0:0:0:
139,297,98592,1,0,0:0:0:0:
134,60,98746,1,0,0:0:0:0:
283,229,98900,1,0,0:0:0:0:
80,161,99054,2,0,L|65:299,1,129.999994049073
221,73,99362,1,0,0:0:0:0:
281,198,99515,1,0,0:0:0:0:
364,117,99669,2,0,B|423:114|423:114|437:122|437:122|452:113|452:113|504:112,1,129.999994049073
417,265,99977,6,0,B|347:249|347:249|305:204,1,129.999994049073
414,108,100285,1,0,0:0:0:0:
284,344,100439,1,0,0:0:0:0:
195,244,100592,2,0,L|193:112,1,129.999994049073
339,33,100900,2,0,L|340:177,1,129.999994049073
412,335,101208,2,0,L|425:198,1,129.999994049073
248,94,101515,2,0,L|268:249,1,129.999994049073
201,363,101823,6,0,B|181:325|137:310|86:316|86:316|157:293|177:260|168:198,1,259.999988098145
210,94,102285,2,0,P|221:48|209:16,1,64.9999970245363
379,88,102439,2,0,P|351:184|465:282,1,259.999988098145
184,169,102900,2,0,L|110:202,1,64.9999970245363
244,278,103054,2,0,B|296:302|338:286|338:286|380:275|407:304|407:304|361:304|320:321,1,259.999988098145
145,325,103515,2,0,P|134:289|137:256,1,64.9999970245363
230,110,103669,1,0,0:0:0:0:
350,211,103823,1,0,0:0:0:0:
171,160,103977,2,0,P|161:65|247:32,1,194.999991073609
249,214,104285,6,0,B|264:247|257:279|257:279|251:311|262:353,1,129.999994049073
268,122,104592,2,0,L|405:103,1,129.999994049073
353,258,104900,1,0,0:0:0:0:
308,27,105054,1,0,0:0:0:0:
474,148,105208,1,0,0:0:0:0:
238,268,105362,1,0,0:0:0:0:
391,68,105515,6,0,L|395:118,1,44.999998626709
323,212,105823,2,0,L|319:162,1,44.999998626709
308,48,106131,1,0,0:0:0:0:
225,168,106336,1,0,0:0:0:0:
246,364,106541,1,0,0:0:0:0:
185,58,106746,1,0,0:0:0:0:
375,62,107823,5,0,0:0:0:0:
121,255,108131,1,0,0:0:0:0:
245,344,108285,5,0,0:0:0:0:
258,329,108361,1,0,0:0:0:0:
268,312,108438,1,0,0:0:0:0:
275,293,108515,1,0,0:0:0:0:
278,273,108592,1,0,0:0:0:0:
278,253,108669,1,0,0:0:0:0:
273,234,108746,1,0,0:0:0:0:
265,216,108823,1,0,0:0:0:0:
258,202,108900,2,0,P|327:135|378:164,1,150
398,246,109208,5,0,0:0:0:0:
241,109,109669,1,0,0:0:0:0:
212,315,109823,1,0,0:0:0:0:
357,206,110285,5,0,0:0:0:0:
68,184,110592,1,0,0:0:0:0:
230,77,110746,1,0,0:0:0:0:
167,297,110900,1,0,0:0:0:0:
102,23,111054,1,0,0:0:0:0:
163,315,111669,6,0,P|213:303|237:239,1,100
243,155,111977,1,0,0:0:0:0:
338,338,112131,1,0,0:0:0:0:
389,102,112285,2,0,B|399:142|399:142|392:211,1,100
250,165,112592,1,0,0:0:0:0:
126,223,112746,6,0,B|112:187|112:187|118:109,2,100
206,317,113208,1,0,0:0:0:0:
268,77,113362,1,0,0:0:0:0:
327,173,113515,1,0,0:0:0:0:
94,137,113669,1,0,0:0:0:0:
396,109,113823,6,0,P|420:68|428:-2,1,100
285,223,114131,2,0,P|284:281|329:314,1,100
400,346,114439,1,0,0:0:0:0:
163,298,114592,1,0,0:0:0:0:
373,229,114746,6,0,P|388:180|379:132,1,100
180,229,115054,2,0,P|225:182|272:187,1,100
356,191,115362,5,0,0:0:0:0:
172,309,115515,1,0,0:0:0:0:
457,246,115669,1,0,0:0:0:0:
374,90,115823,1,0,0:0:0:0:
325,340,115977,1,0,0:0:0:0:
156,233,116131,1,0,0:0:0:0:
156,233,116208,1,0,0:0:0:0:
156,233,116285,1,0,0:0:0:0:
453,278,116439,1,0,0:0:0:0:
204,11,116592,6,0,B|191:48|204:74|204:74|194:85|194:85|210:110|208:137|172:166,1,150.000005722046
106,253,116900,1,0,0:0:0:0:
288,327,117054,1,0,0:0:0:0:
288,327,117131,1,0,0:0:0:0:
288,327,117208,2,0,L|286:219,1,100
282,106,117515,1,0,0:0:0:0:
133,273,117669,6,0,L|110:203,1,50
76,85,117823,1,0,0:0:0:0:
208,327,117977,2,0,L|274:320,1,50
390,306,118131,1,0,0:0:0:0:
277,212,118285,1,0,0:0:0:0:
277,212,118362,1,0,0:0:0:0:
277,212,118439,1,0,0:0:0:0:
308,375,118592,1,0,0:0:0:0:
326,131,118746,2,0,P|283:100|229:115,1,100
132,196,119054,5,0,0:0:0:0:
151,230,119130,1,0,0:0:0:0:
187,245,119207,1,0,0:0:0:0:
225,235,119284,1,0,0:0:0:0:
249,203,119361,5,0,0:0:0:0:
272,171,119439,1,0,0:0:0:0:
310,161,119516,1,0,0:0:0:0:
346,176,119593,1,0,0:0:0:0:
366,210,119669,1,0,0:0:0:0:
369,224,119977,5,0,0:0:0:0:
141,280,120131,2,0,L|131:166,1,100
282,159,120439,2,0,L|292:53,1,100
383,298,120746,2,0,L|421:190,1,100
260,366,121054,2,0,L|243:263,1,100
108,164,121515,6,0,P|141:158|181:118,1,75.0000028610231
258,47,121977,1,0,0:0:0:0:
228,228,122131,2,0,L|314:244,1,75.0000028610231
411,269,122439,1,0,0:0:0:0:
430,273,122592,1,0,0:0:0:0:
503,295,122900,1,0,0:0:0:0:
176,104,123208,5,0,0:0:0:0:
120,184,123362,2,0,L|134:304,1,112.500004291535
212,352,123669,2,0,L|338:329,1,112.500004291535
346,328,123977,1,0,0:0:0:0:
245,197,124131,1,0,0:0:0:0:
448,273,124439,1,0,0:0:0:0:
238,271,124592,2,0,P|172:222|180:163,1,150.000005722046
246,110,125054,1,0,0:0:0:0:
314,246,125362,5,0,0:0:0:0:
428,165,125669,1,0,0:0:0:0:
230,77,125823,1,0,0:0:0:0:
217,206,126028,1,0,0:0:0:0:
204,335,126233,1,0,0:0:0:0:
314,264,126439,5,0,0:0:0:0:
109,172,126592,1,0,0:0:0:0:
243,113,126746,2,0,B|286:82|286:82|314:37,1,100
170,245,127054,2,0,L|164:358,1,100
318,268,127362,1,0,0:0:0:0:
126,122,127515,1,0,0:0:0:0:
266,33,127669,6,0,L|272:142,1,100
386,264,127977,2,0,L|371:151,1,100
199,223,128285,1,0,0:0:0:0:
404,358,128439,1,0,0:0:0:0:
132,342,128592,2,0,L|14:333,1,100
223,279,128900,2,0,B|256:233|256:233|220:188|209:132|266:78,1,200
139,209,129362,1,0,0:0:0:0:
307,159,129515,2,0,P|349:117|287:12,1,200
179,293,130131,5,0,0:0:0:0:
419,226,130285,1,0,0:0:0:0:
149,184,130439,1,0,0:0:0:0:
366,324,130592,1,0,0:0:0:0:
293,109,130746,1,0,0:0:0:0:
293,109,130823,1,0,0:0:0:0:
293,109,130900,1,0,0:0:0:0:
190,211,131054,6,0,P|190:283|237:251,1,150
233,262,131362,1,0,0:0:0:0:
105,348,131515,1,0,0:0:0:0:
89,153,131669,1,0,0:0:0:0:
185,279,131823,1,0,0:0:0:0:
206,138,131977,2,0,L|218:42,1,85.0000016212464
302,129,132285,1,0,0:0:0:0:
79,182,132439,1,0,0:0:0:0:
150,295,132592,6,0,L|283:281,1,127.50000243187
354,223,132900,2,0,B|322:181|322:181|319:86,1,127.50000243187
319,86,133208,1,0,0:0:0:0:
230,291,133362,1,0,0:0:0:0:
477,189,133515,2,0,P|449:161|384:158,1,85.0000016212464
288,180,133823,5,0,0:0:0:0:
421,293,133977,1,0,0:0:0:0:
391,69,134131,1,0,0:0:0:0:
272,308,134285,2,0,B|258:286|258:286|332:289,1,100
458,297,134592,1,0,0:0:0:0:
335,202,134746,2,0,P|303:142|306:99,1,100
340,28,135054,5,0,0:0:0:0:
202,232,135208,1,0,0:0:0:0:
414,148,135362,1,0,0:0:0:0:
125,68,135515,2,0,B|127:143|127:143|141:111,1,100
337,92,135823,1,0,0:0:0:0:
264,214,135977,2,0,L|244:326,1,100
38,195,136285,5,0,0:0:0:0:
67,187,136362,1,0,0:0:0:0:
95,178,136439,2,0,L|155:164,1,50
377,300,136592,5,0,0:0:0:0:
348,292,136669,1,0,0:0:0:0:
320,283,136746,2,0,L|260:269,1,50
230,133,136900,6,0,L|220:68,1,50
352,78,137054,2,0,L|354:17,1,50
455,193,137208,2,0,L|445:251,1,50
333,242,137362,2,0,L|322:296,1,50
128,210,137515,1,0,0:0:0:0:
419,149,137669,1,0,0:0:0:0:
255,46,137823,1,0,0:0:0:0:
172,318,138131,6,0,B|189:259|189:259|176:159,1,150.000005722046
92,109,138592,2,0,L|99:66,1,37.5000014305115
320,93,138746,5,0,0:0:0:0:
263,331,138900,1,0,0:0:0:0:
401,228,139054,1,0,0:0:0:0:
169,66,139208,1,0,0:0:0:0:
131,241,139362,2,0,B|167:252|206:243|251:223|251:223|221:285,1,150.000005722046
182,345,139669,1,0,0:0:0:0:
239,161,139823,2,0,P|243:75|208:20,1,150.000005722046
393,129,140131,5,0,0:0:0:0:
155,96,140285,1,0,0:0:0:0:
297,299,140439,1,0,0:0:0:0:
250,164,140592,2,0,B|272:125|258:88|258:88|243:50|267:19,1,150.000005722046
402,146,140900,1,0,0:0:0:0:
379,278,141054,2,0,L|372:369,1,75.0000028610231
168,302,141208,2,0,B|199:230|210:101|210:101|216:161|254:248,1,300.000011444092
426,131,141669,2,0,P|396:97|338:95,1,75.0000028610231
348,298,141823,2,0,P|378:202|271:266,1,300.000011444092
83,120,142285,6,0,L|165:110,1,75.0000028610231
19,224,142439,1,0,0:0:0:0:
282,189,142592,1,0,0:0:0:0:
148,346,142746,1,0,0:0:0:0:
229,91,142900,1,0,0:0:0:0:
322,275,143054,2,0,P|377:216|366:149,1,150.000005722046
157,235,143362,2,0,L|163:388,1,150.000005722046
360,126,143669,5,0,0:0:0:0:
110,67,143823,1,0,0:0:0:0:
110,67,143900,1,0,0:0:0:0:
110,67,143977,1,0,0:0:0:0:
332,259,144131,1,0,0:0:0:0:
255,39,144285,1,0,0:0:0:0:
246,302,144439,1,0,0:0:0:0:
246,302,144515,1,0,0:0:0:0:
246,302,144592,2,0,P|311:356|391:347,1,150.000005722046
245,95,144900,6,0,L|141:102,1,75.0000028610231
316,218,145054,2,0,L|408:211,1,75.0000028610231
178,296,145208,1,0,0:0:0:0:
353,128,145362,1,0,0:0:0:0:
353,128,145439,1,0,0:0:0:0:
353,128,145515,2,0,P|405:202|395:272,1,150.000005722046
118,295,145823,1,0,0:0:0:0:
212,262,145925,1,0,0:0:0:0:
307,230,146028,1,0,0:0:0:0:
408,162,146131,6,0,B|420:208|420:208|419:293,2,100.000003814697
326,331,146439,2,0,B|285:334|285:334|224:314,2,100.000003814697
192,234,146746,2,0,B|192:186|192:186|211:132,2,100.000003814697
132,335,147054,2,0,L|11:315,2,100.000003814697
265,318,147362,5,0,0:0:0:0:
348,273,147464,1,0,0:0:0:0:
340,179,147567,1,0,0:0:0:0:
256,134,147669,1,0,0:0:0:0:
264,40,147772,1,0,0:0:0:0:
352,85,147874,1,0,0:0:0:0:
340,179,147977,2,0,B|284:172|257:131|257:131|219:151|168:167|102:166|42:144,1,300.000011444092
142,300,148439,2,0,L|159:220,1,75.0000028610231
201,75,148592,5,0,0:0:0:0:
328,280,148746,1,0,0:0:0:0:
168,150,148900,2,0,P|250:153|305:104,1,150.000005722046
74,211,149208,2,0,B|81:251|81:251|117:282|117:282|128:362,1,150.000005722046
205,51,149515,2,0,L|50:34,1,150.000005722046
235,235,149823,1,0,0:0:0:0:
341,95,149977,1,0,0:0:0:0:
361,344,150131,2,0,B|245:329|245:329|306:297,1,150.000005722046
445,282,150439,2,0,P|470:208|446:142,1,150.000005722046
415,34,150746,5,0,0:0:0:0:
272,173,150900,1,0,0:0:0:0:
396,211,151054,2,0,L|223:197,1,150.000005722046
81,186,151362,1,0,0:0:0:0:
270,308,151515,1,0,0:0:0:0:
167,351,151669,2,0,B|200:355|232:329|232:329|266:343|320:330,1,150.000005722046
436,313,151977,1,0,0:0:0:0:
266,126,152131,1,0,0:0:0:0:
135,278,152285,6,0,B|119:246|119:246|132:221|132:221|137:195|137:195|134:164|134:164|117:137|117:137|114:91,1,179.999994506836
390,231,152592,2,0,B|372:202|372:202|356:186|356:186|321:166|310:185|310:185|292:194|292:194|259:206|259:206|228:187,1,179.999994506836
67,62,152900,2,0,B|110:49|110:49|132:51|132:51|167:37|167:37|196:48|196:48|256:49,1,179.999994506836
374,33,153208,2,0,P|388:155|304:106,1,269.999991760254
303,93,153515,5,0,0:0:0:0:
378,226,153618,1,0,0:0:0:0:
205,177,153721,1,0,0:0:0:0:
436,136,153823,5,0,0:0:0:0:
174,263,153926,1,0,0:0:0:0:
424,337,154028,1,0,0:0:0:0:
315,173,154131,1,0,0:0:0:0:
126,133,154644,5,0,0:0:0:0:
301,199,154746,1,0,0:0:0:0:
187,290,154849,1,0,0:0:0:0:
242,73,154951,1,0,0:0:0:0:
402,202,155054,1,0,0:0:0:0:
153,151,155156,1,0,0:0:0:0:
288,307,155259,1,0,0:0:0:0:
346,44,155362,1,0,0:0:0:0:
171,115,155977,6,0,B|175:158|161:193|161:193|192:229|192:229|173:278|189:338,1,200
321,285,156592,2,0,B|305:267|328:237|328:237|343:212|338:183|338:183|306:208,1,133.333333333333
319,92,156900,2,0,P|404:109|424:164,1,133.333333333333
426,174,157208,1,0,0:0:0:0:
401,24,157515,1,0,0:0:0:0:
286,85,157823,5,0,0:0:0:0:
284,122,157899,1,0,0:0:0:0:
282,159,157976,1,0,0:0:0:0:
281,197,158053,1,0,0:0:0:0:
291,233,158131,1,0,0:0:0:0:
289,269,158207,1,0,0:0:0:0:
286,306,158284,1,0,0:0:0:0:
285,343,158361,1,0,0:0:0:0:
235,383,158439,5,0,0:0:0:0:
188,367,158515,1,0,0:0:0:0:
160,326,158592,1,0,0:0:0:0:
162,277,158669,1,0,0:0:0:0:
193,239,158746,1,0,0:0:0:0:
239,223,158823,1,0,0:0:0:0:
267,182,158900,1,0,0:0:0:0:
265,133,158977,1,0,0:0:0:0:
234,95,159054,5,0,0:0:0:0:
219,141,159131,1,0,0:0:0:0:
238,187,159208,1,0,0:0:0:0:
281,209,159285,1,0,0:0:0:0:
329,199,159362,1,0,0:0:0:0:
359,160,159439,1,0,0:0:0:0:
396,128,159515,1,8,0:0:0:0:
445,132,159592,1,8,0:0:0:0:
477,168,159669,5,0,0:0:0:0:
475,217,159746,1,0,0:0:0:0:
439,250,159823,1,0,0:0:0:0:
391,242,159900,1,0,0:0:0:0:
361,203,159977,1,0,0:0:0:0:
366,154,160054,1,0,0:0:0:0:
401,121,160131,1,0,0:0:0:0:
436,88,160208,1,0,0:0:0:0:
434,39,160285,5,0,0:0:0:0:
399,6,160362,1,0,0:0:0:0:
351,6,160439,1,0,0:0:0:0:
316,41,160516,1,0,0:0:0:0:
311,90,160592,1,0,0:0:0:0:
307,140,160669,1,0,0:0:0:0:
303,190,160746,1,0,0:0:0:0:
299,240,160823,1,0,0:0:0:0:
330,279,160900,5,0,0:0:0:0:
280,273,160976,1,0,0:0:0:0:
230,268,161053,1,0,0:0:0:0:
180,263,161130,1,0,0:0:0:0:
131,258,161207,5,0,0:0:0:0:
86,238,161285,1,0,0:0:0:0:
64,194,161362,1,0,0:0:0:0:
75,146,161439,1,0,0:0:0:0:
114,117,161516,1,0,0:0:0:0:
163,118,161593,1,0,0:0:0:0:
200,151,161670,1,0,0:0:0:0:
243,174,161746,1,0,0:0:0:0:
291,164,161823,5,0,0:0:0:0:
322,125,161900,1,0,0:0:0:0:
321,76,161977,1,0,0:0:0:0:
276,98,162054,1,0,0:0:0:0:
252,140,162131,1,0,0:0:0:0:
254,189,162208,1,0,0:0:0:0:
284,229,162285,1,0,0:0:0:0:
333,240,162362,1,0,0:0:0:0:
380,223,162439,6,0,P|408:211|443:184,3,50
340,58,162746,2,0,P|341:93|354:140,3,50
378,383,163054,2,0,P|369:360|362:317,3,50
159,265,163362,5,0,0:0:0:0:
399,220,163515,1,0,0:0:0:0:
231,79,163669,2,0,P|228:131|256:188,1,100
365,237,163977,1,0,0:0:0:0:
154,180,164131,2,0,B|93:190|93:190|54:219,1,100
277,241,164439,1,0,0:0:0:0:
239,105,164592,2,0,B|225:63|225:63|233:2,1,100
401,118,164900,2,0,B|395:177|395:177|363:226,1,100
299,253,165208,5,0,0:0:0:0:
489,227,165362,1,0,0:0:0:0:
236,159,165515,1,0,0:0:0:0:
425,348,165669,2,0,B|465:293|435:243|435:243|449:228|449:228|416:177|415:111|461:71,1,300.000011444092
299,253,166131,1,0,0:0:0:0:
154,86,166285,1,0,0:0:0:0:
176,309,166439,1,0,0:0:0:0:
283,116,166592,1,0,0:0:0:0:
52,197,166746,5,0,0:0:0:0:
337,194,166900,1,0,0:0:0:0:
337,194,166977,1,0,0:0:0:0:
336,194,167054,2,0,P|365:148|364:86,1,100
217,131,167362,1,0,0:0:0:0:
258,324,167515,1,0,0:0:0:0:
75,245,167669,2,0,L|94:362,1,100
313,187,167977,1,0,0:0:0:0:
98,80,168131,1,0,0:0:0:0:
152,295,168285,6,0,L|313:268,1,150
319,265,168592,1,0,0:0:0:0:
158,117,168746,1,0,0:0:0:0:
372,165,168900,1,0,0:0:0:0:
134,229,169054,1,0,0:0:0:0:
279,92,169208,1,0,0:0:0:0:
165,371,169362,1,0,0:0:0:0:
152,140,169515,5,0,0:0:0:0:
397,213,169669,1,0,0:0:0:0:
276,357,169823,1,0,0:0:0:0:
333,80,169977,1,0,0:0:0:0:
136,222,170131,5,0,0:0:0:0:
432,126,170285,1,0,0:0:0:0:
225,44,170439,1,0,0:0:0:0:
215,307,170592,1,0,0:0:0:0:
332,171,170746,6,0,L|166:154,1,150
21,254,171054,2,0,L|178:224,1,150
197,209,171362,1,0,0:0:0:0:
235,178,171438,1,0,0:0:0:0:
243,130,171515,1,0,0:0:0:0:
218,88,171592,1,0,0:0:0:0:
171,73,171669,1,0,0:0:0:0:
336,226,171823,1,0,0:0:0:0:
183,338,171977,5,0,0:0:0:0:
148,303,172053,1,0,0:0:0:0:
145,254,172130,1,0,0:0:0:0:
175,215,172207,1,0,0:0:0:0:
223,206,172284,1,0,0:0:0:0:
266,183,172362,1,0,0:0:0:0:
284,137,172439,1,0,0:0:0:0:
267,91,172516,1,0,0:0:0:0:
224,67,172593,5,0,0:0:0:0:
419,177,172746,1,0,0:0:0:0:
300,322,172900,1,0,0:0:0:0:
314,161,173054,1,0,0:0:0:0:
197,249,173208,2,0,P|146:225|202:98,1,200
428,184,173669,2,0,B|361:189|361:189|325:157|325:157|288:185|219:187,1,200
394,384,174131,2,0,B|388:348|388:348|401:317|401:317|405:288|405:288|388:263|388:263|398:236|398:236|387:206|387:206|384:130,1,239.999992675781
58,298,174592,2,0,B|95:291|112:315|112:315|148:303|153:284|153:284|196:297|196:297|230:273|265:290|265:290|289:302|328:295,1,279.999991455078
162,38,175054,6,0,B|170:77|187:102|187:102|145:178|145:178|160:216|165:285|132:352,1,300.000011444092
297,216,175515,1,0,0:0:0:0:
308,197,175669,1,0,0:0:0:0:
248,326,175823,1,0,0:0:0:0:
151,107,175977,1,0,0:0:0:0:
357,241,176131,1,0,0:0:0:0:
259,144,176285,6,0,P|236:90|240:38,1,100
401,111,176592,1,0,0:0:0:0:
419,156,176668,1,0,0:0:0:0:
416,206,176745,1,0,0:0:0:0:
391,249,176822,1,0,0:0:0:0:
351,277,176899,1,0,0:0:0:0:
248,132,177054,1,0,0:0:0:0:
248,332,177208,1,0,0:0:0:0:
159,91,177362,6,0,P|195:58|264:51,1,100
363,79,177669,1,0,0:0:0:0:
275,234,177823,2,0,P|230:202|219:143,1,100
425,243,178131,2,0,L|426:360,1,100
284,149,178439,1,0,0:0:0:0:
319,302,178592,1,0,0:0:0:0:
201,237,178746,2,0,L|186:133,1,100
288,39,179054,2,0,L|310:152,1,100
316,276,179362,6,0,P|375:252|416:277,1,100
230,344,179669,2,0,P|174:352|130:342,1,100
220,231,179977,2,0,P|198:169|164:139,1,100
303,348,180285,2,0,P|321:275|364:250,1,100
351,116,180592,2,0,B|321:111|321:111|290:129|290:129|248:122|248:122|189:130,1,150
228,78,180900,2,0,L|243:213,1,100
253,284,181208,1,0,0:0:0:0:
113,224,181362,2,0,L|96:109,1,100
248,174,181669,5,0,0:0:0:0:
345,269,181823,2,0,L|458:257,1,100
306,133,182131,1,0,0:0:0:0:
243,359,182285,1,0,0:0:0:0:
194,143,182439,1,0,0:0:0:0:
140,305,182592,1,0,0:0:0:0:
106,143,182746,6,0,P|113:85|195:60,1,150
203,70,183054,1,0,0:0:0:0:
257,217,183208,1,0,0:0:0:0:
365,125,183362,2,0,L|389:244,1,100
328,328,183669,1,0,0:0:0:0:
284,193,183823,1,0,0:0:0:0:
185,286,183977,2,0,L|129:266,1,50
99,179,184131,2,0,B|134:148|139:98|139:98|194:97|237:51,1,200
361,223,184592,6,0,L|254:206,1,100
114,181,184900,1,0,0:0:0:0:
299,48,185054,1,0,0:0:0:0:
325,334,185208,2,0,P|404:324|418:246,1,150
414,243,185515,5,0,0:0:0:0:
260,182,185669,1,0,0:0:0:0:
310,373,185823,1,0,0:0:0:0:
355,106,185977,1,0,0:0:0:0:
163,273,186131,1,0,0:0:0:0:
452,249,186285,1,0,0:0:0:0:
182,79,186439,1,0,0:0:0:0:
324,296,186592,1,0,0:0:0:0:
375,51,186746,5,0,0:0:0:0:
375,51,186823,1,0,0:0:0:0:
375,51,186900,1,0,0:0:0:0:
201,225,187054,1,0,0:0:0:0:
467,186,187208,1,0,0:0:0:0:
243,86,187362,5,0,0:0:0:0:
225,132,187438,1,0,0:0:0:0:
226,182,187515,1,0,0:0:0:0:
247,227,187592,1,0,0:0:0:0:
323,305,187669,2,0,P|231:308|197:373,1,150
193,368,187977,1,0,0:0:0:0:
128,211,188131,1,0,0:0:0:0:
274,68,188285,2,0,P|240:69|172:51,1,100
322,182,188592,6,0,P|394:189|426:233,1,100
157,299,188900,2,0,L|141:184,1,100
228,73,189208,1,0,0:0:0:0:
43,98,189362,1,0,0:0:0:0:
293,146,189515,2,0,P|314:80|303:38,1,100
230,213,189823,2,0,P|206:274|214:323,1,100
223,66,190131,2,0,L|116:42,1,100
272,212,190439,1,0,0:0:0:0:
422,177,190592,5,0,0:0:0:0:
166,141,190746,2,0,P|154:208|173:246,1,100
315,173,191054,1,0,0:0:0:0:
255,339,191208,1,0,0:0:0:0:
399,284,191362,2,0,P|455:246|455:191,1,100
242,167,191669,1,0,0:0:0:0:
317,344,191823,1,0,0:0:0:0:
373,93,191977,5,0,0:0:0:0:
323,89,192053,1,0,0:0:0:0:
273,85,192130,1,0,0:0:0:0:
223,81,192207,1,0,0:0:0:0:
172,36,192285,5,0,0:0:0:0:
192,81,192361,1,0,0:0:0:0:
188,130,192438,1,0,0:0:0:0:
161,171,192515,1,0,0:0:0:0:
140,216,192592,1,0,0:0:0:0:
144,265,192669,1,0,0:0:0:0:
171,306,192746,1,0,0:0:0:0:
218,320,192823,1,0,0:0:0:0:
265,303,192900,5,0,0:0:0:0:
281,287,193054,1,0,0:0:0:0:
344,208,193362,5,0,0:0:0:0:
367,211,193516,1,0,0:0:0:0:
195,68,193823,1,0,0:0:0:0:
149,258,193977,2,0,B|206:231|250:244|250:244|289:257|358:237,1,200
90,169,194592,1,0,0:0:0:0:
90,169,194669,1,0,0:0:0:0:
90,169,194746,2,0,B|126:151|130:106|130:106|152:139|194:149|228:146|260:110,1,200
257,219,195362,5,0,0:0:0:0:
257,219,195515,1,0,0:0:0:0:
257,219,195823,5,0,0:0:0:0:
257,219,195976,1,0,0:0:0:0:
90,94,196592,2,0,L|205:84,1,100
297,74,197208,1,0,0:0:0:0:
297,74,197285,1,0,0:0:0:0:
297,74,197362,1,0,0:0:0:0:
192,250,197515,1,0,0:0:0:0:
256,192,197823,5,0,0:0:0:0:
256,192,197862,12,0,199054,0:0:0:0:
139,196,209515,5,0,0:0:0:0:
326,93,209977,1,0,0:0:0:0:
419,173,210131,2,0,L|317:187,1,100
381,266,210439,2,0,L|279:280,1,100
161,109,210746,2,0,L|183:213,1,100
112,279,211054,2,0,L|90:175,1,100
296,178,211362,1,0,0:0:0:0:
167,44,211515,1,0,0:0:0:0:
215,277,211669,6,0,L|328:252,1,100
386,324,211977,2,0,L|288:345,1,100
296,245,212285,1,0,0:0:0:0:
304,145,212439,1,0,0:0:0:0:
310,45,212592,6,0,L|207:58,1,100
154,141,212900,2,0,L|253:128,1,100
339,180,213208,6,0,L|442:193,1,100
470,288,213515,1,0,0:0:0:0:
370,273,213669,2,0,L|302:262,1,50
222,247,213823,1,0,0:0:0:0:
315,158,213977,2,0,P|336:108|334:40,1,100
179,99,214285,1,0,0:0:0:0:
192,322,214439,2,0,B|229:308|237:280|237:280|271:319|292:297|292:297|305:276|332:264|332:264|365:272,1,200
442,318,214900,5,0,0:0:0:0:
442,318,214977,1,0,0:0:0:0:
442,318,215054,2,0,L|432:203,1,100
356,153,215362,2,0,L|366:268,1,100
281,196,215669,2,0,L|271:81,1,100
188,143,215977,1,0,0:0:0:0:
301,298,216131,2,0,L|400:280,1,100
479,215,216439,1,0,0:0:0:0:
339,191,216592,2,0,L|312:79,1,100
197,62,216900,5,0,0:0:0:0:
222,158,217054,1,0,0:0:0:0:
198,255,217208,1,0,0:0:0:0:
126,325,217362,1,0,0:0:0:0:
64,144,217515,5,0,0:0:0:0:
85,99,217591,1,0,0:0:0:0:
126,71,217668,1,0,0:0:0:0:
175,66,217745,1,0,0:0:0:0:
220,86,217822,1,0,0:0:0:0:
250,125,217899,1,0,0:0:0:0:
257,174,217976,1,0,0:0:0:0:
239,220,218053,1,0,0:0:0:0:
168,233,218131,5,0,0:0:0:0:
171,184,218207,1,0,0:0:0:0:
204,147,218284,1,0,0:0:0:0:
252,138,218361,1,0,0:0:0:0:
296,161,218438,1,0,0:0:0:0:
339,183,218515,1,0,0:0:0:0:
387,174,218592,1,0,0:0:0:0:
420,138,218669,1,0,0:0:0:0:
424,89,218745,5,0,0:0:0:0:
394,128,218822,1,0,0:0:0:0:
387,177,218899,1,0,0:0:0:0:
404,223,218976,1,0,0:0:0:0:
442,255,219053,5,0,0:0:0:0:
423,301,219131,1,0,0:0:0:0:
385,332,219208,1,0,0:0:0:0:
336,341,219285,1,0,0:0:0:0:
289,324,219362,1,0,0:0:0:0:
257,287,219439,1,0,0:0:0:0:
246,238,219516,1,0,0:0:0:0:
261,191,219593,5,0,0:0:0:0:
294,154,219669,1,0,0:0:0:0:
302,105,219746,1,0,0:0:0:0:
285,59,219823,1,0,0:0:0:0:
247,28,219900,1,0,0:0:0:0:
197,24,219977,1,0,0:0:0:0:
132,117,223669,6,0,L|232:103,1,100
358,158,224131,1,0,0:0:0:0:
342,177,224208,1,0,0:0:0:0:
325,196,224285,2,0,L|215:186,1,100
86,88,224900,5,0,0:0:0:0:
86,125,224976,1,0,0:0:0:0:
87,162,225053,1,0,0:0:0:0:
88,200,225130,1,0,0:0:0:0:
89,237,225207,1,0,0:0:0:0:
203,154,225515,1,0,0:0:0:0:
254,293,225900,1,0,0:0:0:0:
368,146,226054,2,0,P|400:212|403:291,1,150.000005722046
305,75,226746,6,0,L|172:64,1,112.500004291535
108,163,227054,2,0,L|172:155,3,37.5000014305115
222,138,227362,1,0,0:0:0:0:
247,111,227438,1,0,0:0:0:0:
283,106,227515,1,0,0:0:0:0:
315,124,227592,1,0,0:0:0:0:
329,159,227669,1,0,0:0:0:0:
318,194,227746,1,0,0:0:0:0:
290,219,227823,2,0,P|276:233|243:250,1,37.5000014305115
194,275,227977,5,0,0:0:0:0:
188,311,228053,1,0,0:0:0:0:
199,346,228130,1,0,0:0:0:0:
226,372,228207,1,0,0:0:0:0:
261,383,228284,1,0,0:0:0:0:
298,377,228361,1,0,0:0:0:0:
323,349,228439,2,0,P|341:329|356:300,1,37.5000014305115
325,186,228592,5,0,0:0:0:0:
300,158,228668,1,0,0:0:0:0:
264,154,228745,1,0,0:0:0:0:
235,177,228822,1,0,0:0:0:0:
229,213,228899,1,0,0:0:0:0:
223,249,228977,1,0,0:0:0:0:
194,271,229054,1,0,0:0:0:0:
157,267,229131,1,0,0:0:0:0:
133,240,229207,5,0,0:0:0:0:
126,203,229285,1,0,0:0:0:0:
145,172,229362,1,0,0:0:0:0:
179,160,229439,1,0,0:0:0:0:
213,173,229516,1,0,0:0:0:0:
292,243,229823,2,0,L|282:325,2,66.6666666666667
220,117,230131,2,0,L|230:199,2,66.6666666666667
311,48,230439,1,0,0:0:0:0:
316,134,230541,1,0,0:0:0:0:
322,220,230644,1,0,0:0:0:0:
222,183,230746,5,0,0:0:0:0:
227,269,230848,1,0,0:0:0:0:
233,355,230951,1,0,0:0:0:0:
314,325,231054,2,0,B|344:274|344:274|339:180,1,133.333333333333
280,136,231362,5,0,0:0:0:0:
193,137,231464,1,0,0:0:0:0:
105,137,231567,1,0,0:0:0:0:
56,208,231669,5,0,0:0:0:0:
143,209,231771,1,0,0:0:0:0:
231,209,231874,1,0,0:0:0:0:
269,287,231977,5,0,0:0:0:0:
182,288,232079,1,0,0:0:0:0:
94,288,232182,1,0,0:0:0:0:
171,135,232285,1,0,0:0:0:0:
393,305,232900,1,0,0:0:0:0:
113,298,233515,2,0,L|108:232,3,50
182,61,233823,2,0,L|183:127,3,50
237,247,234131,5,0,0:0:0:0:
261,244,234207,1,0,0:0:0:0:
286,242,234284,1,0,0:0:0:0:
311,240,234361,1,0,0:0:0:0:
336,238,234438,1,0,0:0:0:0:
361,236,234515,1,0,0:0:0:0:
386,233,234592,1,0,0:0:0:0:
410,230,234669,1,0,0:0:0:0:
445,229,234746,5,0,0:0:0:0:
292,98,234900,1,0,0:0:0:0:
268,302,235054,1,0,0:0:0:0:
188,292,235131,1,0,0:0:0:0:
108,282,235208,1,0,0:0:0:0:
46,185,235362,2,0,B|63:153|36:106|36:106|58:93|77:62|77:62|83:98,1,160
228,143,235669,1,0,0:0:0:0:
216,353,235823,5,0,0:0:0:0:
293,333,235900,1,0,0:0:0:0:
369,310,235977,2,0,B|359:238|359:238|367:135,1,160
374,40,236285,1,0,0:0:0:0:
207,213,236439,1,0,0:0:0:0:
430,173,236592,2,0,L|440:341,1,160
247,108,236900,1,0,0:0:0:0:
122,179,237054,6,0,L|105:98,1,80
249,137,237208,2,0,B|280:204|276:291|217:366|217:366|232:314|223:264,1,320
324,91,237669,2,0,P|292:58|237:53,1,80
383,190,237823,2,0,B|420:226|437:273|437:273|410:173|399:99|445:26,1,320
319,291,238285,6,0,L|225:278,1,80
99,198,238439,2,0,L|109:372,1,160
264,202,238746,1,0,0:0:0:0:
253,122,238823,1,0,0:0:0:0:
237,43,238900,1,0,0:0:0:0:
448,148,239054,2,0,P|411:246|350:260,1,160
192,143,239362,2,0,B|215:120|246:143|235:186|188:196|161:186|161:186|141:149|87:145|87:145|110:166|130:204,1,240
143,257,239669,5,0,0:0:0:0:
312,312,239772,1,0,0:0:0:0:
292,153,239874,1,0,0:0:0:0:
205,340,239977,1,0,0:0:0:0:
168,115,240080,1,0,0:0:0:0:
353,237,240182,1,0,0:0:0:0:
110,337,240285,1,0,0:0:0:0:
340,98,240797,5,0,0:0:0:0:
245,212,240900,1,0,0:0:0:0:
456,185,241003,1,0,0:0:0:0:
235,190,241105,1,0,0:0:0:0:
355,318,241208,1,0,0:0:0:0:
372,137,241310,1,0,0:0:0:0:
336,307,241413,1,0,0:0:0:0:
257,98,241515,1,0,0:0:0:0:
108,240,242131,6,0,B|139:222|186:233|186:233|219:244|257:227,1,140
322,199,242746,2,0,B|314:177|297:135|301:91|316:59|316:59|328:101|359:135,1,209.999993591309
380,278,243362,2,0,L|172:311,1,200
171,137,243977,1,0,0:0:0:0:
310,312,244285,2,0,P|354:270|321:187,1,150
219,251,244592,6,0,P|179:260|108:243,1,100
301,144,245054,1,0,0:0:0:0:
363,298,245208,1,0,0:0:0:0:
204,332,245515,1,0,0:0:0:0:
215,309,245591,1,0,0:0:0:0:
219,285,245668,1,0,0:0:0:0:
218,260,245745,1,0,0:0:0:0:
209,236,245823,6,0,P|193:185|208:127,1,100
310,70,246131,1,0,0:0:0:0:
273,189,246285,1,0,0:0:0:0:
383,343,246439,2,0,B|362:302|362:269|381:240|381:240|393:209|393:176|361:128,1,200
256,42,246900,2,0,L|251:102,1,50
279,207,247054,2,0,B|239:202|239:202|226:210|226:210|219:199|219:199|119:185,1,150
70,179,247362,1,0,0:0:0:0:
101,330,247515,1,0,0:0:0:0:
205,146,247669,6,0,P|181:77|90:88,1,150
90,77,247977,1,0,0:0:0:0:
325,147,248131,1,0,0:0:0:0:
268,234,248285,2,0,L|292:353,1,100
120,211,248592,2,0,L|145:97,1,100
401,90,248900,2,0,B|370:107|356:68|356:68|325:120|272:102|238:73|272:16,1,200
451,153,249362,2,0,L|444:228,1,50
327,258,249515,6,0,B|57:277|90:97|217:60|306:94|306:237|225:270|199:315|136:344|93:350|39:328|39:328,1,600
483,112,250746,2,0,B|439:146|375:142|334:111|334:111|294:83|230:83|175:117,1,300
167,349,251362,2,0,B|123:324|123:324|170:301|170:301|228:321|228:321|256:306|256:306|320:297|320:297|248:269,1,300.000011444092
109,69,251823,2,0,L|98:161,1,75.0000028610231
261,194,251977,1,0,0:0:0:0:
256,192,252015,12,0,254362,0:0:0:0:
256,192,254439,5,0,0:0:0:0:
454,0,255054,5,0,0:0:0:0:
494,384,255259,1,0,0:0:0:0:
512,57,255464,1,0,0:0:0:0:
57,344,255669,1,0,0:0:0:0:
