osu file format v14

[General]
AudioFilename: audio.mp3
AudioLeadIn: 0
PreviewTime: 335918
Countdown: 0
SampleSet: Normal
StackLeniency: 0.7
Mode: 3
LetterboxInBreaks: 0
SpecialStyle: 0
WidescreenStoryboard: 0

[Editor]
DistanceSpacing: 0.74
BeatDivisor: 4
GridSize: 32
TimelineZoom: 1.217715

[Metadata]
Title:fushoku ressentiment, fushi yoku no sarugakuza
TitleUnicode:腐蝕ルサンチマン、不死欲の猿楽座。
Artist:Imperial Circus Dead Decadence
ArtistUnicode:Imperial Circus Dead Decadence
Creator:puxtu
Version:testing
Source:
Tags:black deathcore metal jmetal singer scream drums guitare bpm change male female vocal powerfull icdd
BeatmapID:1534454
BeatmapSetID:726755

[Difficulty]
HPDrainRate:8
CircleSize:4
OverallDifficulty:7
ApproachRate:5
SliderMultiplier:1.4
SliderTickRate:1

[Events]
//Background and Video events
0,0,"bg.jpg",0,0
//Break Periods
//Storyboard Layer 0 (Background)
//Storyboard Layer 1 (Fail)
//Storyboard Layer 2 (Pass)
//Storyboard Layer 3 (Foreground)
//Storyboard Sound Samples

[TimingPoints]
778,285.714285714286,6,1,4,50,1,0
32474,285.714285714286,4,1,4,50,1,0
87349,285.714285714286,6,1,4,50,1,0
100530,266.666666666667,6,1,4,50,1,0
101063,285.714285714286,4,1,4,50,1,0
162777,285.714285714286,6,1,4,50,1,0
190205,285.714285714286,4,1,4,50,1,0
241637,285.714285714286,6,1,4,50,1,0
248483,275.229357798165,4,1,4,50,1,0
248758,260.869565217391,4,1,4,50,1,0
249018,285.714285714286,4,1,4,50,1,0
249323,285.714285714286,4,1,4,50,1,0
249608,306.122448979592,4,1,4,50,1,0
249914,240,4,1,4,50,1,0
250034,304.568527918782,4,1,4,50,1,0
250186,285.714285714286,4,1,4,50,1,0
250328,295.566502463054,4,1,4,50,1,0
250623,285.714285714286,4,1,4,50,1,0
250765,272.727272727273,4,1,4,50,1,0
251037,260.869565217391,4,1,4,50,1,0
251328,252.100840336134,4,1,4,50,1,0
251454,289.855072463768,4,1,4,50,1,0
251743,319.148936170213,4,1,4,50,1,0
251902,255.31914893617,4,1,4,50,1,0
252029,342.857142857143,4,1,4,50,1,0
252200,280.373831775701,4,1,4,50,1,0
252480,248.96265560166,4,1,4,50,1,0
252604,306.122448979592,4,1,4,50,1,0
252757,265.486725663717,4,1,4,50,1,0
252889,331.491712707182,4,1,4,50,1,0
253054,283.018867924528,4,1,4,50,1,0
253337,222.222222222222,4,1,4,50,1,0
253448,394.736842105263,4,1,4,50,1,0
253645,285.714285714286,4,1,4,50,1,0
254216,274.599542334096,4,1,4,50,1,0
254490,285.714285714286,4,1,4,50,1,0
255918,305.343511450382,4,1,4,50,1,0
256223,285.714285714286,4,1,4,50,1,0
256794,281.030444964871,4,1,4,50,1,0
257918,285.714285714286,4,1,4,50,1,0
261347,285.714285714286,4,1,4,50,1,0
269061,200,4,1,4,50,1,0
289861,200,5,1,4,50,1,0
290861,200,6,1,4,50,1,0
310061,285.714285714286,4,1,4,50,1,0

[HitObjects]
64,192,778,5,2,0:0:0:0:
448,192,778,1,0,0:0:0:0:
192,192,778,1,4,0:0:0:0:
320,192,1635,1,0,0:0:0:0:
448,192,1635,1,8,0:0:0:0:
64,192,1635,1,4,0:0:0:0:
320,192,1778,1,0,0:0:0:0:
448,192,1778,1,8,0:0:0:0:
64,192,1920,1,0,0:0:0:0:
192,192,1992,1,0,0:0:0:0:
320,192,2063,1,0,0:0:0:0:
448,192,2135,1,0,0:0:0:0:
192,192,2206,1,0,0:0:0:0:
320,192,2278,1,0,0:0:0:0:
64,192,2349,1,0,0:0:0:0:
192,192,2420,1,0,0:0:0:0:
320,192,2492,1,2,0:0:0:0:
448,192,2492,1,0,0:0:0:0:
64,192,2492,1,4,0:0:0:0:
448,192,2778,1,0,0:0:0:0:
320,192,2849,1,0,0:0:0:0:
192,192,2920,1,0,0:0:0:0:
64,192,2992,1,0,0:0:0:0:
320,192,3063,1,0,0:0:0:0:
192,192,3135,1,0,0:0:0:0:
448,192,3206,1,0,0:0:0:0:
320,192,3278,1,0,0:0:0:0:
192,192,3349,1,4,0:0:0:0:
64,192,3349,1,2,0:0:0:0:
448,192,3349,1,0,0:0:0:0:
320,192,3920,1,8,0:0:0:0:
192,192,3920,1,0,0:0:0:0:
64,192,4206,1,0,0:0:0:0:
320,192,4206,1,4,0:0:0:0:
448,192,4206,1,2,0:0:0:0:
192,192,4492,1,0,0:0:0:0:
64,192,4492,1,8,0:0:0:0:
320,192,4563,1,0,0:0:0:0:
192,192,4635,1,0,0:0:0:0:
448,192,4635,1,8,0:0:0:0:
64,192,4706,1,0,0:0:0:0:
320,192,4778,1,8,0:0:0:0:
448,192,4778,1,0,0:0:0:0:
192,192,4849,1,0,0:0:0:0:
64,192,4920,1,0,0:0:0:0:
320,192,4920,1,8,0:0:0:0:
448,192,4992,1,0,0:0:0:0:
192,192,5063,1,0,0:0:0:0:
64,192,5063,1,8,0:0:0:0:
320,192,5135,1,0,0:0:0:0:
448,192,5206,1,8,0:0:0:0:
64,192,5206,1,0,0:0:0:0:
192,192,5278,1,0,0:0:0:0:
320,192,5349,1,0,0:0:0:0:
448,192,5349,1,8,0:0:0:0:
192,192,5420,1,0,0:0:0:0:
320,192,5492,1,0,0:0:0:0:
64,192,5492,1,8,0:0:0:0:
448,192,5563,1,0,0:0:0:0:
192,192,5635,1,8,0:0:0:0:
64,192,5635,1,0,0:0:0:0:
320,192,5706,1,0,0:0:0:0:
448,192,5778,1,0,0:0:0:0:
192,192,5778,1,8,0:0:0:0:
64,192,5849,1,0,0:0:0:0:
320,192,5920,1,0,0:0:0:0:
448,192,5920,1,8,0:0:0:0:
192,192,5992,1,0,0:0:0:0:
64,192,6063,1,8,0:0:0:0:
448,192,6063,1,0,0:0:0:0:
320,192,6135,1,0,0:0:0:0:
448,192,6206,1,8,0:0:0:0:
192,192,6206,1,0,0:0:0:0:
64,192,6278,1,0,0:0:0:0:
192,192,6349,1,8,0:0:0:0:
320,192,6349,1,0,0:0:0:0:
448,192,6420,1,0,0:0:0:0:
64,192,6492,1,0,0:0:0:0:
320,192,6492,1,8,0:0:0:0:
192,192,6563,1,0,0:0:0:0:
320,192,6635,1,8,0:0:0:0:
448,192,6635,1,0,0:0:0:0:
64,192,6706,1,0,0:0:0:0:
448,192,6778,1,8,0:0:0:0:
192,192,6778,1,0,0:0:0:0:
320,192,6849,1,0,0:0:0:0:
448,192,6920,1,0,0:0:0:0:
64,192,6920,1,8,0:0:0:0:
192,192,6992,1,0,0:0:0:0:
320,192,7063,1,0,0:0:0:0:
448,192,7063,1,8,0:0:0:0:
64,192,7135,1,0,0:0:0:0:
320,192,7206,1,0,0:0:0:0:
192,192,7206,1,8,0:0:0:0:
448,192,7278,1,0,0:0:0:0:
192,192,7349,1,8,0:0:0:0:
64,192,7349,1,0,0:0:0:0:
320,192,7420,1,8,0:0:0:0:
448,192,7420,1,0,0:0:0:0:
192,192,7492,1,8,0:0:0:0:
64,192,7492,1,0,0:0:0:0:
320,192,7563,1,8,0:0:0:0:
448,192,7563,1,0,0:0:0:0:
192,192,7635,1,4,0:0:0:0:
64,192,7635,1,0,0:0:0:0:
320,192,7706,1,0,0:0:0:0:
448,192,7778,1,0,0:0:0:0:
192,192,7849,1,0,0:0:0:0:
320,192,7920,1,0,0:0:0:0:
64,192,7920,1,2,0:0:0:0:
448,192,7992,1,0,0:0:0:0:
192,192,8063,1,0,0:0:0:0:
64,192,8135,1,0,0:0:0:0:
320,192,8206,1,0,0:0:0:0:
448,192,8206,1,2,0:0:0:0:
192,192,8278,1,0,0:0:0:0:
64,192,8349,1,0,0:0:0:0:
448,192,8420,1,0,0:0:0:0:
320,192,8492,1,8,0:0:0:0:
192,192,8492,1,0,0:0:0:0:
64,192,8563,1,0,0:0:0:0:
448,192,8635,1,0,0:0:0:0:
320,192,8706,1,0,0:0:0:0:
192,192,8778,1,0,0:0:0:0:
64,192,8778,1,2,0:0:0:0:
448,192,8849,1,0,0:0:0:0:
320,192,8920,1,0,0:0:0:0:
192,192,8920,1,8,0:0:0:0:
64,192,8992,1,0,0:0:0:0:
448,192,9063,1,2,0:0:0:0:
320,192,9063,1,0,0:0:0:0:
192,192,9135,1,0,0:0:0:0:
448,192,9206,1,0,0:0:0:0:
320,192,9278,1,0,0:0:0:0:
192,192,9349,1,0,0:0:0:0:
64,192,9349,1,4,0:0:0:0:
320,192,9420,1,0,0:0:0:0:
448,192,9492,1,0,0:0:0:0:
64,192,9563,1,0,0:0:0:0:
192,192,9635,1,2,0:0:0:0:
320,192,9635,1,0,0:0:0:0:
448,192,9706,1,0,0:0:0:0:
192,192,9778,1,0,0:0:0:0:
64,192,9849,1,0,0:0:0:0:
320,192,9920,1,0,0:0:0:0:
448,192,9920,1,2,0:0:0:0:
192,192,9992,1,0,0:0:0:0:
64,192,10063,1,0,0:0:0:0:
320,192,10135,1,0,0:0:0:0:
448,192,10206,1,4,0:0:0:0:
192,192,10206,1,0,0:0:0:0:
64,192,10278,1,0,0:0:0:0:
320,192,10349,1,0,0:0:0:0:
192,192,10420,1,0,0:0:0:0:
320,192,10492,1,0,0:0:0:0:
448,192,10492,1,8,0:0:0:0:
64,192,10563,1,0,0:0:0:0:
192,192,10635,1,0,0:0:0:0:
448,192,10706,1,0,0:0:0:0:
64,192,10778,1,8,0:0:0:0:
320,192,10778,1,0,0:0:0:0:
192,192,10849,1,0,0:0:0:0:
448,192,10920,1,0,0:0:0:0:
320,192,10992,1,0,0:0:0:0:
192,192,11063,1,0,0:0:0:0:
64,192,11063,1,2,0:0:0:0:
448,192,11063,1,4,0:0:0:0:
192,192,11349,1,0,0:0:0:0:
320,192,11420,1,0,0:0:0:0:
64,192,11420,1,8,0:0:0:0:
448,192,11492,1,0,0:0:0:0:
192,192,11563,1,8,0:0:0:0:
64,192,11563,1,0,0:0:0:0:
320,192,11635,1,0,0:0:0:0:
448,192,11706,1,0,0:0:0:0:
192,192,11706,1,8,0:0:0:0:
64,192,11778,1,0,0:0:0:0:
320,192,11849,1,0,0:0:0:0:
448,192,11849,1,8,0:0:0:0:
192,192,11920,1,0,0:0:0:0:
64,192,11992,1,8,0:0:0:0:
448,192,11992,1,0,0:0:0:0:
320,192,12063,1,0,0:0:0:0:
192,192,12135,1,0,0:0:0:0:
64,192,12135,1,8,0:0:0:0:
320,192,12206,1,0,0:0:0:0:
192,192,12278,1,0,0:0:0:0:
448,192,12278,1,8,0:0:0:0:
64,192,12349,1,0,0:0:0:0:
320,192,12420,1,8,0:0:0:0:
448,192,12420,1,0,0:0:0:0:
192,192,12492,1,0,0:0:0:0:
64,192,12563,1,0,0:0:0:0:
320,192,12563,1,8,0:0:0:0:
448,192,12635,1,0,0:0:0:0:
192,192,12706,1,0,0:0:0:0:
64,192,12706,1,8,0:0:0:0:
320,192,12778,1,0,0:0:0:0:
448,192,12849,1,8,0:0:0:0:
64,192,12849,1,0,0:0:0:0:
192,192,12920,1,0,0:0:0:0:
64,192,12992,1,8,0:0:0:0:
320,192,12992,1,0,0:0:0:0:
448,192,13063,1,0,0:0:0:0:
320,192,13135,1,8,0:0:0:0:
192,192,13135,1,0,0:0:0:0:
64,192,13206,1,0,0:0:0:0:
448,192,13278,1,0,0:0:0:0:
192,192,13278,1,8,0:0:0:0:
320,192,13349,1,0,0:0:0:0:
192,192,13420,1,8,0:0:0:0:
64,192,13420,1,0,0:0:0:0:
448,192,13492,1,0,0:0:0:0:
64,192,13563,1,8,0:0:0:0:
320,192,13563,1,0,0:0:0:0:
192,192,13635,1,0,0:0:0:0:
448,192,13635,1,8,0:0:0:0:
320,192,13778,1,0,0:0:0:0:
64,192,13778,1,8,0:0:0:0:
192,192,13849,1,0,0:0:0:0:
448,192,13920,1,0,0:0:0:0:
320,192,13920,1,8,0:0:0:0:
64,192,14063,1,0,0:0:0:0:
192,192,14063,1,8,0:0:0:0:
320,192,14135,1,8,0:0:0:0:
448,192,14135,1,0,0:0:0:0:
192,192,14206,1,8,0:0:0:0:
64,192,14206,1,0,0:0:0:0:
320,192,14278,1,8,0:0:0:0:
448,192,14278,1,0,0:0:0:0:
192,192,14349,1,8,0:0:0:0:
64,192,14349,1,0,0:0:0:0:
320,192,14420,1,4,0:0:0:0:
448,192,14420,1,0,0:0:0:0:
192,192,14492,1,4,0:0:0:0:
64,192,14492,1,0,0:0:0:0:
