osu file format v14

[General]
AudioFilename: audio.mp3
AudioLeadIn: 0
PreviewTime: 217678
Countdown: 1
SampleSet: Normal
StackLeniency: 0.7
Mode: 0
LetterboxInBreaks: 0
WidescreenStoryboard: 1

[Editor]
Bookmarks: 57032,62376,63032,69032,123032,125282,156032,167376,196532,198407,228595,229438,247532,249688
DistanceSpacing: 1.1
BeatDivisor: 2
GridSize: 8
TimelineZoom: 1

[Metadata]
Title:Zankoku-sa wa sono nakigara o neburazaru
TitleUnicode:残酷さは其の亡骸を舐らざる
Artist:Imperial Circus Dead Decadence
ArtistUnicode:Imperial Circus Dead Decadence
Creator:5teven
Version:Hard
Source:
Tags:imperial,circus,dead,decadence,japanese,metal,stream,deathstream,Zankoku-sa,wa,sono,nakigara,o,neburazaru,Kuruoshiku,Saita,Seisan,na,Mukuro,wa,Kanade, Itooshiku,Saita,Shoujo,wa,Seisan,no,Shi,o,Utau,狂おしく咲いた凄惨な骸は奏で、愛おしく裂いた少女は聖餐の詞を謳う,残酷さは其の亡骸を舐らざる,NanoMortis
BeatmapID:1613193
BeatmapSetID:767433

[Difficulty]
HPDrainRate:4
CircleSize:5
OverallDifficulty:4
ApproachRate:6
SliderMultiplier:0.8
SliderTickRate:2

[Events]
//Background and Video events
0,0,"background.png",0,0
//Break Periods
2,125575,136982
2,198982,214363
//Storyboard Layer 0 (Background)
//Storyboard Layer 1 (Fail)
//Storyboard Layer 2 (Pass)
//Storyboard Layer 3 (Foreground)
//Storyboard Sound Samples

[TimingPoints]
0,187.5,4,1,1,100,1,0
220,187.5,4,1,1,100,1,0
96220,-100,4,1,1,100,0,1
125376,-100,4,1,1,100,0,0
217720,-100,4,1,1,100,0,1
249876,-100,4,1,1,100,0,0

[Colours]
Combo1 : 90,58,70
Combo2 : 90,37,37
Combo3 : 205,181,44
Combo4 : 60,98,61
Combo5 : 68,96,100
Combo6 : 51,52,77
Combo7 : 67,49,79

[HitObjects]
64,184,6032,5,0,0:0:0:0:
104,200,6407,1,0,0:0:0:0:
176,136,6782,1,0,0:0:0:0:
216,160,7157,1,0,0:0:0:0:
192,272,7532,1,0,0:0:0:0:
224,296,7907,1,0,0:0:0:0:
280,152,8282,5,0,0:0:0:0:
344,216,8657,1,8,0:0:0:0:
360,232,8845,1,8,0:0:0:0:
376,248,9032,1,12,0:0:0:0:
280,144,9407,1,0,0:0:0:0:
200,240,9782,5,0,0:0:0:0:
144,192,10157,1,0,0:0:0:0:
88,128,10532,1,0,0:0:0:0:
144,72,10907,1,0,0:0:0:0:
240,64,11282,5,0,0:0:0:0:
304,152,11657,1,8,0:0:0:0:
320,168,11845,1,8,0:0:0:0:
336,184,12032,1,12,0:0:0:0:
424,272,12407,1,0,0:0:0:0:
304,328,12782,5,0,0:0:0:0:
264,280,13157,1,0,0:0:0:0:
216,216,13532,1,0,0:0:0:0:
176,152,13907,1,0,0:0:0:0:
48,80,14282,5,0,0:0:0:0:
56,216,14657,1,8,0:0:0:0:
72,232,14845,1,8,0:0:0:0:
88,248,15032,1,12,0:0:0:0:
176,312,15407,1,0,0:0:0:0:
208,216,15782,5,0,0:0:0:0:
248,168,16157,1,0,0:0:0:0:
288,112,16532,1,0,0:0:0:0:
320,56,16907,1,0,0:0:0:0:
184,64,17282,5,0,0:0:0:0:
248,144,17657,1,8,0:0:0:0:
264,160,17845,1,8,0:0:0:0:
280,176,18032,1,12,0:0:0:0:
360,264,18407,1,0,0:0:0:0:
360,128,18782,5,0,0:0:0:0:
304,72,19157,1,0,0:0:0:0:
216,64,19532,1,0,0:0:0:0:
128,104,19907,1,0,0:0:0:0:
56,184,20282,5,0,0:0:0:0:
56,272,20657,1,8,0:0:0:0:
72,296,20844,1,8,0:0:0:0:
88,328,21032,1,12,0:0:0:0:
192,328,21407,1,0,0:0:0:0:
256,240,21782,5,0,0:0:0:0:
208,120,22157,1,8,0:0:0:0:
304,120,22532,1,8,0:0:0:0:
208,240,22907,1,8,0:0:0:0:
304,240,23282,1,8,0:0:0:0:
256,176,23563,6,0,B|256:112|256:112|184:40|184:40|272:40|272:40,1,240,8|4,0:0|0:0,0:0:0:0:
352,240,25345,5,8,0:0:0:0:
288,272,25532,1,12,0:0:0:0:
176,168,26845,1,8,0:0:0:0:
112,144,27032,1,12,0:0:0:0:
112,216,28345,1,8,0:0:0:0:
168,168,28532,1,4,0:0:0:0:
40,152,29657,1,4,0:0:0:0:
80,80,30032,2,8,B|288:264|288:264|384:160|384:160|280:64|280:64|128:224|128:224|248:328|248:328,1,920,8|8,0:0|0:0,0:0:0:0:
72,272,32563,1,8,0:0:0:0:
64,200,32938,2,8,B|136:128|136:128|176:64|176:64|128:24|128:24|72:64|72:64|72:104|72:104|264:176|264:176|384:128|384:128|448:104|448:104|448:64|448:64|392:16|392:16|336:64|336:64|456:224|456:224,1,1120,8|8,0:0|0:0,0:0:0:0:
336,208,36032,6,8,B|372:322|372:322|372:322|206:361|206:361|263:255|263:255|243:172|243:172|149:213|149:213|100:305|100:305|43:157|43:157|312:56|312:56,1,1120,8|8,0:0|0:0,0:0:0:0:
352,72,39032,2,8,P|432:96|432:96,2,80
288,112,39782,2,8,P|296:200|296:200,2,80
208,176,40532,2,8,P|176:256|176:256,2,80
280,128,41282,1,12,0:0:0:0:
280,240,42032,5,12,0:0:0:0:
360,272,42407,2,8,B|432:296,3,40
304,160,43157,2,8,B|376:184,5,40
416,200,44282,1,12,0:0:0:0:
72,160,45032,5,0,0:0:0:0:
128,80,45313,1,0,0:0:0:0:
200,152,45595,1,0,0:0:0:0:
224,120,45782,1,0,0:0:0:0:
320,80,46063,2,0,B|456:80|464:184|464:184,1,160,0|0,0:0|0:0,0:0:0:0:
464,304,46720,1,0,0:0:0:0:
416,272,46907,1,0,0:0:0:0:
360,248,47095,1,0,0:0:0:0:
304,240,47282,1,0,0:0:0:0:
184,248,47657,1,4,0:0:0:0:
72,208,48220,5,0,0:0:0:0:
152,152,48595,1,0,0:0:0:0:
200,112,48782,1,0,0:0:0:0:
136,48,49063,1,0,0:0:0:0:
80,112,49345,1,0,0:0:0:0:
80,184,49532,2,0,B|80:296|80:296|104:320|104:320|160:264|160:264,1,200,4|0,0:0|0:0,0:0:0:0:
240,304,50282,1,0,0:0:0:0:
280,240,50563,1,0,0:0:0:0:
320,168,50845,1,4,0:0:0:0:
384,64,51220,5,0,0:0:0:0:
312,96,51501,1,0,0:0:0:0:
272,168,51782,1,0,0:0:0:0:
304,240,52063,1,0,0:0:0:0:
360,296,52345,1,4,0:0:0:0:
456,280,52720,2,0,B|432:96|336:64|280:112|288:184|248:224|224:280|120:288|120:288,1,480,0|0,0:0|0:0,0:0:0:0:
64,200,54126,2,0,P|344:216|344:216,1,280,0|0,0:0|0:0,0:0:0:0:
432,248,54970,2,0,B|376:320|272:352|272:352,1,160,0|0,0:0|0:0,0:0:0:0:
168,312,55532,1,4,0:0:0:0:
56,232,55907,1,4,0:0:0:0:
56,112,56282,1,4,0:0:0:0:
152,40,56657,1,4,0:0:0:0:
264,88,57032,6,0,B|200:160|280:160|240:208|248:216|216:224|216:288|256:320|256:320,1,240,0|0,0:0|0:0,0:0:0:0:
360,272,57782,1,8,0:0:0:0:
400,152,58157,1,8,0:0:0:0:
272,72,58532,1,8,0:0:0:0:
128,64,58813,2,0,B|96:176|112:176|128:216|176:272|224:232|208:128|320:176|320:176,1,320,8|0,0:0|0:0,0:0:0:0:
408,176,59938,2,8,B|368:96|312:64|272:48|208:56|160:96|128:136|104:176|104:216|128:264|200:328|256:304|264:224|264:208,1,560
296,144,61532,1,8,0:0:0:0:
384,96,61907,1,8,0:0:0:0:
384,232,62282,1,8,0:0:0:0:
288,296,62657,1,8,0:0:0:0:
160,320,63032,2,0,B|96:168|96:168|144:88|144:88|192:192|256:248|344:328|408:304|480:272|504:216|520:96|448:16|328:0|240:56|272:152|312:176,1,1000,4|0,0:0|0:0,0:0:0:0:
224,216,66032,1,8,0:0:0:0:
152,136,66407,1,8,0:0:0:0:
232,48,66782,1,12,0:0:0:0:
296,144,67532,1,8,0:0:0:0:
384,224,67907,1,8,0:0:0:0:
304,304,68282,1,12,0:0:0:0:
96,240,69313,5,0,0:0:0:0:
112,192,69595,1,0,0:0:0:0:
136,144,69782,1,0,0:0:0:0:
200,96,70063,2,0,B|256:128|272:160|248:208|160:256|160:256,1,200,0|0,0:0|0:0,0:0:0:0:
232,336,70907,1,0,0:0:0:0:
272,312,71095,1,0,0:0:0:0:
312,288,71282,1,0,0:0:0:0:
416,224,71563,1,0,0:0:0:0:
408,40,71845,1,4,0:0:0:0:
400,136,72220,2,0,B|200:112|200:112|144:120|144:216|184:240|184:240|304:224|304:224,1,480,0|0,0:0|0:0,0:0:0:0:
392,216,73532,1,4,0:0:0:0:
392,128,73907,2,8,B|200:128|296:224|296:264|104:264|56:248|56:248,1,360,8|0,0:0|0:0,0:0:0:0:
256,192,75126,12,4,76157,0:0:0:0:
256,192,76438,12,4,77563,0:0:0:0:
256,192,78032,12,4,79532,0:0:0:0:
288,72,79813,5,8,1:0:0:0:
344,128,80095,1,8,1:0:0:0:
376,160,80282,1,8,1:0:0:0:
384,312,80563,1,8,1:0:0:0:
296,312,80845,1,8,1:0:0:0:
184,264,81126,2,8,P|224:216|224:216,7,40
256,144,81970,1,12,0:0:0:0:
96,176,82438,2,8,P|48:136|48:136,9,40
32,80,83470,1,14,0:0:0:0:
88,176,84126,2,8,P|136:128|136:128,7,40
208,96,84970,1,12,0:0:0:0:
344,152,85532,2,8,P|296:104|296:104,8,40
248,48,86470,1,12,0:0:0:0:
96,96,87126,6,8,B|128:80|160:80|160:80,11,40,12|8|8|8|8|8|8|8|8|8|12|8,0:0|0:0|0:0|0:0|0:0|0:0|0:0|0:0|0:0|0:0|0:0|0:0,0:0:0:0:
256,128,88532,2,8,B|296:128|320:152,11,40,12|8|8|8|8|8|8|8|8|8|12|8,0:0|0:0|0:0|0:0|0:0|0:0|0:0|0:0|0:0|0:0|0:0|0:0,0:0:0:0:
160,256,89938,2,8,B|144:272|104:272|104:272,11,40,12|8|8|8|8|8|8|8|8|8|12|8,0:0|0:0|0:0|0:0|0:0|0:0|0:0|0:0|0:0|0:0|0:0|0:0,0:0:0:0:
368,312,91345,2,8,B|344:320|312:288,16,40,12|8|8|8|8|8|8|8|8|8|12|8|8|8|8|8|8,0:0|0:0|0:0|0:0|0:0|0:0|0:0|0:0|0:0|0:0|0:0|0:0|0:0|0:0|0:0|0:0|0:0,0:0:0:0:
256,192,93220,12,12,95282,0:0:0:0:
32,224,96220,5,8,0:0:0:0:
56,184,96407,1,8,0:0:0:0:
80,144,96594,1,8,0:0:0:0:
112,80,96782,2,8,P|192:80|192:80,2,80,8|8|8,0:0|0:0|0:0,0:0:0:0:
160,160,97345,1,8,0:0:0:0:
208,160,97532,1,8,0:0:0:0:
216,232,97720,2,8,L|312:232,2,80,8|8|8,0:0|0:0|0:0,0:0:0:0:
128,224,98282,1,8,0:0:0:0:
208,72,98470,1,8,0:0:0:0:
240,96,98657,1,8,0:0:0:0:
256,136,98845,1,12,0:0:0:0:
256,248,99220,5,8,0:0:0:0:
240,224,99407,1,8,0:0:0:0:
224,192,99594,1,8,0:0:0:0:
208,160,99782,1,8,0:0:0:0:
136,136,99970,2,8,P|104:208|104:208,2,40,8|8|8,0:0|0:0|0:0,0:0:0:0:
192,80,100344,1,8,0:0:0:0:
237,83,100531,1,8,0:0:0:0:
281,99,100719,1,8,0:0:0:0:
313,124,100907,1,8,0:0:0:0:
344,152,101095,1,8,0:0:0:0:
400,208,101282,2,8,P|424:248|424:248,2,40,8|8|8,0:0|0:0|0:0,0:0:0:0:
416,136,101657,1,8,0:0:0:0:
432,88,101845,1,12,0:0:0:0:
352,56,102220,5,8,0:0:0:0:
312,72,102407,1,8,0:0:0:0:
280,96,102594,1,8,0:0:0:0:
256,136,102782,1,8,0:0:0:0:
184,144,102970,2,8,P|176:96|176:96,2,40,8|8|8,0:0|0:0|0:0,0:0:0:0:
224,208,103345,1,8,0:0:0:0:
256,240,103531,1,8,0:0:0:0:
296,248,103720,1,8,0:0:0:0:
336,248,103907,1,8,0:0:0:0:
376,224,104095,1,8,0:0:0:0:
400,184,104282,1,8,0:0:0:0:
408,144,104470,1,8,0:0:0:0:
416,72,104657,2,8,P|456:88|456:88,2,40,8|8|12,0:0|0:0|0:0,0:0:0:0:
344,48,105220,5,8,0:0:0:0:
304,32,105407,1,8,0:0:0:0:
256,32,105595,1,8,0:0:0:0:
216,48,105782,1,8,0:0:0:0:
192,112,105970,2,8,P|240:144|240:144,2,40,8|8|8,0:0|0:0|0:0,0:0:0:0:
112,128,106345,1,8,0:0:0:0:
176,184,106532,1,12,0:0:0:0:
264,200,106813,1,12,0:0:0:0:
336,208,107095,2,8,L|312:280,6,40,12|8|8|8|8|8|8,0:0|0:0|0:0|0:0|0:0|0:0|0:0,0:0:0:0:
456,144,108032,5,8,0:0:0:0:
400,304,108407,1,0,0:0:0:0:
360,328,108594,1,0,0:0:0:0:
312,320,108782,1,4,0:0:0:0:
176,304,109345,1,8,0:0:0:0:
152,264,109532,1,4,0:0:0:0:
192,176,109907,1,8,0:0:0:0:
240,200,110094,1,0,0:0:0:0:
288,176,110282,1,0,0:0:0:0:
360,80,110563,1,4,0:0:0:0:
224,48,110845,5,8,0:0:0:0:
176,64,111032,1,8,0:0:0:0:
96,112,111313,1,8,0:0:0:0:
32,168,111595,2,8,B|62:215|183:295|185:162|274:126|332:172|332:172,1,320
384,216,112532,1,8,0:0:0:0:
328,280,112813,1,8,0:0:0:0:
240,224,113095,2,8,P|216:184|216:184,2,40,8|8|12,0:0|0:0|0:0,0:0:0:0:
176,104,113845,5,8,0:0:0:0:
216,80,114032,1,8,0:0:0:0:
312,96,114595,2,8,P|344:128|344:128,2,40
344,216,115063,1,8,0:0:0:0:
240,216,115345,1,0,0:0:0:0:
216,256,115532,1,8,0:0:0:0:
288,328,115907,1,0,0:0:0:0:
336,328,116094,1,0,0:0:0:0:
384,328,116282,1,0,0:0:0:0:
432,264,116563,1,8,0:0:0:0:
432,192,116845,1,8,0:0:0:0:
384,128,117032,5,0,0:0:0:0:
304,128,117407,1,0,0:0:0:0:
224,128,117782,1,8,0:0:0:0:
160,168,118063,1,0,0:0:0:0:
224,224,118345,1,8,0:0:0:0:
272,224,118532,1,0,0:0:0:0:
328,168,118813,1,8,0:0:0:0:
272,112,119095,2,8,P|232:128|232:128,2,40,8|8|12,0:0|0:0|0:0,0:0:0:0:
104,128,120032,5,12,0:0:0:0:
176,64,120782,1,8,0:0:0:0:
280,64,121063,1,8,0:0:0:0:
368,144,121345,1,8,0:0:0:0:
408,176,121532,1,12,0:0:0:0:
432,296,121813,1,8,0:0:0:0:
352,296,122095,2,8,B|272:336|272:336|256:264|256:264|176:312|176:312,1,240,8|8,0:0|0:0,0:0:0:0:
104,272,123032,2,8,B|200:176|320:136|424:160,1,320,12|12,0:0|0:0,0:0:0:0:
448,224,124157,1,4,0:0:0:0:
416,312,124532,2,8,B|272:360|144:280|104:152,1,360,4|12,0:0|0:0,0:0:0:0:
56,152,138032,5,8,0:0:0:0:
128,280,138407,1,8,0:0:0:0:
168,176,138782,1,8,0:0:0:0:
224,280,139157,1,8,0:0:0:0:
368,208,139532,2,8,B|376:120|344:96|248:104,2,160,8|8|12,0:0|0:0|0:0,0:0:0:0:
312,256,141032,5,0,0:0:0:0:
240,312,141407,1,0,0:0:0:0:
176,248,141782,1,0,0:0:0:0:
56,312,142157,1,4,0:0:0:0:
96,160,142907,1,0,0:0:0:0:
184,120,143282,1,0,0:0:0:0:
288,72,143657,1,4,0:0:0:0:
392,184,144313,5,0,0:0:0:0:
392,256,144782,1,0,0:0:0:0:
392,336,145157,1,0,0:0:0:0:
296,288,145532,1,4,0:0:0:0:
248,240,145907,1,4,0:0:0:0:
208,184,146282,1,4,0:0:0:0:
160,128,146657,1,6,0:0:0:0:
56,144,147032,5,8,0:0:0:0:
72,176,147220,1,8,0:0:0:0:
96,208,147407,1,8,0:0:0:0:
128,232,147595,1,8,0:0:0:0:
168,248,147782,1,8,0:0:0:0:
272,256,148157,1,12,0:0:0:0:
344,328,148532,1,8,0:0:0:0:
376,304,148720,1,8,0:0:0:0:
408,272,148907,1,8,0:0:0:0:
432,240,149095,1,8,0:0:0:0:
448,200,149282,1,8,0:0:0:0:
448,104,149657,1,12,0:0:0:0:
320,96,150032,5,8,0:0:0:0:
216,128,150407,1,8,0:0:0:0:
112,168,150782,1,4,0:0:0:0:
72,64,151532,2,0,P|304:120|304:120,1,200,0|0,0:0|0:0,0:0:0:0:
368,200,152282,1,4,0:0:0:0:
368,312,153032,6,8,B|232:288|144:256|96:216|56:168|56:168,1,350
112,88,154532,2,8,B|176:232|176:232|272:88|272:88|336:256|336:256,1,480
328,304,156032,5,12,0:0:0:0:
256,256,156407,1,12,0:0:0:0:
192,208,156782,1,12,0:0:0:0:
256,152,157157,1,12,0:0:0:0:
320,200,157532,1,12,0:0:0:0:
392,256,157907,1,12,0:0:0:0:
400,344,158282,2,12,B|312:328|248:312|144:232|96:152|80:104|80:104|80:72|80:72|104:48|104:48|176:48|176:48|232:136|344:232|440:248|440:248|440:96|448:96|368:56|368:56,1,1120
272,64,161282,1,12,0:0:0:0:
336,112,161657,1,12,0:0:0:0:
280,176,162032,6,12,B|168:64|168:64|24:208|24:208|96:280|96:280|184:192|184:192|240:248|240:248,1,640,12|12,0:0|0:0,0:0:0:0:
192,296,163907,1,12,0:0:0:0:
128,240,164282,1,12,0:0:0:0:
64,184,164657,1,12,0:0:0:0:
48,104,165032,2,12,B|296:184|296:184|376:88|376:88|472:192|472:192|392:320|392:320|88:208|88:208,1,1000,12|12,0:0|0:0,0:0:0:0:
144,96,168032,6,8,P|208:56|208:56,6,40
88,136,168970,1,12,0:0:0:0:
192,168,169532,2,8,P|216:216|216:216,6,40
168,104,170470,1,12,0:0:0:0:
248,120,171032,2,8,P|288:184|288:184,6,40
224,64,171970,1,12,0:0:0:0:
344,160,172532,2,8,P|312:88|312:88,6,40
360,216,173470,1,12,0:0:0:0:
264,264,174032,6,8,P|320:216|320:216,6,40
216,296,174970,1,12,0:0:0:0:
152,248,175532,2,8,P|216:208|216:208,6,40
96,288,176470,1,12,0:0:0:0:
80,192,177032,2,8,P|16:152|16:152,6,40
136,224,177970,1,12,0:0:0:0:
208,168,178532,2,8,P|152:136|152:136,8,40
256,104,179845,6,8,B|328:104|368:128|368:128,1,80,12|12,0:0|0:0,0:0:0:0:
312,184,180407,2,8,B|376:184|424:152|424:152,1,80,12|12,0:0|0:0,0:0:0:0:
456,184,181438,2,8,B|464:136|440:72|440:72,1,80,12|12,0:0|0:0,0:0:0:0:
376,80,182001,2,8,B|320:72|272:104|272:104,1,80,12|12,0:0|0:0,0:0:0:0:
224,144,183032,2,8,B|208:184|240:232|240:232,1,80,12|12,0:0|0:0,0:0:0:0:
280,304,183595,2,8,B|232:312|184:288|184:288,1,80,12|12,0:0|0:0,0:0:0:0:
240,224,184532,2,8,B|256:176|216:112|216:112,1,80,12|12,0:0|0:0,0:0:0:0:
144,216,185095,2,8,B|136:264|160:312|160:312,1,80,12|12,0:0|0:0,0:0:0:0:
224,320,185938,1,8,0:0:0:0:
264,224,186970,1,12,0:0:0:0:
312,120,187532,1,8,0:0:0:0:
360,32,188470,1,12,0:0:0:0:
240,40,189032,5,8,0:0:0:0:
168,120,189970,1,12,0:0:0:0:
96,208,190532,1,8,0:0:0:0:
24,296,191470,1,12,0:0:0:0:
128,296,192032,5,8,0:0:0:0:
200,264,192313,1,8,0:0:0:0:
272,224,192595,1,12,0:0:0:0:
296,192,192782,1,8,0:0:0:0:
312,152,192970,1,8,0:0:0:0:
296,112,193157,1,8,0:0:0:0:
264,80,193345,1,8,0:0:0:0:
184,48,193720,1,12,0:0:0:0:
104,72,195220,1,12,0:0:0:0:
48,128,196532,2,0,B|64:256|64:256|408:152|408:152|432:328,1,640,4|4,0:0|0:0,0:0:0:0:
336,304,198782,1,12,0:0:0:0:
256,192,215470,12,12,216782,0:0:0:0:
48,264,217720,5,8,0:0:0:0:
80,232,217907,1,8,0:0:0:0:
120,208,218095,1,8,0:0:0:0:
168,200,218282,1,8,0:0:0:0:
208,224,218470,1,8,0:0:0:0:
248,248,218657,1,8,0:0:0:0:
296,248,218845,1,8,0:0:0:0:
336,224,219032,1,12,0:0:0:0:
368,192,219220,1,8,0:0:0:0:
376,152,219408,1,8,0:0:0:0:
352,112,219595,1,8,0:0:0:0:
312,88,219782,1,8,0:0:0:0:
264,88,219970,1,8,0:0:0:0:
152,112,220157,2,0,P|112:128|112:128,2,40,12|0|12,0:0|0:0|0:0,0:0:0:0:
80,232,220720,5,8,0:0:0:0:
112,264,220907,1,8,0:0:0:0:
144,296,221095,1,8,0:0:0:0:
240,344,221282,2,0,P|288:312|288:312,2,40,8|0|8,0:0|0:0|0:0,0:0:0:0:
272,208,221657,1,8,0:0:0:0:
240,176,221845,1,8,0:0:0:0:
208,144,222032,1,12,0:0:0:0:
96,96,222220,2,0,P|128:48|128:48,2,40,8|0|8,0:0|0:0|0:0,0:0:0:0:
240,40,222595,1,8,0:0:0:0:
272,72,222782,1,8,0:0:0:0:
304,104,222970,1,8,0:0:0:0:
288,240,223157,2,0,P|256:272|256:272,2,40,12|0|12,0:0|0:0|0:0,0:0:0:0:
424,328,223720,5,8,0:0:0:0:
424,280,223907,1,8,0:0:0:0:
424,232,224095,1,8,0:0:0:0:
424,184,224282,1,8,0:0:0:0:
352,72,224470,2,0,P|312:72|312:72,2,40,8|0|8,0:0|0:0|0:0,0:0:0:0:
272,208,224845,1,8,0:0:0:0:
240,256,225032,1,12,0:0:0:0:
208,304,225220,1,8,0:0:0:0:
168,344,225407,1,8,0:0:0:0:
48,320,225595,1,8,0:0:0:0:
48,272,225782,1,8,0:0:0:0:
48,224,225970,1,8,0:0:0:0:
40,104,226157,2,0,P|80:64|80:64,2,40,12|0|12,0:0|0:0|0:0,0:0:0:0:
160,48,226720,5,8,0:0:0:0:
200,56,226907,1,8,0:0:0:0:
240,72,227095,1,8,0:0:0:0:
272,96,227282,1,8,0:0:0:0:
304,128,227470,1,8,0:0:0:0:
336,160,227657,1,8,0:0:0:0:
360,200,227845,1,8,0:0:0:0:
280,344,228032,5,4,0:0:0:0:
96,240,228313,1,4,0:0:0:0:
176,112,228595,2,0,B|256:32|256:32|256:128|256:128|336:32|368:152|368:152,1,360,12|4,0:0|0:0,0:0:0:0:
392,296,229720,5,8,0:0:0:0:
288,240,230095,1,8,0:0:0:0:
240,240,230282,1,8,0:0:0:0:
176,152,230563,1,8,0:0:0:0:
112,96,230845,2,0,P|72:120|72:120,2,40,8|8|8,0:0|0:0|0:0,0:0:0:0:
64,192,231407,1,8,0:0:0:0:
96,224,231595,1,8,0:0:0:0:
128,256,231782,1,8,0:0:0:0:
256,224,232157,1,4,0:0:0:0:
256,72,232720,5,8,0:0:0:0:
344,208,233095,1,8,0:0:0:0:
368,248,233282,1,8,0:0:0:0:
448,104,233563,1,8,0:0:0:0:
336,56,233845,1,8,0:0:0:0:
288,56,234032,1,8,0:0:0:0:
184,96,234407,1,8,0:0:0:0:
144,120,234595,1,8,0:0:0:0:
88,160,234782,2,0,B|32:224|32:224|112:256|112:256,1,160,4|6,0:0|0:0,0:0:0:0:
208,312,235720,5,8,0:0:0:0:
160,224,236095,1,8,0:0:0:0:
160,176,236282,1,8,0:0:0:0:
208,80,236563,1,4,0:0:0:0:
336,64,236845,1,8,0:0:0:0:
360,104,237032,1,8,0:0:0:0:
352,232,237407,1,8,0:0:0:0:
336,272,237595,1,8,0:0:0:0:
304,304,237782,1,4,0:0:0:0:
224,280,238157,1,6,0:0:0:0:
128,280,238720,5,4,0:0:0:0:
64,176,239095,1,8,0:0:0:0:
112,176,239282,1,8,0:0:0:0:
184,56,239563,1,4,0:0:0:0:
208,216,239845,1,8,0:0:0:0:
256,216,240032,1,8,0:0:0:0:
320,96,240313,1,4,0:0:0:0:
368,240,240595,2,0,P|312:272|312:272,3,40,8|8|2|0,0:0|0:0|0:0|0:0,0:0:0:0:
304,200,241532,6,0,B|272:192|232:120|104:304|104:184|170:318|320:312|330:278|354:294|370:254|402:270|426:222|410:246|442:246|434:134|434:70|314:14|202:118|202:54|178:70|146:142|162:-42|74:198|42:382|-70:214|-54:342|66:398|290:390|322:390|354:398|402:382|466:350|490:326|506:278|506:230|490:174|482:126|506:38|394:46|330:14|194:14|138:22|146:46|138:70|34:94|-6:206|82:366,1,1960,4|0,0:0|0:0,0:0:0:0:
160,152,247532,2,8,B|160:296|280:152|272:280|272:320,1,200,12|8,0:0|0:0,0:0:0:0:
344,288,248282,2,8,B|344:184|344:184|272:112|272:112,1,200,12|8,0:0|0:0,0:0:0:0:
192,80,249032,2,8,B|120:80|120:80|88:112|88:112|88:160|88:160,1,160,8|8,0:0|0:0,0:0:0:0:
152,216,249876,6,2,B|228:322|228:322|250:323|276:292|263:187|263:187|289:156|305:165|305:165|399:282|399:282,1,420,8|0,0:0|0:0,0:0:0:0:
440,168,251470,2,2,P|448:120|440:96,1,70,0|0,0:0|0:0,0:0:0:0:
352,136,252126,2,2,B|319:181|319:181|307:237|307:237,1,93.3333333333333,0|0,0:0|0:0,0:0:0:0:
224,280,252688,2,2,B|166:309|166:309|136:248|136:248,1,120,0|0,0:0|0:0,0:0:0:0:
160,144,253626,1,8,0:0:0:0:
240,96,254376,2,2,P|292:72|292:72,1,46.6666666666667,8|4,0:0|0:0,0:0:0:0:
