osu file format v14

[General]
AudioFilename: audio.mp3
AudioLeadIn: 0
PreviewTime: 217678
Countdown: 1
SampleSet: Normal
StackLeniency: 0.7
Mode: 0
LetterboxInBreaks: 0
WidescreenStoryboard: 1

[Editor]
DistanceSpacing: 1.1
BeatDivisor: 2
GridSize: 8
TimelineZoom: 1

[Metadata]
Title:Zankoku-sa wa sono nakigara o neburazaru
TitleUnicode:残酷さは其の亡骸を舐らざる
Artist:Imperial Circus Dead Decadence
ArtistUnicode:Imperial Circus Dead Decadence
Creator:5teven
Version:Beginner
Source:
Tags:imperial,circus,dead,decadence,japanese,metal,stream,deathstream,Zankoku-sa,wa,sono,nakigara,o,neburazaru,Kuruoshiku,Saita,Seisan,na,Mukuro,wa,Kanade, Itooshiku,Saita,Shoujo,wa,Seisan,no,Shi,o,Utau,狂おしく咲いた凄惨な骸は奏で、愛おしく裂いた少女は聖餐の詞を謳う,残酷さは其の亡骸を舐らざる,NanoMortis
BeatmapID:1613189
BeatmapSetID:767433

[Difficulty]
HPDrainRate:1
CircleSize:2
OverallDifficulty:1
ApproachRate:3
SliderMultiplier:0.400000005960464
SliderTickRate:1

[Events]
//Background and Video events
0,0,"background.png",0,0
//Break Periods
2,125481,136498
2,198982,216280
//Storyboard Layer 0 (Background)
//Storyboard Layer 1 (Fail)
//Storyboard Layer 2 (Pass)
//Storyboard Layer 3 (Foreground)
//Storyboard Sound Samples

[TimingPoints]
0,187.5,4,1,1,100,1,0
220,187.5,4,1,1,100,1,0
30032,-100,4,1,1,100,0,0
96220,-100,4,1,1,100,0,1
125376,-100,4,1,1,100,0,0
147032,-133.333333333333,4,1,1,100,0,0
217720,-100,4,1,1,100,0,1
229438,-285.714285714286,4,1,1,100,0,1
249876,-133.333333333333,4,1,1,100,0,0

[Colours]
Combo1 : 90,58,70
Combo2 : 90,37,37
Combo3 : 205,181,44
Combo4 : 60,98,61
Combo5 : 68,96,100
Combo6 : 51,52,77
Combo7 : 67,49,79

[HitObjects]
112,288,6032,5,4,0:0:0:0:
240,192,9032,1,4,0:0:0:0:
392,112,12126,1,4,0:0:0:0:
96,104,15032,1,4,0:0:0:0:
264,200,18032,1,4,0:0:0:0:
400,304,21032,1,4,0:0:0:0:
256,192,23845,1,8,0:0:0:0:
256,104,25532,1,8,0:0:0:0:
248,160,27032,1,8,0:0:0:0:
256,136,28532,1,8,0:0:0:0:
88,288,30032,6,0,B|200:288|304:256|400:176,3,320.000004768371
128,112,36032,6,0,B|240:112|344:144|440:224,3,320.000004768371
136,96,41938,5,0,0:0:0:0:
64,72,44282,1,4,0:0:0:0:
80,176,45032,2,8,P|344:312|344:312,1,280.000004172325
440,288,47657,1,4,0:0:0:0:
400,256,49532,2,4,B|272:144|128:144|128:144,1,300.000004470348
64,72,52345,5,4,0:0:0:0:
232,64,54032,2,8,B|304:208|232:344|232:344,1,280.000004172325,8|12,0:0|0:0,0:0:0:0:
384,192,57032,6,0,L|72:80,3,320.000004768371
88,288,63032,6,0,L|400:176,3,320.000004768371
200,176,68938,5,0,0:0:0:0:
128,176,71845,5,8,0:0:0:0:
96,112,74282,1,8,0:0:0:0:
160,200,76532,2,4,P|416:200|416:200,1,240.000003576278
200,224,79532,5,8,0:0:0:0:
176,168,80938,5,4,0:0:0:0:
240,208,82532,1,4,0:0:0:0:
304,176,83938,1,4,0:0:0:0:
368,192,85438,1,4,0:0:0:0:
184,200,87688,1,4,0:0:0:0:
200,208,90032,1,4,0:0:0:0:
224,224,91532,1,4,0:0:0:0:
272,224,93220,1,12,0:0:0:0:
72,176,96220,5,8,0:0:0:0:
96,168,98845,1,4,0:0:0:0:
144,168,101845,1,4,0:0:0:0:
184,224,104845,1,4,0:0:0:0:
136,56,108032,2,4,B|136:184|136:184|400:184|400:184|400:344|400:344,1,540.000008046626
408,208,112532,1,4,0:0:0:0:
376,136,114032,2,12,B|152:56|152:56|88:232|88:232|288:320|288:320,1,640.000009536742,4|4,0:0|0:0,0:0:0:0:
344,256,119282,1,4,0:0:0:0:
352,112,121532,5,4,0:0:0:0:
184,80,122938,2,4,B|336:144|336:144|176:216|176:216|336:288|336:288,1,500.00000745058
168,136,137938,5,4,0:0:0:0:
264,144,140282,1,4,0:0:0:0:
192,232,142251,1,4,0:0:0:0:
128,168,143657,1,4,0:0:0:0:
64,112,147032,6,4,B|208:112|264:264|448:280|448:280,1,420.000022280217
136,168,151532,6,4,P|448:256|448:256,1,320.000004768371
320,168,156032,2,2,B|320:328|448:328|448:328|448:88|448:88|224:56|224:56|240:160|216:200|216:200,1,840.000044560433
144,248,162126,2,2,B|64:168|48:48|48:48|272:88|272:88|416:304|416:304|336:328|288:296|288:296,1,840.000044560433
192,248,167938,5,4,0:0:0:0:
160,160,169532,1,4,0:0:0:0:
240,104,171032,1,4,0:0:0:0:
288,216,172532,1,4,0:0:0:0:
160,184,174970,1,4,0:0:0:0:
208,240,177970,1,4,0:0:0:0:
128,120,180032,5,4,0:0:0:0:
240,120,182095,1,4,0:0:0:0:
192,216,183595,1,4,0:0:0:0:
256,160,185095,1,4,0:0:0:0:
320,208,188470,1,4,0:0:0:0:
272,272,190532,1,4,0:0:0:0:
368,272,193720,1,12,0:0:0:0:
72,88,196626,6,2,B|184:80|200:216|384:232|384:232,1,345.000018301606,6|4,0:0|0:0,0:0:0:0:
176,128,217720,5,12,0:0:0:0:
256,176,220345,1,12,0:0:0:0:
312,216,223345,1,12,0:0:0:0:
400,280,226345,1,12,0:0:0:0:
256,336,229438,2,12,P|336:144|336:144,1,202.999996829867
352,56,232720,6,12,B|168:80|168:80,1,181.999997157812
112,176,238157,1,12,0:0:0:0:
184,208,240032,1,12,0:0:0:0:
144,128,241532,6,12,B|240:64|352:104|352:288|280:336|152:312|128:224|208:192|208:192,1,447.999993003845
64,128,249876,6,12,B|152:192|248:160|328:208|328:208,1,270.000014322996
448,264,254376,1,12,0:0:0:0:
