osu file format v14

[General]
AudioFilename: audio.mp3
AudioLeadIn: 0
PreviewTime: 153847
Countdown: 1
SampleSet: Soft
StackLeniency: 0.7
Mode: 0
LetterboxInBreaks: 0
WidescreenStoryboard: 0

[Editor]
DistanceSpacing: 0.1
BeatDivisor: 4
GridSize: 4
TimelineZoom: 1

[Metadata]
Title:Yomi yori Kikoyu, Koukoku no Tou to Honoo no Shoujo
TitleUnicode:Yomi yori Kikoyu, Koukoku no Tou to Honoo no Shoujo
Artist:Imperial Circus Dead Decadence
ArtistUnicode:Imperial Circus Dead Decadence
Creator:Gus
Version:Big WIP
Source:
Tags:
BeatmapID:1645970
BeatmapSetID:783894

[Difficulty]
HPDrainRate:5
CircleSize:4
OverallDifficulty:9
ApproachRate:9.8
SliderMultiplier:2
SliderTickRate:1

[Events]
//Background and Video events
0,0,"Deep Sleep.png",0,0
//Break Periods
2,51433,52610
2,53683,54792
2,119274,120247
2,121456,122701
2,123637,124610
2,190046,207792
2,335138,336247
2,337456,338701
2,370047,377701
//Storyboard Layer 0 (Background)
//Storyboard Layer 1 (Fail)
//Storyboard Layer 2 (Pass)
//Storyboard Layer 3 (Foreground)
//Storyboard Sound Samples

[TimingPoints]
1120,272.727272727273,4,2,0,60,1,0
9847,-100,4,2,0,60,0,1
35620,-100,4,2,0,60,0,0
36029,-100,4,2,0,60,0,1
40392,-100,4,2,0,60,0,0
51233,-100,4,2,0,5,0,0
51301,-100,4,2,0,60,0,0
55938,-133.333333333333,4,2,0,60,0,0
56756,-100,4,2,0,60,0,0
57847,-90.9090909090909,4,2,0,60,0,0
66301,-133.333333333333,4,2,0,60,0,0
66574,-90.9090909090909,4,2,0,60,0,0
75301,-90.9090909090909,4,2,0,60,0,1
91665,-90.9090909090909,4,2,0,60,0,0
109120,-200,4,2,0,60,0,0
110210,-90.9090909090909,4,2,0,60,0,1
118938,-90.9090909090909,4,2,0,60,0,0
136392,-80,4,2,0,60,0,1
145120,-100,4,2,0,60,0,0
165847,-90.9090909090909,4,2,0,60,0,1
183301,-133.333333333333,4,2,0,60,0,0
187120,-200,4,2,0,60,0,0
187665,-400,4,2,0,60,0,0
192029,-400,4,2,0,60,0,0
226938,-100,4,2,0,60,0,0
261847,-1000,4,2,0,60,0,0
266210,-80,4,2,0,60,0,0
274938,-80,4,2,0,60,0,1
292392,-200,4,2,0,60,0,0
296756,-100,4,2,0,60,0,0
309847,-100,4,2,0,60,0,1
322938,-83.3333333333333,4,2,0,60,0,0
341483,-200,4,2,0,60,0,0
342574,-100,4,2,0,60,0,0
343665,-100,4,2,0,60,0,1
352392,-100,4,2,0,60,0,0
361120,-83.3333333333333,4,2,0,60,0,1
369847,-200,4,2,0,60,0,0
389483,-90.9090909090909,4,2,0,60,0,1
406574,-86.9565217391305,4,2,0,60,0,1
424392,-133.333333333333,4,2,0,60,0,0
429574,-200,4,2,0,60,0,0
457118,603.015075376884,4,2,0,60,1,0
458022,588.235294117647,4,2,0,60,1,0
458316,659.848234905972,4,2,0,60,1,0
458347,-400,4,2,0,60,0,0
458447,-400,4,2,0,5,0,0
463594,272.727272727273,4,2,0,5,1,0
463594,-100,4,2,0,60,0,1
476684,-80,4,2,0,60,0,0

[Colours]
Combo1 : 0,46,0
Combo2 : 255,189,157
Combo3 : 155,0,0
Combo4 : 255,202,229
Combo5 : 125,0,125

[HitObjects]
360,52,1120,5,6,0:0:0:0:
386,78,1188,1,0,0:0:0:0:
405,110,1256,1,0,0:0:0:0:
413,147,1324,1,0,0:0:0:0:
411,184,1392,1,0,0:0:0:0:
398,219,1460,1,0,0:0:0:0:
376,249,1529,1,0,0:0:0:0:
346,272,1597,1,0,0:0:0:0:
312,285,1665,1,2,0:0:0:0:
274,289,1733,1,2,0:0:0:0:
238,281,1801,1,2,0:0:0:0:
203,268,1869,1,2,0:0:0:0:
166,262,1937,1,2,0:0:0:0:
128,264,2005,1,2,0:0:0:0:
92,274,2074,2,0,L|40:304,1,50,2|0,0:0|0:0,0:0:0:0:
173,340,2210,5,6,0:0:0:0:
187,318,2278,1,0,0:0:0:0:
197,293,2346,1,0,0:0:0:0:
203,268,2414,1,0,0:0:0:0:
202,242,2482,1,0,0:0:0:0:
196,216,2550,1,0,0:0:0:0:
185,193,2620,2,0,L|164:141,1,50
55,31,2756,1,6,0:0:0:0:
34,73,2824,1,0,0:0:0:0:
29,120,2892,1,0,0:0:0:0:
40,167,2960,1,0,0:0:0:0:
67,206,3028,1,0,0:0:0:0:
106,235,3097,1,0,0:0:0:0:
152,248,3165,2,0,L|226:238,1,50
272,92,3301,5,6,0:0:0:0:
249,121,3369,1,0,0:0:0:0:
236,156,3437,1,0,0:0:0:0:
234,194,3505,1,0,0:0:0:0:
243,230,3573,1,0,0:0:0:0:
263,262,3641,1,0,0:0:0:0:
290,287,3710,1,0,0:0:0:0:
324,302,3778,1,0,0:0:0:0:
361,307,3846,1,2,0:0:0:0:
398,301,3914,1,2,0:0:0:0:
432,285,3982,1,2,0:0:0:0:
459,259,4050,1,2,0:0:0:0:
477,226,4119,1,2,0:0:0:0:
485,190,4187,1,2,0:0:0:0:
482,153,4255,1,2,0:0:0:0:
468,118,4323,1,0,0:0:0:0:
445,89,4392,6,0,B|403:57|403:57|353:45|353:45,1,100,4|0,0:0|0:0,0:0:0:0:
267,205,4665,2,0,B|315:184|315:184|351:147|351:147,1,100,4|0,0:0|0:0,0:0:0:0:
257,42,4938,2,0,B|208:62|208:62|172:99|172:99,1,100,4|0,0:0|0:0,0:0:0:0:
85,234,5210,2,0,B|91:181|91:181|77:132|77:132,1,100,4|0,0:0|0:0,0:0:0:0:
31,307,5483,5,4,0:0:0:0:
58,309,5551,1,0,0:0:0:0:
86,312,5619,1,0,0:0:0:0:
114,316,5687,1,0,0:0:0:0:
141,318,5755,1,0,0:0:0:0:
169,322,5823,1,0,0:0:0:0:
197,325,5892,1,0,0:0:0:0:
225,328,5960,1,0,0:0:0:0:
252,331,6029,2,2,L|232:279,3,50
358,313,6301,2,2,L|378:365,3,50
380,204,6574,5,4,0:0:0:0:
359,169,6642,1,0,0:0:0:0:
332,140,6710,1,0,0:0:0:0:
299,117,6778,1,0,0:0:0:0:
263,101,6846,1,0,0:0:0:0:
224,93,6914,1,0,0:0:0:0:
184,92,6983,2,0,L|108:96,1,50
16,40,7120,5,4,0:0:0:0:
28,78,7188,1,0,0:0:0:0:
40,116,7256,1,8,0:0:0:0:
52,154,7324,1,8,0:0:0:0:
64,192,7392,1,0,0:0:0:0:
77,230,7460,1,0,0:0:0:0:
89,268,7529,1,0,0:0:0:0:
101,306,7597,1,0,0:0:0:0:
112,344,7665,6,0,L|240:352,1,100
309,300,7938,1,0,0:0:0:0:
309,300,8006,1,0,0:0:0:0:
309,300,8074,2,0,L|335:249,1,50
424,197,8210,1,0,0:0:0:0:
431,173,8278,1,0,0:0:0:0:
431,148,8346,1,0,0:0:0:0:
425,124,8414,1,0,0:0:0:0:
412,102,8482,1,2,0:0:0:0:
394,85,8550,1,2,0:0:0:0:
372,73,8619,1,2,0:0:0:0:
348,68,8687,1,2,0:0:0:0:
323,70,8756,6,2,L|296:117,3,50
211,109,9029,2,0,L|224:161,3,50
148,212,9301,2,0,L|194:239,3,50
185,323,9574,1,8,0:0:0:0:
185,323,9642,1,0,0:0:0:0:
185,323,9710,2,0,L|237:309,1,50
472,269,9847,6,0,L|368:297,1,100,14|0,0:0|0:0,0:0:0:0:
402,31,10120,1,8,0:0:0:0:
419,77,10188,1,0,0:0:0:0:
416,126,10256,1,8,0:0:0:0:
392,170,10324,1,0,0:0:0:0:
353,200,10392,1,8,0:0:0:0:
320,237,10460,1,0,0:0:0:0:
314,285,10528,1,8,0:0:0:0:
336,329,10596,1,0,0:0:0:0:
379,353,10664,1,8,0:0:0:0:
428,349,10732,1,0,0:0:0:0:
466,318,10801,1,8,0:0:0:0:
480,271,10869,1,0,0:0:0:0:
465,224,10938,5,8,0:0:0:0:
437,182,11006,1,0,0:0:0:0:
400,149,11074,1,8,0:0:0:0:
357,125,11142,1,0,0:0:0:0:
308,113,11210,1,8,0:0:0:0:
258,112,11278,1,0,0:0:0:0:
210,124,11347,1,8,0:0:0:0:
166,147,11415,1,0,0:0:0:0:
128,180,11483,1,8,0:0:0:0:
100,221,11550,1,0,0:0:0:0:
85,268,11620,1,8,0:0:0:0:
99,315,11688,1,0,0:0:0:0:
137,346,11757,1,8,0:0:0:0:
186,350,11825,1,0,0:0:0:0:
229,326,11893,1,8,0:0:0:0:
251,282,11961,1,0,0:0:0:0:
245,234,12029,6,0,L|236:177,1,50,14|0,0:0|0:0,0:0:0:0:
312,68,12165,1,10,0:0:0:0:
320,91,12233,1,0,0:0:0:0:
322,115,12301,2,0,L|314:171,1,50
404,296,12438,2,0,P|416:264|416:240,1,50,10|0,0:0|0:0,0:0:0:0:
108,88,12574,2,0,P|96:120|96:144,1,50,10|0,0:0|0:0,0:0:0:0:
104,284,12710,1,8,0:0:0:0:
153,285,12778,1,0,0:0:0:0:
203,287,12846,1,8,0:0:0:0:
253,289,12914,1,0,0:0:0:0:
303,291,12982,1,8,0:0:0:0:
353,293,13050,1,0,0:0:0:0:
403,295,13120,6,0,L|468:284,1,50,14|0,0:0|0:0,0:0:0:0:
376,148,13256,1,10,0:0:0:0:
355,134,13324,1,0,0:0:0:0:
333,126,13392,2,0,L|276:119,1,50,2|0,0:0|0:0,0:0:0:0:
130,30,13529,2,0,P|164:26|187:32,1,50,10|0,0:0|0:0,0:0:0:0:
112,200,13665,2,0,P|77:203|54:197,1,50,10|0,0:0|0:0,0:0:0:0:
204,116,13801,1,8,0:0:0:0:
215,164,13869,1,0,0:0:0:0:
211,213,13937,1,8,0:0:0:0:
190,259,14005,1,0,0:0:0:0:
157,296,14074,1,8,0:0:0:0:
113,319,14141,1,0,0:0:0:0:
64,328,14210,5,12,0:0:0:0:
90,279,14278,1,0,0:0:0:0:
129,241,14346,1,8,0:0:0:0:
178,217,14414,1,0,0:0:0:0:
232,208,14482,1,8,0:0:0:0:
286,215,14550,1,0,0:0:0:0:
336,239,14620,1,8,0:0:0:0:
376,276,14688,1,0,0:0:0:0:
416,311,14756,1,8,0:0:0:0:
469,303,14824,1,0,0:0:0:0:
497,258,14892,1,8,0:0:0:0:
482,207,14960,1,0,0:0:0:0:
433,186,15029,1,8,0:0:0:0:
382,169,15097,1,0,0:0:0:0:
357,121,15165,1,8,0:0:0:0:
373,70,15233,1,0,0:0:0:0:
421,44,15301,5,8,0:0:0:0:
432,98,15369,1,0,0:0:0:0:
424,152,15437,1,8,0:0:0:0:
396,199,15505,1,0,0:0:0:0:
353,233,15573,1,8,0:0:0:0:
301,248,15641,1,0,0:0:0:0:
246,243,15710,1,8,0:0:0:0:
197,219,15778,1,0,0:0:0:0:
161,178,15847,1,8,0:0:0:0:
131,134,15915,1,0,0:0:0:0:
78,126,15983,1,8,0:0:0:0:
37,160,16051,1,0,0:0:0:0:
35,213,16119,1,8,0:0:0:0:
73,251,16187,1,0,0:0:0:0:
117,285,16256,2,0,P|130:313|133:340,1,50,8|0,0:0|0:0,0:0:0:0:
283,299,16392,5,14,0:0:0:0:
301,248,16460,1,0,0:0:0:0:
298,193,16529,1,8,0:0:0:0:
274,144,16596,1,0,0:0:0:0:
238,102,16665,2,0,P|225:74|222:47,1,50,8|0,0:0|0:0,0:0:0:0:
56,41,16801,5,14,0:0:0:0:
38,92,16869,1,0,0:0:0:0:
41,147,16937,1,8,0:0:0:0:
65,196,17005,1,0,0:0:0:0:
101,238,17074,2,0,L|117:293,1,50,8|0,0:0|0:0,0:0:0:0:
150,102,17210,2,0,L|134:47,1,50,8|0,0:0|0:0,0:0:0:0:
202,288,17347,2,0,L|186:343,1,50,8|0,0:0|0:0,0:0:0:0:
187,187,17483,5,14,0:0:0:0:
248,167,17551,1,2,0:0:0:0:
312,173,17619,1,10,0:0:0:0:
369,204,17687,1,2,0:0:0:0:
410,254,17756,2,2,L|430:318,3,50,10|2|10|2,0:0|0:0|0:0|0:0,0:0:0:0:
436,125,18029,2,0,L|490:110,1,50,8|0,0:0|0:0,0:0:0:0:
295,296,18165,2,0,L|296:356,1,50,8|8,0:0|0:0,0:0:0:0:
312,173,18301,1,0,0:0:0:0:
319,149,18369,1,0,0:0:0:0:
317,124,18437,1,0,0:0:0:0:
309,101,18505,1,0,0:0:0:0:
292,80,18574,5,12,0:0:0:0:
248,46,18642,1,0,0:0:0:0:
195,33,18710,1,8,0:0:0:0:
141,43,18779,1,0,0:0:0:0:
96,74,18846,1,8,0:0:0:0:
68,120,18914,1,0,0:0:0:0:
60,175,18983,1,8,0:0:0:0:
76,227,19051,1,0,0:0:0:0:
111,269,19120,2,0,P|128:296|136:328,3,50,8|0|8|0,0:0|0:0|0:0|0:0,0:0:0:0:
210,345,19392,2,0,P|235:349|260:348,3,50,8|0|8|0,0:0|0:0|0:0|0:0,0:0:0:0:
324,288,19665,6,0,P|348:286|373:290,3,50,8|0|8|0,0:0|0:0|0:0|0:0,0:0:0:0:
420,164,19938,2,0,P|409:186|393:205,3,50,8|0|8|0,0:0|0:0|0:0|0:0,0:0:0:0:
348,104,20210,2,0,P|358:81|374:62,3,50,8|0|8|0,0:0|0:0|0:0|0:0,0:0:0:0:
272,160,20483,2,0,P|282:182|298:201,3,50,8|0|8|0,0:0|0:0|0:0|0:0,0:0:0:0:
204,36,20756,6,0,L|192:96,1,50,14|0,0:0|0:0,0:0:0:0:
112,232,20892,2,0,L|100:172,1,50,10|0,0:0|0:0,0:0:0:0:
88,108,21029,2,0,L|76:48,3,50,8|0|8|0,0:0|0:0|0:0|0:0,0:0:0:0:
192,192,21301,2,0,L|204:252,3,50,10|0|8|0,0:0|0:0|0:0|0:0,0:0:0:0:
288,260,21574,2,0,L|276:200,3,50,10|0|8|0,0:0|0:0|0:0|0:0,0:0:0:0:
384,208,21847,5,12,0:0:0:0:
430,223,21915,1,0,0:0:0:0:
455,265,21983,1,8,0:0:0:0:
445,313,22051,1,0,0:0:0:0:
406,342,22120,2,0,L|344:348,3,50,8|0|8|0,0:0|0:0|0:0|0:0,0:0:0:0:
212,356,22392,2,0,L|228:300,1,50,10|0,0:0|0:0,0:0:0:0:
252,228,22529,1,10,0:0:0:0:
132,336,22665,1,10,0:0:0:0:
228,128,22801,1,10,0:0:0:0:
307,335,22938,5,14,0:0:0:0:
353,353,23006,1,2,0:0:0:0:
402,351,23074,1,10,0:0:0:0:
447,330,23142,1,2,0:0:0:0:
479,292,23210,1,10,0:0:0:0:
493,245,23278,1,0,0:0:0:0:
487,195,23347,1,8,0:0:0:0:
461,153,23415,1,0,0:0:0:0:
420,125,23483,5,8,0:0:0:0:
373,107,23551,1,0,0:0:0:0:
324,102,23619,1,8,0:0:0:0:
274,109,23688,1,0,0:0:0:0:
228,128,23756,1,8,0:0:0:0:
183,150,23824,1,0,0:0:0:0:
134,147,23892,1,8,0:0:0:0:
92,120,23960,1,0,0:0:0:0:
69,76,24029,5,8,0:0:0:0:
117,64,24097,1,0,0:0:0:0:
167,70,24165,1,8,0:0:0:0:
211,93,24233,1,0,0:0:0:0:
243,131,24301,1,8,0:0:0:0:
260,177,24369,1,0,0:0:0:0:
258,227,24438,2,0,L|240:296,1,50,8|0,0:0|0:0,0:0:0:0:
120,260,24574,2,0,L|184:264,1,50,8|0,0:0|0:0,0:0:0:0:
380,264,24710,2,0,L|316:268,1,50,8|0,0:0|0:0,0:0:0:0:
54,292,24847,2,0,L|149:298,1,50,8|0,0:0|0:0,0:0:0:0:
439,298,24983,2,0,L|344:304,1,50,8|0,0:0|0:0,0:0:0:0:
40,208,25120,6,0,B|32:144|116:100|116:100|96:36,1,200,12|0,0:0|0:0,0:0:0:0:
332,68,25529,2,0,B|340:132|256:176|256:176|276:240,1,200,12|0,0:0|0:0,0:0:0:0:
216,344,25938,2,0,L|180:232,1,100
475,228,26210,5,6,0:0:0:0:
475,228,26279,1,2,0:0:0:0:
475,228,26347,1,2,0:0:0:0:
475,228,26415,1,2,0:0:0:0:
475,228,26483,5,2,0:0:0:0:
414,239,26551,1,0,0:0:0:0:
352,233,26619,1,0,0:0:0:0:
294,210,26687,1,0,0:0:0:0:
245,171,26756,5,0,0:0:0:0:
184,132,26824,1,0,0:0:0:0:
112,147,26892,1,8,0:0:0:0:
73,209,26960,1,0,0:0:0:0:
89,280,27028,1,8,0:0:0:0:
151,319,27096,1,0,0:0:0:0:
222,303,27165,2,0,L|280:284,1,50,8|0,0:0|0:0,0:0:0:0:
388,132,27301,5,6,0:0:0:0:
360,344,27438,1,2,0:0:0:0:
472,136,27574,1,2,0:0:0:0:
456,352,27710,1,2,0:0:0:0:
304,124,27847,1,2,0:0:0:0:
496,248,27983,1,2,0:0:0:0:
260,336,28120,1,2,0:0:0:0:
408,236,28256,1,2,0:0:0:0:
172,336,28392,5,6,0:0:0:0:
408,236,28529,1,2,0:0:0:0:
200,92,28665,1,2,0:0:0:0:
260,336,28801,1,2,0:0:0:0:
280,128,28938,1,2,0:0:0:0:
144,216,29074,1,2,0:0:0:0:
408,236,29210,1,2,0:0:0:0:
288,32,29347,1,2,0:0:0:0:
264,232,29483,5,6,0:0:0:0:
200,92,29620,1,2,0:0:0:0:
144,216,29756,1,2,0:0:0:0:
280,136,29892,1,2,0:0:0:0:
120,32,30029,1,2,0:0:0:0:
368,116,30165,1,2,0:0:0:0:
144,216,30301,1,2,0:0:0:0:
328,32,30438,1,2,0:0:0:0:
120,32,30574,5,6,0:0:0:0:
56,224,30710,1,2,0:0:0:0:
220,32,30847,1,2,0:0:0:0:
144,216,30983,1,2,0:0:0:0:
120,32,31120,2,0,B|136:72|136:72|131:98|131:98|144:144,1,100,2|0,0:0|0:0,0:0:0:0:
272,268,31392,2,0,B|256:228|256:228|260:201|260:201|248:156,1,100,2|0,0:0|0:0,0:0:0:0:
160,296,31665,5,6,0:0:0:0:
392,244,31801,1,2,0:0:0:0:
144,216,31938,1,2,0:0:0:0:
348,344,32074,1,2,0:0:0:0:
340,108,32210,1,2,0:0:0:0:
272,268,32347,1,2,0:0:0:0:
248,72,32483,1,2,0:0:0:0:
348,344,32620,1,2,0:0:0:0:
164,128,32756,5,6,0:0:0:0:
408,160,32892,1,2,0:0:0:0:
144,216,33029,1,2,0:0:0:0:
392,244,33165,1,2,0:0:0:0:
340,108,33301,1,2,0:0:0:0:
308,352,33437,1,2,0:0:0:0:
252,88,33574,1,2,0:0:0:0:
224,336,33710,1,2,0:0:0:0:
164,68,33847,6,0,L|156:16,2,50,6|0|0,0:0|0:0|0:0,0:0:0:0:
120,260,34120,1,2,0:0:0:0:
252,88,34256,2,0,L|283:45,2,50,6|0|0,0:0|0:0|0:0,0:0:0:0:
40,176,34529,1,2,0:0:0:0:
264,180,34665,1,2,0:0:0:0:
96,352,34801,1,2,0:0:0:0:
148,160,34938,5,6,0:0:0:0:
216,348,35074,1,0,0:0:0:0:
245,352,35142,1,0,0:0:0:0:
275,354,35210,1,0,0:0:0:0:
305,353,35278,1,0,0:0:0:0:
335,349,35346,1,0,0:0:0:0:
364,343,35414,1,0,0:0:0:0:
392,333,35483,2,0,L|440:304,1,50
464,224,35620,1,12,0:0:0:0:
384,48,35892,1,8,0:0:0:0:
384,48,35960,1,8,0:0:0:0:
384,48,36029,5,12,0:0:0:0:
338,27,36097,1,0,0:0:0:0:
289,25,36165,1,0,0:0:0:0:
242,42,36233,1,0,0:0:0:0:
205,75,36301,5,10,0:0:0:0:
196,137,36369,1,2,0:0:0:0:
188,198,36437,1,2,0:0:0:0:
180,260,36505,1,2,0:0:0:0:
171,322,36574,2,0,L|167:371,3,50,8|0|0|0,0:0|0:0|0:0|0:0,0:0:0:0:
72,220,36847,2,0,L|75:170,3,50,8|0|0|0,0:0|0:0|0:0|0:0,0:0:0:0:
28,308,37120,5,12,0:0:0:0:
73,328,37188,1,0,0:0:0:0:
122,333,37256,1,0,0:0:0:0:
171,322,37324,1,0,0:0:0:0:
213,295,37392,5,10,0:0:0:0:
257,251,37460,1,2,0:0:0:0:
315,228,37528,1,2,0:0:0:0:
377,229,37596,1,2,0:0:0:0:
434,252,37665,2,0,P|456:272|472:300,3,50,8|0|0|0,0:0|0:0|0:0|0:0,0:0:0:0:
404,368,37938,2,0,P|382:348|366:320,3,50,8|0|0|0,0:0|0:0|0:0|0:0,0:0:0:0:
315,228,38210,5,12,0:0:0:0:
292,184,38279,1,0,0:0:0:0:
269,139,38346,1,0,0:0:0:0:
246,95,38414,1,0,0:0:0:0:
223,51,38483,5,10,0:0:0:0:
168,24,38551,1,2,0:0:0:0:
110,40,38619,1,2,0:0:0:0:
77,92,38687,1,2,0:0:0:0:
87,152,38756,2,0,L|104:212,3,50,8|0|0|0,0:0|0:0|0:0|0:0,0:0:0:0:
36,308,39029,2,0,L|19:248,3,50,8|0|0|0,0:0|0:0|0:0|0:0,0:0:0:0:
171,320,39301,5,12,0:0:0:0:
218,305,39370,1,0,0:0:0:0:
258,275,39437,1,0,0:0:0:0:
283,232,39505,1,0,0:0:0:0:
292,184,39574,5,10,0:0:0:0:
295,123,39642,1,2,0:0:0:0:
344,88,39710,1,2,0:0:0:0:
402,103,39778,1,2,0:0:0:0:
427,158,39847,2,0,L|448:232,1,50,8|0,0:0|0:0,0:0:0:0:
404,320,39983,1,2,0:0:0:0:
404,320,40051,1,0,0:0:0:0:
404,320,40120,2,0,L|384:252,1,50,8|0,0:0|0:0,0:0:0:0:
228,28,40256,2,0,L|200:104,1,50,2|0,0:0|0:0,0:0:0:0:
80,312,40392,6,0,B|144:296|144:296|288:348,1,200,14|0,0:0|0:0,0:0:0:0:
404,320,40938,1,0,0:0:0:0:
356,88,41210,1,2,0:0:0:0:
436,196,41347,1,2,0:0:0:0:
356,88,41483,6,0,B|292:104|292:104|148:52,1,200,6|0,0:0|0:0,0:0:0:0:
436,196,42029,1,0,0:0:0:0:
68,196,42301,1,0,0:0:0:0:
196,144,42438,1,0,0:0:0:0:
196,144,42506,1,0,0:0:0:0:
196,144,42574,6,0,P|208:208|192:248,1,100,12|0,0:0|0:0,0:0:0:0:
64,344,42847,1,0,0:0:0:0:
68,196,42983,1,0,0:0:0:0:
216,52,43120,1,0,0:0:0:0:
216,52,43188,1,0,0:0:0:0:
216,52,43256,2,0,P|269:88|286:128,1,100,12|0,0:0|0:0,0:0:0:0:
360,100,43529,1,0,0:0:0:0:
352,240,43665,5,14,0:0:0:0:
352,240,43733,1,0,0:0:0:0:
352,240,43801,2,0,P|388:256|436:240,1,50
504,144,43938,5,14,0:0:0:0:
504,144,44006,1,0,0:0:0:0:
504,144,44074,2,0,P|468:128|420:144,1,50
220,234,44210,5,14,0:0:0:0:
197,245,44279,1,0,0:0:0:0:
175,259,44347,2,0,L|123:287,1,50
144,144,44483,5,14,0:0:0:0:
166,133,44551,1,0,0:0:0:0:
188,121,44620,2,0,L|240:93,1,50
328,52,44756,6,0,B|384:80|432:64|432:64|443:90|472:108|472:108|452:148|452:148|428:168|428:168|397:194|397:194|392:232|416:316|416:316|440:352|512:360|532:264|480:220|416:264|416:264|368:324|368:324|330:320|330:320|308:332,1,750,4|0,0:0|0:0,0:0:0:0:
255,314,45847,5,4,0:0:0:0:
230,316,45915,1,0,0:0:0:0:
205,313,45983,1,8,0:0:0:0:
181,305,46051,1,8,0:0:0:0:
160,292,46119,1,8,0:0:0:0:
142,275,46187,1,0,0:0:0:0:
128,254,46256,1,0,0:0:0:0:
119,231,46324,1,0,0:0:0:0:
116,206,46392,5,4,0:0:0:0:
79,205,46460,1,0,0:0:0:0:
45,222,46528,1,8,0:0:0:0:
24,252,46596,1,8,0:0:0:0:
18,288,46664,1,0,0:0:0:0:
31,323,46732,1,0,0:0:0:0:
58,348,46801,1,0,0:0:0:0:
94,358,46869,1,0,0:0:0:0:
130,350,46938,6,0,L|190:337,1,50
307,245,47074,2,0,L|247:258,1,50,8|0,0:0|0:0,0:0:0:0:
104,236,47210,2,0,L|163:222,1,50
280,130,47347,2,0,L|220:143,1,50
60,81,47483,1,0,0:0:0:0:
60,81,47551,1,0,0:0:0:0:
60,81,47620,2,0,L|76:141,1,50
152,136,47756,1,0,0:0:0:0:
152,136,47824,1,0,0:0:0:0:
152,136,47893,2,0,L|136:76,1,50
208,52,48029,5,4,0:0:0:0:
242,37,48097,1,0,0:0:0:0:
279,34,48165,1,0,0:0:0:0:
315,44,48233,1,0,0:0:0:0:
345,66,48301,1,0,0:0:0:0:
367,97,48369,1,0,0:0:0:0:
376,133,48438,1,0,0:0:0:0:
374,170,48506,1,0,0:0:0:0:
358,204,48574,1,0,0:0:0:0:
333,231,48642,1,0,0:0:0:0:
304,255,48710,1,8,0:0:0:0:
295,290,48778,1,0,0:0:0:0:
309,325,48847,5,10,0:0:0:0:
370,328,48915,1,2,0:0:0:0:
425,300,48983,1,2,0:0:0:0:
459,248,49051,1,2,0:0:0:0:
461,187,49120,1,14,0:0:0:0:
256,192,49188,12,0,51233,0:0:0:0:
128,316,53210,5,8,0:0:0:0:
308,52,53483,1,6,0:0:0:0:
64,156,55392,5,8,0:0:0:0:
476,64,55665,5,10,0:0:0:0:
392,20,55801,1,2,0:0:0:0:
464,164,55938,2,0,P|389:192|296:192,1,150.000005722046,2|0,0:0|0:0,0:0:0:0:
172,176,56347,2,0,L|248:280,1,112.500004291535,2|0,0:0|0:0,0:0:0:0:
248,284,56620,1,0,0:0:0:0:
280,112,56756,5,8,0:0:0:0:
243,78,56824,1,8,0:0:0:0:
197,60,56892,1,2,0:0:0:0:
147,60,56960,1,2,0:0:0:0:
101,79,57028,1,2,0:0:0:0:
65,113,57096,1,2,0:0:0:0:
44,159,57165,1,2,0:0:0:0:
41,208,57233,1,2,0:0:0:0:
57,255,57301,1,2,0:0:0:0:
64,266,57369,1,0,0:0:0:0:
71,276,57437,1,0,0:0:0:0:
78,286,57505,1,0,0:0:0:0:
86,296,57574,2,0,L|122:348,1,50
250,199,57710,2,0,L|214:147,1,50
310,283,57847,6,0,P|366:291|430:275,1,110.000003356934,4|8,0:0|0:0,0:0:0:0:
250,199,58120,1,2,0:0:0:0:
222,339,58256,2,0,P|166:347|102:331,1,110.000003356934,8|0,0:0|0:0,0:0:0:0:
140,94,58529,1,10,0:0:0:0:
170,251,58665,1,0,0:0:0:0:
246,95,58801,1,8,0:0:0:0:
56,40,58938,6,0,B|40:104|40:104|56:148,1,110.000003356934,6|8,0:0|0:0,0:0:0:0:
170,251,59210,1,0,0:0:0:0:
246,95,59347,2,0,B|182:79|182:79|138:95,1,110.000003356934,14|0,0:0|0:0,0:0:0:0:
170,251,59620,1,8,0:0:0:0:
184,48,59756,1,2,0:0:0:0:
170,251,59892,1,8,0:0:0:0:
336,40,60029,6,0,P|392:32|456:48,1,110.000003356934,4|8,0:0|0:0,0:0:0:0:
384,120,60301,1,2,0:0:0:0:
352,316,60438,1,8,0:0:0:0:
336,196,60574,1,2,0:0:0:0:
433,369,60711,1,8,0:0:0:0:
424,216,60847,1,2,0:0:0:0:
251,313,60984,1,8,0:0:0:0:
384,120,61120,6,0,B|304:84|304:84|248:112|192:92|144:76,1,220.000006713867,6|0,0:0|0:0,0:0:0:0:
472,8,61529,2,0,P|420:196|424:220,1,220.000006713867,10|8,0:0|0:0,0:0:0:0:
452,328,61938,2,0,L|336:344,1,110.000003356934,2|8,0:0|0:0,0:0:0:0:
248,328,62210,6,0,L|224:272,1,55.0000016784668,6|0,0:0|0:0,0:0:0:0:
188,128,62347,2,0,L|172:192,1,55.0000016784668,2|0,0:0|0:0,0:0:0:0:
76,352,62483,2,0,L|72:224,1,110.000003356934,10|0,0:0|0:0,0:0:0:0:
68,56,62756,1,2,0:0:0:0:
68,56,62824,1,0,0:0:0:0:
68,56,62892,1,8,0:0:0:0:
228,208,63029,2,0,L|284:184,1,55.0000016784668,2|0,0:0|0:0,0:0:0:0:
428,148,63165,2,0,L|364:132,1,55.0000016784668,2|0,0:0|0:0,0:0:0:0:
204,36,63301,6,0,L|332:16,1,110.000003356934,14|0,0:0|0:0,0:0:0:0:
128,136,63574,1,2,0:0:0:0:
428,148,63710,2,0,L|300:112,1,110.000003356934,10|0,0:0|0:0,0:0:0:0:
121,234,63983,1,2,0:0:0:0:
121,234,64051,1,0,0:0:0:0:
121,234,64120,2,0,B|180:248|180:248|242:238,1,110.000003356934,10|0,0:0|0:0,0:0:0:0:
272,120,64392,5,6,0:0:0:0:
336,308,64529,1,2,0:0:0:0:
358,342,64597,1,2,0:0:0:0:
394,361,64665,1,2,0:0:0:0:
435,360,64733,1,2,0:0:0:0:
470,339,64801,1,2,0:0:0:0:
491,304,64869,1,2,0:0:0:0:
493,263,64938,1,2,0:0:0:0:
474,227,65006,1,0,0:0:0:0:
440,204,65074,1,0,0:0:0:0:
404,186,65142,1,0,0:0:0:0:
380,153,65210,1,0,0:0:0:0:
373,112,65278,1,0,0:0:0:0:
385,73,65346,1,0,0:0:0:0:
413,44,65415,1,0,0:0:0:0:
451,30,65483,5,14,0:0:0:0:
352,256,65620,1,2,0:0:0:0:
276,28,65756,1,10,0:0:0:0:
488,120,65892,1,2,0:0:0:0:
264,216,66029,2,0,L|240:276,1,55.0000016784668,2|0,0:0|0:0,0:0:0:0:
264,80,66165,2,0,L|240:20,1,55.0000016784668,2|0,0:0|0:0,0:0:0:0:
182,140,66301,2,0,L|48:140,1,112.500004291535,2|0,0:0|0:0,0:0:0:0:
40,140,66574,6,0,B|32:200|32:200|56:268,1,110.000003356934,6|8,0:0|0:0,0:0:0:0:
224,304,66847,2,0,P|169:312|116:301,1,110.000003356934,2|8,0:0|0:0,0:0:0:0:
256,224,67120,1,2,0:0:0:0:
360,344,67256,2,0,P|414:352|467:341,1,110.000003356934,10|0,0:0|0:0,0:0:0:0:
256,224,67529,1,8,0:0:0:0:
472,140,67665,6,0,B|480:200|480:200|456:268,1,110.000003356934,6|8,0:0|0:0,0:0:0:0:
256,224,67938,1,0,0:0:0:0:
364,40,68074,2,0,B|423:32|423:32|491:55,1,110.000003356934,10|0,0:0|0:0,0:0:0:0:
368,236,68347,1,8,0:0:0:0:
428,12,68483,1,2,0:0:0:0:
368,236,68620,1,8,0:0:0:0:
232,88,68756,6,0,P|164:60|16:108,1,220.000006713867,6|0,0:0|0:0,0:0:0:0:
308,152,69165,1,8,0:0:0:0:
368,64,69301,2,0,P|423:56|476:67,1,110.000003356934,2|8,0:0|0:0,0:0:0:0:
191,289,69574,1,0,0:0:0:0:
192,194,69710,1,10,0:0:0:0:
287,249,69847,5,4,0:0:0:0:
68,192,69983,1,8,0:0:0:0:
288,344,70120,2,0,L|420:352,1,110.000003356934,2|8,0:0|0:0,0:0:0:0:
192,194,70392,5,4,0:0:0:0:
411,137,70528,1,8,0:0:0:0:
191,289,70665,2,0,L|59:297,1,110.000003356934,2|8,0:0|0:0,0:0:0:0:
272,104,70938,6,0,L|264:48,2,55.0000016784668,6|0|8,0:0|0:0|0:0,0:0:0:0:
292,240,71210,1,2,0:0:0:0:
411,137,71347,2,0,B|427:193|427:193|407:265,1,110.000003356934,8|0,0:0|0:0,0:0:0:0:
244,344,71620,1,10,0:0:0:0:
101,247,71756,2,0,B|85:191|85:191|105:119,1,110.000003356934,0|8,0:0|0:0,0:0:0:0:
244,344,72029,5,6,0:0:0:0:
360,156,72165,1,8,0:0:0:0:
244,344,72301,1,0,0:0:0:0:
152,156,72438,2,0,L|96:48,1,110.000003356934,10|0,0:0|0:0,0:0:0:0:
192,32,72710,1,8,0:0:0:0:
180,244,72847,2,0,P|112:260|60:240,1,110.000003356934,2|8,0:0|0:0,0:0:0:0:
328,316,73120,6,0,B|340:239|340:239|373:183|373:183|384:106,1,220.000006713867,4|0,0:0|0:0,0:0:0:0:
456,44,73529,1,8,0:0:0:0:
456,284,73665,2,0,B|404:324|304:316|304:316|248:360,1,220.000006713867,4|0,0:0|0:0,0:0:0:0:
152,312,74074,1,8,0:0:0:0:
124,168,74210,2,0,L|108:96,3,55.0000016784668,4|0|0|0,0:0|0:0|0:0|0:0,0:0:0:0:
200,224,74483,2,0,L|216:152,3,55.0000016784668
264,292,74756,1,0,0:0:0:0:
268,279,74824,1,0,0:0:0:0:
273,266,74892,1,2,0:0:0:0:
277,253,74960,1,2,0:0:0:0:
280,240,75029,1,2,0:0:0:0:
307,194,75097,1,2,0:0:0:0:
359,180,75165,1,2,0:0:0:0:
406,206,75233,1,2,0:0:0:0:
422,257,75301,6,0,P|420:320|384:368,1,110.000003356934,14|0,0:0|0:0,0:0:0:0:
156,216,75574,2,0,L|136:160,1,55.0000016784668,8|0,0:0|0:0,0:0:0:0:
92,284,75710,2,0,L|72:340,1,55.0000016784668,8|0,0:0|0:0,0:0:0:0:
68,100,75847,2,0,P|48:144|48:176,1,55.0000016784668,8|0,0:0|0:0,0:0:0:0:
176,352,75983,2,0,P|196:308|196:276,1,55.0000016784668,8|0,0:0|0:0,0:0:0:0:
136,24,76120,2,0,L|144:88,1,55.0000016784668,8|0,0:0|0:0,0:0:0:0:
73,335,76256,2,0,L|65:263,1,55.0000016784668,8|0,0:0|0:0,0:0:0:0:
224,84,76392,5,12,0:0:0:0:
258,61,76460,1,0,0:0:0:0:
297,49,76528,1,8,0:0:0:0:
338,46,76596,1,0,0:0:0:0:
378,55,76665,2,0,L|420:100,1,55.0000016784668,8|0,0:0|0:0,0:0:0:0:
384,240,76801,2,0,L|426:195,1,55.0000016784668,8|0,0:0|0:0,0:0:0:0:
488,40,76938,2,0,L|492:112,1,55.0000016784668,8|0,0:0|0:0,0:0:0:0:
500,272,77074,2,0,L|496:200,1,55.0000016784668,8|0,0:0|0:0,0:0:0:0:
340,152,77210,2,0,P|304:144|276:152,1,55.0000016784668,8|0,0:0|0:0,0:0:0:0:
372,332,77347,2,0,P|408:340|436:332,1,55.0000016784668,8|0,0:0|0:0,0:0:0:0:
232,248,77483,6,0,L|168:260,1,55.0000016784668,12|0,0:0|0:0,0:0:0:0:
72,108,77620,1,8,0:0:0:0:
72,108,77688,1,0,0:0:0:0:
72,108,77756,2,0,L|136:120,1,55.0000016784668
80,308,77892,2,0,L|60:244,1,55.0000016784668,8|0,0:0|0:0,0:0:0:0:
208,104,78029,2,0,L|228:168,1,55.0000016784668,8|0,0:0|0:0,0:0:0:0:
312,328,78165,1,8,0:0:0:0:
366,322,78233,1,0,0:0:0:0:
412,293,78301,1,8,0:0:0:0:
441,247,78369,1,0,0:0:0:0:
447,192,78438,1,8,0:0:0:0:
428,141,78506,1,0,0:0:0:0:
390,103,78574,6,0,L|344:64,1,55.0000016784668,12|0,0:0|0:0,0:0:0:0:
208,104,78710,1,8,0:0:0:0:
208,104,78779,1,0,0:0:0:0:
208,104,78847,2,0,L|254:143,1,55.0000016784668
412,293,78983,2,0,L|392:220,1,55.0000016784668,8|0,0:0|0:0,0:0:0:0:
260,4,79120,2,0,L|274:56,1,55.0000016784668,8|0,0:0|0:0,0:0:0:0:
308,196,79256,1,8,0:0:0:0:
301,250,79324,1,0,0:0:0:0:
273,297,79392,1,8,0:0:0:0:
230,329,79460,1,0,0:0:0:0:
176,342,79528,1,8,0:0:0:0:
123,332,79596,1,0,0:0:0:0:
77,302,79665,5,12,0:0:0:0:
94,250,79733,1,0,0:0:0:0:
131,210,79801,1,8,0:0:0:0:
181,189,79869,1,0,0:0:0:0:
236,192,79937,1,8,0:0:0:0:
284,217,80005,1,0,0:0:0:0:
318,260,80074,1,8,0:0:0:0:
357,297,80142,1,0,0:0:0:0:
410,308,80210,1,8,0:0:0:0:
460,287,80278,1,0,0:0:0:0:
491,243,80346,1,8,0:0:0:0:
493,188,80414,1,0,0:0:0:0:
465,142,80483,1,8,0:0:0:0:
416,119,80551,1,0,0:0:0:0:
362,126,80620,1,8,0:0:0:0:
307,126,80688,1,0,0:0:0:0:
253,115,80756,5,12,0:0:0:0:
220,72,80824,1,0,0:0:0:0:
171,48,80892,1,8,0:0:0:0:
116,46,80960,1,0,0:0:0:0:
66,68,81028,1,8,0:0:0:0:
31,109,81096,1,0,0:0:0:0:
16,161,81165,1,8,0:0:0:0:
24,215,81233,1,0,0:0:0:0:
55,260,81301,1,8,0:0:0:0:
93,300,81369,1,0,0:0:0:0:
139,330,81437,1,8,0:0:0:0:
191,348,81506,1,0,0:0:0:0:
245,354,81573,1,8,0:0:0:0:
300,346,81641,1,0,0:0:0:0:
350,325,81710,2,0,L|400:288,1,55.0000016784668,8|0,0:0|0:0,0:0:0:0:
488,148,81847,5,12,0:0:0:0:
437,130,81915,1,0,0:0:0:0:
382,133,81983,1,8,0:0:0:0:
333,157,82051,1,0,0:0:0:0:
291,193,82120,2,0,P|263:206|228:207,1,55.0000016784668,8|0,0:0|0:0,0:0:0:0:
16,56,82256,5,12,0:0:0:0:
67,38,82324,1,0,0:0:0:0:
122,41,82392,1,8,0:0:0:0:
171,65,82460,1,0,0:0:0:0:
213,101,82529,2,0,L|271:121,1,55.0000016784668,8|0,0:0|0:0,0:0:0:0:
100,164,82665,2,0,L|39:146,1,55.0000016784668,8|0,0:0|0:0,0:0:0:0:
368,48,82801,2,0,L|425:32,1,55.0000016784668,8|0,0:0|0:0,0:0:0:0:
200,204,82938,5,14,0:0:0:0:
228,261,83006,1,10,0:0:0:0:
278,302,83074,1,2,0:0:0:0:
340,320,83142,1,2,0:0:0:0:
405,313,83210,2,0,L|469:279,3,55.0000016784668,2|0|0|0,0:0|0:0|0:0|0:0,0:0:0:0:
278,302,83483,2,0,L|211:339,1,55.0000016784668,8|0,0:0|0:0,0:0:0:0:
372,160,83620,2,0,L|398:209,1,55.0000016784668,8|0,0:0|0:0,0:0:0:0:
200,204,83756,1,0,0:0:0:0:
173,196,83824,1,0,0:0:0:0:
146,198,83892,1,0,0:0:0:0:
120,208,83960,1,0,0:0:0:0:
100,226,84029,5,12,0:0:0:0:
47,232,84097,1,0,0:0:0:0:
5,199,84165,1,8,0:0:0:0:
1,145,84233,1,0,0:0:0:0:
36,105,84301,1,8,0:0:0:0:
89,102,84370,1,0,0:0:0:0:
143,110,84438,1,8,0:0:0:0:
198,111,84506,1,0,0:0:0:0:
253,103,84574,1,8,0:0:0:0:
305,87,84642,1,0,0:0:0:0:
355,64,84710,1,8,0:0:0:0:
406,47,84778,1,0,0:0:0:0:
457,66,84847,1,8,0:0:0:0:
485,112,84915,1,0,0:0:0:0:
478,165,84983,1,8,0:0:0:0:
438,202,85050,1,0,0:0:0:0:
385,206,85120,6,0,P|320:208|308:216,3,55.0000016784668,12|0|8|0,0:0|0:0|0:0|0:0,0:0:0:0:
328,288,85392,2,0,P|262:286|250:278,3,55.0000016784668,8|0|8|0,0:0|0:0|0:0|0:0,0:0:0:0:
236,208,85665,2,0,P|170:209|158:217,3,55.0000016784668,8|0|8|0,0:0|0:0|0:0|0:0,0:0:0:0:
178,289,85938,2,0,P|112:287|100:279,3,55.0000016784668,8|0|8|0,0:0|0:0|0:0|0:0,0:0:0:0:
68,96,86210,6,0,P|69:161|77:173,1,55.0000016784668,12|0,0:0|0:0,0:0:0:0:
28,328,86347,1,8,0:0:0:0:
28,328,86415,1,0,0:0:0:0:
28,328,86483,2,0,P|26:262|18:250,1,55.0000016784668
184,88,86620,1,8,0:0:0:0:
233,64,86688,1,0,0:0:0:0:
287,57,86756,1,8,0:0:0:0:
341,67,86824,1,0,0:0:0:0:
389,92,86892,1,8,0:0:0:0:
427,132,86960,1,0,0:0:0:0:
451,181,87029,1,8,0:0:0:0:
459,235,87097,1,0,0:0:0:0:
450,289,87165,2,0,L|440:352,1,55.0000016784668,8|0,0:0|0:0,0:0:0:0:
140,276,87301,6,0,P|205:277|217:285,1,55.0000016784668,12|0,0:0|0:0,0:0:0:0:
372,236,87438,1,8,0:0:0:0:
372,236,87506,1,0,0:0:0:0:
372,236,87574,2,0,P|306:234|294:226,1,55.0000016784668
48,148,87710,1,8,0:0:0:0:
84,107,87778,1,0,0:0:0:0:
134,85,87846,1,8,0:0:0:0:
189,85,87914,1,0,0:0:0:0:
238,108,87983,1,8,0:0:0:0:
283,139,88051,1,0,0:0:0:0:
337,152,88119,1,8,0:0:0:0:
391,145,88187,1,0,0:0:0:0:
439,119,88255,1,8,0:0:0:0:
475,78,88323,1,0,0:0:0:0:
495,27,88392,5,12,0:0:0:0:
427,25,88460,1,0,0:0:0:0:
365,54,88529,1,8,0:0:0:0:
324,108,88596,1,0,0:0:0:0:
311,175,88664,1,8,0:0:0:0:
331,240,88732,1,0,0:0:0:0:
378,289,88801,2,0,L|432:336,1,55.0000016784668,8|0,0:0|0:0,0:0:0:0:
240,296,88938,2,0,L|186:343,1,55.0000016784668,8|0,0:0|0:0,0:0:0:0:
420,208,89074,2,0,L|492:208,1,55.0000016784668,8|0,0:0|0:0,0:0:0:0:
232,176,89210,1,8,0:0:0:0:
197,117,89278,1,0,0:0:0:0:
136,87,89346,1,8,0:0:0:0:
69,95,89414,1,0,0:0:0:0:
17,139,89483,5,12,0:0:0:0:
11,207,89551,1,0,0:0:0:0:
34,271,89619,1,8,0:0:0:0:
81,321,89687,1,0,0:0:0:0:
144,348,89755,1,8,0:0:0:0:
212,347,89823,1,0,0:0:0:0:
274,319,89892,1,8,0:0:0:0:
320,268,89960,1,0,0:0:0:0:
341,203,90029,2,0,L|348:140,3,55.0000016784668,8|0|8|0,0:0|0:0|0:0|0:0,0:0:0:0:
208,204,90301,2,0,L|201:141,3,55.0000016784668,8|0|8|0,0:0|0:0|0:0|0:0,0:0:0:0:
276,104,90574,5,14,0:0:0:0:
230,37,90642,1,2,0:0:0:0:
153,11,90710,1,10,0:0:0:0:
75,34,90778,1,2,0:0:0:0:
26,99,90847,2,0,L|-4:156,1,55.0000016784668,10|0,0:0|0:0,0:0:0:0:
52,244,90983,1,14,0:0:0:0:
133,257,91051,1,2,0:0:0:0:
214,271,91119,1,10,0:0:0:0:
295,285,91187,1,2,0:0:0:0:
377,299,91256,2,0,L|456:308,1,55.0000016784668,10|0,0:0|0:0,0:0:0:0:
376,144,91392,2,0,L|297:135,1,55.0000016784668,8|0,0:0|0:0,0:0:0:0:
61,384,91529,1,0,0:0:0:0:
61,384,91597,1,0,0:0:0:0:
61,384,91665,6,0,P|117:348|130:248,1,165.000005035401,14|0,0:0|0:0,0:0:0:0:
52,244,91938,2,0,P|59:164|123:116,1,165.000005035401,14|0,0:0|0:0,0:0:0:0:
204,120,92210,2,0,B|272:208|272:208|216:196,1,165.000005035401,14|0,0:0|0:0,0:0:0:0:
260,356,92483,2,0,B|192:268|192:268|248:280,1,165.000005035401,14|0,0:0|0:0,0:0:0:0:
332,288,92756,6,0,B|396:304|396:304|484:280,1,110.000003356934,4|8,0:0|0:0,0:0:0:0:
300,208,93029,1,2,0:0:0:0:
260,356,93165,2,0,B|196:372|196:372|108:348,1,110.000003356934,8|0,0:0|0:0,0:0:0:0:
134,116,93438,1,10,0:0:0:0:
134,225,93574,1,0,0:0:0:0:
39,171,93710,1,8,0:0:0:0:
280,84,93847,6,0,P|349:67|402:97,1,110.000003356934,6|8,0:0|0:0,0:0:0:0:
300,208,94120,1,0,0:0:0:0:
186,52,94256,2,0,P|117:35|64:65,1,110.000003356934,14|0,0:0|0:0,0:0:0:0:
39,171,94529,1,8,0:0:0:0:
113,283,94665,2,0,B|136:316|136:316|240:320,1,110.000003356934,2|8,0:0|0:0,0:0:0:0:
409,206,94938,6,0,L|300:208,1,110.000003356934,4|8,0:0|0:0,0:0:0:0:
232,92,95210,5,2,0:0:0:0:
332,304,95347,1,8,0:0:0:0:
320,48,95483,5,2,0:0:0:0:
220,240,95620,1,8,0:0:0:0:
240,8,95756,5,2,0:0:0:0:
452,128,95892,1,8,0:0:0:0:
148,40,96029,6,0,B|91:17|44:52|44:52|8:176,1,220.000006713867,6|0,0:0|0:0,0:0:0:0:
72,324,96438,1,8,0:0:0:0:
220,240,96574,2,0,B|296:212|384:264|384:264|444:220,1,220.000006713867,2|0,0:0|0:0,0:0:0:0:
364,148,96983,1,8,0:0:0:0:
280,340,97120,5,6,0:0:0:0:
228,92,97256,1,10,0:0:0:0:
280,340,97392,2,0,L|416:360,1,110.000003356934,2|8,0:0|0:0,0:0:0:0:
228,92,97665,1,2,0:0:0:0:
168,308,97801,2,0,L|32:328,1,110.000003356934,10|0,0:0|0:0,0:0:0:0:
228,92,98074,1,8,0:0:0:0:
404,256,98210,6,0,B|456:304|456:304|452:132,1,220.000006713867,6|0,0:0|0:0,0:0:0:0:
376,64,98620,2,0,B|324:16|324:16|328:188,1,220.000006713867,14|8,0:0|0:0,0:0:0:0:
264,260,99029,2,0,P|195:277|142:247,1,110.000003356934,2|8,0:0|0:0,0:0:0:0:
276,120,99301,6,0,P|390:91|478:141,1,220.000006713867,6|0,0:0|0:0,0:0:0:0:
216,180,99710,2,0,P|101:208|13:158,1,220.000006713867,14|8,0:0|0:0,0:0:0:0:
236,44,100120,2,0,P|305:27|358:57,1,110.000003356934,2|8,0:0|0:0,0:0:0:0:
456,176,100392,5,2,0:0:0:0:
312,316,100529,1,8,0:0:0:0:
448,72,100665,1,2,0:0:0:0:
468,288,100801,1,8,0:0:0:0:
292,156,100938,1,2,0:0:0:0:
292,156,101006,1,0,0:0:0:0:
292,156,101074,1,8,0:0:0:0:
368,224,101210,1,2,0:0:0:0:
140,184,101347,1,8,0:0:0:0:
432,24,101483,6,0,B|452:76|452:76|440:140,1,110.000003356934,6|8,0:0|0:0,0:0:0:0:
368,224,101756,2,0,P|437:241|490:211,1,110.000003356934,2|8,0:0|0:0,0:0:0:0:
320,66,102029,1,2,0:0:0:0:
222,236,102165,2,8,P|205:305|235:358,1,110.000003356934,10|0,0:0|0:0,0:0:0:0:
424,335,102438,1,10,0:0:0:0:
193,125,102574,6,0,L|66:144,1,110.000003356934,6|8,0:0|0:0,0:0:0:0:
227,28,102847,1,0,0:0:0:0:
128,41,102983,1,10,0:0:0:0:
320,66,103120,2,0,L|447:85,1,110.000003356934,2|8,0:0|0:0,0:0:0:0:
238,249,103392,1,0,0:0:0:0:
309,166,103529,1,10,0:0:0:0:
179,340,103665,6,0,B|243:351|243:351|305:336,1,110.000003356934,6|8,0:0|0:0,0:0:0:0:
309,166,103938,1,0,0:0:0:0:
390,273,104074,1,10,0:0:0:0:
427,66,104210,2,0,B|363:55|363:55|301:70,1,110.000003356934,2|8,0:0|0:0,0:0:0:0:
132,36,104483,1,0,0:0:0:0:
309,166,104620,1,10,0:0:0:0:
154,241,104756,6,0,L|40:253,1,110.000003356934,6|8,0:0|0:0,0:0:0:0:
139,327,105029,1,0,0:0:0:0:
225,147,105165,1,10,0:0:0:0:
300,349,105301,2,0,L|417:339,1,110.000003356934,2|8,0:0|0:0,0:0:0:0:
139,327,105574,1,0,0:0:0:0:
332,169,105710,1,10,0:0:0:0:
156,44,105847,5,4,0:0:0:0:
101,42,105915,1,0,0:0:0:0:
53,67,105983,1,8,0:0:0:0:
25,114,106051,1,0,0:0:0:0:
24,168,106120,2,0,P|35:194|32:237,3,55.0000016784668,0|0|8|0,0:0|0:0|0:0|0:0,0:0:0:0:
21,300,106392,2,0,P|10:325|13:368,3,55.0000016784668,0|0|8|0,0:0|0:0|0:0|0:0,0:0:0:0:
128,264,106665,1,0,0:0:0:0:
182,259,106733,1,0,0:0:0:0:
237,254,106801,1,8,0:0:0:0:
292,250,106870,1,0,0:0:0:0:
347,245,106938,5,0,0:0:0:0:
401,238,107006,1,0,0:0:0:0:
443,204,107074,1,8,0:0:0:0:
464,154,107142,1,0,0:0:0:0:
456,100,107210,1,0,0:0:0:0:
422,58,107278,1,0,0:0:0:0:
371,38,107347,1,8,0:0:0:0:
317,47,107415,1,0,0:0:0:0:
275,82,107483,2,0,P|244:92|205:90,3,55.0000016784668,0|0|8|0,0:0|0:0|0:0|0:0,0:0:0:0:
139,38,107756,2,0,P|107:28|68:30,3,55.0000016784668,0|0|8|0,0:0|0:0|0:0|0:0,0:0:0:0:
54,103,108029,5,2,0:0:0:0:
57,130,108097,1,2,0:0:0:0:
61,157,108165,1,2,0:0:0:0:
65,184,108233,1,2,0:0:0:0:
68,211,108301,2,0,L|90:339,1,110.000003356934,2|0,0:0|0:0,0:0:0:0:
177,345,108506,1,2,0:0:0:0:
177,345,108574,1,2,0:0:0:0:
221,64,108710,2,0,P|282:43|442:183,1,275.000008392334,10|0,0:0|0:0,0:0:0:0:
429,236,109120,6,0,B|416:285|416:285|422:334|422:334|406:386,2,150,6|0|0,0:0|0:0|0:0,0:0:0:0:
387,38,110210,5,12,0:0:0:0:
335,18,110278,1,0,0:0:0:0:
281,15,110346,1,8,0:0:0:0:
228,29,110415,1,0,0:0:0:0:
182,59,110483,5,10,0:0:0:0:
179,125,110551,1,2,0:0:0:0:
176,191,110620,1,10,0:0:0:0:
172,257,110687,1,2,0:0:0:0:
169,323,110756,2,0,L|170:378,3,55.0000016784668,10|0|8|0,0:0|0:0|0:0|0:0,0:0:0:0:
273,289,111029,2,0,L|323:244,1,55.0000016784668,8|0,0:0|0:0,0:0:0:0:
80,224,111165,2,0,L|30:179,1,55.0000016784668,8|0,0:0|0:0,0:0:0:0:
125,41,111301,5,6,0:0:0:0:
125,41,111370,1,0,0:0:0:0:
125,41,111438,2,0,L|135:108,1,55.0000016784668,8|0,0:0|0:0,0:0:0:0:
244,183,111574,2,0,L|234:116,1,55.0000016784668,10|0,0:0|0:0,0:0:0:0:
249,3,111710,2,0,L|208:57,1,55.0000016784668,8|0,0:0|0:0,0:0:0:0:
124,223,111847,1,10,0:0:0:0:
124,223,111915,1,0,0:0:0:0:
124,223,111983,2,0,L|164:168,1,55.0000016784668,8|0,0:0|0:0,0:0:0:0:
362,80,112120,1,10,0:0:0:0:
362,80,112188,1,0,0:0:0:0:
362,80,112256,2,0,L|294:75,1,55.0000016784668,8|0,0:0|0:0,0:0:0:0:
443,22,112392,5,12,0:0:0:0:
462,73,112460,1,0,0:0:0:0:
466,127,112528,1,8,0:0:0:0:
455,181,112596,1,0,0:0:0:0:
428,229,112664,1,8,0:0:0:0:
390,268,112733,1,0,0:0:0:0:
341,294,112801,2,0,L|289:322,1,55.0000016784668,8|0,0:0|0:0,0:0:0:0:
236,43,112938,2,0,L|252:110,1,55.0000016784668,8|0,0:0|0:0,0:0:0:0:
165,303,113074,2,0,L|178:227,1,55.0000016784668,8|0,0:0|0:0,0:0:0:0:
323,174,113210,2,0,L|226:201,1,55.0000016784668,8|0,0:0|0:0,0:0:0:0:
71,104,113347,2,0,L|168:131,1,55.0000016784668,8|0,0:0|0:0,0:0:0:0:
288,43,113483,5,12,0:0:0:0:
314,37,113551,1,0,0:0:0:0:
342,38,113620,1,8,0:0:0:0:
368,45,113687,1,0,0:0:0:0:
392,59,113755,1,8,0:0:0:0:
412,77,113823,1,0,0:0:0:0:
427,100,113892,1,8,0:0:0:0:
437,126,113960,1,0,0:0:0:0:
440,153,114029,5,10,0:0:0:0:
439,208,114097,1,2,0:0:0:0:
418,258,114165,1,10,0:0:0:0:
380,298,114233,1,2,0:0:0:0:
330,320,114301,1,10,0:0:0:0:
275,322,114369,1,2,0:0:0:0:
224,305,114438,1,10,0:0:0:0:
182,269,114506,1,0,0:0:0:0:
157,221,114574,6,0,L|133:164,1,55.0000016784668,14|0,0:0|0:0,0:0:0:0:
233,23,114710,2,0,L|257:80,1,55.0000016784668,0|0,0:0|0:0,0:0:0:0:
322,226,114847,1,8,0:0:0:0:
309,279,114915,1,8,0:0:0:0:
275,322,114983,1,8,0:0:0:0:
227,347,115051,1,8,0:0:0:0:
173,351,115119,1,8,0:0:0:0:
111,87,115256,1,8,0:0:0:0:
57,261,115392,1,0,0:0:0:0:
33,34,115529,1,0,0:0:0:0:
208,245,115665,5,12,0:0:0:0:
254,273,115733,1,8,0:0:0:0:
309,279,115801,1,8,0:0:0:0:
360,263,115869,1,0,0:0:0:0:
401,228,115938,5,2,0:0:0:0:
406,206,116006,1,2,0:0:0:0:
419,189,116074,1,2,0:0:0:0:
438,177,116142,1,2,0:0:0:0:
459,173,116210,2,0,B|478:113|478:113|465:8,1,165.000005035401,2|0,0:0|0:0,0:0:0:0:
381,5,116483,2,0,L|393:117,1,110.000003356934,0|8,0:0|0:0,0:0:0:0:
237,326,116756,6,0,L|215:151,1,165.000005035401,4|0,0:0|0:0,0:0:0:0:
296,205,117029,2,0,L|317:340,1,110.000003356934,8|0,0:0|0:0,0:0:0:0:
383,259,117301,1,0,0:0:0:0:
152,263,117438,1,0,0:0:0:0:
383,259,117574,1,8,0:0:0:0:
49,329,117710,1,0,0:0:0:0:
90,128,117847,5,4,0:0:0:0:
109,108,117915,1,0,0:0:0:0:
131,92,117983,1,0,0:0:0:0:
155,78,118051,1,0,0:0:0:0:
180,67,118119,1,0,0:0:0:0:
206,59,118187,1,0,0:0:0:0:
234,55,118256,1,0,0:0:0:0:
261,54,118324,1,0,0:0:0:0:
288,56,118392,1,0,0:0:0:0:
476,258,118529,1,0,0:0:0:0:
467,231,118597,1,0,0:0:0:0:
458,205,118665,2,0,L|419:95,1,110.000003356934,8|0,0:0|0:0,0:0:0:0:
290,200,118938,5,4,0:0:0:0:
477,22,119074,1,0,0:0:0:0:
161,56,120847,6,0,L|171:256,1,165.000005035401
172,243,121120,5,4,0:0:0:0:
295,27,121256,1,4,0:0:0:0:
340,141,123301,5,4,0:0:0:0:
217,357,123437,1,4,0:0:0:0:
351,328,125210,6,0,L|341:128,1,165.000005035401,4|0,0:0|0:0,0:0:0:0:
340,141,125483,5,2,0:0:0:0:
217,357,125619,1,2,0:0:0:0:
217,357,125688,1,2,0:0:0:0:
217,357,125756,1,2,0:0:0:0:
427,261,125892,1,2,0:0:0:0:
220,212,126029,2,0,B|125:192|125:192|-5:219,1,220.000006713867,6|0,0:0|0:0,0:0:0:0:
106,290,126438,1,0,0:0:0:0:
262,119,126574,6,0,B|328:23|328:23|347:81,1,165.000005035401,14|0,0:0|0:0,0:0:0:0:
316,233,126847,2,0,B|366:338|366:338|306:326,1,165.000005035401,14|0,0:0|0:0,0:0:0:0:
189,223,127120,2,0,B|73:214|73:214|114:168,1,165.000005035401,14|0,0:0|0:0,0:0:0:0:
63,34,127665,6,0,L|71:188,1,110.000003356934,14|0,0:0|0:0,0:0:0:0:
189,214,127938,1,10,0:0:0:0:
168,49,128074,1,0,0:0:0:0:
100,267,128210,1,10,0:0:0:0:
243,106,128347,1,0,0:0:0:0:
251,299,128483,1,10,0:0:0:0:
338,120,128620,2,0,L|357:65,1,55.0000016784668
392,194,128756,6,0,L|416:313,1,110.000003356934,14|0,0:0|0:0,0:0:0:0:
147,254,129029,2,0,P|92:251|43:226,1,110.000003356934,10|0,0:0|0:0,0:0:0:0:
294,231,129301,2,0,P|319:281|322:335,1,110.000003356934,10|0,0:0|0:0,0:0:0:0:
201,115,129574,2,0,P|231:69|277:39,1,110.000003356934,10|0,0:0|0:0,0:0:0:0:
239,300,129847,6,0,L|134:355,1,110.000003356934,14|0,0:0|0:0,0:0:0:0:
202,205,130120,1,10,0:0:0:0:
382,304,130256,2,0,L|487:359,1,110.000003356934,2|8,0:0|0:0,0:0:0:0:
305,137,130529,2,0,L|410:192,1,110.000003356934,2|8,0:0|0:0,0:0:0:0:
253,69,130801,2,0,L|272:14,1,55.0000016784668,2|0,0:0|0:0,0:0:0:0:
207,137,130938,6,0,L|102:192,1,110.000003356934,14|0,0:0|0:0,0:0:0:0:
382,304,131210,2,0,P|410:244|396:180,1,110.000003356934,10|0,0:0|0:0,0:0:0:0:
253,69,131483,2,0,P|225:129|239:193,1,110.000003356934,10|0,0:0|0:0,0:0:0:0:
459,47,131756,1,10,0:0:0:0:
459,47,131892,1,0,0:0:0:0:
149,43,132029,6,0,B|83:60|50:105|50:105|101:151|103:196,1,220.000006713867,14|8,0:0|0:0,0:0:0:0:
295,194,132438,2,0,L|176:218,1,110.000003356934,2|0,0:0|0:0,0:0:0:0:
324,286,132710,2,0,L|443:310,1,110.000003356934,2|8,0:0|0:0,0:0:0:0:
454,129,132983,6,0,P|455:63|334:76,1,220.000006713867,6|0,0:0|0:0,0:0:0:0:
181,280,133392,2,0,P|244:273|322:149,1,220.000006713867,10|0,0:0|0:0,0:0:0:0:
247,86,133801,1,2,0:0:0:0:
325,328,133938,2,0,B|368:356|368:356|495:336,1,165.000005035401,10|0,0:0|0:0,0:0:0:0:
490,311,134210,5,6,0:0:0:0:
456,77,134347,1,2,0:0:0:0:
405,277,134483,1,10,0:0:0:0:
378,32,134620,2,0,L|254:53,1,110.000003356934,6|0,0:0|0:0,0:0:0:0:
104,74,134892,1,2,0:0:0:0:
357,142,135029,1,10,0:0:0:0:
54,203,135165,1,6,0:0:0:0:
245,259,136120,1,10,0:0:0:0:
285,89,136256,1,0,0:0:0:0:
135,288,136392,6,0,L|363:300,1,187.5,14|0,0:0|0:0,0:0:0:0:
401,309,136665,2,0,B|455:265|455:265|480:182,1,125,10|0,0:0|0:0,0:0:0:0:
440,32,136938,2,0,B|386:76|386:76|361:159,1,125,10|0,0:0|0:0,0:0:0:0:
304,348,137210,1,10,0:0:0:0:
285,89,137347,1,2,0:0:0:0:
181,275,137483,6,0,B|125:382|125:382|88:295,1,187.5,14|0,0:0|0:0,0:0:0:0:
73,237,137756,2,0,L|39:112,1,125,10|0,0:0|0:0,0:0:0:0:
285,89,138029,2,0,L|319:214,1,125,10|0,0:0|0:0,0:0:0:0:
304,348,138301,1,10,0:0:0:0:
469,260,138438,1,2,0:0:0:0:
197,92,138574,6,0,P|113:77|23:134,1,187.5,14|0,0:0|0:0,0:0:0:0:
53,205,138847,2,0,P|67:279|53:339,1,125,10|0,0:0|0:0,0:0:0:0:
294,325,139120,2,0,P|280:251|294:191,1,125,10|0,0:0|0:0,0:0:0:0:
346,56,139392,1,10,0:0:0:0:
477,254,139529,1,2,0:0:0:0:
198,303,139665,6,0,B|128:325|128:325|56:322|26:253,1,187.5,14|0,0:0|0:0,0:0:0:0:
47,122,139938,2,0,L|118:229,1,125,10|0,0:0|0:0,0:0:0:0:
480,259,140210,2,0,L|409:152,1,125,10|0,0:0|0:0,0:0:0:0:
203,35,140483,2,0,L|274:142,1,125,10|0,0:0|0:0,0:0:0:0:
480,259,140756,6,0,P|407:231|256:299,1,250,14|10,0:0|0:0,0:0:0:0:
391,354,141165,1,2,0:0:0:0:
142,37,141438,1,2,0:0:0:0:
75,209,141574,1,10,0:0:0:0:
300,86,141710,6,0,B|236:93|186:127|186:127|121:141|38:123,1,250,6|8,0:0|0:0,0:0:0:0:
403,30,142120,2,0,L|339:285,1,250,10|0,0:0|0:0,0:0:0:0:
445,339,142529,1,0,0:0:0:0:
218,206,142665,1,10,0:0:0:0:
445,339,142801,1,0,0:0:0:0:
103,79,142938,6,0,B|41:154|41:154|97:241|62:331,1,250,6|8,0:0|0:0,0:0:0:0:
409,79,143347,2,0,B|471:154|471:154|415:241|450:331,1,250,6|0,0:0|0:0,0:0:0:0:
281,348,143756,1,10,0:0:0:0:
244,72,143892,1,2,0:0:0:0:
218,206,144029,5,6,0:0:0:0:
209,216,144097,1,0,0:0:0:0:
200,224,144165,1,0,0:0:0:0:
189,230,144233,1,0,0:0:0:0:
177,235,144301,1,2,0:0:0:0:
165,238,144369,1,2,0:0:0:0:
153,240,144438,1,2,0:0:0:0:
140,239,144506,1,2,0:0:0:0:
128,237,144574,1,2,0:0:0:0:
116,232,144642,1,2,0:0:0:0:
105,227,144710,1,2,0:0:0:0:
95,219,144779,1,2,0:0:0:0:
87,210,144847,1,10,0:0:0:0:
79,200,144915,1,0,0:0:0:0:
73,189,144983,1,0,0:0:0:0:
69,177,145051,1,0,0:0:0:0:
67,165,145120,6,0,L|83:43,1,100,6|8,0:0|0:0,0:0:0:0:
201,161,145392,1,2,0:0:0:0:
141,336,145529,2,0,L|125:214,1,100,8|2,0:0|0:0,0:0:0:0:
341,119,145801,1,8,0:0:0:0:
274,52,145938,2,0,P|329:37|399:42,1,100,2|8,0:0|0:0,0:0:0:0:
408,193,146210,6,0,P|353:208|283:203,1,100,2|8,0:0|0:0,0:0:0:0:
201,161,146483,2,0,P|151:162|103:176,1,100,2|8,0:0|0:0,0:0:0:0:
246,262,146756,1,2,0:0:0:0:
274,134,146892,1,8,0:0:0:0:
346,266,147029,1,2,0:0:0:0:
176,335,147165,1,8,0:0:0:0:
477,144,147301,6,0,B|496:199|496:199|473:260,1,100,6|8,0:0|0:0,0:0:0:0:
417,329,147574,1,2,0:0:0:0:
274,134,147710,2,0,B|255:79|255:79|278:18,1,100,8|2,0:0|0:0,0:0:0:0:
395,34,147983,1,8,0:0:0:0:
274,134,148120,2,0,B|219:153|219:153|158:130,1,100,2|8,0:0|0:0,0:0:0:0:
51,314,148392,6,0,P|133:289|262:318,1,200,2|2,0:0|0:0,0:0:0:0:
274,134,148801,1,8,0:0:0:0:
336,349,148938,2,0,L|320:227,1,100,2|8,0:0|0:0,0:0:0:0:
395,34,149210,2,0,L|411:156,1,100,2|8,0:0|0:0,0:0:0:0:
216,233,149483,5,6,0:0:0:0:
147,132,149620,1,8,0:0:0:0:
120,272,149756,1,2,0:0:0:0:
204,59,149892,2,0,B|152:25|152:25|20:89,1,200,10|10,0:0|0:0,0:0:0:0:
216,233,150301,1,2,0:0:0:0:
56,179,150438,1,8,0:0:0:0:
287,190,150574,6,0,P|298:244|183:313,1,200,2|2,0:0|0:0,0:0:0:0:
209,161,150983,2,0,P|246:121|369:175,1,200,10|10,0:0|0:0,0:0:0:0:
399,334,151392,2,0,L|414:223,1,100,2|8,0:0|0:0,0:0:0:0:
287,28,151665,1,2,0:0:0:0:
287,190,151801,1,8,0:0:0:0:
191,159,151938,1,2,0:0:0:0:
345,109,152074,1,8,0:0:0:0:
191,59,152210,1,2,0:0:0:0:
415,38,152347,1,10,0:0:0:0:
423,43,152415,1,2,0:0:0:0:
431,49,152483,1,2,0:0:0:0:
438,56,152551,1,2,0:0:0:0:
444,64,152619,1,10,0:0:0:0:
450,72,152687,1,2,0:0:0:0:
455,81,152756,5,6,0:0:0:0:
467,116,152824,1,0,0:0:0:0:
469,153,152892,1,0,0:0:0:0:
460,190,152960,1,0,0:0:0:0:
441,222,153028,1,0,0:0:0:0:
414,248,153096,1,0,0:0:0:0:
381,266,153165,1,0,0:0:0:0:
345,274,153233,1,0,0:0:0:0:
308,271,153301,1,0,0:0:0:0:
275,254,153369,1,0,0:0:0:0:
238,259,153437,1,8,0:0:0:0:
211,283,153505,1,0,0:0:0:0:
202,319,153573,1,0,0:0:0:0:
216,354,153641,1,2,0:0:0:0:
247,374,153710,1,2,0:0:0:0:
283,374,153778,1,2,0:0:0:0:
313,352,153847,6,0,P|382:336|474:353,1,150,6|0,0:0|0:0,0:0:0:0:
493,276,154120,2,0,L|482:157,1,100,10|0,0:0|0:0,0:0:0:0:
223,25,154529,1,2,0:0:0:0:
236,115,154665,2,0,B|247:163|247:163|228:210|228:210|239:263,1,150,10|0,0:0|0:0,0:0:0:0:
328,287,154938,6,0,B|310:216|310:216|333:167,1,100,6|0,0:0|0:0,0:0:0:0:
421,43,155210,2,0,B|439:114|439:114|416:163,1,100,10|0,0:0|0:0,0:0:0:0:
147,241,155620,1,2,0:0:0:0:
38,266,155756,2,0,L|226:286,1,150,10|0,0:0|0:0,0:0:0:0:
270,256,156029,6,0,P|322:250|385:275,1,100,6|0,0:0|0:0,0:0:0:0:
432,350,156301,2,0,P|379:355|316:330,1,100,10|0,0:0|0:0,0:0:0:0:
401,23,156710,1,2,0:0:0:0:
256,80,156847,2,0,B|217:116|217:116|282:111|322:143,1,150,10|0,0:0|0:0,0:0:0:0:
377,181,157120,6,0,P|397:232|381:292,1,100,6|0,0:0|0:0,0:0:0:0:
122,275,157392,2,0,P|115:226|135:181,1,100,10|0,0:0|0:0,0:0:0:0:
256,253,157665,1,2,0:0:0:0:
256,80,157801,1,2,0:0:0:0:
325,336,157938,2,0,P|237:311|167:348,1,150,10|0,0:0|0:0,0:0:0:0:
153,349,158210,5,6,0:0:0:0:
72,170,158347,1,2,0:0:0:0:
49,324,158483,1,10,0:0:0:0:
124,64,158620,2,0,B|160:129|160:129|154:264,1,200,2|0,0:0|0:0,0:0:0:0:
319,43,159029,2,2,L|220:44,1,100,10|0,0:0|0:0,0:0:0:0:
426,48,159301,5,6,0:0:0:0:
428,196,159438,1,2,0:0:0:0:
426,48,159574,1,10,0:0:0:0:
494,241,159710,2,0,P|408:223|298:261,1,200,2|2,0:0|0:0,0:0:0:0:
254,352,160120,1,10,0:0:0:0:
333,113,160256,1,2,0:0:0:0:
171,279,160392,6,0,P|111:291|62:278,1,100,14|0,0:0|0:0,0:0:0:0:
169,107,160665,2,0,P|157:47|170:-2,1,100,10|0,0:0|0:0,0:0:0:0:
341,105,160938,2,0,P|401:93|450:106,1,100,10|0,0:0|0:0,0:0:0:0:
343,277,161210,2,0,P|355:337|342:386,1,100,10|0,0:0|0:0,0:0:0:0:
228,246,161483,5,12,0:0:0:0:
248,128,161620,1,0,0:0:0:0:
260,335,161756,1,8,0:0:0:0:
207,37,161892,1,0,0:0:0:0:
347,192,162029,1,10,0:0:0:0:
347,192,162097,1,2,0:0:0:0:
347,192,162165,1,2,0:0:0:0:
144,175,162301,1,2,0:0:0:0:
407,91,162438,1,0,0:0:0:0:
96,299,162574,5,6,0:0:0:0:
212,224,165847,6,0,L|156:296,1,73.3333355712891,14|0,0:0|0:0,0:0:0:0:
250,137,166029,2,0,L|215:53,1,73.3333355712891,8|0,0:0|0:0,0:0:0:0:
305,214,166210,2,0,L|396:226,1,73.3333355712891,8|0,0:0|0:0,0:0:0:0:
160,136,166392,2,0,L|69:123,1,73.3333355712891,12|0,0:0|0:0,0:0:0:0:
324,80,166574,2,0,L|414:67,1,73.3333355712891,8|0,0:0|0:0,0:0:0:0:
136,44,166756,2,0,L|45:31,1,73.3333355712891,8|0,0:0|0:0,0:0:0:0:
187,230,166938,5,14,0:0:0:0:
224,292,167029,1,2,0:0:0:0:
287,328,167119,1,10,0:0:0:0:
360,328,167210,1,2,0:0:0:0:
423,292,167301,2,0,L|472:236,1,73.3333355712891,8|0,0:0|0:0,0:0:0:0:
324,153,167483,5,12,0:0:0:0:
287,91,167573,1,2,0:0:0:0:
224,55,167664,1,8,0:0:0:0:
151,55,167756,1,2,0:0:0:0:
88,91,167847,2,0,L|40:148,1,73.3333355712891,8|0,0:0|0:0,0:0:0:0:
108,312,168029,5,12,0:0:0:0:
121,317,168119,1,0,0:0:0:0:
136,320,168210,2,0,L|216:328,1,73.3333355712891,8|0,0:0|0:0,0:0:0:0:
296,348,168392,2,0,L|216:356,1,73.3333355712891,8|0,0:0|0:0,0:0:0:0:
156,184,168574,2,0,L|207:246,1,73.3333355712891,12|0,0:0|0:0,0:0:0:0:
320,220,168756,2,0,L|273:277,1,73.3333355712891,8|0,0:0|0:0,0:0:0:0:
240,40,168938,2,0,L|232:120,1,73.3333355712891,8|0,0:0|0:0,0:0:0:0:
475,108,169120,5,12,0:0:0:0:
474,96,169210,1,2,0:0:0:0:
472,84,169301,1,8,0:0:0:0:
471,72,169392,1,2,0:0:0:0:
470,60,169483,1,8,0:0:0:0:
469,48,169574,1,2,0:0:0:0:
468,36,169665,5,12,0:0:0:0:
398,55,169755,1,2,0:0:0:0:
356,113,169847,2,0,L|328:192,1,73.3333355712891,8|0,0:0|0:0,0:0:0:0:
480,168,170029,2,0,L|404:204,1,73.3333355712891,8|0,0:0|0:0,0:0:0:0:
476,280,170210,6,0,L|240:328,1,220.000006713867,12|0,0:0|0:0,0:0:0:0:
168,272,170574,2,0,P|144:228|148:176,1,73.3333355712891,8|0,0:0|0:0,0:0:0:0:
344,112,170756,2,0,P|368:156|364:208,1,73.3333355712891,12|0,0:0|0:0,0:0:0:0:
176,104,170938,2,0,P|220:80|272:84,1,73.3333355712891,8|0,0:0|0:0,0:0:0:0:
336,280,171120,2,0,P|292:304|240:300,1,73.3333355712891,8|0,0:0|0:0,0:0:0:0:
84,265,171301,5,12,0:0:0:0:
130,209,171391,1,2,0:0:0:0:
144,137,171482,1,8,0:0:0:0:
121,68,171573,1,2,0:0:0:0:
69,18,171665,2,0,L|156:32,1,73.3333355712891,8|0,0:0|0:0,0:0:0:0:
336,48,171847,5,12,0:0:0:0:
382,104,171937,1,2,0:0:0:0:
395,175,172028,1,8,0:0:0:0:
373,244,172120,1,2,0:0:0:0:
320,294,172210,2,0,L|406:280,1,73.3333355712891,8|0,0:0|0:0,0:0:0:0:
296,140,172392,6,0,P|304:184|292:224,1,73.3333355712891,12|0,0:0|0:0,0:0:0:0:
212,280,172574,2,0,P|204:236|216:196,1,73.3333355712891,8|0,0:0|0:0,0:0:0:0:
148,72,172756,2,0,P|192:64|232:76,1,73.3333355712891,8|0,0:0|0:0,0:0:0:0:
364,312,172938,2,0,P|320:320|280:308,1,73.3333355712891,12|0,0:0|0:0,0:0:0:0:
376,24,173120,2,0,P|384:68|372:108,1,73.3333355712891,8|0,0:0|0:0,0:0:0:0:
104,336,173301,2,0,P|96:292|108:252,1,73.3333355712891,8|0,0:0|0:0,0:0:0:0:
256,40,173483,5,12,0:0:0:0:
273,110,173574,1,2,0:0:0:0:
275,184,173664,1,8,0:0:0:0:
262,256,173756,1,2,0:0:0:0:
233,323,173847,2,0,L|200:392,1,73.3333355712891,8|0,0:0|0:0,0:0:0:0:
91,369,174029,5,12,0:0:0:0:
73,298,174119,1,2,0:0:0:0:
71,224,174210,1,8,0:0:0:0:
84,152,174301,1,2,0:0:0:0:
113,85,174393,2,0,L|146:16,1,73.3333355712891,8|0,0:0|0:0,0:0:0:0:
219,80,174574,5,14,0:0:0:0:
261,70,174665,1,2,0:0:0:0:
303,83,174755,1,10,0:0:0:0:
334,113,174847,1,10,0:0:0:0:
346,155,174938,1,10,0:0:0:0:
337,198,175028,1,10,0:0:0:0:
308,231,175120,5,14,0:0:0:0:
309,302,175210,1,2,0:0:0:0:
258,352,175301,1,10,0:0:0:0:
186,350,175392,1,10,0:0:0:0:
138,298,175483,1,10,0:0:0:0:
143,226,175574,1,10,0:0:0:0:
198,180,175665,5,14,0:0:0:0:
182,257,175755,1,2,0:0:0:0:
116,300,175846,1,10,0:0:0:0:
39,281,175937,1,10,0:0:0:0:
0,214,176028,1,10,0:0:0:0:
21,138,176119,1,10,0:0:0:0:
90,100,176210,2,0,P|129:91|168:100,1,73.3333355712891,14|0,0:0|0:0,0:0:0:0:
381,119,176392,2,0,P|342:128|303:119,1,73.3333355712891,12|0,0:0|0:0,0:0:0:0:
116,300,176574,2,0,P|107:261|116:222,1,73.3333355712891,12|0,0:0|0:0,0:0:0:0:
288,37,176756,6,0,L|295:124,1,73.3333355712891,14|0,0:0|0:0,0:0:0:0:
224,347,176938,2,0,L|217:260,1,73.3333355712891,10|0,0:0|0:0,0:0:0:0:
322,60,177120,2,0,L|308:132,1,73.3333355712891,10|0,0:0|0:0,0:0:0:0:
181,349,177302,2,0,L|194:276,1,73.3333355712891,14|0,0:0|0:0,0:0:0:0:
176,41,177483,2,0,L|180:136,1,73.3333355712891,10|0,0:0|0:0,0:0:0:0:
336,343,177665,2,0,L|332:248,1,73.3333355712891,10|0,0:0|0:0,0:0:0:0:
471,28,177847,6,0,L|462:257,1,220.000006713867,14|0,0:0|0:0,0:0:0:0:
45,280,178392,6,0,B|74:314|74:314|130:332,5,73.3333355712891,14|0|10|0|10|0,0:0|0:0|0:0|0:0|0:0|0:0,0:0:0:0:
182,321,178938,5,14,0:0:0:0:
218,325,179028,1,2,0:0:0:0:
254,318,179119,1,10,0:0:0:0:
286,301,179210,1,10,0:0:0:0:
312,276,179301,1,10,0:0:0:0:
329,243,179392,1,10,0:0:0:0:
336,208,179483,5,14,0:0:0:0:
390,254,179573,1,2,0:0:0:0:
461,245,179664,1,10,0:0:0:0:
501,186,179755,1,10,0:0:0:0:
483,117,179846,1,10,0:0:0:0:
420,84,179937,1,10,0:0:0:0:
353,109,180029,5,14,0:0:0:0:
281,144,180119,1,2,0:0:0:0:
201,153,180210,1,10,0:0:0:0:
123,135,180301,1,10,0:0:0:0:
55,93,180392,1,10,0:0:0:0:
109,40,180482,1,10,0:0:0:0:
184,73,180574,2,0,P|200:102|208:164,1,73.3333355712891,14|0,0:0|0:0,0:0:0:0:
328,311,180756,2,0,P|312:282|303:219,1,73.3333355712891,12|0,0:0|0:0,0:0:0:0:
377,25,180938,2,0,P|361:54|352:116,1,73.3333355712891,12|0,0:0|0:0,0:0:0:0:
452,189,181120,5,14,0:0:0:0:
465,222,181210,1,2,0:0:0:0:
464,259,181301,1,10,0:0:0:0:
448,292,181392,1,10,0:0:0:0:
422,317,181483,1,10,0:0:0:0:
387,329,181574,1,10,0:0:0:0:
351,327,181665,5,14,0:0:0:0:
299,276,181755,1,2,0:0:0:0:
232,247,181846,1,10,0:0:0:0:
159,245,181938,1,10,0:0:0:0:
90,269,182029,1,10,0:0:0:0:
36,318,182119,1,10,0:0:0:0:
2,383,182210,6,0,P|77:323|91:145,1,220.000006713867,14|0,0:0|0:0,0:0:0:0:
124,47,182756,2,0,P|50:108|36:286,1,220.000006713867,4|0,0:0|0:0,0:0:0:0:
255,189,183301,6,0,P|196:181|136:219,1,112.500004291535,6|0,0:0|0:0,0:0:0:0:
106,273,183574,2,0,L|110:356,1,75.0000028610231,10|0,0:0|0:0,0:0:0:0:
216,274,183847,1,8,0:0:0:0:
302,317,183983,1,8,0:0:0:0:
390,276,184120,1,8,0:0:0:0:
475,321,184256,1,8,0:0:0:0:
466,165,184392,6,0,B|437:110|437:110|448:49,1,112.500004291535,2|0,0:0|0:0,0:0:0:0:
380,27,184665,2,0,L|361:115,1,75.0000028610231,10|0,0:0|0:0,0:0:0:0:
341,180,184938,1,8,0:0:0:0:
260,231,185074,1,8,0:0:0:0:
166,217,185210,1,8,0:0:0:0:
105,144,185347,1,8,0:0:0:0:
232,29,185483,6,0,P|244:77|231:147,1,112.500004291535,6|0,0:0|0:0,0:0:0:0:
166,217,185756,2,0,P|154:271|162:303,1,75.0000028610231,10|0,0:0|0:0,0:0:0:0:
261,324,186029,1,8,0:0:0:0:
339,266,186165,1,8,0:0:0:0:
371,357,186301,1,8,0:0:0:0:
260,231,186438,1,8,0:0:0:0:
446,291,186574,6,0,L|490:63,1,225.000008583069,10|0,0:0|0:0,0:0:0:0:
404,34,187120,2,0,B|412:83|412:83|389:192,1,150,10|0,0:0|0:0,0:0:0:0:
372,263,187665,6,0,B|336:361|336:361|277:220|277:220|307:76,1,400,14|0,0:0|0:0,0:0:0:0:
181,74,208392,6,0,L|176:130,2,50
77,58,209210,2,0,L|111:65,1,25,2|0,0:0|0:0,0:0:0:0:
76,155,209483,6,0,B|63:203|99:231|99:231|70:262|32:257|32:257|27:307|68:363|68:363|110:304|186:309,1,400,6|0,0:0|0:0,0:0:0:0:
281,333,211938,1,2,0:0:0:0:
411,72,212756,5,8,0:0:0:0:
286,119,213301,2,0,L|260:130,1,25
226,265,213574,2,0,L|252:254,1,25
157,40,213847,6,0,B|179:97|179:97|169:146|169:146|107:221,1,200,4|8,0:0|0:0,0:0:0:0:
240,255,215210,2,0,L|251:232,1,25
192,176,215483,2,0,L|218:188,1,25
271,128,215756,2,0,L|259:155,1,25
319,207,216029,6,0,L|291:196,1,25,6|0,0:0|0:0,0:0:0:0:
225,319,216301,2,0,L|239:288,1,25,2|0,0:0|0:0,0:0:0:0:
129,161,216574,2,0,L|160:175,1,25
287,65,216847,2,0,L|273:96,1,25
383,223,217120,6,0,L|352:209,1,25,12|0,0:0|0:0,0:0:0:0:
312,350,217392,2,0,L|306:316,1,25
200,34,217665,2,0,L|205:67,1,25,2|0,0:0|0:0,0:0:0:0:
200,350,217938,2,0,L|205:316,1,25,2|0,0:0|0:0,0:0:0:0:
302,36,218210,5,4,0:0:0:0:
311,79,219029,2,0,L|343:76,1,25,2|0,0:0|0:0,0:0:0:0:
499,60,219301,6,0,B|446:70|396:29|396:29|418:64|407:121,1,200,14|0,0:0|0:0,0:0:0:0:
385,229,220665,1,2,0:0:0:0:
191,201,221210,2,0,P|187:218|188:232,1,25
232,323,221483,5,12,0:0:0:0:
311,63,222029,1,0,0:0:0:0:
350,179,222301,1,0,0:0:0:0:
181,33,222574,6,0,L|72:42,1,100,6|0,0:0|0:0,0:0:0:0:
158,130,223392,6,0,L|267:139,1,100,6|0,0:0|0:0,0:0:0:0:
331,187,224210,1,0,0:0:0:0:
417,166,224347,2,0,L|434:163,2,12.5
433,39,224756,6,0,B|440:86|440:86|414:138,1,100
185,64,225574,1,2,0:0:0:0:
281,30,225710,1,2,0:0:0:0:
79,39,225847,6,0,B|72:86|72:86|98:138,1,100,4|0,0:0|0:0,0:0:0:0:
199,297,226665,1,2,0:0:0:0:
214,188,226801,1,2,0:0:0:0:
368,322,226938,6,0,P|376:266|357:203,1,100,6|0,0:0|0:0,0:0:0:0:
445,22,227210,2,0,P|453:78|434:141,1,100,10|0,0:0|0:0,0:0:0:0:
157,73,227483,1,10,0:0:0:0:
348,72,227620,1,0,0:0:0:0:
83,138,227756,1,10,0:0:0:0:
257,41,227892,1,0,0:0:0:0:
76,232,228029,6,0,B|100:354,1,100,10|0,0:0|0:0,0:0:0:0:
276,139,228301,2,0,B|252:17,1,100,10|0,0:0|0:0,0:0:0:0:
236,300,228574,1,10,0:0:0:0:
339,221,228710,1,0,0:0:0:0:
357,350,228847,1,10,0:0:0:0:
222,209,228983,1,0,0:0:0:0:
438,248,229120,6,0,L|495:259,3,50,14|0|0|0,0:0|0:0|0:0|0:0,0:0:0:0:
410,264,229392,2,0,L|517:283,1,100,10|0,0:0|0:0,0:0:0:0:
440,169,229665,1,10,0:0:0:0:
455,347,229801,1,0,0:0:0:0:
440,169,229938,1,10,0:0:0:0:
455,347,230074,1,0,0:0:0:0:
401,69,230210,6,0,B|352:47|352:47|303:54,1,100,10|0,0:0|0:0,0:0:0:0:
85,114,230483,2,0,B|134:136|134:136|183:129,1,100,10|0,0:0|0:0,0:0:0:0:
174,238,230756,1,10,0:0:0:0:
276,158,230892,1,0,0:0:0:0:
174,238,231029,1,10,0:0:0:0:
367,252,231165,1,0,0:0:0:0:
367,252,231233,1,0,0:0:0:0:
367,252,231301,6,0,L|498:254,1,100,14|0,0:0|0:0,0:0:0:0:
145,132,231574,2,0,L|14:130,1,100,10|0,0:0|0:0,0:0:0:0:
215,218,231847,1,10,0:0:0:0:
243,76,231983,1,0,0:0:0:0:
279,283,232120,1,10,0:0:0:0:
173,20,232256,1,0,0:0:0:0:
113,195,232392,6,0,P|105:256|125:321,1,100,10|0,0:0|0:0,0:0:0:0:
391,364,232665,2,0,P|399:303|379:238,1,100,10|0,0:0|0:0,0:0:0:0:
359,117,232938,2,0,B|341:54|283:36|283:36|207:61|161:44,1,200,10|10,0:0|0:0,0:0:0:0:
97,15,233347,1,0,0:0:0:0:
152,162,233483,6,0,P|172:223|156:279,1,100,14|0,0:0|0:0,0:0:0:0:
61,218,233756,1,10,0:0:0:0:
255,150,233892,1,2,0:0:0:0:
255,150,233960,1,2,0:0:0:0:
255,150,234029,1,10,0:0:0:0:
410,49,234301,2,0,P|370:113|396:200,1,150,10|0,0:0|0:0,0:0:0:0:
352,266,234574,6,0,L|222:273,1,100,10|0,0:0|0:0,0:0:0:0:
150,330,234847,1,2,0:0:0:0:
150,330,234915,1,2,0:0:0:0:
150,330,234983,1,2,0:0:0:0:
191,154,235120,2,0,L|215:97,2,50,10|0|0,0:0|0:0|0:0,0:0:0:0:
71,203,235392,2,0,L|47:260,2,50,10|0|0,0:0|0:0|0:0,0:0:0:0:
294,37,235665,5,12,0:0:0:0:
298,34,235733,1,0,0:0:0:0:
302,32,235801,1,0,0:0:0:0:
307,30,235869,1,0,0:0:0:0:
312,28,235937,1,8,0:0:0:0:
316,26,236005,1,0,0:0:0:0:
321,25,236074,1,0,0:0:0:0:
326,24,236142,1,0,0:0:0:0:
331,23,236210,5,8,0:0:0:0:
341,21,236278,1,0,0:0:0:0:
351,20,236346,1,0,0:0:0:0:
361,20,236414,1,0,0:0:0:0:
371,22,236482,1,8,0:0:0:0:
380,24,236550,1,0,0:0:0:0:
390,28,236619,1,0,0:0:0:0:
398,32,236687,1,0,0:0:0:0:
407,38,236756,6,0,P|429:48|453:78,3,50,8|0|0|0,0:0|0:0|0:0|0:0,0:0:0:0:
463,140,237029,2,0,P|453:161|423:185,3,50,8|0|0|0,0:0|0:0|0:0|0:0,0:0:0:0:
360,185,237301,2,0,P|338:175|314:145,3,50,8|0|0|0,0:0|0:0|0:0|0:0,0:0:0:0:
316,81,237574,2,0,P|325:59|355:35,3,50,8|0|0|0,0:0|0:0|0:0|0:0,0:0:0:0:
401,108,237847,5,12,0:0:0:0:
404,122,237915,1,0,0:0:0:0:
406,137,237983,1,0,0:0:0:0:
407,152,238051,1,0,0:0:0:0:
406,167,238119,1,8,0:0:0:0:
404,182,238187,1,0,0:0:0:0:
401,196,238256,1,0,0:0:0:0:
396,211,238324,1,0,0:0:0:0:
390,225,238392,5,8,0:0:0:0:
379,241,238460,1,0,0:0:0:0:
365,255,238528,1,0,0:0:0:0:
349,267,238596,1,0,0:0:0:0:
332,277,238664,1,8,0:0:0:0:
313,285,238732,1,0,0:0:0:0:
294,289,238801,1,0,0:0:0:0:
274,291,238869,1,0,0:0:0:0:
254,290,238938,6,0,L|185:283,3,50,8|0|0|0,0:0|0:0|0:0|0:0,0:0:0:0:
174,216,239210,2,0,L|243:208,3,50,8|0|0|0,0:0|0:0|0:0|0:0,0:0:0:0:
259,143,239483,2,0,L|189:135,3,50,8|0|0|0,0:0|0:0|0:0|0:0,0:0:0:0:
179,69,239756,2,0,L|248:61,3,50,8|0|0|0,0:0|0:0|0:0|0:0,0:0:0:0:
291,18,240029,5,12,0:0:0:0:
308,36,240097,1,0,0:0:0:0:
325,54,240165,1,0,0:0:0:0:
342,72,240233,1,0,0:0:0:0:
359,90,240301,1,8,0:0:0:0:
376,109,240369,1,0,0:0:0:0:
393,127,240438,1,0,0:0:0:0:
410,145,240506,1,0,0:0:0:0:
427,163,240574,5,8,0:0:0:0:
436,192,240642,1,0,0:0:0:0:
438,222,240710,1,0,0:0:0:0:
433,252,240778,1,0,0:0:0:0:
423,280,240846,1,8,0:0:0:0:
407,305,240914,1,0,0:0:0:0:
385,326,240983,1,0,0:0:0:0:
360,342,241051,1,0,0:0:0:0:
332,352,241120,6,0,P|309:358|271:351,3,50,8|0|0|0,0:0|0:0|0:0|0:0,0:0:0:0:
251,288,241392,2,0,P|226:285|202:292,3,50,8|0|0|0,0:0|0:0|0:0|0:0,0:0:0:0:
158,354,241665,2,0,P|135:360|97:353,3,50,8|0|0|0,0:0|0:0|0:0|0:0,0:0:0:0:
77,290,241937,2,0,P|52:287|28:294,3,50,8|0|0|0,0:0|0:0|0:0|0:0,0:0:0:0:
124,219,242210,5,12,0:0:0:0:
157,209,242278,1,0,0:0:0:0:
184,187,242346,1,0,0:0:0:0:
202,157,242414,1,0,0:0:0:0:
208,123,242483,1,8,0:0:0:0:
201,89,242550,1,0,0:0:0:0:
181,60,242619,1,0,0:0:0:0:
153,40,242687,1,0,0:0:0:0:
119,32,242756,5,8,0:0:0:0:
98,66,242824,1,0,0:0:0:0:
92,105,242892,1,0,0:0:0:0:
102,143,242960,1,0,0:0:0:0:
127,174,243028,1,8,0:0:0:0:
162,193,243096,1,0,0:0:0:0:
201,197,243165,1,0,0:0:0:0:
239,184,243233,1,0,0:0:0:0:
268,158,243301,5,8,0:0:0:0:
285,122,243369,1,0,0:0:0:0:
286,82,243438,1,0,0:0:0:0:
299,45,243506,1,0,0:0:0:0:
330,20,243574,1,8,0:0:0:0:
369,13,243642,1,0,0:0:0:0:
406,27,243710,1,0,0:0:0:0:
430,58,243778,1,0,0:0:0:0:
436,97,243847,1,8,0:0:0:0:
421,134,243915,1,0,0:0:0:0:
404,170,243983,1,0,0:0:0:0:
396,209,244051,1,0,0:0:0:0:
397,249,244120,2,0,L|415:319,1,50,8|0,0:0|0:0,0:0:0:0:
298,130,244256,2,8,L|280:60,1,50
299,255,244392,5,4,0:0:0:0:
266,286,244460,1,0,0:0:0:0:
226,304,244528,1,8,0:0:0:0:
181,308,244596,1,8,0:0:0:0:
138,296,244664,1,8,0:0:0:0:
101,271,244732,1,8,0:0:0:0:
76,234,244801,2,0,L|46:164,1,50,8|0,0:0|0:0,0:0:0:0:
173,201,244938,5,0,0:0:0:0:
174,155,245006,1,0,0:0:0:0:
189,114,245074,1,0,0:0:0:0:
218,80,245142,1,0,0:0:0:0:
257,58,245210,1,0,0:0:0:0:
301,49,245278,1,0,0:0:0:0:
345,58,245347,1,0,0:0:0:0:
353,62,245415,1,0,0:0:0:0:
361,68,245483,5,0,0:0:0:0:
369,75,245551,1,0,0:0:0:0:
375,82,245619,1,8,0:0:0:0:
381,91,245687,1,8,0:0:0:0:
385,100,245756,1,8,0:0:0:0:
387,110,245824,1,8,0:0:0:0:
389,119,245892,1,8,0:0:0:0:
389,129,245960,1,0,0:0:0:0:
388,139,246029,1,0,0:0:0:0:
375,161,246097,1,0,0:0:0:0:
368,185,246165,1,0,0:0:0:0:
367,210,246233,1,0,0:0:0:0:
371,234,246301,1,0,0:0:0:0:
381,257,246369,1,0,0:0:0:0:
396,277,246438,1,8,0:0:0:0:
415,293,246506,1,8,0:0:0:0:
437,304,246574,6,0,P|380:297|282:335,1,150,12|0,0:0|0:0,0:0:0:0:
253,355,246847,1,8,0:0:0:0:
222,316,246915,1,8,0:0:0:0:
180,288,246983,1,8,0:0:0:0:
132,274,247051,1,8,0:0:0:0:
83,275,247119,1,8,0:0:0:0:
140,84,247256,1,8,0:0:0:0:
197,195,247392,6,0,P|256:216|374:150,1,200
399,113,247733,1,2,0:0:0:0:
399,113,247801,1,2,0:0:0:0:
438,205,247938,1,2,0:0:0:0:
475,297,248074,1,2,0:0:0:0:
512,153,248210,1,2,0:0:0:0:
386,280,248347,1,10,0:0:0:0:
330,51,248483,1,10,0:0:0:0:
298,321,248620,1,10,0:0:0:0:
227,61,248756,5,4,0:0:0:0:
180,44,248824,1,0,0:0:0:0:
130,43,248892,1,8,0:0:0:0:
82,59,248960,1,8,0:0:0:0:
42,88,249028,1,8,0:0:0:0:
215,184,249165,1,0,0:0:0:0:
306,129,249301,1,0,0:0:0:0:
352,112,249369,1,0,0:0:0:0:
402,111,249437,1,0,0:0:0:0:
450,127,249505,1,0,0:0:0:0:
490,156,249574,2,0,L|531:198,3,50
448,240,249847,5,0,0:0:0:0:
407,269,249915,1,0,0:0:0:0:
360,284,249983,1,8,0:0:0:0:
310,283,250051,1,0,0:0:0:0:
262,268,250120,5,10,0:0:0:0:
254,261,250188,1,2,0:0:0:0:
246,255,250256,1,2,0:0:0:0:
238,250,250324,1,2,0:0:0:0:
229,245,250392,1,2,0:0:0:0:
220,241,250460,1,2,0:0:0:0:
210,237,250529,1,2,0:0:0:0:
201,235,250597,1,2,0:0:0:0:
191,233,250665,1,10,0:0:0:0:
181,232,250733,1,2,0:0:0:0:
171,231,250801,1,10,0:0:0:0:
161,232,250870,1,2,0:0:0:0:
151,233,250938,5,6,0:0:0:0:
129,245,251006,1,0,0:0:0:0:
105,251,251074,1,0,0:0:0:0:
80,250,251142,1,0,0:0:0:0:
56,242,251210,1,8,0:0:0:0:
36,228,251278,1,0,0:0:0:0:
20,209,251347,1,0,0:0:0:0:
10,186,251415,1,0,0:0:0:0:
7,161,251483,5,0,0:0:0:0:
32,118,251551,1,0,0:0:0:0:
68,84,251619,1,0,0:0:0:0:
112,61,251687,1,0,0:0:0:0:
161,52,251755,1,2,0:0:0:0:
211,58,251823,1,2,0:0:0:0:
256,77,251892,1,2,0:0:0:0:
295,109,251960,1,2,0:0:0:0:
323,150,252029,6,0,L|370:218,2,66.6666666666667,2|0|0,0:0|0:0|0:0,0:0:0:0:
401,104,252301,2,0,L|447:171,2,66.6666666666667
343,31,252574,1,0,0:0:0:0:
444,280,252710,1,8,0:0:0:0:
254,163,252847,1,8,0:0:0:0:
210,138,252915,1,8,0:0:0:0:
161,130,252983,1,8,0:0:0:0:
112,138,253051,1,8,0:0:0:0:
68,163,253120,6,0,B|28:199|28:199|3:277,1,100,6|8,0:0|0:0,0:0:0:0:
182,332,253392,2,0,B|170:279|170:279|115:218,1,100,2|8,0:0|0:0,0:0:0:0:
267,312,253665,2,0,B|318:327|318:327|398:311,1,100,2|8,0:0|0:0,0:0:0:0:
421,112,253938,1,2,0:0:0:0:
462,321,254074,1,10,0:0:0:0:
258,126,254210,6,0,L|227:18,1,100,2|8,0:0|0:0,0:0:0:0:
312,226,254483,2,0,L|421:253,1,100,2|8,0:0|0:0,0:0:0:0:
197,223,254756,2,0,L|119:304,1,100,2|8,0:0|0:0,0:0:0:0:
332,95,255029,1,2,0:0:0:0:
256,307,255165,1,10,0:0:0:0:
157,92,255301,6,0,P|104:83|51:93,1,100,6|8,0:0|0:0,0:0:0:0:
332,95,255574,2,0,P|385:104|438:94,1,100,2|8,0:0|0:0,0:0:0:0:
256,307,255847,2,0,P|265:254|255:201,1,100,2|8,0:0|0:0,0:0:0:0:
254,84,256120,1,2,0:0:0:0:
371,260,256256,1,10,0:0:0:0:
143,279,256392,6,0,B|102:280|102:280|72:292|72:292|21:290,1,100,2|8,0:0|0:0,0:0:0:0:
379,173,256665,2,0,B|420:174|420:174|450:186|450:186|501:184,1,100,2|8,0:0|0:0,0:0:0:0:
138,110,256938,2,0,B|97:111|97:111|67:123|67:123|16:121,1,100,2|8,0:0|0:0,0:0:0:0:
196,35,257210,1,2,0:0:0:0:
256,239,257347,1,2,0:0:0:0:
364,0,257483,5,4,0:0:0:0:
368,0,257551,1,0,0:0:0:0:
373,1,257619,1,0,0:0:0:0:
378,2,257687,1,0,0:0:0:0:
383,4,257756,1,0,0:0:0:0:
407,7,257824,1,0,0:0:0:0:
430,18,257892,1,0,0:0:0:0:
448,35,257960,1,0,0:0:0:0:
461,56,258028,1,0,0:0:0:0:
468,80,258096,1,0,0:0:0:0:
467,105,258165,1,0,0:0:0:0:
460,128,258233,1,0,0:0:0:0:
446,149,258301,1,0,0:0:0:0:
422,178,258369,1,0,0:0:0:0:
411,213,258437,1,0,0:0:0:0:
413,250,258505,1,0,0:0:0:0:
429,284,258574,5,8,0:0:0:0:
393,250,258642,1,0,0:0:0:0:
348,229,258710,1,0,0:0:0:0:
299,223,258778,1,0,0:0:0:0:
250,233,258846,1,0,0:0:0:0:
207,257,258914,1,0,0:0:0:0:
173,294,258983,1,0,0:0:0:0:
120,317,259051,1,0,0:0:0:0:
66,295,259119,1,0,0:0:0:0:
44,241,259187,1,0,0:0:0:0:
67,188,259256,1,0,0:0:0:0:
120,162,259324,1,0,0:0:0:0:
179,168,259392,1,0,0:0:0:0:
226,204,259460,1,0,0:0:0:0:
248,259,259528,1,0,0:0:0:0:
244,320,259597,1,0,0:0:0:0:
212,370,259665,6,0,L|64:371,1,100,4|0,0:0|0:0,0:0:0:0:
212,146,259938,2,0,L|269:108,1,50,10|0,0:0|0:0,0:0:0:0:
321,72,260074,1,2,0:0:0:0:
341,57,260142,1,2,0:0:0:0:
361,42,260210,1,2,0:0:0:0:
316,219,260347,1,2,0:0:0:0:
206,40,260483,1,2,0:0:0:0:
439,136,260620,1,2,0:0:0:0:
115,179,260756,6,0,L|3:194,1,100,4|0,0:0|0:0,0:0:0:0:
212,146,261029,2,0,L|227:215,1,50,10|0,0:0|0:0,0:0:0:0:
241,272,261165,1,2,0:0:0:0:
250,321,261233,1,2,0:0:0:0:
260,370,261301,1,2,0:0:0:0:
306,95,261438,1,2,0:0:0:0:
164,310,261574,1,2,0:0:0:0:
220,39,261710,1,2,0:0:0:0:
397,313,261847,6,0,B|421:364|421:364|464:291|378:227|433:147,1,280,4|0,0:0|0:0,0:0:0:0:
107,93,266210,6,0,P|139:161|114:246,1,125,4|0,0:0|0:0,0:0:0:0:
72,315,266483,1,2,0:0:0:0:
72,315,266551,1,2,0:0:0:0:
72,315,266620,1,2,0:0:0:0:
72,315,266688,1,2,0:0:0:0:
72,315,266756,1,2,0:0:0:0:
72,315,266824,1,2,0:0:0:0:
72,315,266892,1,2,0:0:0:0:
72,315,266960,1,2,0:0:0:0:
72,315,267029,1,2,0:0:0:0:
72,315,267097,1,2,0:0:0:0:
72,315,267165,1,2,0:0:0:0:
72,315,267233,1,2,0:0:0:0:
72,315,267301,6,0,P|136:282|308:345,1,250,6|0,0:0|0:0,0:0:0:0:
416,315,267710,2,0,P|352:282|180:345,1,250,4|0,0:0|0:0,0:0:0:0:
457,226,268120,6,0,B|425:158|425:158|464:48,1,187.5,4|0,0:0|0:0,0:0:0:0:
392,11,268392,2,0,L|342:148,1,125,4|0,0:0|0:0,0:0:0:0:
293,269,268665,1,2,0:0:0:0:
282,284,268733,1,2,0:0:0:0:
269,297,268801,1,2,0:0:0:0:
253,307,268869,1,2,0:0:0:0:
236,314,268937,1,2,0:0:0:0:
218,318,269005,1,2,0:0:0:0:
199,319,269074,1,2,0:0:0:0:
180,317,269142,1,2,0:0:0:0:
162,311,269210,1,2,0:0:0:0:
146,303,269278,1,2,0:0:0:0:
131,291,269346,1,2,0:0:0:0:
119,277,269415,1,2,0:0:0:0:
109,261,269483,6,0,B|127:184|86:121|86:121|156:130|196:184,1,250,6|0,0:0|0:0,0:0:0:0:
403,261,269892,2,0,B|385:184|426:121|426:121|356:130|316:184,1,250,4|0,0:0|0:0,0:0:0:0:
254,66,270301,2,0,L|255:264,1,187.5,4|0,0:0|0:0,0:0:0:0:
312,337,270574,6,0,P|244:347|184:323,1,125,4|0,0:0|0:0,0:0:0:0:
44,115,270847,1,2,0:0:0:0:
64,91,270915,1,2,0:0:0:0:
87,70,270983,1,2,0:0:0:0:
113,53,271051,1,2,0:0:0:0:
142,40,271119,1,2,0:0:0:0:
172,32,271187,1,2,0:0:0:0:
203,29,271256,1,2,0:0:0:0:
234,30,271324,1,2,0:0:0:0:
265,36,271392,1,2,0:0:0:0:
294,46,271460,1,2,0:0:0:0:
322,61,271528,1,2,0:0:0:0:
347,80,271597,1,2,0:0:0:0:
368,102,271665,6,0,P|400:167|351:334,1,250,6|0,0:0|0:0,0:0:0:0:
123,102,272074,2,0,P|90:167|139:334,1,250,4|0,0:0|0:0,0:0:0:0:
309,51,272483,2,0,P|244:35|175:51,1,125,4|0,0:0|0:0,0:0:0:0:
424,53,272756,5,4,0:0:0:0:
444,76,272824,1,0,0:0:0:0:
458,104,272892,1,8,0:0:0:0:
465,134,272960,1,0,0:0:0:0:
465,165,273028,1,0,0:0:0:0:
457,196,273096,1,0,0:0:0:0:
442,223,273165,1,0,0:0:0:0:
422,246,273233,1,8,0:0:0:0:
396,264,273301,1,8,0:0:0:0:
367,275,273369,1,0,0:0:0:0:
336,279,273437,1,0,0:0:0:0:
305,275,273506,1,0,0:0:0:0:
276,264,273574,1,0,0:0:0:0:
250,247,273642,1,0,0:0:0:0:
229,223,273710,1,0,0:0:0:0:
214,196,273778,1,0,0:0:0:0:
207,166,273847,5,0,0:0:0:0:
265,185,273915,1,0,0:0:0:0:
302,234,273983,1,0,0:0:0:0:
304,296,274051,1,0,0:0:0:0:
269,347,274119,1,0,0:0:0:0:
212,369,274187,1,0,0:0:0:0:
152,354,274256,1,0,0:0:0:0:
112,308,274324,1,0,0:0:0:0:
106,247,274392,5,0,0:0:0:0:
131,190,274460,1,0,0:0:0:0:
131,128,274528,1,0,0:0:0:0:
106,71,274596,1,0,0:0:0:0:
60,29,274665,2,0,L|266:42,1,187.5,12|0,0:0|0:0,0:0:0:0:
310,47,274938,5,12,0:0:0:0:
367,68,275006,1,0,0:0:0:0:
406,116,275074,1,8,0:0:0:0:
414,177,275142,1,0,0:0:0:0:
390,234,275210,1,8,0:0:0:0:
359,285,275278,1,0,0:0:0:0:
381,341,275346,1,8,0:0:0:0:
440,357,275414,1,0,0:0:0:0:
486,319,275483,5,12,0:0:0:0:
468,259,275551,1,0,0:0:0:0:
433,208,275620,1,8,0:0:0:0:
383,171,275687,1,0,0:0:0:0:
323,152,275755,1,8,0:0:0:0:
261,153,275823,1,0,0:0:0:0:
202,173,275892,1,8,0:0:0:0:
153,211,275960,1,0,0:0:0:0:
118,262,276029,6,0,L|70:324,3,62.5,12|0|8|0,0:0|0:0|0:0|0:0,0:0:0:0:
65,187,276301,2,0,L|3:138,3,62.5,8|0|8|0,0:0|0:0|0:0|0:0,0:0:0:0:
139,120,276574,2,0,L|187:58,3,62.5,12|0|8|0,0:0|0:0|0:0|0:0,0:0:0:0:
217,190,276847,2,0,L|278:238,3,62.5,8|0|8|0,0:0|0:0|0:0|0:0,0:0:0:0:
298,106,277120,5,12,0:0:0:0:
346,144,277188,1,0,0:0:0:0:
373,200,277256,1,8,0:0:0:0:
371,262,277324,1,0,0:0:0:0:
342,316,277392,1,8,0:0:0:0:
291,351,277460,1,0,0:0:0:0:
229,360,277529,1,8,0:0:0:0:
171,340,277597,1,0,0:0:0:0:
127,296,277665,5,12,0:0:0:0:
161,244,277733,1,0,0:0:0:0:
210,206,277801,1,8,0:0:0:0:
270,190,277869,1,0,0:0:0:0:
332,195,277937,1,8,0:0:0:0:
388,223,278006,1,0,0:0:0:0:
442,247,278074,1,8,0:0:0:0:
492,214,278142,1,0,0:0:0:0:
489,154,278210,6,0,L|474:76,3,62.5,12|0|8|0,0:0|0:0|0:0|0:0,0:0:0:0:
351,84,278483,2,0,L|335:5,3,62.5,8|0|8|0,0:0|0:0|0:0|0:0,0:0:0:0:
221,151,278756,2,0,L|205:72,3,62.5,12|0|8|0,0:0|0:0|0:0|0:0,0:0:0:0:
82,89,279029,2,0,L|66:10,3,62.5,8|0|8|0,0:0|0:0|0:0|0:0,0:0:0:0:
71,171,279301,5,12,0:0:0:0:
39,224,279369,1,0,0:0:0:0:
43,285,279437,1,8,0:0:0:0:
81,333,279505,1,0,0:0:0:0:
140,352,279573,1,8,0:0:0:0:
199,334,279641,1,0,0:0:0:0:
238,286,279710,1,8,0:0:0:0:
273,235,279778,1,0,0:0:0:0:
332,217,279847,5,12,0:0:0:0:
391,232,279915,1,0,0:0:0:0:
450,213,279983,1,8,0:0:0:0:
488,164,280051,1,0,0:0:0:0:
493,103,280119,1,8,0:0:0:0:
464,49,280187,1,0,0:0:0:0:
410,20,280256,1,8,0:0:0:0:
348,25,280324,1,0,0:0:0:0:
300,63,280392,6,0,L|238:109,3,62.5,12|0|8|0,0:0|0:0|0:0|0:0,0:0:0:0:
139,179,280665,2,0,L|201:133,3,62.5,8|0|8|0,0:0|0:0|0:0|0:0,0:0:0:0:
352,122,280938,2,0,L|289:167,3,62.5,12|0|8|0,0:0|0:0|0:0|0:0,0:0:0:0:
190,237,281210,2,0,L|252:191,3,62.5,8|0|8|0,0:0|0:0|0:0|0:0,0:0:0:0:
351,297,281483,5,12,0:0:0:0:
408,274,281551,1,0,0:0:0:0:
450,228,281620,1,8,0:0:0:0:
468,169,281687,1,0,0:0:0:0:
458,107,281755,1,8,0:0:0:0:
423,57,281823,1,0,0:0:0:0:
369,26,281892,1,8,0:0:0:0:
307,22,281960,1,0,0:0:0:0:
249,46,282029,5,12,0:0:0:0:
292,91,282097,1,0,0:0:0:0:
308,150,282165,1,8,0:0:0:0:
292,210,282233,1,0,0:0:0:0:
250,255,282301,1,8,0:0:0:0:
191,273,282369,1,0,0:0:0:0:
130,261,282438,1,8,0:0:0:0:
84,220,282506,1,0,0:0:0:0:
63,162,282574,6,0,L|50:83,4,62.5,12|0|8|0|8,0:0|0:0|0:0|0:0|0:0,0:0:0:0:
131,40,282983,1,0,0:0:0:0:
131,40,283051,1,0,0:0:0:0:
131,40,283120,1,12,0:0:0:0:
49,302,283256,1,8,0:0:0:0:
215,181,283392,1,8,0:0:0:0:
31,61,283529,1,8,0:0:0:0:
181,356,283665,5,12,0:0:0:0:
240,373,283733,1,0,0:0:0:0:
302,369,283801,1,8,0:0:0:0:
358,342,283869,1,0,0:0:0:0:
401,297,283938,1,12,0:0:0:0:
425,240,284006,1,0,0:0:0:0:
427,177,284074,1,8,0:0:0:0:
406,119,284142,1,0,0:0:0:0:
365,72,284210,2,0,L|316:12,1,62.5,12|0,0:0|0:0,0:0:0:0:
272,219,284347,2,0,L|332:169,1,62.5,8|0,0:0|0:0,0:0:0:0:
144,56,284483,2,0,L|193:116,1,62.5,12|0,0:0|0:0,0:0:0:0:
151,299,284620,2,0,L|101:238,1,62.5,8|0,0:0|0:0,0:0:0:0:
51,36,284756,5,12,0:0:0:0:
59,97,284824,1,0,0:0:0:0:
68,159,284892,1,8,0:0:0:0:
77,221,284960,1,0,0:0:0:0:
86,283,285029,1,12,0:0:0:0:
141,312,285097,1,0,0:0:0:0:
203,323,285165,1,8,0:0:0:0:
264,315,285233,1,0,0:0:0:0:
321,289,285301,2,0,L|390:241,1,62.5,12|0,0:0|0:0,0:0:0:0:
456,94,285438,2,0,L|387:142,1,62.5,8|0,0:0|0:0,0:0:0:0:
236,228,285574,2,0,L|304:179,1,62.5,12|0,0:0|0:0,0:0:0:0:
370,32,285710,2,0,L|301:80,1,62.5,8|0,0:0|0:0,0:0:0:0:
105,167,285847,5,12,0:0:0:0:
61,210,285915,1,0,0:0:0:0:
56,271,285983,1,8,0:0:0:0:
91,320,286051,1,0,0:0:0:0:
151,335,286119,1,12,0:0:0:0:
206,308,286187,1,0,0:0:0:0:
230,252,286256,1,8,0:0:0:0:
253,194,286324,1,0,0:0:0:0:
301,156,286392,2,0,P|332:137|375:139,1,62.5,12|0,0:0|0:0,0:0:0:0:
205,69,286529,2,0,P|174:49|131:51,1,62.5,8|0,0:0|0:0,0:0:0:0:
352,227,286665,2,0,L|369:293,1,62.5,12|0,0:0|0:0,0:0:0:0:
105,167,286801,2,0,L|88:101,1,62.5,8|0,0:0|0:0,0:0:0:0:
358,34,286938,5,12,0:0:0:0:
409,69,287006,1,0,0:0:0:0:
443,121,287074,1,8,0:0:0:0:
456,181,287142,1,0,0:0:0:0:
447,243,287210,1,12,0:0:0:0:
415,296,287278,1,0,0:0:0:0:
366,334,287347,1,8,0:0:0:0:
307,352,287415,1,0,0:0:0:0:
245,347,287483,2,0,L|170:328,1,62.5,12|0,0:0|0:0,0:0:0:0:
263,120,287620,2,0,L|338:139,1,62.5,8|0,0:0|0:0,0:0:0:0:
154,236,287756,2,0,L|78:216,1,62.5,12|0,0:0|0:0,0:0:0:0:
171,8,287893,2,0,L|246:27,1,62.5,8|0,0:0|0:0,0:0:0:0:
420,42,288029,5,12,0:0:0:0:
454,100,288097,1,0,0:0:0:0:
455,168,288165,1,8,0:0:0:0:
421,227,288233,1,0,0:0:0:0:
362,261,288301,1,12,0:0:0:0:
294,262,288369,1,0,0:0:0:0:
236,228,288438,1,8,0:0:0:0:
183,186,288506,1,0,0:0:0:0:
116,193,288574,1,12,0:0:0:0:
74,245,288642,1,0,0:0:0:0:
80,312,288710,1,8,0:0:0:0:
130,355,288778,1,0,0:0:0:0:
197,351,288847,1,12,0:0:0:0:
250,307,288915,1,0,0:0:0:0:
278,245,288983,1,8,0:0:0:0:
276,177,289051,1,0,0:0:0:0:
244,117,289120,6,0,L|205:63,1,62.5,12|0,0:0|0:0,0:0:0:0:
367,154,289256,2,0,L|406:208,1,62.5,8|0,0:0|0:0,0:0:0:0:
323,73,289392,2,0,L|333:6,1,62.5,12|0,0:0|0:0,0:0:0:0:
349,287,289529,2,0,L|338:353,1,62.5,8|0,0:0|0:0,0:0:0:0:
411,68,289665,2,0,L|467:19,1,62.5,12|0,0:0|0:0,0:0:0:0:
278,245,289801,2,0,L|222:294,1,62.5,8|0,0:0|0:0,0:0:0:0:
447,142,289938,2,0,L|521:130,1,62.5,12|0,0:0|0:0,0:0:0:0:
178,203,290074,2,0,L|104:191,1,62.5,8|0,0:0|0:0,0:0:0:0:
468,311,290210,6,0,L|406:47,1,250,4|0,0:0|0:0,0:0:0:0:
480,21,290620,1,0,0:0:0:0:
178,203,290756,2,0,L|442:265,1,250,4|0,0:0|0:0,0:0:0:0:
395,345,291165,1,0,0:0:0:0:
301,81,291301,6,0,P|238:44|73:145,1,250,4|0,0:0|0:0,0:0:0:0:
63,207,291710,1,0,0:0:0:0:
329,286,291847,2,0,P|393:250|388:57,1,250,12|0,0:0|0:0,0:0:0:0:
296,144,292392,6,0,B|248:32|248:32|224:192|224:192|208:144|168:128,1,350,4|0,0:0|0:0,0:0:0:0:
92,72,293483,6,0,P|136:128|112:308,1,250,4|0,0:0|0:0,0:0:0:0:
192,328,294301,2,0,L|244:340,1,50
344,308,294574,6,0,B|360:248|360:248|392:216|392:216|404:168,1,150,4|0,0:0|0:0,0:0:0:0:
272,272,295120,2,0,B|288:212|288:212|320:180|320:180|332:132,1,150,4|0,0:0|0:0,0:0:0:0:
200,240,295665,6,0,L|212:196,1,25,6|0,0:0|0:0,0:0:0:0:
224,136,295801,1,2,0:0:0:0:
227,123,295869,1,2,0:0:0:0:
230,111,295937,1,2,0:0:0:0:
136,156,296074,1,2,0:0:0:0:
240,24,296210,1,2,0:0:0:0:
320,160,296347,1,2,0:0:0:0:
156,48,296483,1,2,0:0:0:0:
320,160,296620,1,2,0:0:0:0:
56,56,296756,6,0,L|32:260,1,200,6|8,0:0|0:0,0:0:0:0:
84,336,297165,1,0,0:0:0:0:
156,48,297301,2,0,L|172:168,1,100,2|0,0:0|0:0,0:0:0:0:
356,336,297574,2,0,L|340:216,1,100,10|0,0:0|0:0,0:0:0:0:
460,8,297847,6,0,L|476:128,1,100,6|0,0:0|0:0,0:0:0:0:
264,88,298120,2,0,P|224:52|160:36,1,100,8|0,0:0|0:0,0:0:0:0:
342,236,298392,1,2,0:0:0:0:
423,177,298529,1,2,0:0:0:0:
161,237,298665,2,0,P|150:289|168:353,1,100,10|0,0:0|0:0,0:0:0:0:
362,71,298938,6,0,L|156:112,1,200,6|8,0:0|0:0,0:0:0:0:
161,237,299347,2,0,L|367:278,1,200
320,168,299756,1,10,0:0:0:0:
320,356,299892,1,2,0:0:0:0:
420,164,300029,6,0,B|496:112|468:60|468:60|408:72|376:32,1,200,6|8,0:0|0:0,0:0:0:0:
176,116,300574,1,2,0:0:0:0:
320,168,300710,1,2,0:0:0:0:
144,28,300847,1,10,0:0:0:0:
204,232,301120,5,6,0:0:0:0:
251,149,301256,1,2,0:0:0:0:
299,231,301392,1,2,0:0:0:0:
168,148,301529,1,2,0:0:0:0:
252,304,301665,1,2,0:0:0:0:
336,148,301801,1,2,0:0:0:0:
160,312,301938,1,2,0:0:0:0:
240,72,302074,1,2,0:0:0:0:
340,259,302210,6,0,L|396:351,1,100,6|0,0:0|0:0,0:0:0:0:
183,214,302483,2,0,L|157:318,1,100,2|0,0:0|0:0,0:0:0:0:
125,89,302756,2,0,L|33:144,1,100,2|0,0:0|0:0,0:0:0:0:
387,89,303029,2,0,L|479:144,1,100,2|0,0:0|0:0,0:0:0:0:
236,192,303301,5,6,0:0:0:0:
352,192,303438,1,2,0:0:0:0:
136,160,303574,1,2,0:0:0:0:
312,276,303710,1,2,0:0:0:0:
288,104,303847,1,2,0:0:0:0:
196,276,303983,1,2,0:0:0:0:
208,88,304120,1,2,0:0:0:0:
260,344,304256,1,2,0:0:0:0:
456,80,304392,6,0,L|432:292,1,200,6|0,0:0|0:0,0:0:0:0:
104,192,304938,2,0,B|84:244|84:244|96:304,1,100,2|0,0:0|0:0,0:0:0:0:
219,283,305210,2,0,B|228:240|228:240|208:188,1,100,10|0,0:0|0:0,0:0:0:0:
136,80,305483,5,4,0:0:0:0:
169,43,305551,1,0,0:0:0:0:
216,26,305619,1,8,0:0:0:0:
265,33,305687,1,8,0:0:0:0:
306,61,305756,5,10,0:0:0:0:
319,82,305824,1,2,0:0:0:0:
338,99,305892,1,2,0:0:0:0:
359,111,305960,1,2,0:0:0:0:
383,118,306028,1,2,0:0:0:0:
408,119,306096,1,2,0:0:0:0:
433,114,306165,1,2,0:0:0:0:
455,103,306233,1,2,0:0:0:0:
476,88,306301,5,2,0:0:0:0:
427,79,306369,1,0,0:0:0:0:
386,104,306437,1,0,0:0:0:0:
373,152,306505,1,0,0:0:0:0:
394,195,306574,5,0,0:0:0:0:
423,246,306642,1,0,0:0:0:0:
412,304,306710,1,8,0:0:0:0:
366,340,306778,1,8,0:0:0:0:
307,338,306847,5,10,0:0:0:0:
283,332,306915,1,2,0:0:0:0:
258,328,306983,1,2,0:0:0:0:
233,327,307051,1,2,0:0:0:0:
208,329,307119,1,2,0:0:0:0:
183,333,307187,1,2,0:0:0:0:
159,339,307256,1,2,0:0:0:0:
136,347,307324,1,2,0:0:0:0:
112,360,307392,2,0,P|78:314|64:264,1,100,2|8,0:0|0:0,0:0:0:0:
148,48,307665,6,0,P|181:93|196:144,1,100,14|0,0:0|0:0,0:0:0:0:
196,120,309847,5,6,0:0:0:0:
240,212,309983,1,10,0:0:0:0:
284,84,310120,1,2,0:0:0:0:
168,288,310256,1,10,0:0:0:0:
184,36,310392,1,2,0:0:0:0:
304,308,310529,1,10,0:0:0:0:
112,100,310665,1,2,0:0:0:0:
368,188,310801,1,10,0:0:0:0:
104,196,310938,5,2,0:0:0:0:
368,92,311074,1,10,0:0:0:0:
148,292,311210,1,2,0:0:0:0:
300,24,311347,1,10,0:0:0:0:
248,312,311483,1,2,0:0:0:0:
208,24,311620,1,10,0:0:0:0:
344,288,311756,2,0,L|376:344,2,50,2|0|8,0:0|0:0|0:0,0:0:0:0:
373,123,312029,5,0,0:0:0:0:
343,83,312097,1,0,0:0:0:0:
299,61,312165,1,8,0:0:0:0:
249,63,312233,1,0,0:0:0:0:
206,88,312301,1,2,0:0:0:0:
180,130,312369,1,2,0:0:0:0:
177,180,312438,1,10,0:0:0:0:
197,225,312506,1,2,0:0:0:0:
236,255,312574,5,2,0:0:0:0:
259,212,312642,1,0,0:0:0:0:
253,163,312710,1,8,0:0:0:0:
221,126,312778,1,0,0:0:0:0:
173,113,312846,1,2,0:0:0:0:
127,130,312914,1,2,0:0:0:0:
98,170,312983,1,10,0:0:0:0:
98,219,313051,1,2,0:0:0:0:
124,261,313120,5,2,0:0:0:0:
139,229,313188,1,0,0:0:0:0:
137,195,313256,1,8,0:0:0:0:
119,165,313324,1,0,0:0:0:0:
88,149,313392,1,2,0:0:0:0:
54,149,313460,1,2,0:0:0:0:
23,165,313529,1,10,0:0:0:0:
5,195,313597,1,2,0:0:0:0:
3,229,313665,2,0,L|38:379,1,150,2|0,0:0|0:0,0:0:0:0:
117,352,313938,2,0,P|171:333|221:344,1,100,0|8,0:0|0:0,0:0:0:0:
344,194,314210,5,6,0:0:0:0:
401,87,314347,1,10,0:0:0:0:
459,191,314483,1,2,0:0:0:0:
304,97,314620,1,10,0:0:0:0:
411,283,314756,1,2,0:0:0:0:
481,28,314892,1,10,0:0:0:0:
481,28,314960,1,0,0:0:0:0:
481,28,315029,1,0,0:0:0:0:
239,188,315165,1,10,0:0:0:0:
411,283,315301,5,6,0:0:0:0:
246,343,315438,1,10,0:0:0:0:
411,283,315574,1,2,0:0:0:0:
172,264,315710,1,10,0:0:0:0:
465,352,315847,1,2,0:0:0:0:
97,340,315983,1,10,0:0:0:0:
97,340,316051,1,0,0:0:0:0:
97,340,316120,1,0,0:0:0:0:
209,57,316256,1,10,0:0:0:0:
294,312,316392,5,6,0:0:0:0:
344,116,316529,1,10,0:0:0:0:
382,382,316665,1,2,0:0:0:0:
228,202,316801,1,10,0:0:0:0:
472,296,316938,1,2,0:0:0:0:
149,131,317074,1,10,0:0:0:0:
149,131,317142,1,0,0:0:0:0:
149,131,317210,1,0,0:0:0:0:
222,351,317347,1,10,0:0:0:0:
297,56,317483,5,6,0:0:0:0:
137,341,317620,1,10,0:0:0:0:
199,16,317756,1,2,0:0:0:0:
281,251,317892,1,10,0:0:0:0:
47,159,318029,1,2,0:0:0:0:
47,159,318097,1,0,0:0:0:0:
47,159,318165,2,0,L|68:98,1,50
152,261,318301,2,0,L|131:200,1,50,8|0,0:0|0:0,0:0:0:0:
31,354,318438,2,0,L|52:293,1,50
260,73,318574,6,0,L|399:57,1,100,4|8,0:0|0:0,0:0:0:0:
455,180,318847,2,0,L|316:164,1,100,0|8,0:0|0:0,0:0:0:0:
278,230,319120,6,0,L|295:335,1,66.6666666666667,8|0,0:0|0:0,0:0:0:0:
188,288,319301,1,0,0:0:0:0:
188,288,319392,2,0,L|105:355,1,66.6666666666667,8|0,0:0|0:0,0:0:0:0:
112,231,319574,1,0,0:0:0:0:
112,231,319665,6,0,L|12:193,1,66.6666666666667,8|0,0:0|0:0,0:0:0:0:
111,127,319847,1,0,0:0:0:0:
111,127,319938,2,0,L|93:22,1,66.6666666666667,8|0,0:0|0:0,0:0:0:0:
201,57,320120,1,0,0:0:0:0:
201,57,320211,2,0,L|283:-10,1,66.6666666666667,8|0,0:0|0:0,0:0:0:0:
326,82,320392,1,0,0:0:0:0:
326,82,320483,2,0,L|425:119,1,66.6666666666667,8|0,0:0|0:0,0:0:0:0:
335,192,320665,1,0,0:0:0:0:
335,192,320756,5,12,0:0:0:0:
353,254,320846,1,0,0:0:0:0:
330,316,320937,1,0,0:0:0:0:
275,352,321028,1,8,0:0:0:0:
210,349,321119,1,0,0:0:0:0:
159,307,321210,1,0,0:0:0:0:
143,244,321301,2,0,L|132:174,1,66.6666666666667,8|0,0:0|0:0,0:0:0:0:
203,44,321483,1,0,0:0:0:0:
203,44,321574,2,0,L|224:148,1,66.6666666666667,8|0,0:0|0:0,0:0:0:0:
335,192,321756,1,0,0:0:0:0:
335,192,321847,5,8,0:0:0:0:
411,202,321937,1,0,0:0:0:0:
468,149,322028,1,0,0:0:0:0:
463,72,322119,1,8,0:0:0:0:
401,27,322210,1,0,0:0:0:0:
321,27,322301,1,0,0:0:0:0:
259,75,322391,1,8,0:0:0:0:
227,148,322482,1,0,0:0:0:0:
235,227,322573,1,0,0:0:0:0:
280,292,322664,1,8,0:0:0:0:
350,328,322755,1,0,0:0:0:0:
429,326,322846,1,0,0:0:0:0:
501,290,322938,6,0,L|512:209,1,59.9999981689454,12|0,0:0|0:0,0:0:0:0:
401,27,323074,2,0,P|414:84|381:173,1,119.999996337891,8|0,0:0|0:0,0:0:0:0:
280,292,323347,1,8,0:0:0:0:
293,149,323483,1,0,0:0:0:0:
398,248,323620,1,8,0:0:0:0:
207,213,323756,1,0,0:0:0:0:
384,149,323892,1,8,0:0:0:0:
169,316,324029,6,0,L|36:279,1,119.999996337891,4|8,0:0|0:0,0:0:0:0:
59,59,324301,1,0,0:0:0:0:
97,205,324438,1,8,0:0:0:0:
156,38,324574,2,0,P|220:34|280:59,1,119.999996337891,0|8,0:0|0:0,0:0:0:0:
322,228,324847,2,0,P|258:232|198:207,1,119.999996337891,0|8,0:0|0:0,0:0:0:0:
414,42,325120,5,0,0:0:0:0:
434,183,325256,1,2,0:0:0:0:
434,183,325324,1,2,0:0:0:0:
434,183,325392,2,0,L|457:323,1,119.999996337891,2|0,0:0|0:0,0:0:0:0:
460,328,325597,1,2,0:0:0:0:
460,328,325665,1,2,0:0:0:0:
322,228,325801,2,0,L|345:88,1,119.999996337891,2|8,0:0|0:0,0:0:0:0:
282,34,326074,1,0,0:0:0:0:
237,173,326210,6,0,P|169:207|36:164,1,179.999994506836,4|0,0:0|0:0,0:0:0:0:
51,178,326483,1,8,0:0:0:0:
106,80,326620,1,0,0:0:0:0:
132,324,326756,2,0,B|147:330|147:330|155:318|155:318|163:330|163:330|171:318|171:318|179:330|179:330|187:318|187:318|195:330|195:330|203:318|203:318|215:330|215:330|223:318|223:318|232:328|232:328|264:332|283:298|283:298|331:311|344:348|344:348|360:296|447:242,1,419.999987182618,8|0,0:0|0:0,0:0:0:0:
476,200,327301,6,0,P|492:124|472:68,1,119.999996337891,6|0,0:0|0:0,0:0:0:0:
293,96,327574,1,0,0:0:0:0:
386,149,327710,1,8,0:0:0:0:
212,27,327847,2,0,L|30:50,1,179.999994506836,2|0,0:0|0:0,0:0:0:0:
8,54,328120,1,2,0:0:0:0:
110,166,328256,1,10,0:0:0:0:
2,268,328392,6,0,L|174:291,1,119.999996337891,6|8,0:0|0:0,0:0:0:0:
309,215,328665,2,0,L|137:192,1,119.999996337891,2|8,0:0|0:0,0:0:0:0:
345,313,328938,2,0,L|517:336,1,119.999996337891,2|8,0:0|0:0,0:0:0:0:
397,102,329210,2,0,L|225:125,1,119.999996337891,2|8,0:0|0:0,0:0:0:0:
115,27,329483,6,0,P|149:94|140:220,1,179.999994506836,6|0,0:0|0:0,0:0:0:0:
139,228,329756,1,2,0:0:0:0:
228,40,329892,1,8,0:0:0:0:
269,287,330029,2,0,L|423:305,1,119.999996337891,2|8,0:0|0:0,0:0:0:0:
416,305,330233,2,0,L|275:333,1,119.999996337891,2|0,0:0|0:0,0:0:0:0:
276,333,330438,1,10,0:0:0:0:
470,151,330574,6,0,L|223:121,1,239.999992675781,6|0,0:0|0:0,0:0:0:0:
280,32,330983,1,8,0:0:0:0:
111,288,331120,2,0,L|95:223,1,59.9999981689454,2|0,0:0|0:0,0:0:0:0:
119,51,331256,2,0,L|135:116,1,59.9999981689454,10|0,0:0|0:0,0:0:0:0:
181,352,331392,2,0,L|197:287,1,59.9999981689454,2|0,0:0|0:0,0:0:0:0:
376,34,331529,2,0,L|360:99,1,59.9999981689454,10|0,0:0|0:0,0:0:0:0:
360,320,331665,5,6,0:0:0:0:
289,180,331801,1,8,0:0:0:0:
360,320,331938,1,0,0:0:0:0:
427,142,332074,1,8,0:0:0:0:
269,342,332210,2,0,P|191:352|131:335,1,119.999996337891,2|8,0:0|0:0,0:0:0:0:
77,312,332415,2,0,P|155:322|215:305,1,119.999996337891,2|0,0:0|0:0,0:0:0:0:
223,305,332620,1,10,0:0:0:0:
236,103,332756,6,0,P|168:75|46:143,1,179.999994506836,6|0,0:0|0:0,0:0:0:0:
53,131,333029,1,2,0:0:0:0:
164,207,333165,1,8,0:0:0:0:
303,32,333301,2,0,L|461:20,1,119.999996337891,2|8,0:0|0:0,0:0:0:0:
481,219,333574,2,0,L|323:207,1,119.999996337891,2|8,0:0|0:0,0:0:0:0:
412,123,333847,5,6,0:0:0:0:
410,323,333983,1,8,0:0:0:0:
412,123,334120,1,2,0:0:0:0:
498,332,334256,1,8,0:0:0:0:
281,253,334392,2,0,B|216:247|216:247|152:265,1,119.999996337891,2|8,0:0|0:0,0:0:0:0:
148,193,334597,2,0,B|213:199|213:199|277:181,1,119.999996337891,2|0,0:0|0:0,0:0:0:0:
296,172,334801,1,10,0:0:0:0:
203,50,334938,5,6,0:0:0:0:
194,94,336847,6,0,L|209:281,1,179.999994506836,2|0,0:0|0:0,0:0:0:0:
213,298,337120,5,2,0:0:0:0:
66,135,337256,1,2,0:0:0:0:
326,110,339301,5,2,0:0:0:0:
381,215,339438,1,0,0:0:0:0:
326,110,339574,2,0,P|238:94|197:115,1,119.999996337891,2|0,0:0|0:0,0:0:0:0:
113,208,339847,2,0,P|201:224|242:203,1,119.999996337891,2|0,0:0|0:0,0:0:0:0:
124,104,340120,2,0,P|36:88|-5:109,1,119.999996337891,2|0,0:0|0:0,0:0:0:0:
303,139,340392,5,2,0:0:0:0:
278,259,340529,1,0,0:0:0:0:
303,139,340665,2,0,L|393:48,1,119.999996337891,2|0,0:0|0:0,0:0:0:0:
278,259,340938,2,0,L|312:382,1,119.999996337891,2|0,0:0|0:0,0:0:0:0:
186,177,341210,2,0,L|62:145,1,119.999996337891,2|0,0:0|0:0,0:0:0:0:
387,53,341483,6,0,L|417:322,1,250,4|0,0:0|0:0,0:0:0:0:
196,296,342301,1,10,0:0:0:0:
308,82,342438,1,10,0:0:0:0:
296,338,342574,5,10,0:0:0:0:
219,38,342710,1,10,0:0:0:0:
110,232,343120,5,10,0:0:0:0:
410,155,343256,1,10,0:0:0:0:
452,82,343665,5,12,0:0:0:0:
399,48,343733,1,0,0:0:0:0:
339,30,343801,1,8,0:0:0:0:
277,30,343869,1,0,0:0:0:0:
217,48,343938,5,10,0:0:0:0:
181,114,344006,1,2,0:0:0:0:
146,180,344074,1,10,0:0:0:0:
110,246,344142,1,2,0:0:0:0:
74,311,344210,2,0,L|47:368,3,50,10|0|8|0,0:0|0:0|0:0|0:0,0:0:0:0:
191,283,344483,2,0,L|204:345,1,50,8|0,0:0|0:0,0:0:0:0:
246,193,344620,2,0,L|297:241,1,50,8|0,0:0|0:0,0:0:0:0:
327,153,344756,5,14,0:0:0:0:
327,153,344824,1,0,0:0:0:0:
327,153,344892,2,0,L|384:153,1,50,8|0,0:0|0:0,0:0:0:0:
497,151,345029,2,0,L|441:152,1,50,10|0,0:0|0:0,0:0:0:0:
392,20,345165,2,0,L|421:73,1,50,8|0,0:0|0:0,0:0:0:0:
375,274,345301,1,10,0:0:0:0:
375,274,345370,1,0,0:0:0:0:
375,274,345438,2,0,L|417:211,1,50,8|0,0:0|0:0,0:0:0:0:
217,48,345574,1,10,0:0:0:0:
217,48,345643,1,0,0:0:0:0:
217,48,345710,2,0,L|175:111,1,50,8|0,0:0|0:0,0:0:0:0:
69,22,345847,5,12,0:0:0:0:
49,73,345915,1,0,0:0:0:0:
45,127,345983,1,8,0:0:0:0:
56,181,346051,1,0,0:0:0:0:
83,229,346119,1,8,0:0:0:0:
121,268,346187,1,0,0:0:0:0:
170,294,346256,2,0,L|227:326,1,50,8|0,0:0|0:0,0:0:0:0:
276,43,346393,2,0,L|261:103,1,50,8|0,0:0|0:0,0:0:0:0:
347,303,346529,2,0,L|334:222,1,50,8|0,0:0|0:0,0:0:0:0:
189,174,346665,2,0,L|276:199,1,50,8|0,0:0|0:0,0:0:0:0:
441,104,346802,2,0,L|350:128,1,50,8|0,0:0|0:0,0:0:0:0:
110,129,346938,5,12,0:0:0:0:
71,133,347006,1,0,0:0:0:0:
40,109,347074,1,8,0:0:0:0:
35,70,347142,1,0,0:0:0:0:
59,39,347210,1,8,0:0:0:0:
105,23,347278,1,0,0:0:0:0:
154,32,347346,1,8,0:0:0:0:
191,64,347414,1,0,0:0:0:0:
208,111,347483,5,10,0:0:0:0:
217,170,347551,1,2,0:0:0:0:
252,218,347619,1,10,0:0:0:0:
305,244,347687,1,2,0:0:0:0:
365,244,347755,1,10,0:0:0:0:
418,217,347823,1,2,0:0:0:0:
452,169,347892,1,10,0:0:0:0:
461,110,347960,1,2,0:0:0:0:
443,54,348029,6,0,L|419:5,1,50,14|0,0:0|0:0,0:0:0:0:
305,244,348165,2,0,L|282:288,1,50,8|0,0:0|0:0,0:0:0:0:
318,74,348301,1,8,0:0:0:0:
263,43,348369,1,8,0:0:0:0:
202,35,348437,1,8,0:0:0:0:
142,50,348505,1,8,0:0:0:0:
92,87,348573,1,8,0:0:0:0:
49,322,348710,1,0,0:0:0:0:
203,122,348847,1,0,0:0:0:0:
49,322,348983,1,0,0:0:0:0:
228,231,349120,5,12,0:0:0:0:
282,200,349188,1,8,0:0:0:0:
343,192,349256,1,8,0:0:0:0:
403,207,349324,1,0,0:0:0:0:
453,244,349392,5,2,0:0:0:0:
457,268,349460,1,2,0:0:0:0:
462,293,349528,1,2,0:0:0:0:
467,317,349596,1,2,0:0:0:0:
472,342,349665,2,0,L|490:167,1,150,2|0,0:0|0:0,0:0:0:0:
477,98,349938,2,0,L|505:204,1,100
363,38,350210,6,0,P|303:19|212:33,1,150,4|0,0:0|0:0,0:0:0:0:
147,60,350483,2,0,P|206:47|254:66,1,100,8|0,0:0|0:0,0:0:0:0:
249,338,350756,1,0,0:0:0:0:
273,133,350892,1,0,0:0:0:0:
444,289,351029,1,8,0:0:0:0:
96,171,351165,1,0,0:0:0:0:
216,214,351301,5,6,0:0:0:0:
229,220,351369,1,2,0:0:0:0:
243,226,351437,1,2,0:0:0:0:
257,232,351505,1,2,0:0:0:0:
270,238,351573,1,2,0:0:0:0:
284,244,351641,1,2,0:0:0:0:
298,250,351710,1,2,0:0:0:0:
312,256,351778,1,2,0:0:0:0:
325,262,351847,2,0,L|410:260,1,50,2|0,0:0|0:0,0:0:0:0:
447,243,351983,2,0,L|362:245,1,50,2|0,0:0|0:0,0:0:0:0:
231,328,352120,2,0,L|313:348,1,50,10|0,0:0|0:0,0:0:0:0:
372,162,352256,2,0,L|289:141,1,50,2|0,0:0|0:0,0:0:0:0:
117,219,352392,6,0,B|148:142|148:142|129:42,1,150,14|0,0:0|0:0,0:0:0:0:
209,63,352665,2,0,L|236:187,1,100,10|0,0:0|0:0,0:0:0:0:
296,25,352938,1,10,0:0:0:0:
272,280,353074,1,0,0:0:0:0:
343,128,353210,1,10,0:0:0:0:
184,334,353347,1,0,0:0:0:0:
230,160,353483,5,14,0:0:0:0:
380,312,353620,1,0,0:0:0:0:
462,130,353756,2,0,P|471:68|456:22,1,100,10|0,0:0|0:0,0:0:0:0:
343,128,354029,2,0,P|334:190|349:236,1,100,10|0,0:0|0:0,0:0:0:0:
462,335,354301,2,0,P|471:273|456:227,1,100,10|0,0:0|0:0,0:0:0:0:
204,239,354574,6,0,L|94:259,1,100,14|0,0:0|0:0,0:0:0:0:
189,82,354847,1,10,0:0:0:0:
235,337,354983,2,0,L|345:357,1,100,2|8,0:0|0:0,0:0:0:0:
415,228,355256,2,0,L|305:248,1,100,2|8,0:0|0:0,0:0:0:0:
419,104,355529,1,2,0:0:0:0:
469,332,355665,5,14,0:0:0:0:
419,104,355801,1,0,0:0:0:0:
469,332,355938,2,0,P|413:348|352:336,1,100,10|0,0:0|0:0,0:0:0:0:
158,329,356210,2,0,P|213:312|275:325,1,100,10|0,0:0|0:0,0:0:0:0:
286,103,356483,2,0,B|296:157|296:157|287:201,1,100,10|0,0:0|0:0,0:0:0:0:
469,332,356756,6,0,P|413:315|268:331,1,200,6|10,0:0|0:0,0:0:0:0:
89,27,357165,2,0,L|197:49,1,100,2|0,0:0|0:0,0:0:0:0:
287,183,357438,2,0,L|179:205,1,100,2|8,0:0|0:0,0:0:0:0:
121,123,357710,1,0,0:0:0:0:
316,284,357847,5,6,0:0:0:0:
92,259,357983,1,0,0:0:0:0:
320,178,358120,2,0,L|436:149,1,100,10|0,0:0|0:0,0:0:0:0:
472,315,358392,1,2,0:0:0:0:
319,51,358529,2,0,L|203:22,1,100,0|8,0:0|0:0,0:0:0:0:
81,103,358801,1,0,0:0:0:0:
196,341,358938,5,6,0:0:0:0:
244,69,359074,1,2,0:0:0:0:
56,211,359210,1,10,0:0:0:0:
311,255,359347,2,0,L|436:278,1,100,6|0,0:0|0:0,0:0:0:0:
438,68,359620,1,2,0:0:0:0:
357,354,359756,1,10,0:0:0:0:
438,68,359892,1,6,0:0:0:0:
191,66,360847,1,10,0:0:0:0:
218,257,360983,1,0,0:0:0:0:
411,24,361120,6,0,L|395:216,1,179.999994506836,6|0,0:0|0:0,0:0:0:0:
332,258,361392,2,0,L|320:395,1,119.999996337891,2|8,0:0|0:0,0:0:0:0:
160,224,361665,2,0,L|48:145,1,119.999996337891,2|8,0:0|0:0,0:0:0:0:
221,79,361938,1,2,0:0:0:0:
140,332,362074,1,10,0:0:0:0:
311,147,362210,6,0,P|376:127|479:171,1,179.999994506836,6|0,0:0|0:0,0:0:0:0:
481,246,362483,2,0,B|478:306|478:306|458:369,1,119.999996337891,2|8,0:0|0:0,0:0:0:0:
160,224,362756,2,0,B|200:268|200:268|250:300,1,119.999996337891,2|8,0:0|0:0,0:0:0:0:
390,31,363029,1,2,0:0:0:0:
365,249,363165,1,10,0:0:0:0:
214,84,363301,6,0,B|139:88|88:42|88:42|23:75,1,179.999994506836,6|0,0:0|0:0,0:0:0:0:
31,139,363574,2,0,P|22:204|36:277,1,119.999996337891,2|8,0:0|0:0,0:0:0:0:
363,367,363847,2,0,P|372:302|358:229,1,119.999996337891,2|8,0:0|0:0,0:0:0:0:
190,239,364120,1,2,0:0:0:0:
479,188,364256,1,10,0:0:0:0:
194,73,364392,6,0,B|120:33|120:33|76:88|85:162,1,179.999994506836,6|0,0:0|0:0,0:0:0:0:
73,205,364665,2,0,L|62:349,1,119.999996337891,2|8,0:0|0:0,0:0:0:0:
389,148,364938,2,0,L|269:66,1,119.999996337891,2|8,0:0|0:0,0:0:0:0:
227,329,365210,2,0,L|357:266,1,119.999996337891,2|8,0:0|0:0,0:0:0:0:
4,180,365483,6,0,P|84:157|242:193,1,239.999992675781,6|10,0:0|0:0,0:0:0:0:
121,283,365892,1,2,0:0:0:0:
388,55,366165,1,2,0:0:0:0:
238,69,366301,1,10,0:0:0:0:
471,284,366438,6,0,L|492:31,1,239.999992675781,6|0,0:0|0:0,0:0:0:0:
238,69,366847,2,0,L|217:322,1,239.999992675781,10|0,0:0|0:0,0:0:0:0:
30,164,367256,1,0,0:0:0:0:
366,175,367392,1,10,0:0:0:0:
30,164,367529,1,0,0:0:0:0:
218,308,367665,6,0,B|306:346|351:325|351:325|396:307|495:354,1,239.999992675781,6|8,0:0|0:0,0:0:0:0:
260,79,368074,2,0,B|172:41|127:62|127:62|82:80|-17:33,1,239.999992675781,6|0,0:0|0:0,0:0:0:0:
116,302,368483,1,10,0:0:0:0:
383,98,368620,1,2,0:0:0:0:
277,201,368756,5,6,0:0:0:0:
272,215,368824,1,0,0:0:0:0:
267,229,368892,1,0,0:0:0:0:
263,243,368960,1,0,0:0:0:0:
258,258,369028,1,0,0:0:0:0:
254,272,369096,1,0,0:0:0:0:
249,286,369165,1,0,0:0:0:0:
245,301,369233,1,0,0:0:0:0:
240,315,369301,2,0,L|223:373,3,59.9999981689454
326,330,369574,1,8,0:0:0:0:
163,292,369710,1,0,0:0:0:0:
347,246,369847,5,6,0:0:0:0:
432,300,378301,6,0,L|370:282,1,50
309,335,378574,6,0,B|257:322|257:322|211:343|211:343|155:332,2,150,4|0|0,0:0|0:0|0:0,0:0:0:0:
316,225,379665,6,0,B|264:238|264:238|218:217|218:217|162:228,2,150,4|0|0,0:0|0:0|0:0,0:0:0:0:
201,76,380756,6,0,L|185:194,1,100,4|0,0:0|0:0,0:0:0:0:
324,175,381165,2,0,L|311:76,1,100
256,231,381574,2,0,L|256:298,1,50
256,356,381847,5,4,0:0:0:0:
80,84,382665,6,0,L|142:102,1,50
203,49,382938,6,0,B|255:62|255:62|301:41|301:41|357:52,2,150,4|0|0,0:0|0:0|0:0,0:0:0:0:
196,159,384029,6,0,B|248:146|248:146|294:167|294:167|350:156,2,150,4|0|0,0:0|0:0|0:0,0:0:0:0:
124,213,385120,6,0,P|106:261|116:323,1,100,4|0,0:0|0:0,0:0:0:0:
220,364,385665,2,0,P|224:315|207:269,1,100
388,213,386210,6,0,P|406:261|396:323,1,100,4|0,0:0|0:0,0:0:0:0:
291,364,386756,2,0,P|287:315|305:269,1,100
256,93,387301,5,4,0:0:0:0:
143,70,389483,6,0,L|150:150,1,73.3333355712891,12|0,0:0|0:0,0:0:0:0:
243,272,389665,2,0,L|231:191,1,73.3333355712891,8|0,0:0|0:0,0:0:0:0:
238,49,389847,2,0,L|226:130,1,73.3333355712891,8|0,0:0|0:0,0:0:0:0:
147,292,390029,2,0,L|158:212,1,73.3333355712891,12|0,0:0|0:0,0:0:0:0:
318,235,390210,2,0,L|399:250,1,73.3333355712891,8|0,0:0|0:0,0:0:0:0:
143,70,390392,2,0,L|67:78,1,73.3333355712891,8|0,0:0|0:0,0:0:0:0:
345,40,390574,5,12,0:0:0:0:
417,32,390664,1,2,0:0:0:0:
478,71,390755,1,8,0:0:0:0:
505,138,390846,1,2,0:0:0:0:
485,209,390938,2,0,L|442:290,1,73.3333355712891,8|0,0:0|0:0,0:0:0:0:
325,329,391120,5,12,0:0:0:0:
252,334,391210,1,2,0:0:0:0:
189,294,391301,1,8,0:0:0:0:
163,225,391392,1,2,0:0:0:0:
186,154,391484,2,0,L|228:72,1,73.3333355712891,8|0,0:0|0:0,0:0:0:0:
453,91,391665,5,12,0:0:0:0:
440,86,391755,1,0,0:0:0:0:
425,83,391847,2,0,P|381:75|341:79,1,73.3333355712891,8|0,0:0|0:0,0:0:0:0:
285,119,392029,2,0,P|329:111|369:115,1,73.3333355712891,8|0,0:0|0:0,0:0:0:0:
499,181,392210,2,0,P|455:173|415:177,1,73.3333355712891,12|0,0:0|0:0,0:0:0:0:
271,239,392392,2,0,P|295:212|326:192,1,73.3333355712891,8|0,0:0|0:0,0:0:0:0:
470,308,392574,2,0,P|445:282|415:262,1,73.3333355712891,8|0,0:0|0:0,0:0:0:0:
238,333,392756,5,12,0:0:0:0:
226,341,392846,1,2,0:0:0:0:
213,348,392937,1,8,0:0:0:0:
199,352,393028,1,2,0:0:0:0:
184,354,393119,1,8,0:0:0:0:
170,352,393210,1,2,0:0:0:0:
155,348,393301,1,12,0:0:0:0:
114,289,393391,1,2,0:0:0:0:
98,216,393483,2,0,L|104:120,1,73.3333355712891,8|0,0:0|0:0,0:0:0:0:
218,36,393665,2,0,L|222:109,1,73.3333355712891,8|0,0:0|0:0,0:0:0:0:
362,251,393847,6,0,L|377:23,1,220.000006713867,12|0,0:0|0:0,0:0:0:0:
288,144,394210,2,0,P|240:136|196:152,1,73.3333355712891,8|0,0:0|0:0,0:0:0:0:
40,72,394392,2,0,P|88:64|132:80,1,73.3333355712891,12|0,0:0|0:0,0:0:0:0:
56,265,394574,2,0,P|50:229|59:194,1,73.3333355712891,8|0,0:0|0:0,0:0:0:0:
236,275,394756,2,0,P|241:310|233:346,1,73.3333355712891,8|0,0:0|0:0,0:0:0:0:
225,179,394938,5,12,0:0:0:0:
288,144,395028,1,2,0:0:0:0:
361,140,395120,1,8,0:0:0:0:
427,171,395210,1,2,0:0:0:0:
471,229,395301,2,0,L|488:314,1,73.3333355712891,8|0,0:0|0:0,0:0:0:0:
299,240,395483,5,12,0:0:0:0:
236,275,395573,1,2,0:0:0:0:
163,279,395664,1,8,0:0:0:0:
97,248,395755,1,2,0:0:0:0:
53,190,395847,2,0,L|36:105,1,73.3333355712891,8|0,0:0|0:0,0:0:0:0:
337,118,396029,6,0,L|239:141,1,73.3333355712891,12|0,0:0|0:0,0:0:0:0:
152,186,396210,2,0,L|250:209,1,73.3333355712891,8|0,0:0|0:0,0:0:0:0:
376,264,396392,2,0,L|290:210,1,73.3333355712891,8|0,0:0|0:0,0:0:0:0:
172,26,396574,2,0,L|188:97,1,73.3333355712891,12|0,0:0|0:0,0:0:0:0:
197,337,396756,2,0,L|235:274,1,73.3333355712891,8|0,0:0|0:0,0:0:0:0:
344,22,396938,2,0,L|272:38,1,73.3333355712891,8|0,0:0|0:0,0:0:0:0:
34,209,397120,5,12,0:0:0:0:
93,251,397210,1,2,0:0:0:0:
159,284,397301,1,8,0:0:0:0:
229,306,397392,1,2,0:0:0:0:
301,317,397483,2,0,L|386:322,1,73.3333355712891,8|0,0:0|0:0,0:0:0:0:
475,233,397665,5,12,0:0:0:0:
415,190,397756,1,2,0:0:0:0:
349,157,397846,1,8,0:0:0:0:
279,135,397937,1,2,0:0:0:0:
207,124,398029,2,0,L|122:119,1,73.3333355712891,8|0,0:0|0:0,0:0:0:0:
317,44,398210,5,14,0:0:0:0:
359,32,398300,1,2,0:0:0:0:
401,42,398392,1,10,0:0:0:0:
433,71,398483,1,10,0:0:0:0:
448,112,398573,1,10,0:0:0:0:
441,155,398665,1,10,0:0:0:0:
415,190,398756,5,14,0:0:0:0:
430,259,398846,1,2,0:0:0:0:
393,320,398938,1,10,0:0:0:0:
323,337,399028,1,10,0:0:0:0:
262,300,399119,1,10,0:0:0:0:
244,231,399210,1,10,0:0:0:0:
280,169,399301,5,14,0:0:0:0:
275,90,399392,1,10,0:0:0:0:
220,34,399482,1,10,0:0:0:0:
141,25,399573,1,10,0:0:0:0:
76,70,399664,1,10,0:0:0:0:
55,146,399755,1,10,0:0:0:0:
88,218,399847,2,0,P|114:265|116:307,1,73.3333355712891,14|0,0:0|0:0,0:0:0:0:
246,156,400029,2,0,P|266:125|275:90,1,73.3333355712891,12|0,0:0|0:0,0:0:0:0:
363,253,400210,2,0,P|383:284|392:319,1,73.3333355712891,12|0,0:0|0:0,0:0:0:0:
386,36,400392,6,0,L|373:118,1,73.3333355712891,14|0,0:0|0:0,0:0:0:0:
224,326,400574,2,0,L|237:244,1,73.3333355712891,10|0,0:0|0:0,0:0:0:0:
126,36,400756,2,0,L|139:118,1,73.3333355712891,10|0,0:0|0:0,0:0:0:0:
272,325,400938,2,0,L|259:243,1,73.3333355712891,14|0,0:0|0:0,0:0:0:0:
307,23,401120,2,0,P|309:64|298:105,1,73.3333355712891,10|0,0:0|0:0,0:0:0:0:
118,302,401301,2,0,P|116:261|126:219,1,73.3333355712891,10|0,0:0|0:0,0:0:0:0:
386,36,401483,6,0,B|401:120|401:120|368:197|382:278,1,220.000006713867,14|0,0:0|0:0,0:0:0:0:
213,335,402029,2,0,L|211:260,5,73.3333355712891,14|0|10|0|10|0,0:0|0:0|0:0|0:0|0:0|0:0,0:0:0:0:
127,241,402574,5,14,0:0:0:0:
124,204,402664,1,2,0:0:0:0:
122,167,402756,1,10,0:0:0:0:
119,131,402846,1,10,0:0:0:0:
117,94,402937,1,10,0:0:0:0:
115,58,403028,1,10,0:0:0:0:
112,21,403120,5,14,0:0:0:0:
172,62,403210,1,2,0:0:0:0:
207,126,403301,1,10,0:0:0:0:
208,199,403392,1,10,0:0:0:0:
177,264,403483,1,10,0:0:0:0:
119,308,403574,1,10,0:0:0:0:
48,322,403665,5,14,0:0:0:0:
86,251,403755,1,10,0:0:0:0:
148,200,403847,1,10,0:0:0:0:
225,177,403937,1,10,0:0:0:0:
305,184,404028,1,10,0:0:0:0:
376,221,404119,1,10,0:0:0:0:
428,282,404210,2,0,L|448:361,1,73.3333355712891,14|0,0:0|0:0,0:0:0:0:
445,130,404392,2,0,L|462:58,1,73.3333355712891,12|0,0:0|0:0,0:0:0:0:
270,279,404574,2,0,L|250:357,1,73.3333355712891,12|0,0:0|0:0,0:0:0:0:
359,77,404756,5,14,0:0:0:0:
352,41,404846,1,2,0:0:0:0:
328,15,404937,1,10,0:0:0:0:
292,6,405028,1,10,0:0:0:0:
258,19,405119,1,10,0:0:0:0:
237,48,405210,1,10,0:0:0:0:
235,84,405301,5,14,0:0:0:0:
254,154,405391,1,10,0:0:0:0:
244,226,405482,1,10,0:0:0:0:
208,289,405573,1,10,0:0:0:0:
150,333,405664,1,10,0:0:0:0:
80,352,405755,1,10,0:0:0:0:
7,341,405847,6,0,L|11:106,1,220.000006713867,14|0,0:0|0:0,0:0:0:0:
107,101,406210,2,0,L|89:207,1,73.3333355712891
193,169,406392,2,0,L|209:68,1,73.3333355712891
311,39,406574,2,0,P|330:95|320:138,1,76.6666681289673
294,296,406756,2,0,P|275:240|285:197,1,76.6666681289673
486,149,406938,6,0,L|411:137,1,76.6666681289673,12|0,0:0|0:0,0:0:0:0:
444,305,407120,2,0,L|398:242,1,76.6666681289673,8|0,0:0|0:0,0:0:0:0:
396,77,407301,2,0,L|350:139,1,76.6666681289673,8|0,0:0|0:0,0:0:0:0:
281,371,407483,2,0,L|293:295,1,76.6666681289673,12|0,0:0|0:0,0:0:0:0:
241,50,407665,2,0,L|253:125,1,76.6666681289673,8|0,0:0|0:0,0:0:0:0:
122,345,407847,2,0,L|184:299,1,76.6666681289673,8|0,0:0|0:0,0:0:0:0:
94,27,408029,5,12,0:0:0:0:
136,89,408119,1,2,0:0:0:0:
141,165,408210,1,8,0:0:0:0:
108,233,408301,1,2,0:0:0:0:
45,275,408392,2,0,P|23:318|18:358,1,76.6666681289673,8|0,0:0|0:0,0:0:0:0:
185,338,408574,5,12,0:0:0:0:
227,275,408664,1,2,0:0:0:0:
232,199,408755,1,8,0:0:0:0:
199,131,408846,1,2,0:0:0:0:
136,89,408938,2,0,P|113:46|108:6,1,76.6666681289673,8|0,0:0|0:0,0:0:0:0:
309,80,409120,6,0,P|349:105|373:138,1,76.6666681289673,12|0,0:0|0:0,0:0:0:0:
203,304,409301,2,0,P|162:278|138:245,1,76.6666681289673,8|0,0:0|0:0,0:0:0:0:
368,245,409483,2,0,P|342:285|309:309,1,76.6666681289673,8|0,0:0|0:0,0:0:0:0:
144,139,409665,2,0,P|169:98|202:74,1,76.6666681289673,12|0,0:0|0:0,0:0:0:0:
304,309,409847,2,0,L|321:389,1,76.6666681289673,8|0,0:0|0:0,0:0:0:0:
250,100,410029,2,0,L|267:20,1,76.6666681289673,8|0,0:0|0:0,0:0:0:0:
162,274,410210,5,12,0:0:0:0:
164,286,410300,1,2,0:0:0:0:
167,298,410391,1,8,0:0:0:0:
169,311,410483,1,2,0:0:0:0:
172,323,410573,1,8,0:0:0:0:
175,336,410664,1,2,0:0:0:0:
177,348,410756,1,12,0:0:0:0:
106,321,410846,1,2,0:0:0:0:
69,255,410938,2,0,L|43:167,1,76.6666681289673,8|0,0:0|0:0,0:0:0:0:
174,49,411120,2,0,L|148:136,1,76.6666681289673,8|0,0:0|0:0,0:0:0:0:
244,212,411301,6,0,L|484:248,1,230.000004386902,12|0,0:0|0:0,0:0:0:0:
300,72,411665,2,0,L|338:156,1,76.6666681289673,8|0,0:0|0:0,0:0:0:0:
293,375,411847,2,0,L|331:291,1,76.6666681289673,12|0,0:0|0:0,0:0:0:0:
202,76,412029,2,0,L|288:108,1,76.6666681289673,8|0,0:0|0:0,0:0:0:0:
202,307,412210,2,0,L|288:275,1,76.6666681289673,8|0,0:0|0:0,0:0:0:0:
93,238,412392,5,12,0:0:0:0:
156,196,412482,1,2,0:0:0:0:
231,182,412573,1,8,0:0:0:0:
306,197,412665,1,2,0:0:0:0:
369,239,412756,2,0,L|415:319,1,76.6666681289673,8|0,0:0|0:0,0:0:0:0:
472,127,412938,5,12,0:0:0:0:
408,86,413028,1,2,0:0:0:0:
333,72,413120,1,8,0:0:0:0:
258,87,413210,1,2,0:0:0:0:
195,129,413301,2,0,L|149:208,1,76.6666681289673,8|0,0:0|0:0,0:0:0:0:
403,316,413483,6,0,L|303:332,1,76.6666681289673,12|0,0:0|0:0,0:0:0:0:
109,316,413665,2,0,L|209:332,1,76.6666681289673,8|0,0:0|0:0,0:0:0:0:
430,273,413847,2,0,L|337:315,1,76.6666681289673,8|0,0:0|0:0,0:0:0:0:
81,273,414029,2,0,L|174:315,1,76.6666681289673,12|0,0:0|0:0,0:0:0:0:
183,89,414210,2,0,L|219:183,1,76.6666681289673,8|0,0:0|0:0,0:0:0:0:
413,39,414392,2,0,L|371:131,1,76.6666681289673,8|0,0:0|0:0,0:0:0:0:
413,345,414574,5,12,0:0:0:0:
350,300,414665,1,2,0:0:0:0:
303,240,414756,1,8,0:0:0:0:
277,168,414846,1,2,0:0:0:0:
273,92,414938,2,0,L|273:9,1,76.6666681289673,8|0,0:0|0:0,0:0:0:0:
193,22,415120,5,12,0:0:0:0:
130,66,415210,1,2,0:0:0:0:
83,126,415301,1,8,0:0:0:0:
57,198,415392,1,2,0:0:0:0:
53,274,415483,2,0,L|52:357,1,76.6666681289673,8|0,0:0|0:0,0:0:0:0:
175,283,415665,5,14,0:0:0:0:
204,258,415755,1,2,0:0:0:0:
237,240,415846,1,10,0:0:0:0:
274,229,415937,1,10,0:0:0:0:
312,227,416028,1,10,0:0:0:0:
350,233,416119,1,10,0:0:0:0:
386,247,416210,5,14,0:0:0:0:
318,216,416300,1,2,0:0:0:0:
288,147,416391,1,10,0:0:0:0:
313,77,416482,1,10,0:0:0:0:
379,41,416573,1,10,0:0:0:0:
451,59,416664,1,10,0:0:0:0:
493,121,416756,5,14,0:0:0:0:
418,148,416846,1,10,0:0:0:0:
338,161,416937,1,10,0:0:0:0:
258,157,417028,1,10,0:0:0:0:
180,137,417119,1,10,0:0:0:0:
107,103,417210,1,10,0:0:0:0:
43,55,417301,2,0,L|138:37,1,76.6666681289673,14|0,0:0|0:0,0:0:0:0:
333,171,417483,2,0,L|238:152,1,76.6666681289673,12|0,0:0|0:0,0:0:0:0:
50,303,417665,2,0,L|144:284,1,76.6666681289673,12|0,0:0|0:0,0:0:0:0:
393,298,417847,6,0,P|344:316|283:310,1,76.6666681289673,14|0,0:0|0:0,0:0:0:0:
119,86,418029,2,0,P|168:68|229:74,1,76.6666681289673,10|0,0:0|0:0,0:0:0:0:
150,329,418210,2,0,P|132:280|138:219,1,76.6666681289673,10|0,0:0|0:0,0:0:0:0:
362,55,418392,2,0,P|380:104|374:165,1,76.6666681289673,14|0,0:0|0:0,0:0:0:0:
118,296,418574,2,0,P|113:244|135:187,1,76.6666681289673,10|0,0:0|0:0,0:0:0:0:
393,87,418756,2,0,P|398:139|376:196,1,76.6666681289673,10|0,0:0|0:0,0:0:0:0:
64,140,418938,6,0,L|288:248,1,230.000004386902,14|0,0:0|0:0,0:0:0:0:
400,356,419483,2,0,P|354:351|320:324,5,76.6666681289673,14|0|10|0|10|0,0:0|0:0|0:0|0:0|0:0|0:0,0:0:0:0:
452,284,420029,5,14,0:0:0:0:
473,252,420119,1,2,0:0:0:0:
481,215,420210,1,10,0:0:0:0:
473,177,420301,1,10,0:0:0:0:
452,146,420392,1,10,0:0:0:0:
421,124,420483,1,10,0:0:0:0:
383,117,420574,5,14,0:0:0:0:
345,182,420664,1,2,0:0:0:0:
284,227,420755,1,10,0:0:0:0:
209,244,420846,1,10,0:0:0:0:
135,230,420937,1,10,0:0:0:0:
72,187,421028,1,10,0:0:0:0:
31,123,421120,5,14,0:0:0:0:
95,75,421210,1,10,0:0:0:0:
173,61,421301,1,10,0:0:0:0:
250,82,421392,1,10,0:0:0:0:
309,136,421483,1,10,0:0:0:0:
339,210,421574,1,10,0:0:0:0:
332,289,421665,2,0,L|320:372,1,76.6666681289673,14|0,0:0|0:0,0:0:0:0:
179,94,421847,2,0,L|192:12,1,76.6666681289673,12|0,0:0|0:0,0:0:0:0:
428,268,422029,2,0,L|415:350,1,76.6666681289673,12|0,0:0|0:0,0:0:0:0:
240,244,422210,5,14,0:0:0:0:
202,234,422300,1,2,0:0:0:0:
164,234,422391,1,10,0:0:0:0:
127,242,422482,1,10,0:0:0:0:
92,259,422573,1,10,0:0:0:0:
63,283,422664,1,10,0:0:0:0:
39,313,422756,5,14,0:0:0:0:
115,317,422846,1,2,0:0:0:0:
188,293,422937,1,10,0:0:0:0:
246,244,423028,1,10,0:0:0:0:
282,177,423119,1,10,0:0:0:0:
290,101,423210,1,10,0:0:0:0:
270,28,423301,5,14,0:0:0:0:
238,105,423391,1,10,0:0:0:0:
239,189,423482,1,10,0:0:0:0:
274,265,423573,1,10,0:0:0:0:
336,321,423664,1,10,0:0:0:0:
415,348,423755,1,10,0:0:0:0:
499,341,423847,2,0,L|488:88,1,230.000004386902,14|0,0:0|0:0,0:0:0:0:
84,48,424392,6,0,P|92:116|72:188,1,112.500004291535,6|0,0:0|0:0,0:0:0:0:
44,232,424665,2,0,P|36:288|44:340,1,75.0000028610231,10|0,0:0|0:0,0:0:0:0:
140,308,424938,1,8,0:0:0:0:
233,332,425074,1,8,0:0:0:0:
324,302,425210,1,8,0:0:0:0:
385,227,425347,1,8,0:0:0:0:
396,132,425483,6,0,P|384:52|352:28,1,112.500004291535,2|0,0:0|0:0,0:0:0:0:
284,32,425756,2,0,L|264:120,1,75.0000028610231,10|0,0:0|0:0,0:0:0:0:
148,164,426029,1,8,0:0:0:0:
216,248,426165,1,8,0:0:0:0:
180,80,426301,1,8,0:0:0:0:
112,256,426438,1,8,0:0:0:0:
288,176,426574,6,0,P|360:160|416:176,1,112.500004291535,6|0,0:0|0:0,0:0:0:0:
464,212,426847,2,0,L|456:308,1,75.0000028610231,10|0,0:0|0:0,0:0:0:0:
352,248,427120,1,8,0:0:0:0:
376,80,427256,1,8,0:0:0:0:
352,248,427392,1,8,0:0:0:0:
376,80,427529,1,8,0:0:0:0:
196,188,427665,6,0,L|64:216,2,100.000003814697,8|8|8,0:0|0:0|0:0,0:0:0:0:
316,188,428210,2,0,L|448:216,2,100.000003814697,8|8|8,0:0|0:0|0:0,0:0:0:0:
256,52,428756,5,12,0:0:0:0:
256,52,429574,2,0,P|240:80|240:116,1,50,2|0,0:0|0:0,0:0:0:0:
270,192,429847,5,8,0:0:0:0:
116,164,430938,6,0,L|131:274,1,100,6|0,0:0|0:0,0:0:0:0:
219,217,431347,2,0,L|234:107,1,100,2|0,0:0|0:0,0:0:0:0:
320,69,431756,2,0,L|330:136,1,50,2|0,0:0|0:0,0:0:0:0:
344,217,432029,5,12,0:0:0:0:
442,288,433120,6,0,L|232:305,1,200,12|0,0:0|0:0,0:0:0:0:
329,194,433938,2,0,L|371:158,1,50,2|0,0:0|0:0,0:0:0:0:
438,92,434210,5,8,0:0:0:0:
224,80,435301,6,0,P|166:47|121:55,1,100,6|0,0:0|0:0,0:0:0:0:
271,160,435710,2,0,P|328:126|344:83,1,100,2|0,0:0|0:0,0:0:0:0:
178,166,436120,2,0,P|181:195|192:216,1,50,2|0,0:0|0:0,0:0:0:0:
268,270,436392,6,0,L|333:272,1,50,12|0,0:0|0:0,0:0:0:0:
418,269,436665,1,2,0:0:0:0:
78,78,437483,6,0,B|47:127|46:185|46:185|82:239|67:278,1,200,4|0,0:0|0:0,0:0:0:0:
246,117,438301,2,0,P|241:93|221:72,1,50,2|0,0:0|0:0,0:0:0:0:
152,144,438574,5,8,0:0:0:0:
430,136,439665,6,0,B|442:198|442:198|431:247,1,100,6|0,0:0|0:0,0:0:0:0:
296,242,440074,2,0,B|284:180|284:180|295:131,1,100,2|0,0:0|0:0,0:0:0:0:
363,24,440483,2,0,L|363:92,1,50,2|0,0:0|0:0,0:0:0:0:
363,185,440756,5,12,0:0:0:0:
66,316,441847,6,0,P|122:294|152:168,1,200,4|0,0:0|0:0,0:0:0:0:
73,63,442665,2,0,P|100:84|137:94,1,50,2|0,0:0|0:0,0:0:0:0:
208,44,442938,5,8,0:0:0:0:
408,96,444029,6,0,B|362:88|345:108|296:112,1,100,6|0,0:0|0:0,0:0:0:0:
236,212,444438,2,0,B|281:204|298:224|348:228,1,100,2|0,0:0|0:0,0:0:0:0:
432,240,444847,2,0,L|408:292,1,50,2|0,0:0|0:0,0:0:0:0:
316,316,445120,6,0,L|256:328,1,50,10|0,0:0|0:0,0:0:0:0:
196,316,445392,2,0,L|256:328,1,50,2|0,0:0|0:0,0:0:0:0:
400,192,445665,2,0,L|366:242,1,50,2|0,0:0|0:0,0:0:0:0:
112,192,445938,2,0,L|145:242,1,50,2|0,0:0|0:0,0:0:0:0:
256,148,446210,6,0,P|260:92|128:64,1,200,6|0,0:0|0:0,0:0:0:0:
336,72,447029,2,0,P|363:93|400:103,1,50,2|0,0:0|0:0,0:0:0:0:
471,53,447301,6,0,P|448:64|184:12,1,300,10|0,0:0|0:0,0:0:0:0:
84,76,448392,6,0,P|104:172|80:284,1,200
377,285,449210,2,0,P|354:295|336:312,1,50,2|0,0:0|0:0,0:0:0:0:
471,331,449483,6,0,P|448:320|360:72,1,300,14|0,0:0|0:0,0:0:0:0:
440,20,450574,6,0,P|441:45|271:245,1,300
244,164,451665,6,0,P|246:239|216:324,2,150,10|0|0,0:0|0:0|0:0,0:0:0:0:
88,56,452756,6,0,L|72:160,1,100,6|0,0:0|0:0,0:0:0:0:
152,236,453165,2,0,L|168:132,1,100,2|0,0:0|0:0,0:0:0:0:
196,36,453574,2,0,L|260:28,1,50,2|0,0:0|0:0,0:0:0:0:
336,124,453847,6,0,L|272:116,1,50,12|0,0:0|0:0,0:0:0:0:
352,28,454120,1,2,0:0:0:0:
232,180,454665,2,0,L|228:248,1,50,2|0,0:0|0:0,0:0:0:0:
180,304,454938,6,0,P|224:260|320:336,1,200,6|0,0:0|0:0,0:0:0:0:
416,300,455756,2,0,L|416:360,1,50,2|0,0:0|0:0,0:0:0:0:
407,207,456029,6,0,P|368:96|192:64,1,300,10|0,0:0|0:0,0:0:0:0:
196,144,457118,6,0,P|278:118|224:273,1,350,6|0,0:0|0:0,0:0:0:0:
108,156,458316,6,0,P|168:72|206:345,1,700,12|0,0:0|0:0,0:0:0:0:
124,252,463594,5,14,0:0:0:0:
214,72,463730,1,10,0:0:0:0:
39,169,463866,1,10,0:0:0:0:
238,166,464002,1,10,0:0:0:0:
83,37,464139,1,10,0:0:0:0:
214,261,464275,1,10,0:0:0:0:
287,26,464412,1,10,0:0:0:0:
39,169,464548,1,10,0:0:0:0:
297,235,464684,5,14,0:0:0:0:
214,72,464821,1,10,0:0:0:0:
214,261,464957,1,10,0:0:0:0:
287,26,465093,1,10,0:0:0:0:
116,263,465230,1,10,0:0:0:0:
248,152,465366,1,10,0:0:0:0:
39,169,465502,1,10,0:0:0:0:
224,352,465639,1,10,0:0:0:0:
248,152,465775,5,14,0:0:0:0:
312,292,465912,1,10,0:0:0:0:
368,168,466048,1,10,0:0:0:0:
214,261,466184,1,10,0:0:0:0:
392,352,466321,1,10,0:0:0:0:
120,269,466457,1,10,0:0:0:0:
368,168,466593,1,10,0:0:0:0:
184,352,466730,1,10,0:0:0:0:
392,352,466866,5,14,0:0:0:0:
456,160,467002,1,10,0:0:0:0:
292,352,467139,1,10,0:0:0:0:
368,168,467275,1,10,0:0:0:0:
84,346,467412,2,0,L|200:352,1,100,10|8,0:0|0:0,0:0:0:0:
281,238,467684,2,0,L|165:244,1,100,10|8,0:0|0:0,0:0:0:0:
352,88,467957,5,14,0:0:0:0:
120,140,468093,1,10,0:0:0:0:
368,168,468230,1,10,0:0:0:0:
164,40,468366,1,10,0:0:0:0:
172,276,468502,1,10,0:0:0:0:
240,116,468639,1,10,0:0:0:0:
264,312,468775,1,10,0:0:0:0:
164,40,468912,1,10,0:0:0:0:
348,256,469048,5,14,0:0:0:0:
104,224,469184,1,10,0:0:0:0:
368,168,469321,1,10,0:0:0:0:
120,140,469457,1,10,0:0:0:0:
172,276,469593,1,10,0:0:0:0:
204,32,469729,1,10,0:0:0:0:
260,296,469866,1,10,0:0:0:0:
288,48,470002,1,10,0:0:0:0:
355,264,470139,5,14,0:0:0:0:
355,264,470207,1,0,0:0:0:0:
355,264,470275,1,10,0:0:0:0:
232,161,470412,1,10,0:0:0:0:
411,132,470548,2,0,L|470:127,2,50,14|0|8,0:0|0:0|0:0,0:0:0:0:
204,32,470821,2,0,L|145:27,2,50,14|0|8,0:0|0:0|0:0,0:0:0:0:
375,36,471094,1,10,0:0:0:0:
134,163,471230,5,6,0:0:0:0:
131,167,471298,1,0,0:0:0:0:
129,171,471366,1,8,0:0:0:0:
126,176,471434,1,0,0:0:0:0:
124,180,471502,1,8,0:0:0:0:
121,184,471570,1,0,0:0:0:0:
119,189,471639,1,8,0:0:0:0:
116,193,471707,1,0,0:0:0:0:
113,197,471775,2,0,L|92:242,1,50,8|0,0:0|0:0,0:0:0:0:
184,291,471912,5,8,0:0:0:0:
207,298,471980,1,0,0:0:0:0:
232,301,472048,1,0,0:0:0:0:
257,300,472116,1,0,0:0:0:0:
281,295,472184,1,8,0:0:0:0:
305,286,472252,1,8,0:0:0:0:
326,273,472321,5,12,0:0:0:0:
361,238,472389,1,0,0:0:0:0:
383,193,472457,1,0,0:0:0:0:
388,144,472525,1,0,0:0:0:0:
375,96,472594,5,10,0:0:0:0:
319,47,472662,1,2,0:0:0:0:
247,31,472730,1,2,0:0:0:0:
175,51,472798,1,2,0:0:0:0:
122,103,472866,6,0,L|61:168,3,50,8|0|0|0,0:0|0:0|0:0|0:0,0:0:0:0:
167,181,473139,2,0,L|228:245,3,50,8|0|0|0,0:0|0:0|0:0|0:0,0:0:0:0:
91,322,473412,5,12,0:0:0:0:
133,297,473480,1,0,0:0:0:0:
183,292,473548,1,0,0:0:0:0:
230,308,473616,1,0,0:0:0:0:
266,341,473684,5,10,0:0:0:0:
338,359,473752,1,2,0:0:0:0:
404,328,473820,1,2,0:0:0:0:
436,261,473888,1,2,0:0:0:0:
419,190,473957,6,0,P|409:152|417:117,3,50,8|0|0|0,0:0|0:0|0:0|0:0,0:0:0:0:
473,39,474230,2,0,P|483:77|475:112,3,50,8|0|0|0,0:0|0:0|0:0|0:0,0:0:0:0:
356,58,474503,5,12,0:0:0:0:
322,94,474571,1,0,0:0:0:0:
278,118,474639,1,0,0:0:0:0:
229,124,474707,1,0,0:0:0:0:
180,112,474775,5,10,0:0:0:0:
117,148,474844,1,2,0:0:0:0:
95,218,474911,1,2,0:0:0:0:
128,284,474979,1,2,0:0:0:0:
196,310,475048,6,0,L|273:324,3,50,8|0|0|0,0:0|0:0|0:0|0:0,0:0:0:0:
301,221,475321,2,0,L|224:234,3,50,8|0|0|0,0:0|0:0|0:0|0:0,0:0:0:0:
374,314,475594,5,12,0:0:0:0:
419,295,475662,1,0,0:0:0:0:
450,256,475730,1,0,0:0:0:0:
458,207,475798,1,0,0:0:0:0:
442,160,475866,5,10,0:0:0:0:
414,92,475934,1,2,0:0:0:0:
355,47,476002,1,2,0:0:0:0:
281,38,476070,1,2,0:0:0:0:
213,67,476139,2,0,P|179:90|156:129,3,50,8|0|0|0,0:0|0:0|0:0|0:0,0:0:0:0:
197,189,476412,2,0,P|231:166|254:127,3,50,8|0|0|0,0:0|0:0|0:0|0:0,0:0:0:0:
92,164,476684,6,0,P|52:237|193:328,1,250,12|0,0:0|0:0,0:0:0:0:
420,164,477230,2,0,P|460:237|319:328,1,250
256,287,477639,1,2,0:0:0:0:
256,287,477707,1,2,0:0:0:0:
256,287,477775,6,0,L|256:37,2,250,14|0|0,0:0|0:0|0:0,0:0:0:0:
406,57,478594,1,2,0:0:0:0:
406,57,478662,1,2,0:0:0:0:
406,57,478730,1,2,0:0:0:0:
406,57,478798,1,2,0:0:0:0:
406,57,478866,6,0,L|421:200,1,125,14|0,0:0|0:0,0:0:0:0:
380,310,479139,1,0,0:0:0:0:
291,166,479275,2,0,P|272:130|278:87,2,62.5
380,310,479548,2,0,P|398:345|393:389,2,62.5,8|0|0,0:0|0:0|0:0,0:0:0:0:
242,35,479821,1,0,0:0:0:0:
211,266,479957,5,14,0:0:0:0:
211,266,480025,1,0,0:0:0:0:
211,266,480094,2,0,L|188:343,1,62.5
301,266,480230,1,14,0:0:0:0:
301,266,480298,1,0,0:0:0:0:
301,266,480367,2,0,L|324:343,1,62.5
169,190,480503,1,14,0:0:0:0:
169,190,480571,1,0,0:0:0:0:
169,190,480640,2,0,L|91:208,1,62.5
342,190,480775,1,14,0:0:0:0:
342,190,480843,1,0,0:0:0:0:
342,190,480912,2,0,L|420:208,1,62.5
243,62,481048,6,0,L|270:351,1,250,6|0,0:0|0:0,0:0:0:0:
378,313,481457,2,0,P|411:316|448:307,2,62.5
169,190,481730,2,0,P|135:181|99:184,2,62.5
342,190,482003,1,0,0:0:0:0:
342,190,482071,1,0,0:0:0:0:
342,190,482139,5,12,0:0:0:0:
401,174,482207,1,0,0:0:0:0:
435,123,482275,1,8,0:0:0:0:
429,62,482343,1,8,0:0:0:0:
384,21,482411,1,8,0:0:0:0:
323,18,482479,1,8,0:0:0:0:
275,55,482548,2,0,L|219:102,1,62.5,8|0,0:0|0:0,0:0:0:0:
115,97,482684,5,12,0:0:0:0:
55,112,482752,1,0,0:0:0:0:
21,163,482820,1,0,0:0:0:0:
27,224,482888,1,8,0:0:0:0:
72,265,482956,1,8,0:0:0:0:
133,268,483024,1,8,0:0:0:0:
181,231,483094,2,0,L|237:184,1,62.5,8|0,0:0|0:0,0:0:0:0:
396,182,483230,5,2,0:0:0:0:
396,182,483298,1,0,0:0:0:0:
396,182,483366,2,0,L|294:279,1,125,10|0,0:0|0:0,0:0:0:0:
115,97,483639,1,2,0:0:0:0:
115,97,483707,1,0,0:0:0:0:
115,97,483775,2,0,P|175:68|260:78,1,125,10|0,0:0|0:0,0:0:0:0:
396,182,484048,2,0,P|336:211|251:201,1,125
466,37,484321,6,0,L|484:172,1,125
436,266,484594,1,0,0:0:0:0:
417,291,484662,1,0,0:0:0:0:
394,311,484730,1,0,0:0:0:0:
367,327,484798,1,0,0:0:0:0:
337,337,484866,1,0,0:0:0:0:
306,341,484934,1,0,0:0:0:0:
275,339,485003,2,0,L|213:334,1,62.5
95,199,485139,5,10,0:0:0:0:
102,138,485207,1,2,0:0:0:0:
152,104,485275,1,2,0:0:0:0:
210,119,485343,1,2,0:0:0:0:
238,173,485411,5,14,0:0:0:0:
