osu file format v14

[General]
AudioFilename: audio.mp3
AudioLeadIn: 0
PreviewTime: 292392
Countdown: 0
SampleSet: Soft
StackLeniency: 0.7
Mode: 0
LetterboxInBreaks: 0
WidescreenStoryboard: 1

[Editor]
Bookmarks: 57847,75301,92756,127665,164756,187665,292392,458210
DistanceSpacing: 0.8
BeatDivisor: 4
GridSize: 32
TimelineZoom: 2.3

[Metadata]
Title:Yomi yori Kikoyu, Koukoku no Tou to Honoo no Shoujo.
TitleUnicode:黄泉より聴こゆ、皇国の燈と焔の少女。
Artist:Imperial Circus Dead Decadence
ArtistUnicode:Imperial Circus Dead Decadence
Creator:PoNo
Version:Reverberation
Source:
Tags:Symphonic Black Metal ICDD KIMI BRIDEAR
BeatmapID:1218337
BeatmapSetID:575330

[Difficulty]
HPDrainRate:5.5
CircleSize:3.3
OverallDifficulty:9
ApproachRate:9.7
SliderMultiplier:2.3
SliderTickRate:1

[Events]
//Background and Video events
0,0,"bg.jpg",0,0
//Break Periods
2,192255,207923
2,370073,384651
//Storyboard Layer 0 (Background)
//Storyboard Layer 1 (Fail)
//Storyboard Layer 2 (Pass)
//Storyboard Layer 3 (Foreground)
//Storyboard Sound Samples

[TimingPoints]
55,272.727272727273,4,3,1,80,1,0
1145,-200,4,3,1,70,0,0
4418,-100,4,3,1,70,0,0
4623,-100,4,3,1,5,0,0
4691,-100,4,3,1,70,0,0
4896,-100,4,3,1,5,0,0
4964,-100,4,3,1,70,0,0
5168,-100,4,3,1,5,0,0
5236,-100,4,3,1,70,0,0
5441,-100,4,3,1,5,0,0
5509,-200,4,3,1,70,0,0
7691,-100,4,3,1,70,0,0
9873,-200,4,3,1,70,0,0
16418,-83.3333333333333,4,3,1,70,0,0
17509,-200,4,3,1,70,0,0
27327,-100,4,3,1,70,0,0
36055,-100,4,3,1,70,0,1
40418,-100,4,3,1,70,0,0
41509,-200,4,3,1,70,0,0
42600,-100,4,3,1,70,0,0
57600,-200,4,3,1,70,0,0
57873,-100,4,1,1,70,0,0
66327,-200,4,1,1,70,0,0
66600,-100,4,1,1,70,0,0
75327,-200,4,3,1,70,0,0
75600,-83.3333333333333,4,3,1,70,0,0
75873,-200,4,3,1,70,0,0
92782,-100,4,1,1,70,0,0
110236,-100,4,3,1,70,0,0
120873,-200,4,3,1,70,0,0
121146,-100,4,3,1,70,0,0
127691,-100,4,1,1,70,0,1
136145,-200,4,1,1,70,0,0
136418,-83.3333333333333,4,1,1,70,0,1
140782,-90.9090909090909,4,1,1,70,0,1
145145,-100,4,1,1,70,0,0
164236,-100,4,2,1,70,0,0
164782,-300,4,2,1,70,0,0
165327,-200,4,2,1,70,0,0
165873,-100,4,1,1,70,0,1
183327,-200,4,1,1,70,0,0
186600,-300,4,1,1,70,0,0
192055,-300,4,2,1,70,0,0
208418,-300,4,2,1,70,0,0
226964,-142.857142857143,4,2,1,70,0,0
235691,-100,4,3,1,70,0,0
258600,-200,4,3,1,70,0,0
266236,-100,4,3,1,70,0,0
274964,-100,4,3,1,70,0,1
290236,-100,4,3,1,70,0,0
292418,-100,4,2,1,70,0,1
294600,-200,4,1,1,70,0,0
296782,-100,4,2,1,70,0,0
309873,-83.3333333333333,4,3,1,70,0,1
313691,-100,4,3,1,70,0,1
314236,-83.3333333333333,4,3,1,70,0,1
327055,-100,4,3,1,70,0,1
327327,-83.3333333333333,4,3,1,70,0,1
334964,-100,4,3,1,70,0,0
352418,-100,4,1,1,70,0,1
360873,-200,4,1,1,70,0,0
361145,-83.3333333333333,4,1,1,70,0,1
369873,-200,4,3,1,70,0,0
387464,-200,4,2,1,70,0,0
388418,-300,4,2,1,70,0,0
388964,-200,4,2,1,70,0,0
389509,-100,4,1,1,70,0,1
406964,-90.9090909090909,4,1,1,70,0,1
424418,-200,4,1,1,70,0,0
433146,-200,4,2,1,70,0,0
433214,-200,4,1,1,70,0,0
463622,272.727272727273,4,1,1,100,1,0
472349,-83.3333333333333,4,3,1,70,0,1
476781,-100,4,3,1,70,0,0
485440,-100,4,2,1,70,0,0

[Colours]
Combo1 : 128,128,128
Combo2 : 255,0,0
Combo3 : 128,64,64

[HitObjects]
380,320,1145,6,0,L|384:280,11,28.75,12|0|0|0|2|0|0|0|2|0|0|0,0:0|0:0|0:0|0:0|0:0|0:0|0:0|0:0|0:0|0:0|0:0|0:0,0:0:0:0:
447,234,1964,1,2,0:0:0:0:
445,229,2032,1,2,0:0:0:0:
444,223,2100,1,2,0:0:0:0:
442,218,2168,1,2,0:0:0:0:
441,212,2236,6,0,L|448:164,7,28.75,8|0|0|0|2|0|0|0,0:0|0:0|0:0|0:0|0:0|0:0|0:0|0:0,0:0:0:0:
376,99,2782,2,0,L|383:147,7,28.75,8|0|0|0|2|0|0|0,0:0|0:0|0:0|0:0|0:0|0:0|0:0|0:0,0:0:0:0:
312,186,3327,5,12,0:0:0:0:
306,188,3396,1,0,0:0:0:0:
301,190,3464,1,0,0:0:0:0:
296,192,3532,1,0,0:0:0:0:
290,194,3600,1,2,0:0:0:0:
285,196,3668,1,0,0:0:0:0:
279,197,3736,1,0,0:0:0:0:
274,199,3805,1,0,0:0:0:0:
268,201,3873,2,0,L|220:194,7,28.75,2|0|0|0|2|2|2|2,0:0|0:0|0:0|0:0|0:0|0:0|0:0|0:0,0:0:0:0:
142,220,4418,6,0,P|170:124|244:97,1,172.5,8|0,0:0|0:0,0:0:0:0:
270,68,4691,2,0,P|159:96|123:180,1,172.5,2|0,0:0|0:0,0:0:0:0:
151,224,4964,2,0,P|179:128|255:104,1,172.5,8|0,0:0|0:0,0:0:0:0:
265,129,5236,2,0,P|177:153|174:224,1,172.5,2|0,0:0|0:0,0:0:0:0:
308,301,5509,6,0,L|312:261,11,28.75,12|0|0|0|2|0|0|0|2|0|0|0,0:0|0:0|0:0|0:0|0:0|0:0|0:0|0:0|0:0|0:0|0:0|0:0,0:0:0:0:
279,190,6327,1,2,0:0:0:0:
278,185,6396,1,2,0:0:0:0:
277,179,6464,1,2,0:0:0:0:
276,173,6532,1,2,0:0:0:0:
275,167,6600,6,0,L|312:186,7,28.75,8|0|0|0|0|0|0|0,0:0|0:0|0:0|0:0|0:0|0:0|0:0|0:0,0:0:0:0:
418,133,7146,2,0,L|381:152,7,28.75,8|0|0|0|0|0|0|0,0:0|0:0|0:0|0:0|0:0|0:0|0:0|0:0,0:0:0:0:
305,97,7691,5,12,0:0:0:0:
493,188,7827,1,0,0:0:0:0:
303,328,7964,2,0,L|313:261,3,57.5,2|0|8|0,0:0|0:0|0:0|0:0,0:0:0:0:
209,152,8236,2,0,L|215:209,3,57.5,2|0|8|0,0:0|0:0|0:0|0:0,0:0:0:0:
216,223,8509,1,8,0:0:0:0:
217,234,8577,1,0,0:0:0:0:
218,246,8646,1,0,0:0:0:0:
220,257,8714,1,0,0:0:0:0:
221,269,8782,5,8,0:0:0:0:
190,221,8850,1,0,0:0:0:0:
136,204,8918,1,0,0:0:0:0:
83,224,8986,1,0,0:0:0:0:
54,272,9055,1,2,0:0:0:0:
62,328,9123,1,0,0:0:0:0:
103,367,9191,1,0,0:0:0:0:
160,371,9259,1,0,0:0:0:0:
214,353,9327,5,8,0:0:0:0:
261,318,9396,1,0,0:0:0:0:
316,301,9464,1,0,0:0:0:0:
373,307,9532,1,0,0:0:0:0:
422,335,9600,2,0,P|361:351|289:328,1,115,2|0,0:0|0:0,0:0:0:0:
190,221,9873,6,0,P|236:216|280:228,1,86.25,12|0,0:0|0:0,0:0:0:0:
422,335,10145,1,8,0:0:0:0:
430,323,10213,1,0,0:0:0:0:
436,310,10281,1,0,0:0:0:0:
440,296,10349,1,0,0:0:0:0:
442,282,10417,5,2,0:0:0:0:
442,267,10485,1,0,0:0:0:0:
440,253,10554,1,0,0:0:0:0:
436,240,10622,1,0,0:0:0:0:
429,227,10690,1,2,0:0:0:0:
422,214,10759,1,0,0:0:0:0:
418,200,10827,1,0,0:0:0:0:
416,186,10896,1,0,0:0:0:0:
414,169,10964,6,0,L|427:122,3,28.75,8|0|0|0,0:0|0:0|0:0|0:0,0:0:0:0:
349,46,11236,2,0,L|362:93,3,28.75,8|0|0|0,0:0|0:0|0:0|0:0,0:0:0:0:
314,191,11509,2,0,L|306:163,3,28.75,2|0|0|0,0:0|0:0|0:0|0:0,0:0:0:0:
200,83,11782,2,0,L|208:111,3,28.75,2|0|0|0,0:0|0:0|0:0|0:0,0:0:0:0:
174,231,12055,6,0,L|166:203,7,28.75,8|0|0|0|0|0|8|0,0:0|0:0|0:0|0:0|0:0|0:0|0:0|0:0,0:0:0:0:
62,150,12600,1,8,0:0:0:0:
70,161,12668,1,0,0:0:0:0:
77,174,12736,1,0,0:0:0:0:
82,187,12804,1,0,0:0:0:0:
85,201,12872,1,8,0:0:0:0:
85,216,12940,1,0,0:0:0:0:
83,230,13009,1,0,0:0:0:0:
79,244,13077,1,0,0:0:0:0:
72,258,13145,5,8,0:0:0:0:
96,243,13213,1,0,0:0:0:0:
123,233,13281,1,0,0:0:0:0:
152,228,13349,1,0,0:0:0:0:
180,228,13418,1,2,0:0:0:0:
209,232,13485,1,0,0:0:0:0:
236,241,13554,1,0,0:0:0:0:
261,255,13622,1,0,0:0:0:0:
284,272,13691,6,0,L|303:298,3,28.75,8|0|0|0,0:0|0:0|0:0|0:0,0:0:0:0:
369,227,13964,2,0,L|408:246,3,28.75,2|0|0|0,0:0|0:0|0:0|0:0,0:0:0:0:
437,155,14236,5,12,0:0:0:0:
426,145,14304,1,0,0:0:0:0:
413,138,14372,1,0,0:0:0:0:
400,132,14440,1,0,0:0:0:0:
386,128,14508,1,0,0:0:0:0:
372,126,14577,1,0,0:0:0:0:
358,127,14645,1,8,0:0:0:0:
344,129,14713,1,0,0:0:0:0:
330,134,14782,5,0,0:0:0:0:
316,138,14850,1,0,0:0:0:0:
302,141,14918,1,0,0:0:0:0:
287,141,14987,1,0,0:0:0:0:
273,139,15055,1,8,0:0:0:0:
259,136,15123,1,0,0:0:0:0:
246,130,15191,1,0,0:0:0:0:
234,122,15259,1,0,0:0:0:0:
221,113,15327,6,0,L|192:74,3,28.75,8|0|0|0,0:0|0:0|0:0|0:0,0:0:0:0:
144,155,15600,2,0,L|100:145,3,28.75,2|0|0|0,0:0|0:0|0:0|0:0,0:0:0:0:
90,233,15873,6,0,L|42:246,1,28.75,8|0,0:0|0:0,0:0:0:0:
233,277,16009,2,0,L|281:290,1,28.75,8|0,0:0|0:0,0:0:0:0:
107,332,16145,2,0,L|59:345,3,28.75,8|0|0|0,0:0|0:0|0:0|0:0,0:0:0:0:
58,329,16418,5,12,0:0:0:0:
233,277,16555,1,0,0:0:0:0:
233,277,16623,1,0,0:0:0:0:
233,277,16691,1,0,0:0:0:0:
115,151,16827,1,8,0:0:0:0:
143,301,16964,5,2,0:0:0:0:
143,294,17032,1,0,0:0:0:0:
144,287,17100,1,0,0:0:0:0:
145,280,17168,1,0,0:0:0:0:
145,273,17236,1,8,0:0:0:0:
146,266,17305,1,0,0:0:0:0:
147,259,17373,1,0,0:0:0:0:
147,252,17441,1,0,0:0:0:0:
148,246,17509,6,0,L|97:254,3,28.75,8|0|0|0,0:0|0:0|0:0|0:0,0:0:0:0:
33,191,17782,2,0,L|61:186,3,28.75,2|0|0|0,0:0|0:0|0:0|0:0,0:0:0:0:
148,246,18055,2,0,L|186:241,3,28.75,8|0|0|0,0:0|0:0|0:0|0:0,0:0:0:0:
33,191,18327,2,0,L|-18:200,3,28.75,2|0|0|0,0:0|0:0|0:0|0:0,0:0:0:0:
114,116,18600,5,12,0:0:0:0:
125,106,18668,1,0,0:0:0:0:
137,99,18736,1,0,0:0:0:0:
150,94,18804,1,0,0:0:0:0:
164,91,18872,1,0,0:0:0:0:
179,90,18940,1,0,0:0:0:0:
193,91,19009,1,0,0:0:0:0:
207,94,19077,1,0,0:0:0:0:
220,100,19145,5,8,0:0:0:0:
233,105,19213,1,0,0:0:0:0:
247,108,19281,1,0,0:0:0:0:
261,109,19350,1,0,0:0:0:0:
275,108,19418,1,8,0:0:0:0:
289,105,19486,1,0,0:0:0:0:
303,100,19555,1,8,0:0:0:0:
315,93,19622,1,0,0:0:0:0:
326,83,19691,6,0,L|349:35,3,28.75,8|0|0|0,0:0|0:0|0:0|0:0,0:0:0:0:
401,128,19964,2,0,L|440:98,3,28.75,2|0|8|0,0:0|0:0|0:0|0:0,0:0:0:0:
449,209,20236,5,0,0:0:0:0:
436,215,20304,1,0,0:0:0:0:
422,219,20372,1,0,0:0:0:0:
408,221,20440,1,0,0:0:0:0:
393,221,20508,1,8,0:0:0:0:
379,219,20576,1,0,0:0:0:0:
366,215,20645,1,0,0:0:0:0:
353,208,20713,1,0,0:0:0:0:
341,200,20782,6,0,L|312:167,3,28.75,8|0|0|0,0:0|0:0|0:0|0:0,0:0:0:0:
212,145,21055,2,0,L|230:166,3,28.75,8|0|0|0,0:0|0:0|0:0|0:0,0:0:0:0:
141,266,21327,5,0,0:0:0:0:
139,251,21395,1,0,0:0:0:0:
137,237,21463,1,0,0:0:0:0:
135,223,21531,1,0,0:0:0:0:
133,208,21599,1,10,0:0:0:0:
131,194,21668,1,2,0:0:0:0:
130,180,21736,1,2,0:0:0:0:
128,166,21804,1,2,0:0:0:0:
126,151,21873,6,0,L|129:107,3,28.75,10|0|0|0,0:0|0:0|0:0|0:0,0:0:0:0:
192,31,22145,2,0,L|190:59,3,28.75,0|0|8|0,0:0|0:0|0:0|0:0,0:0:0:0:
210,173,22418,2,0,L|213:129,3,28.75
276,53,22690,2,0,L|274:81,3,28.75,8|0|0|0,0:0|0:0|0:0|0:0,0:0:0:0:
307,174,22964,5,14,0:0:0:0:
320,199,23032,1,2,0:0:0:0:
341,218,23100,1,2,0:0:0:0:
368,227,23168,1,2,0:0:0:0:
397,226,23236,1,2,0:0:0:0:
423,214,23305,1,0,0:0:0:0:
443,193,23373,1,8,0:0:0:0:
453,167,23441,1,0,0:0:0:0:
453,137,23509,5,0,0:0:0:0:
427,150,23577,1,0,0:0:0:0:
405,168,23646,1,0,0:0:0:0:
387,190,23714,1,0,0:0:0:0:
374,216,23782,1,10,0:0:0:0:
368,244,23850,1,0,0:0:0:0:
367,273,23918,1,0,0:0:0:0:
372,301,23986,1,0,0:0:0:0:
387,324,24055,6,0,L|417:364,7,28.75,8|0|0|0|0|0|0|0,0:0|0:0|0:0|0:0|0:0|0:0|0:0|0:0,0:0:0:0:
292,314,24600,2,0,L|298:359,3,28.75,8|0|0|0,0:0|0:0|0:0|0:0,0:0:0:0:
219,252,24873,2,0,L|201:300,3,28.75,8|0|0|0,0:0|0:0|0:0|0:0,0:0:0:0:
140,327,25146,5,12,0:0:0:0:
281,163,25282,1,0,0:0:0:0:
281,163,25350,1,0,0:0:0:0:
281,163,25418,1,0,0:0:0:0:
143,161,25555,1,8,0:0:0:0:
372,210,25691,6,0,L|417:218,2,28.75
219,252,25964,2,0,L|174:260,2,28.75,8|0|0,0:0|0:0|0:0,0:0:0:0:
387,96,26236,5,10,0:0:0:0:
383,124,26305,1,2,0:0:0:0:
379,153,26373,1,2,0:0:0:0:
376,181,26441,1,2,0:0:0:0:
372,210,26509,1,2,0:0:0:0:
369,238,26577,1,2,0:0:0:0:
365,267,26646,1,2,0:0:0:0:
362,295,26714,1,2,0:0:0:0:
358,324,26782,6,0,L|352:367,3,28.75,10|0|0|0,0:0|0:0|0:0|0:0,0:0:0:0:
281,268,27055,2,0,L|284:239,3,28.75,8|0|0|0,0:0|0:0|0:0|0:0,0:0:0:0:
265,210,27327,5,12,0:0:0:0:
467,140,27464,1,0,0:0:0:0:
345,316,27600,1,2,0:0:0:0:
341,102,27736,1,0,0:0:0:0:
470,272,27873,1,2,0:0:0:0:
249,302,28009,1,0,0:0:0:0:
388,176,28146,1,2,0:0:0:0:
428,360,28282,1,0,0:0:0:0:
265,210,28418,5,12,0:0:0:0:
467,140,28555,1,0,0:0:0:0:
345,316,28691,1,2,0:0:0:0:
341,102,28827,1,0,0:0:0:0:
470,272,28964,1,2,0:0:0:0:
249,302,29100,1,0,0:0:0:0:
341,102,29236,1,2,0:0:0:0:
470,272,29373,1,0,0:0:0:0:
265,210,29509,6,0,B|304:209|304:209|326:213|326:213|351:206|351:206|395:203,1,115,12|0,0:0|0:0,0:0:0:0:
221,103,29782,1,2,0:0:0:0:
249,302,29918,1,0,0:0:0:0:
341,102,30055,1,2,0:0:0:0:
369,301,30191,1,0,0:0:0:0:
213,86,30327,1,2,0:0:0:0:
253,320,30464,1,0,0:0:0:0:
342,87,30600,6,0,L|329:240,1,115,12|0,0:0|0:0,0:0:0:0:
172,277,30873,1,2,0:0:0:0:
213,86,31009,1,0,0:0:0:0:
172,277,31146,2,0,L|160:145,1,115,14|0,0:0|0:0,0:0:0:0:
68,23,31418,2,0,L|78:137,1,115,10|0,0:0|0:0,0:0:0:0:
102,341,31691,5,12,0:0:0:0:
283,193,31827,1,0,0:0:0:0:
78,137,31964,1,2,0:0:0:0:
267,288,32100,1,0,0:0:0:0:
90,239,32236,1,2,0:0:0:0:
252,382,32373,1,0,0:0:0:0:
102,341,32509,1,2,0:0:0:0:
353,257,32646,1,0,0:0:0:0:
198,132,32782,5,12,0:0:0:0:
267,288,32918,1,0,0:0:0:0:
341,101,33055,1,2,0:0:0:0:
184,311,33191,1,0,0:0:0:0:
397,175,33327,1,2,0:0:0:0:
198,132,33464,1,0,0:0:0:0:
353,257,33600,1,2,0:0:0:0:
154,214,33736,1,2,0:0:0:0:
333,348,33873,5,8,0:0:0:0:
198,132,34009,1,0,0:0:0:0:
75,332,34145,1,2,0:0:0:0:
256,235,34282,1,0,0:0:0:0:
82,127,34418,1,8,0:0:0:0:
65,350,34555,1,0,0:0:0:0:
247,349,34691,2,0,L|258:202,1,115,8|0,0:0|0:0,0:0:0:0:
273,55,34964,5,12,0:0:0:0:
472,169,35100,1,0,0:0:0:0:
234,243,35236,1,2,0:0:0:0:
234,243,35305,1,2,0:0:0:0:
234,243,35373,1,2,0:0:0:0:
234,243,35441,1,2,0:0:0:0:
234,243,35509,1,10,0:0:0:0:
273,55,35646,2,0,L|285:220,1,115,8|0,0:0|0:0,0:0:0:0:
301,338,35918,1,2,0:0:0:0:
301,338,35986,1,0,0:0:0:0:
301,338,36055,5,12,0:0:0:0:
272,318,36123,1,0,0:0:0:0:
240,307,36191,1,0,0:0:0:0:
205,305,36259,1,0,0:0:0:0:
172,312,36327,1,2,0:0:0:0:
140,324,36396,1,0,0:0:0:0:
105,324,36464,1,0,0:0:0:0:
73,312,36532,1,0,0:0:0:0:
48,289,36600,5,8,0:0:0:0:
32,258,36668,1,0,0:0:0:0:
27,224,36736,1,0,0:0:0:0:
35,191,36805,1,0,0:0:0:0:
54,163,36873,1,2,0:0:0:0:
82,143,36941,1,0,0:0:0:0:
113,130,37009,1,0,0:0:0:0:
150,138,37077,1,0,0:0:0:0:
180,153,37146,5,12,0:0:0:0:
205,129,37214,1,0,0:0:0:0:
236,115,37282,1,0,0:0:0:0:
271,114,37350,1,0,0:0:0:0:
303,124,37418,1,2,0:0:0:0:
330,145,37486,1,0,0:0:0:0:
348,175,37555,1,0,0:0:0:0:
354,208,37623,1,0,0:0:0:0:
348,242,37691,5,8,0:0:0:0:
330,272,37759,1,0,0:0:0:0:
303,293,37827,1,0,0:0:0:0:
270,303,37896,1,0,0:0:0:0:
236,301,37964,1,2,0:0:0:0:
273,309,38032,1,0,0:0:0:0:
304,310,38100,1,0,0:0:0:0:
338,315,38168,1,0,0:0:0:0:
373,320,38236,6,0,L|465:308,3,57.5,12|0|0|0,0:0|0:0|0:0|0:0,0:0:0:0:
236,301,38509,2,0,L|144:288,3,57.5,2|0|0|0,0:0|0:0|0:0|0:0,0:0:0:0:
354,208,38782,2,0,L|445:195,3,57.5,8|0|0|0,0:0|0:0|0:0|0:0,0:0:0:0:
216,188,39055,2,0,L|124:175,3,57.5,2|0|0|0,0:0|0:0|0:0|0:0,0:0:0:0:
324,84,39327,5,12,0:0:0:0:
335,82,39396,1,0,0:0:0:0:
346,80,39464,1,0,0:0:0:0:
358,79,39532,1,0,0:0:0:0:
379,65,39600,2,0,L|226:50,1,115,8|0,0:0|0:0,0:0:0:0:
125,88,39873,6,0,L|28:97,3,57.5,8|0|0|0,0:0|0:0|0:0|0:0,0:0:0:0:
216,188,40146,2,0,L|273:193,3,57.5,8|0|0|0,0:0|0:0|0:0|0:0,0:0:0:0:
80,255,40418,5,12,0:0:0:0:
80,255,41236,2,0,L|151:262,1,57.5
198,203,41373,2,0,L|294:214,1,57.5
309,271,41509,6,0,B|418:254|397:331|470:332|543:299|513:163|417:201,1,316.25,8|0,0:0|0:0,0:0:0:0:
327,184,42327,2,0,L|355:187,3,28.75
365,163,42600,5,8,0:0:0:0:
176,69,42736,2,0,L|176:131,1,57.5
169,278,42873,1,0,0:0:0:0:
72,146,43009,1,8,0:0:0:0:
256,182,43145,1,8,0:0:0:0:
256,182,43213,1,0,0:0:0:0:
256,182,43282,1,0,0:0:0:0:
86,63,43418,2,0,L|29:22,2,57.5,8|0|0,0:0|0:0|0:0,0:0:0:0:
169,278,43691,6,0,L|257:245,3,57.5,8|0|0|0,0:0|0:0|0:0|0:0,0:0:0:0:
177,163,43964,2,0,L|93:191,3,57.5,2|0|0|0,0:0|0:0|0:0|0:0,0:0:0:0:
23,89,44236,2,0,L|107:117,3,57.5,8|0|0|0,0:0|0:0|0:0|0:0,0:0:0:0:
224,62,44509,2,0,L|140:90,3,57.5,8|0|0|0,0:0|0:0|0:0|0:0,0:0:0:0:
43,183,44782,5,12,0:0:0:0:
256,192,44850,12,0,45736,0:0:0:0:
256,192,45873,5,8,0:0:0:0:
57,269,46418,5,8,0:0:0:0:
57,269,46964,5,10,0:0:0:0:
81,244,47032,1,0,0:0:0:0:
111,228,47100,1,0,0:0:0:0:
145,220,47168,1,0,0:0:0:0:
179,222,47236,1,2,0:0:0:0:
211,233,47305,1,0,0:0:0:0:
240,253,47373,1,10,0:0:0:0:
269,273,47441,1,0,0:0:0:0:
301,284,47509,1,0,0:0:0:0:
335,286,47577,1,0,0:0:0:0:
369,278,47646,1,0,0:0:0:0:
399,262,47714,1,0,0:0:0:0:
423,238,47782,1,10,0:0:0:0:
440,208,47850,1,0,0:0:0:0:
448,174,47918,1,0,0:0:0:0:
446,140,47986,1,0,0:0:0:0:
434,108,48055,5,8,0:0:0:0:
402,140,48123,1,0,0:0:0:0:
381,181,48191,1,0,0:0:0:0:
376,226,48259,1,0,0:0:0:0:
390,270,48327,2,0,L|436:342,3,57.5,8|0|0|0,0:0|0:0|0:0|0:0,0:0:0:0:
301,291,48600,2,0,L|305:382,3,57.5,8|0|0|0,0:0|0:0|0:0|0:0,0:0:0:0:
199,299,48873,2,0,L|237:142,1,115,8|0,0:0|0:0,0:0:0:0:
263,35,49146,5,12,0:0:0:0:
256,192,49214,12,2,51055,0:0:0:0:
386,109,51191,5,2,0:0:0:0:
386,109,51259,1,2,0:0:0:0:
386,109,51327,5,2,0:0:0:0:
358,88,51396,1,0,0:0:0:0:
325,78,51464,1,0,0:0:0:0:
291,80,51532,1,0,0:0:0:0:
260,94,51600,1,2,0:0:0:0:
236,118,51668,1,0,0:0:0:0:
222,150,51736,1,0,0:0:0:0:
219,184,51805,1,0,0:0:0:0:
229,217,51873,5,2,0:0:0:0:
239,249,51941,1,0,0:0:0:0:
236,284,52009,1,0,0:0:0:0:
222,315,52077,1,0,0:0:0:0:
198,339,52146,1,2,0:0:0:0:
167,353,52214,1,2,0:0:0:0:
133,355,52282,1,2,0:0:0:0:
100,345,52350,1,2,0:0:0:0:
72,325,52418,6,0,L|51:260,3,57.5,2|0|0|0,0:0|0:0|0:0|0:0,0:0:0:0:
116,210,52691,2,0,L|128:143,1,57.5,2|0,0:0|0:0,0:0:0:0:
55,40,52827,2,0,L|67:107,1,57.5,2|0,0:0|0:0,0:0:0:0:
219,184,52964,1,0,0:0:0:0:
223,155,53032,1,0,0:0:0:0:
227,127,53100,1,0,0:0:0:0:
231,98,53168,1,0,0:0:0:0:
236,70,53236,1,2,0:0:0:0:
72,325,53509,5,8,0:0:0:0:
400,75,55418,1,2,0:0:0:0:
87,287,55691,5,8,0:0:0:0:
87,287,56646,1,2,0:0:0:0:
306,231,56782,5,8,0:0:0:0:
267,255,56850,1,0,0:0:0:0:
222,261,56918,1,0,0:0:0:0:
179,246,56986,1,0,0:0:0:0:
146,213,57055,1,0,0:0:0:0:
131,170,57123,1,0,0:0:0:0:
137,125,57191,1,0,0:0:0:0:
161,87,57259,1,0,0:0:0:0:
200,63,57327,5,10,0:0:0:0:
199,74,57396,1,0,0:0:0:0:
197,86,57464,1,0,0:0:0:0:
196,97,57532,1,0,0:0:0:0:
194,108,57600,2,0,L|293:96,1,86.25,2|0,0:0|0:0,0:0:0:0:
376,128,57873,6,0,L|215:146,1,115,6|0,0:0|0:0,0:0:0:0:
32,201,58146,2,0,L|193:219,1,115,8|0,0:0|0:0,0:0:0:0:
345,243,58418,1,2,0:0:0:0:
194,108,58555,1,0,0:0:0:0:
246,297,58691,2,0,P|260:219|250:171,1,115,8|0,0:0|0:0,0:0:0:0:
40,88,58964,6,0,P|26:166|36:214,1,115,10|0,0:0|0:0,0:0:0:0:
115,330,59236,1,0,0:0:0:0:
194,108,59373,2,0,P|208:186|198:234,1,115,10|0,0:0|0:0,0:0:0:0:
115,330,59646,1,0,0:0:0:0:
40,88,59782,2,0,P|26:166|36:214,1,115,10|0,0:0|0:0,0:0:0:0:
228,336,60055,6,0,B|185:331|185:331|157:337|157:337|90:325,1,115,2|0,0:0|0:0,0:0:0:0:
316,283,60327,2,0,B|359:278|359:278|387:284|387:284|454:272,1,115,10|0,0:0|0:0,0:0:0:0:
114,329,60600,1,2,0:0:0:0:
247,183,60736,1,2,0:0:0:0:
228,358,60873,1,8,0:0:0:0:
133,154,61009,1,2,0:0:0:0:
1,354,61146,6,0,L|150:320,1,115,8|0,0:0|0:0,0:0:0:0:
316,283,61418,1,2,0:0:0:0:
133,154,61555,1,0,0:0:0:0:
228,358,61691,2,0,L|224:212,1,115,8|0,0:0|0:0,0:0:0:0:
220,70,61964,1,2,0:0:0:0:
124,252,62100,1,0,0:0:0:0:
349,169,62236,5,14,0:0:0:0:
349,169,62305,1,0,0:0:0:0:
349,169,62373,1,0,0:0:0:0:
407,107,62509,2,0,P|327:85|283:111,1,115,10|0,0:0|0:0,0:0:0:0:
124,252,62782,1,0,0:0:0:0:
124,252,62850,1,0,0:0:0:0:
124,252,62918,2,0,L|120:172,1,57.5
114,33,63055,1,10,0:0:0:0:
23,187,63191,1,2,0:0:0:0:
239,127,63327,6,0,L|110:112,1,115,10|0,0:0|0:0,0:0:0:0:
339,62,63600,1,2,0:0:0:0:
380,210,63736,2,0,L|509:195,1,115,8|0,0:0|0:0,0:0:0:0:
351,42,64009,1,2,0:0:0:0:
238,265,64146,2,0,L|109:250,1,115,8|0,0:0|0:0,0:0:0:0:
34,165,64418,5,8,0:0:0:0:
74,143,64486,1,0,0:0:0:0:
119,135,64555,1,0,0:0:0:0:
164,144,64623,1,0,0:0:0:0:
204,167,64691,1,2,0:0:0:0:
243,189,64759,1,0,0:0:0:0:
288,198,64827,1,0,0:0:0:0:
333,191,64896,1,0,0:0:0:0:
374,169,64964,6,0,L|406:100,3,57.5,8|0|0|0,0:0|0:0|0:0|0:0,0:0:0:0:
290,97,65236,2,0,L|278:26,3,57.5,2|0|0|0,0:0|0:0|0:0|0:0,0:0:0:0:
168,35,65509,5,8,0:0:0:0:
374,169,65646,1,0,0:0:0:0:
374,169,65714,1,0,0:0:0:0:
374,169,65782,1,2,0:0:0:0:
157,204,65918,1,8,0:0:0:0:
157,204,65986,1,0,0:0:0:0:
157,204,66055,1,0,0:0:0:0:
290,97,66191,1,0,0:0:0:0:
247,336,66327,6,0,L|241:240,1,86.25,8|0,0:0|0:0,0:0:0:0:
230,238,66600,5,6,0:0:0:0:
324,377,66736,1,0,0:0:0:0:
157,204,66873,2,0,P|203:164|270:168,1,115,8|0,0:0|0:0,0:0:0:0:
380,274,67146,1,2,0:0:0:0:
380,274,67282,2,0,P|340:228|344:161,1,115,8|0,0:0|0:0,0:0:0:0:
424,64,67555,1,2,0:0:0:0:
424,64,67691,6,0,P|294:85|269:75,1,115,8|0,0:0|0:0,0:0:0:0:
122,49,67964,1,2,0:0:0:0:
254,162,68100,1,0,0:0:0:0:
108,29,68236,2,0,P|238:8|263:18,1,115,8|0,0:0|0:0,0:0:0:0:
424,64,68509,2,0,P|294:85|269:75,1,115,2|0,0:0|0:0,0:0:0:0:
108,29,68782,6,0,L|126:181,1,115,8|0,0:0|0:0,0:0:0:0:
143,309,69055,1,2,0:0:0:0:
143,309,69191,1,0,0:0:0:0:
314,89,69327,2,0,L|296:241,1,115,8|0,0:0|0:0,0:0:0:0:
286,317,69600,1,2,0:0:0:0:
286,317,69736,1,0,0:0:0:0:
115,94,69873,6,0,L|133:246,1,115,8|0,0:0|0:0,0:0:0:0:
286,317,70146,2,0,L|304:165,1,115,8|0,0:0|0:0,0:0:0:0:
322,32,70418,1,2,0:0:0:0:
115,94,70555,1,2,0:0:0:0:
316,197,70691,1,8,0:0:0:0:
205,18,70827,1,0,0:0:0:0:
331,219,70964,5,6,0:0:0:0:
322,32,71100,1,0,0:0:0:0:
331,219,71236,2,0,B|394:229|394:229|444:218,1,115,8|0,0:0|0:0,0:0:0:0:
203,145,71509,1,2,0:0:0:0:
286,317,71646,2,0,B|223:327|223:327|173:316,1,115,8|0,0:0|0:0,0:0:0:0:
298,129,71918,1,2,0:0:0:0:
412,323,72055,6,0,P|444:219|430:183,1,115,8|0,0:0|0:0,0:0:0:0:
329,23,72327,2,0,P|297:127|311:163,1,115,2|0,0:0|0:0,0:0:0:0:
477,268,72600,2,0,P|424:239|352:260,1,115,8|0,0:0|0:0,0:0:0:0:
180,295,72873,2,0,P|233:324|305:303,1,115,2|0,0:0|0:0,0:0:0:0:
403,158,73146,5,2,0:0:0:0:
403,158,73282,1,0,0:0:0:0:
192,181,73418,2,0,L|325:187,1,115,8|0,0:0|0:0,0:0:0:0:
482,107,73691,1,2,0:0:0:0:
482,107,73827,1,0,0:0:0:0:
209,94,73964,2,0,L|342:100,1,115,8|0,0:0|0:0,0:0:0:0:
482,107,74236,5,2,0:0:0:0:
448,75,74304,1,0,0:0:0:0:
404,63,74372,1,0,0:0:0:0:
360,72,74440,1,0,0:0:0:0:
324,100,74508,1,8,0:0:0:0:
305,142,74576,1,0,0:0:0:0:
307,187,74646,2,0,L|344:267,5,57.5,0|0|2|0|0|0,0:0|0:0|0:0|0:0|0:0|0:0,0:0:0:0:
237,244,75055,2,0,L|224:317,3,57.5,8|0|0|0,0:0|0:0|0:0|0:0,0:0:0:0:
145,272,75327,6,0,L|168:163,1,86.25,12|0,0:0|0:0,0:0:0:0:
94,40,75600,1,8,0:0:0:0:
107,71,75668,1,0,0:0:0:0:
109,105,75736,1,0,0:0:0:0:
99,139,75804,1,0,0:0:0:0:
79,167,75873,2,0,L|47:199,3,28.75,2|0|0|0,0:0|0:0|0:0|0:0,0:0:0:0:
58,267,76145,2,0,L|50:320,3,28.75,2|0|0|0,0:0|0:0|0:0|0:0,0:0:0:0:
145,272,76418,5,8,0:0:0:0:
172,263,76486,1,0,0:0:0:0:
200,261,76554,1,0,0:0:0:0:
229,266,76622,1,0,0:0:0:0:
253,278,76691,5,0,0:0:0:0:
252,272,76759,1,0,0:0:0:0:
251,266,76827,1,8,0:0:0:0:
251,260,76895,1,0,0:0:0:0:
275,239,76964,1,0,0:0:0:0:
275,233,77032,1,0,0:0:0:0:
276,227,77100,1,0,0:0:0:0:
276,221,77168,1,0,0:0:0:0:
255,206,77236,2,8,L|246:156,3,28.75
228,88,77509,5,8,0:0:0:0:
255,80,77577,1,0,0:0:0:0:
284,76,77645,1,0,0:0:0:0:
313,76,77713,1,0,0:0:0:0:
341,80,77781,1,0,0:0:0:0:
369,88,77849,1,0,0:0:0:0:
395,99,77918,1,8,0:0:0:0:
420,114,77986,1,0,0:0:0:0:
443,133,78055,6,0,L|454:176,3,28.75
372,267,78327,2,0,L|383:224,3,28.75,8|0|0|0,0:0|0:0|0:0|0:0,0:0:0:0:
358,162,78600,5,8,0:0:0:0:
358,162,78668,1,0,0:0:0:0:
358,162,78736,1,0,0:0:0:0:
358,162,78805,1,0,0:0:0:0:
358,162,78873,1,2,0:0:0:0:
359,141,78941,1,0,0:0:0:0:
361,121,79009,1,0,0:0:0:0:
362,101,79077,1,0,0:0:0:0:
364,81,79146,5,8,0:0:0:0:
317,113,79214,1,0,0:0:0:0:
303,167,79282,1,0,0:0:0:0:
328,218,79350,1,0,0:0:0:0:
379,239,79418,1,2,0:0:0:0:
404,290,79487,1,0,0:0:0:0:
390,344,79555,1,0,0:0:0:0:
344,376,79623,1,0,0:0:0:0:
293,357,79691,6,0,L|282:312,7,28.75,12|0|0|0|10|2|2|2,0:0|0:0|0:0|0:0|0:0|0:0|0:0|0:0,0:0:0:0:
225,240,80236,2,0,L|218:267,7,28.75,2|0|0|0|10|0|0|0,0:0|0:0|0:0|0:0|0:0|0:0|0:0|0:0,0:0:0:0:
129,336,80782,5,8,0:0:0:0:
116,310,80850,1,0,0:0:0:0:
109,282,80918,1,0,0:0:0:0:
110,253,80986,1,0,0:0:0:0:
142,218,81055,5,0,0:0:0:0:
154,192,81123,1,0,0:0:0:0:
161,164,81191,1,8,0:0:0:0:
160,135,81259,1,0,0:0:0:0:
142,95,81327,5,0,0:0:0:0:
168,107,81395,1,0,0:0:0:0:
196,114,81463,1,0,0:0:0:0:
225,113,81531,1,0,0:0:0:0:
253,106,81599,1,8,0:0:0:0:
279,94,81668,1,0,0:0:0:0:
307,87,81736,1,0,0:0:0:0:
336,88,81804,1,0,0:0:0:0:
364,95,81873,6,0,L|351:132,5,28.75,12|0|0|0|0|0,0:0|0:0|0:0|0:0|0:0|0:0,0:0:0:0:
268,189,82282,2,0,L|251:231,5,28.75,8|0|0|0|0|0,0:0|0:0|0:0|0:0|0:0|0:0,0:0:0:0:
157,310,82691,1,8,0:0:0:0:
183,300,82759,1,0,0:0:0:0:
212,295,82827,1,0,0:0:0:0:
240,295,82895,1,0,0:0:0:0:
269,301,82964,6,0,L|314:318,3,28.75,12|0|0|0,0:0|0:0|0:0|0:0,0:0:0:0:
411,270,83236,2,0,L|366:287,3,28.75,2|0|0|0,0:0|0:0|0:0|0:0,0:0:0:0:
269,301,83509,2,0,L|295:344,3,28.75,8|0|0|0,0:0|0:0|0:0|0:0,0:0:0:0:
411,270,83782,2,0,L|389:313,3,28.75,2|2|2|2,0:0|0:0|0:0|0:0,0:0:0:0:
270,210,84055,5,14,0:0:0:0:
293,194,84123,1,0,0:0:0:0:
321,184,84191,1,0,0:0:0:0:
349,182,84259,1,0,0:0:0:0:
376,187,84327,5,8,0:0:0:0:
374,181,84396,1,0,0:0:0:0:
373,175,84463,1,0,0:0:0:0:
372,170,84531,1,0,0:0:0:0:
358,155,84600,1,0,0:0:0:0:
357,149,84668,1,0,0:0:0:0:
356,144,84736,1,0,0:0:0:0:
355,138,84804,1,0,0:0:0:0:
371,123,84873,1,8,0:0:0:0:
370,117,84941,1,0,0:0:0:0:
369,112,85009,1,0,0:0:0:0:
368,106,85077,1,0,0:0:0:0:
367,100,85146,6,0,L|360:50,3,28.75,8|0|0|0,0:0|0:0|0:0|0:0,0:0:0:0:
272,55,85418,2,0,L|275:83,3,28.75,2|0|0|0,0:0|0:0|0:0|0:0,0:0:0:0:
184,68,85691,2,0,L|177:18,3,28.75,8|0|0|0,0:0|0:0|0:0|0:0,0:0:0:0:
89,23,85964,2,0,L|92:51,3,28.75,2|2|2|2,0:0|0:0|0:0|0:0,0:0:0:0:
31,123,86236,5,14,0:0:0:0:
36,151,86304,1,0,0:0:0:0:
41,179,86372,1,0,0:0:0:0:
46,207,86440,1,0,0:0:0:0:
52,235,86509,5,8,0:0:0:0:
57,233,86577,1,0,0:0:0:0:
63,232,86645,1,0,0:0:0:0:
68,231,86713,1,0,0:0:0:0:
93,243,86782,1,0,0:0:0:0:
99,242,86850,1,0,0:0:0:0:
104,241,86918,1,0,0:0:0:0:
110,239,86986,1,0,0:0:0:0:
132,250,87055,1,8,0:0:0:0:
138,249,87123,1,0,0:0:0:0:
143,248,87191,1,0,0:0:0:0:
149,246,87259,1,0,0:0:0:0:
168,255,87327,6,0,L|217:247,3,28.75,8|0|0|0,0:0|0:0|0:0|0:0,0:0:0:0:
260,198,87600,2,0,L|309:190,3,28.75,0|0|8|0,0:0|0:0|0:0|0:0,0:0:0:0:
354,245,87873,2,0,L|403:237,3,28.75
446,188,88146,2,0,L|495:180,3,28.75,10|2|2|2,0:0|0:0|0:0|0:0,0:0:0:0:
363,114,88418,5,12,0:0:0:0:
362,119,88486,1,0,0:0:0:0:
361,125,88554,1,0,0:0:0:0:
361,131,88622,1,0,0:0:0:0:
360,136,88690,1,8,0:0:0:0:
360,142,88758,1,0,0:0:0:0:
359,148,88827,1,0,0:0:0:0:
359,154,88895,1,0,0:0:0:0:
358,159,88963,1,0,0:0:0:0:
358,165,89031,1,0,0:0:0:0:
357,171,89099,1,0,0:0:0:0:
357,177,89168,1,0,0:0:0:0:
356,182,89236,2,0,L|360:225,3,28.75,10|2|2|2,0:0|0:0|0:0|0:0,0:0:0:0:
284,291,89509,6,0,L|288:248,3,28.75,10|0|0|0,0:0|0:0|0:0|0:0,0:0:0:0:
236,153,89782,2,0,L|240:196,3,28.75,2|0|0|0,0:0|0:0|0:0|0:0,0:0:0:0:
164,262,90055,2,0,L|168:219,3,28.75,8|0|0|0,0:0|0:0|0:0|0:0,0:0:0:0:
109,136,90327,2,0,L|113:179,3,28.75,2|0|0|0,0:0|0:0|0:0|0:0,0:0:0:0:
49,284,90600,5,8,0:0:0:0:
108,48,90736,1,0,0:0:0:0:
108,48,90805,1,0,0:0:0:0:
108,48,90873,1,2,0:0:0:0:
141,341,91009,1,8,0:0:0:0:
22,112,91146,1,2,0:0:0:0:
22,112,91214,1,0,0:0:0:0:
22,112,91282,1,0,0:0:0:0:
237,292,91418,2,0,L|277:321,2,28.75,8|0|0,0:0|0:0|0:0,0:0:0:0:
0,207,91691,5,14,0:0:0:0:
307,120,91964,1,2,0:0:0:0:
0,207,92236,1,2,0:0:0:0:
307,120,92509,2,0,L|199:114,1,86.25,10|0,0:0|0:0,0:0:0:0:
148,77,92782,6,0,L|266:84,1,115,6|0,0:0|0:0,0:0:0:0:
481,186,93055,2,0,L|363:193,1,115,8|0,0:0|0:0,0:0:0:0:
212,214,93327,1,2,0:0:0:0:
349,40,93464,1,0,0:0:0:0:
282,321,93600,2,0,P|296:243|286:195,1,115,8|0,0:0|0:0,0:0:0:0:
151,63,93873,6,0,P|137:141|147:189,1,115,8|0,0:0|0:0,0:0:0:0:
269,339,94145,1,2,0:0:0:0:
387,124,94282,2,0,P|401:202|391:250,1,115,8|0,0:0|0:0,0:0:0:0:
259,353,94555,1,2,0:0:0:0:
151,63,94691,2,0,P|137:141|147:189,1,115,8|0,0:0|0:0,0:0:0:0:
332,314,94964,6,0,P|290:275|234:274,1,115,6|0,0:0|0:0,0:0:0:0:
17,290,95236,2,0,P|58:328|114:329,1,115,8|0,0:0|0:0,0:0:0:0:
248,183,95509,1,2,0:0:0:0:
89,249,95645,1,0,0:0:0:0:
234,273,95782,1,8,0:0:0:0:
103,159,95918,1,2,0:0:0:0:
198,372,96055,6,0,L|207:223,1,115,8|0,0:0|0:0,0:0:0:0:
216,74,96327,1,2,0:0:0:0:
89,249,96464,1,0,0:0:0:0:
394,222,96600,2,0,L|246:197,1,115,8|0,0:0|0:0,0:0:0:0:
57,159,96873,1,2,0:0:0:0:
216,74,97009,1,0,0:0:0:0:
259,316,97145,5,6,0:0:0:0:
259,316,97214,1,0,0:0:0:0:
259,316,97282,1,0,0:0:0:0:
388,325,97418,2,0,L|275:309,1,115,8|0,0:0|0:0,0:0:0:0:
89,249,97691,1,2,0:0:0:0:
89,249,97759,1,0,0:0:0:0:
89,249,97827,2,0,L|162:243,1,57.5,8|0,0:0|0:0,0:0:0:0:
281,235,97964,1,0,0:0:0:0:
57,159,98100,1,2,0:0:0:0:
260,223,98236,6,0,L|374:210,1,115,8|0,0:0|0:0,0:0:0:0:
218,85,98509,1,2,0:0:0:0:
428,99,98646,2,0,L|313:90,1,115,8|0,0:0|0:0,0:0:0:0:
167,238,98918,1,2,0:0:0:0:
374,210,99055,2,0,L|260:223,1,115,8|0,0:0|0:0,0:0:0:0:
76,159,99327,5,6,0:0:0:0:
242,307,99464,1,0,0:0:0:0:
282,112,99600,1,8,0:0:0:0:
59,243,99736,1,0,0:0:0:0:
259,223,99873,1,2,0:0:0:0:
76,159,100009,1,2,0:0:0:0:
282,112,100145,2,0,P|219:109|162:126,1,115,8|0,0:0|0:0,0:0:0:0:
59,243,100418,6,0,P|157:228|185:236,1,115,8|0,0:0|0:0,0:0:0:0:
353,318,100691,2,0,P|296:323|242:307,1,115,8|0,0:0|0:0,0:0:0:0:
193,144,100964,1,2,0:0:0:0:
193,144,101032,1,0,0:0:0:0:
193,144,101100,1,0,0:0:0:0:
393,100,101236,2,0,P|336:95|281:112,1,115,8|0,0:0|0:0,0:0:0:0:
170,231,101509,5,6,0:0:0:0:
170,231,101645,1,0,0:0:0:0:
282,112,101782,2,0,L|264:241,1,115,8|0,0:0|0:0,0:0:0:0:
228,47,102055,1,2,0:0:0:0:
228,47,102191,2,0,P|288:28|357:73,1,115,8|0,0:0|0:0,0:0:0:0:
433,170,102464,1,2,0:0:0:0:
433,170,102600,6,0,L|418:21,1,115,8|0,0:0|0:0,0:0:0:0:
326,242,102873,1,2,0:0:0:0:
228,47,103009,1,0,0:0:0:0:
326,242,103146,2,0,L|311:93,1,115,8|0,0:0|0:0,0:0:0:0:
210,297,103418,1,2,0:0:0:0:
123,109,103554,1,0,0:0:0:0:
210,297,103691,6,0,L|195:148,1,115,12|0,0:0|0:0,0:0:0:0:
8,116,103964,1,2,0:0:0:0:
228,47,104100,1,0,0:0:0:0:
8,116,104236,2,0,L|122:108,1,115,8|0,0:0|0:0,0:0:0:0:
413,249,104509,1,2,0:0:0:0:
198,182,104645,1,0,0:0:0:0:
413,249,104781,6,0,L|263:239,1,115,8|0,0:0|0:0,0:0:0:0:
83,189,105055,2,0,L|233:179,1,115,8|0,0:0|0:0,0:0:0:0:
403,166,105327,1,2,0:0:0:0:
211,68,105464,1,2,0:0:0:0:
227,289,105600,1,10,0:0:0:0:
228,47,105736,1,0,0:0:0:0:
210,297,105873,5,6,0:0:0:0:
328,92,106009,1,0,0:0:0:0:
150,240,106146,2,0,B|100:251|100:251|37:241,1,115,8|0,0:0|0:0,0:0:0:0:
228,47,106418,1,2,0:0:0:0:
327,248,106555,2,0,B|377:259|377:259|440:249,1,115,8|0,0:0|0:0,0:0:0:0:
251,138,106827,1,2,0:0:0:0:
308,356,106964,6,0,P|331:304|326:247,1,115,8|0,0:0|0:0,0:0:0:0:
117,303,107236,2,0,L|272:287,1,115,8|0,0:0|0:0,0:0:0:0:
365,149,107509,2,0,L|210:133,1,115,8|0,0:0|0:0,0:0:0:0:
184,57,107781,2,0,P|152:161|166:197,1,115,8|0,0:0|0:0,0:0:0:0:
308,356,108055,5,6,0:0:0:0:
365,149,108191,1,0,0:0:0:0:
365,149,108259,1,0,0:0:0:0:
365,149,108327,2,0,B|368:197|368:197|362:225|362:225|366:291,1,115,8|0,0:0|0:0,0:0:0:0:
414,376,108600,1,2,0:0:0:0:
483,86,108736,1,2,0:0:0:0:
308,356,108873,1,10,0:0:0:0:
273,97,109009,1,0,0:0:0:0:
498,345,109146,5,12,0:0:0:0:
498,345,110100,2,0,L|427:329,1,57.5,8|2,0:0|0:0,0:0:0:0:
236,248,110236,5,12,0:0:0:0:
405,227,110373,1,0,0:0:0:0:
272,166,110509,1,2,0:0:0:0:
369,309,110646,1,0,0:0:0:0:
130,349,110782,1,8,0:0:0:0:
322,238,110918,1,0,0:0:0:0:
153,231,111055,1,0,0:0:0:0:
275,381,111191,2,0,L|273:306,1,57.5
314,123,111327,6,0,L|322:253,1,115,8|0,0:0|0:0,0:0:0:0:
461,273,111600,2,0,L|452:121,1,115,2|0,0:0|0:0,0:0:0:0:
157,117,111873,2,0,P|151:220|169:283,1,115,8|0,0:0|0:0,0:0:0:0:
332,384,112146,2,0,L|224:376,1,57.5,2|0,0:0|0:0,0:0:0:0:
95,234,112282,2,0,L|153:230,1,57.5,2|0,0:0|0:0,0:0:0:0:
308,221,112418,5,12,0:0:0:0:
157,117,112555,1,0,0:0:0:0:
130,349,112691,1,2,0:0:0:0:
151,99,112827,1,0,0:0:0:0:
243,348,112964,2,0,L|246:179,1,115,8|0,0:0|0:0,0:0:0:0:
249,81,113236,2,0,L|248:154,1,57.5
130,349,113373,2,0,L|125:207,1,115,8|0,0:0|0:0,0:0:0:0:
119,25,113646,5,2,0:0:0:0:
330,198,113782,2,0,L|179:185,1,115,8|0,0:0|0:0,0:0:0:0:
15,223,114055,2,0,P|72:241|129:232,1,115,8|0,0:0|0:0,0:0:0:0:
338,95,114327,1,8,0:0:0:0:
334,146,114395,1,0,0:0:0:0:
330,198,114463,1,0,0:0:0:0:
326,249,114531,1,0,0:0:0:0:
322,301,114600,5,12,0:0:0:0:
316,272,114668,1,0,0:0:0:0:
310,244,114736,1,0,0:0:0:0:
304,216,114804,1,0,0:0:0:0:
298,188,114872,1,10,0:0:0:0:
293,160,114940,1,0,0:0:0:0:
287,132,115009,1,0,0:0:0:0:
281,103,115077,1,0,0:0:0:0:
275,75,115146,6,0,L|347:86,3,57.5,10|0|0|0,0:0|0:0|0:0|0:0,0:0:0:0:
450,211,115418,2,0,L|378:222,3,57.5,8|0|0|0,0:0|0:0|0:0|0:0,0:0:0:0:
150,189,115691,2,0,L|206:177,2,57.5
231,328,115964,5,2,0:0:0:0:
232,299,116032,1,2,0:0:0:0:
234,270,116100,1,10,0:0:0:0:
236,241,116168,1,2,0:0:0:0:
238,213,116236,1,2,0:0:0:0:
240,184,116305,1,0,0:0:0:0:
242,155,116373,1,0,0:0:0:0:
244,127,116441,1,0,0:0:0:0:
246,98,116509,5,10,0:0:0:0:
247,104,116577,1,0,0:0:0:0:
248,109,116645,1,0,0:0:0:0:
249,115,116713,1,0,0:0:0:0:
250,121,116782,6,0,P|305:104|394:108,1,115,6|0,0:0|0:0,0:0:0:0:
157,71,117055,2,0,P|102:54|13:58,1,115,8|0,0:0|0:0,0:0:0:0:
174,223,117327,1,2,0:0:0:0:
237,21,117464,1,0,0:0:0:0:
61,160,117600,1,8,0:0:0:0:
307,159,117736,6,0,L|374:148,5,57.5,8|0|0|0|0|0,0:0|0:0|0:0|0:0|0:0|0:0,0:0:0:0:
324,239,118145,1,2,0:0:0:0:
249,231,118214,1,2,0:0:0:0:
174,223,118282,1,2,0:0:0:0:
100,215,118350,1,2,0:0:0:0:
26,207,118418,2,0,L|48:289,7,57.5,8|0|0|0|0|0|0|0,0:0|0:0|0:0|0:0|0:0|0:0|0:0|0:0,0:0:0:0:
96,329,118964,5,14,0:0:0:0:
59,21,119100,1,8,0:0:0:0:
306,322,120873,2,0,L|402:314,1,86.25,8|0,0:0|0:0,0:0:0:0:
458,261,121146,5,14,0:0:0:0:
119,215,121282,1,8,0:0:0:0:
119,215,123327,5,14,0:0:0:0:
458,261,123464,1,8,0:0:0:0:
458,261,125236,1,8,0:0:0:0:
458,261,125509,5,2,0:0:0:0:
354,46,125646,1,2,0:0:0:0:
354,46,125714,1,2,0:0:0:0:
354,46,125782,2,0,L|333:169,1,115,10|0,0:0|0:0,0:0:0:0:
294,341,126055,5,2,0:0:0:0:
168,35,126192,1,2,0:0:0:0:
168,35,126260,1,2,0:0:0:0:
168,35,126327,2,0,L|147:158,1,115,10|0,0:0|0:0,0:0:0:0:
107,324,126600,5,12,0:0:0:0:
104,307,126873,1,8,0:0:0:0:
101,290,127146,1,8,0:0:0:0:
101,290,127555,2,0,L|185:305,1,57.5,2|0,0:0|0:0,0:0:0:0:
299,330,127691,5,6,0:0:0:0:
182,148,127827,1,0,0:0:0:0:
284,349,127964,1,8,0:0:0:0:
407,216,128100,2,0,L|259:233,1,115,0|2,0:0|0:0,0:0:0:0:
67,134,128373,2,0,L|215:151,1,115,0|8,0:0|0:0,0:0:0:0:
407,216,128646,5,0,0:0:0:0:
235,50,128782,1,2,0:0:0:0:
432,215,128918,1,0,0:0:0:0:
181,147,129055,5,8,0:0:0:0:
419,83,129191,1,0,0:0:0:0:
226,262,129327,1,2,0:0:0:0:
421,67,129464,1,0,0:0:0:0:
316,324,129600,2,0,B|315:279|315:279|322:252|322:252|321:190,1,115,8|0,0:0|0:0,0:0:0:0:
115,264,129873,6,0,P|189:275|241:250,1,115,6|0,0:0|0:0,0:0:0:0:
386,158,130146,1,8,0:0:0:0:
124,47,130282,2,0,P|198:36|250:61,1,115,2|0,0:0|0:0,0:0:0:0:
386,158,130555,2,0,P|312:169|260:144,1,115,8|0,0:0|0:0,0:0:0:0:
124,47,130827,5,8,0:0:0:0:
225,261,130964,1,0,0:0:0:0:
37,125,131100,1,0,0:0:0:0:
242,244,131236,5,8,0:0:0:0:
49,317,131373,1,0,0:0:0:0:
217,106,131509,1,2,0:0:0:0:
56,341,131646,1,0,0:0:0:0:
124,47,131782,2,0,B|132:98|132:98|128:126|128:126|134:179,1,115,2|0,0:0|0:0,0:0:0:0:
331,111,132055,6,0,L|193:104,1,115,6|0,0:0|0:0,0:0:0:0:
315,246,132327,1,8,0:0:0:0:
315,246,132464,2,0,L|453:239,1,115,2|0,0:0|0:0,0:0:0:0:
258,186,132736,2,0,P|235:270|268:313,1,115,8|0,0:0|0:0,0:0:0:0:
334,340,133009,2,0,L|99:313,1,230,2|0,0:0|0:0,0:0:0:0:
0,198,133418,6,0,L|127:215,1,115,8|0,0:0|0:0,0:0:0:0:
315,246,133691,1,2,0:0:0:0:
105,313,133827,1,2,0:0:0:0:
334,340,133964,2,0,L|215:326,1,115,10|0,0:0|0:0,0:0:0:0:
6,298,134236,5,14,0:0:0:0:
257,172,134373,1,0,0:0:0:0:
105,313,134509,1,0,0:0:0:0:
269,91,134646,2,0,P|319:117|338:178,1,115,8|0,0:0|0:0,0:0:0:0:
219,326,134918,1,2,0:0:0:0:
47,114,135055,1,2,0:0:0:0:
105,313,135191,6,0,B|142:255|116:197|116:197|160:158|170:89|122:35,1,287.5,10|0,0:0|0:0,0:0:0:0:
47,114,135600,1,2,0:0:0:0:
52,114,135668,1,2,0:0:0:0:
58,114,135736,1,2,0:0:0:0:
64,115,135804,1,2,0:0:0:0:
69,115,135872,1,2,0:0:0:0:
75,115,135940,1,0,0:0:0:0:
81,116,136009,1,0,0:0:0:0:
87,116,136077,1,0,0:0:0:0:
92,116,136146,2,0,L|83:221,1,86.25,2|0,0:0|0:0,0:0:0:0:
71,314,136418,5,6,0:0:0:0:
47,114,136555,1,0,0:0:0:0:
74,329,136691,1,8,0:0:0:0:
176,75,136827,1,0,0:0:0:0:
75,346,136964,1,2,0:0:0:0:
367,303,137100,2,0,L|217:309,1,137.999995788574,2|0,0:0|0:0,0:0:0:0:
73,225,137373,2,0,P|142:202|217:229,1,137.999995788574,8|0,0:0|0:0,0:0:0:0:
367,303,137646,1,2,0:0:0:0:
489,176,137782,6,0,P|391:180|350:218,1,137.999995788574,10|0,0:0|0:0,0:0:0:0:
241,332,138055,2,0,P|338:327|379:289,1,137.999995788574,2|0,0:0|0:0,0:0:0:0:
267,104,138327,2,0,P|169:108|128:146,1,137.999995788574,8|0,0:0|0:0,0:0:0:0:
84,323,138600,5,6,0:0:0:0:
312,189,138736,1,2,0:0:0:0:
54,166,138873,1,2,0:0:0:0:
292,274,139009,2,0,L|443:259,1,137.999995788574,10|0,0:0|0:0,0:0:0:0:
221,336,139282,2,0,L|70:321,1,137.999995788574,2|0,0:0|0:0,0:0:0:0:
314,363,139555,5,8,0:0:0:0:
102,234,139691,1,0,0:0:0:0:
312,189,139827,1,2,0:0:0:0:
27,199,139964,2,0,P|83:154|172:187,1,137.999995788574,2|0,0:0|0:0,0:0:0:0:
387,225,140236,2,0,P|331:270|242:237,1,137.999995788574,8|0,0:0|0:0,0:0:0:0:
230,65,140509,2,0,L|215:219,1,137.999995788574,2|0,0:0|0:0,0:0:0:0:
107,326,140782,6,0,L|137:38,1,253.000007720947,12|0,0:0|0:0,0:0:0:0:
40,61,141191,2,0,L|24:207,1,126.500003860474,2|0,0:0|0:0,0:0:0:0:
181,285,141464,2,0,P|134:245|72:250,1,126.500003860474,8|0,0:0|0:0,0:0:0:0:
107,326,141736,2,0,B|221:318|221:318|260:326|260:326|373:318,1,253.000007720947,2|0,0:0|0:0,0:0:0:0:
475,230,142146,2,0,L|313:242,1,126.500003860474,2|0,0:0|0:0,0:0:0:0:
136,197,142418,1,8,0:0:0:0:
358,319,142555,1,0,0:0:0:0:
128,118,142691,2,0,P|60:169|73:243,1,126.500003860474,2|0,0:0|0:0,0:0:0:0:
107,326,142964,5,2,0:0:0:0:
260,172,143100,1,2,0:0:0:0:
107,326,143236,1,2,0:0:0:0:
260,172,143373,2,0,L|90:206,1,126.500003860474,10|0,0:0|0:0,0:0:0:0:
0,124,143646,1,2,0:0:0:0:
209,285,143782,1,8,0:0:0:0:
0,124,143918,2,0,L|137:93,1,126.500003860474,2|2,0:0|0:0,0:0:0:0:
245,66,144191,5,2,0:0:0:0:
228,74,144259,1,2,0:0:0:0:
214,88,144327,1,2,0:0:0:0:
205,104,144395,1,0,0:0:0:0:
201,122,144463,1,0,0:0:0:0:
202,141,144531,1,0,0:0:0:0:
208,159,144600,1,2,0:0:0:0:
220,174,144668,1,0,0:0:0:0:
236,185,144736,6,0,L|299:205,2,63.2500019302369,0|0|2,0:0|0:0|0:0,0:0:0:0:
0,122,145009,1,0,0:0:0:0:
132,255,145146,5,6,0:0:0:0:
97,47,145282,1,0,0:0:0:0:
219,273,145418,1,8,0:0:0:0:
254,100,145555,1,0,0:0:0:0:
42,230,145691,1,2,0:0:0:0:
236,185,145827,1,0,0:0:0:0:
97,47,145964,2,0,L|106:166,1,115,8|0,0:0|0:0,0:0:0:0:
140,369,146236,6,0,L|131:254,1,115,2|0,0:0|0:0,0:0:0:0:
97,47,146509,1,8,0:0:0:0:
219,273,146646,1,0,0:0:0:0:
195,20,146782,1,2,0:0:0:0:
211,276,146918,1,0,0:0:0:0:
285,37,147055,2,0,L|230:192,1,115,8|0,0:0|0:0,0:0:0:0:
204,284,147327,6,0,P|296:256|362:276,1,115,6|0,0:0|0:0,0:0:0:0:
434,337,147600,1,8,0:0:0:0:
215,365,147736,6,0,P|161:353|190:203,1,230,2|0,0:0|0:0,0:0:0:0:
312,257,148146,2,0,P|220:285|154:265,1,115,2|0,0:0|0:0,0:0:0:0:
37,187,148418,5,8,0:0:0:0:
160,352,148555,1,0,0:0:0:0:
144,115,148691,1,2,0:0:0:0:
170,364,148827,1,0,0:0:0:0:
25,181,148964,1,8,0:0:0:0:
179,378,149100,1,0,0:0:0:0:
147,97,149236,2,0,L|134:232,1,115,2|0,0:0|0:0,0:0:0:0:
179,378,149509,6,0,B|187:294|187:294|207:260|207:260|219:135,1,230,12|0,0:0|0:0,0:0:0:0:
299,86,149918,2,0,B|285:251|285:251|355:205,1,230,2|0,0:0|0:0,0:0:0:0:
359,28,150327,2,0,P|295:4|220:50,1,115,2|0,0:0|0:0,0:0:0:0:
136,195,150600,6,0,P|162:118|55:171,1,230,12|0,0:0|0:0,0:0:0:0:
114,216,151009,2,0,L|366:194,1,230,2|0,0:0|0:0,0:0:0:0:
386,111,151418,2,0,L|249:125,1,115,2|0,0:0|0:0,0:0:0:0:
49,150,151691,5,6,0:0:0:0:
298,232,151827,1,0,0:0:0:0:
136,97,151964,1,8,0:0:0:0:
169,299,152100,1,0,0:0:0:0:
217,51,152236,1,2,0:0:0:0:
136,213,152372,1,2,0:0:0:0:
148,212,152440,1,2,0:0:0:0:
159,211,152508,1,10,0:0:0:0:
171,210,152576,1,0,0:0:0:0:
182,209,152645,1,0,0:0:0:0:
194,208,152713,1,0,0:0:0:0:
205,206,152782,6,0,L|188:110,4,57.5,8|0|0|0|2,0:0|0:0|0:0|0:0|0:0,0:0:0:0:
231,330,153191,1,8,0:0:0:0:
277,62,153327,1,0,0:0:0:0:
114,216,153464,1,2,0:0:0:0:
376,172,153600,2,0,L|249:159,1,115,8|0,0:0|0:0,0:0:0:0:
426,100,153873,6,0,P|460:189|358:256,1,230,6|0,0:0|0:0,0:0:0:0:
376,172,154282,2,0,P|450:244|374:342,1,230,8|0,0:0|0:0,0:0:0:0:
252,274,154691,2,0,P|320:254|391:263,1,115,2|0,0:0|0:0,0:0:0:0:
228,351,154964,6,0,P|170:281|263:194,1,230,6|0,0:0|0:0,0:0:0:0:
252,274,155373,2,0,P|176:230|236:114,1,230,8|0,0:0|0:0,0:0:0:0:
360,194,155782,2,0,P|279:203|233:183,1,115,2|0,0:0|0:0,0:0:0:0:
116,49,156055,6,0,P|146:154|101:263,1,230,6|0,0:0|0:0,0:0:0:0:
41,341,156464,2,0,B|98:375|147:348|147:348|164:354|164:354|220:326|296:352,1,230,8|0,0:0|0:0,0:0:0:0:
446,318,156873,2,0,P|358:309|328:293,1,115,2|0,0:0|0:0,0:0:0:0:
240,92,157146,5,6,0:0:0:0:
261,342,157282,1,0,0:0:0:0:
240,92,157418,2,0,L|227:226,1,115,8|0,0:0|0:0,0:0:0:0:
90,376,157691,5,2,0:0:0:0:
62,114,157827,1,0,0:0:0:0:
90,376,157964,2,0,L|103:242,1,115,8|0,0:0|0:0,0:0:0:0:
157,119,158236,6,0,P|204:198|312:144,1,230,6|0,0:0|0:0,0:0:0:0:
463,179,158646,2,0,P|416:100|308:154,1,230,8|0,0:0|0:0,0:0:0:0:
378,289,159055,2,0,L|386:152,1,115,2|0,0:0|0:0,0:0:0:0:
300,283,159327,6,0,P|363:367|453:313,1,230,6|0,0:0|0:0,0:0:0:0:
300,283,159736,2,0,P|236:367|146:313,1,230,8|0,0:0|0:0,0:0:0:0:
96,130,160146,2,0,P|111:198|94:262,1,115,2|0,0:0|0:0,0:0:0:0:
9,349,160418,5,6,0:0:0:0:
221,286,160555,1,0,0:0:0:0:
10,256,160691,1,8,0:0:0:0:
222,193,160828,1,0,0:0:0:0:
11,163,160964,1,2,0:0:0:0:
221,286,161100,1,0,0:0:0:0:
9,349,161236,1,8,0:0:0:0:
222,193,161373,1,0,0:0:0:0:
94,327,161509,5,2,0:0:0:0:
223,100,161646,1,0,0:0:0:0:
10,256,161782,1,8,0:0:0:0:
139,29,161919,1,0,0:0:0:0:
309,261,162055,2,0,L|305:125,1,115,2|0,0:0|0:0,0:0:0:0:
98,227,162327,2,0,L|94:112,1,115,8|0,0:0|0:0,0:0:0:0:
223,285,162600,5,6,0:0:0:0:
256,192,162668,12,4,164236,0:0:0:0:
385,272,164782,6,0,L|246:263,1,127.777777777778,8|0,0:0|0:0,0:0:0:0:
174,216,165327,2,0,L|380:229,1,191.666666666667
220,135,165873,6,0,P|180:121|135:128,1,76.6666666666667,6|0,0:0|0:0,0:0:0:0:
253,124,166055,2,0,P|225:92|183:76,1,76.6666666666667
287,132,166236,2,0,P|279:90|250:55,1,76.6666666666667
313,156,166418,2,0,P|327:115|320:71,1,76.6666666666667,8|0,0:0|0:0,0:0:0:0:
323,189,166600,2,0,P|355:161|371:119,1,76.6666666666667
315,223,166782,2,0,P|357:215|392:186,1,76.6666666666667
291,249,166964,6,0,P|332:263|377:256,5,76.6666666666667,2|0|0|0|0|0,0:0|0:0|0:0|0:0|0:0|0:0,0:0:0:0:
484,197,167509,2,0,P|443:183|398:190,5,76.6666666666667,8|0|0|0|0|0,0:0|0:0|0:0|0:0|0:0|0:0,0:0:0:0:
291,249,168055,6,0,P|332:263|377:256,1,76.6666666666667,6|0,0:0|0:0,0:0:0:0:
206,257,168236,2,0,P|165:270|120:263,1,76.6666666666667
315,223,168418,2,0,P|357:215|392:186,1,76.6666666666667
171,250,168600,2,0,P|130:242|94:214,1,76.6666666666667,8|0,0:0|0:0,0:0:0:0:
323,189,168782,2,0,P|355:161|371:119,1,76.6666666666667
145,227,168964,2,0,P|113:200|96:157,1,76.6666666666667
313,156,169146,6,0,P|327:116|320:71,5,76.6666666666667,2|0|0|0|0|0,0:0|0:0|0:0|0:0|0:0|0:0,0:0:0:0:
269,3,169691,2,0,P|385:11|413:113,1,230,8|0,0:0|0:0,0:0:0:0:
313,156,170055,6,0,P|299:196|306:241,1,76.6666666666667,2|0,0:0|0:0,0:0:0:0:
402,278,170236,2,0,P|305:229|192:293,1,230,6|0,0:0|0:0,0:0:0:0:
46,295,170600,2,0,P|83:297|119:283,1,76.6666666666667
253,361,170782,2,0,P|255:324|241:288,1,76.6666666666667,8|0,0:0|0:0,0:0:0:0:
313,156,170964,2,0,P|276:154|240:168,1,76.6666666666667
114,94,171146,2,0,P|112:131|126:167,1,76.6666666666667
46,295,171327,6,0,P|83:297|119:283,5,76.6666666666667,2|0|0|0|0|0,0:0|0:0|0:0|0:0|0:0|0:0,0:0:0:0:
253,361,171873,2,0,P|255:324|241:288,5,76.6666666666667,8|0|0|0|0|0,0:0|0:0|0:0|0:0|0:0|0:0,0:0:0:0:
119,282,172418,6,0,P|84:296|46:295,1,76.6666666666667,6|0,0:0|0:0,0:0:0:0:
126,167,172600,2,0,P|112:132|114:94,1,76.6666666666667
239,168,172782,2,0,P|274:154|313:156,1,76.6666666666667
240,287,172964,2,0,P|254:322|253:361,1,76.6666666666667,8|0,0:0|0:0,0:0:0:0:
45,304,173146,6,0,P|84:306|119:292,1,76.6666666666667
313,146,173327,2,0,P|274:144|239:158,1,76.6666666666667
252,361,173509,6,0,P|254:322|240:287,3,76.6666666666667,2|0|0|0,0:0|0:0|0:0|0:0,0:0:0:0:
178,339,173873,2,0,L|277:330,1,76.6666666666667
359,273,174055,2,0,L|458:264,2,76.6666666666667,8|0|0,0:0|0:0|0:0,0:0:0:0:
201,213,174327,1,0,0:0:0:0:
201,213,174418,2,0,L|300:204,1,76.6666666666667,2|0,0:0|0:0,0:0:0:0:
376,104,174600,5,6,0:0:0:0:
376,104,174691,1,0,0:0:0:0:
376,104,174782,1,0,0:0:0:0:
376,104,174873,1,0,0:0:0:0:
376,104,174964,2,0,L|363:242,1,76.6666666666667
284,281,175146,2,0,L|291:204,1,76.6666666666667,8|0,0:0|0:0,0:0:0:0:
222,143,175327,2,0,L|215:220,1,76.6666666666667
361,256,175509,2,0,L|368:179,1,76.6666666666667
230,66,175691,5,2,0:0:0:0:
230,66,175782,1,0,0:0:0:0:
230,66,175873,1,0,0:0:0:0:
230,66,175964,1,0,0:0:0:0:
230,66,176055,2,0,L|222:142,1,76.6666666666667
118,217,176236,5,8,0:0:0:0:
118,217,176327,1,0,0:0:0:0:
118,217,176418,1,0,0:0:0:0:
118,217,176509,1,0,0:0:0:0:
118,217,176600,2,0,L|125:293,1,76.6666666666667
214,320,176782,6,0,L|206:243,1,76.6666666666667,6|0,0:0|0:0,0:0:0:0:
287,171,176964,2,0,L|294:247,1,76.6666666666667
387,301,177146,2,0,L|379:224,1,76.6666666666667
216,141,177327,2,0,L|308:179,1,76.6666666666667,8|0,0:0|0:0,0:0:0:0:
254,0,177509,2,0,L|175:60,1,76.6666666666667
366,107,177691,2,0,L|352:8,1,76.6666666666667
216,141,177873,5,2,0:0:0:0:
231,138,177963,1,0,0:0:0:0:
246,135,178054,1,0,0:0:0:0:
261,133,178145,1,0,0:0:0:0:
276,130,178236,2,0,L|173:121,1,76.6666666666667
86,206,178418,5,8,0:0:0:0:
71,203,178508,1,0,0:0:0:0:
56,200,178599,1,0,0:0:0:0:
41,198,178690,1,0,0:0:0:0:
26,195,178782,2,0,L|129:186,1,76.6666666666667
264,258,178964,6,0,L|187:264,5,76.6666666666667,6|0|0|0|0|0,0:0|0:0|0:0|0:0|0:0|0:0,0:0:0:0:
349,216,179509,2,0,L|425:209,1,76.6666666666667,8|0,0:0|0:0,0:0:0:0:
258,162,179691,2,0,L|181:168,1,76.6666666666667
339,127,179873,2,0,L|415:120,1,76.6666666666667
264,258,180055,6,0,L|187:264,5,76.6666666666667,2|0|0|0|0|0,0:0|0:0|0:0|0:0|0:0|0:0,0:0:0:0:
52,314,180600,5,8,0:0:0:0:
67,315,180690,1,0,0:0:0:0:
82,317,180781,1,0,0:0:0:0:
98,318,180872,1,0,0:0:0:0:
113,320,180964,2,0,L|101:223,1,76.6666666666667
216,118,181146,6,0,L|225:194,1,76.6666666666667,6|0,0:0|0:0,0:0:0:0:
113,320,181327,2,0,L|103:243,1,76.6666666666667
268,274,181509,2,0,L|191:283,1,76.6666666666667
66,161,181691,2,0,L|142:151,1,76.6666666666667,8|0,0:0|0:0,0:0:0:0:
103,320,181873,2,0,L|93:243,1,76.6666666666667
226,118,182055,2,0,L|235:194,1,76.6666666666667
266,350,182236,5,2,0:0:0:0:
266,334,182326,1,0,0:0:0:0:
266,319,182417,1,0,0:0:0:0:
266,304,182508,1,0,0:0:0:0:
267,288,182599,1,0,0:0:0:0:
267,273,182690,1,0,0:0:0:0:
298,234,182782,5,0,0:0:0:0:
297,256,182872,1,0,0:0:0:0:
296,279,182963,1,0,0:0:0:0:
296,302,183054,1,0,0:0:0:0:
295,325,183145,1,0,0:0:0:0:
295,348,183236,1,0,0:0:0:0:
296,365,183327,6,0,B|178:349|178:349|242:345,1,172.5,2|0,0:0|0:0,0:0:0:0:
404,337,183873,1,2,0:0:0:0:
487,166,184009,1,2,0:0:0:0:
267,273,184146,1,0,0:0:0:0:
350,102,184282,1,0,0:0:0:0:
404,337,184418,6,0,P|451:267|367:256,1,201.25,4|0,0:0|0:0,0:0:0:0:
257,329,184964,2,0,L|268:260,1,57.5,2|0,0:0|0:0,0:0:0:0:
350,102,185236,2,0,L|340:158,1,57.5,2|0,0:0|0:0,0:0:0:0:
250,177,185509,6,0,P|204:134|273:23,1,201.25,4|0,0:0|0:0,0:0:0:0:
375,179,186055,2,0,P|433:105|381:27,1,201.25,4|0,0:0|0:0,0:0:0:0:
375,179,186600,6,0,L|373:230,2,51.1111111111111,6|0|0,0:0|0:0|0:0,0:0:0:0:
283,97,187145,2,0,L|285:46,2,51.1111111111111,2|0|0,0:0|0:0|0:0,0:0:0:0:
275,264,187691,5,6,0:0:0:0:
256,192,187759,12,4,192055,0:0:0:0:
110,304,208418,6,0,L|106:159,1,134.166666666667,4|0,0:0|0:0,0:0:0:0:
106,169,208964,1,0,0:0:0:0:
33,291,209236,1,0,0:0:0:0:
33,291,209509,6,0,P|96:225|189:301,1,230,8|0,0:0|0:0,0:0:0:0:
265,320,210600,6,0,P|242:219|198:173,1,153.333333333333,2|0,0:0|0:0,0:0:0:0:
210,182,211691,5,8,0:0:0:0:
210,182,211964,2,0,L|379:171,1,153.333333333333,0|8,0:0|0:0,0:0:0:0:
166,251,212782,2,0,P|129:178|174:110,1,153.333333333333,4|2,0:0|0:0,0:0:0:0:
331,303,213600,1,8,0:0:0:0:
331,303,213873,6,0,B|359:269|349:229|349:229|356:186|393:160|393:160|411:119|399:88,1,230,8|0,0:0|0:0,0:0:0:0:
272,248,214964,6,0,L|364:258,1,76.6666666666667,6|0,0:0|0:0,0:0:0:0:
189,288,215509,2,0,L|97:298,1,76.6666666666667,8|0,0:0|0:0,0:0:0:0:
33,166,216055,5,2,0:0:0:0:
185,268,216327,1,0,0:0:0:0:
196,81,216600,1,8,0:0:0:0:
124,338,216873,1,0,0:0:0:0:
294,271,217145,5,2,0:0:0:0:
147,155,217418,1,0,0:0:0:0:
314,372,217691,1,8,0:0:0:0:
357,194,217963,1,0,0:0:0:0:
177,248,218236,6,0,P|238:168|170:57,1,230,6|0,0:0|0:0,0:0:0:0:
140,155,219327,2,0,B|218:186|218:124|299:166,1,153.333333333333,6|0,0:0|0:0,0:0:0:0:
397,312,220418,5,8,0:0:0:0:
397,312,220691,2,0,P|379:238|407:153,1,153.333333333333,2|8,0:0|0:0,0:0:0:0:
273,267,221509,6,0,P|293:188|278:145,1,115,6|0,0:0|0:0,0:0:0:0:
206,120,221986,1,0,0:0:0:0:
206,120,222055,2,0,P|195:72|202:32,1,76.6666666666667
273,267,222600,5,2,0:0:0:0:
273,267,222873,2,0,B|219:261|219:261|181:273|181:273|107:260,1,153.333333333333,8|8,0:0|0:0,0:0:0:0:
337,319,223691,6,0,P|357:266|351:238,1,76.6666666666667,6|0,0:0|0:0,0:0:0:0:
455,293,224373,1,0,0:0:0:0:
455,293,224509,1,0,0:0:0:0:
273,267,224782,6,0,B|219:261|219:261|181:273|181:273|107:260,1,153.333333333333,2|8,0:0|0:0,0:0:0:0:
273,267,225736,1,0,0:0:0:0:
273,267,225805,1,0,0:0:0:0:
273,267,225873,6,0,L|352:280,1,76.6666666666667,2|8,0:0|0:0,0:0:0:0:
426,226,226214,2,0,L|457:221,2,19.1666666666667
350,175,226418,2,0,L|319:170,3,19.1666666666667,8|0|0|0,0:0|0:0|0:0|0:0,0:0:0:0:
429,136,226691,2,0,L|460:131,3,19.1666666666667,8|0|0|0,0:0|0:0|0:0|0:0,0:0:0:0:
351,88,226964,6,0,L|242:70,1,80.499997543335,4|0,0:0|0:0,0:0:0:0:
106,165,227236,2,0,P|128:100|111:61,1,80.499997543335,2|0,0:0|0:0,0:0:0:0:
205,276,227509,2,0,P|183:211|200:172,1,80.499997543335
85,354,227782,2,0,P|107:289|90:250,1,80.499997543335,2|0,0:0|0:0,0:0:0:0:
48,108,228055,6,0,P|28:142|27:182,1,80.499997543335
208,356,228327,1,2,0:0:0:0:
9,291,228464,1,0,0:0:0:0:
208,356,228600,2,0,L|203:241,1,80.499997543335
200,130,228873,2,0,L|195:15,1,80.499997543335,2|0,0:0|0:0,0:0:0:0:
160,201,229146,6,0,P|212:211|254:192,1,80.499997543335
343,123,229418,2,0,P|395:113|437:132,1,80.499997543335,2|0,0:0|0:0,0:0:0:0:
196,49,229691,2,0,P|248:59|290:40,1,80.499997543335
46,130,229964,2,0,P|98:120|140:139,1,80.499997543335,2|0,0:0|0:0,0:0:0:0:
314,201,230236,6,0,P|262:211|220:192,1,80.499997543335
46,130,230509,1,2,0:0:0:0:
120,312,230646,1,0,0:0:0:0:
46,130,230782,2,0,L|31:238,1,80.499997543335
120,312,231055,2,0,L|131:232,1,80.499997543335,2|0,0:0|0:0,0:0:0:0:
155,56,231327,6,0,P|153:116|168:148,1,80.499997543335
319,82,231600,2,0,P|259:80|227:95,1,80.499997543335,2|0,0:0|0:0,0:0:0:0:
295,258,231873,2,0,P|297:198|282:166,1,80.499997543335
131,232,232146,2,0,P|191:234|223:219,1,80.499997543335,2|0,0:0|0:0,0:0:0:0:
159,134,232418,6,0,P|149:95|155:56,1,80.499997543335
240,86,232691,2,0,P|279:76|319:82,1,80.499997543335,2|0,0:0|0:0,0:0:0:0:
290,179,232964,2,0,P|300:218|294:258,1,80.499997543335,2|0,0:0|0:0,0:0:0:0:
209,227,233236,2,0,P|170:237|131:232,1,80.499997543335,8|0,0:0|0:0,0:0:0:0:
74,135,233509,5,0,0:0:0:0:
74,135,233577,1,0,0:0:0:0:
74,135,233646,1,0,0:0:0:0:
290,179,233782,1,2,0:0:0:0:
130,231,233918,1,0,0:0:0:0:
242,304,234055,1,2,0:0:0:0:
168,65,234327,1,8,0:0:0:0:
361,302,234600,5,2,0:0:0:0:
357,301,234668,1,0,0:0:0:0:
353,300,234736,1,0,0:0:0:0:
349,299,234804,1,0,0:0:0:0:
345,299,234872,1,0,0:0:0:0:
341,298,234940,1,0,0:0:0:0:
337,297,235009,1,0,0:0:0:0:
333,296,235077,1,0,0:0:0:0:
329,296,235146,1,2,0:0:0:0:
489,254,235282,5,0,0:0:0:0:
489,254,235350,1,0,0:0:0:0:
489,254,235418,1,2,0:0:0:0:
229,317,235555,1,0,0:0:0:0:
227,276,235623,1,0,0:0:0:0:
226,236,235691,6,0,P|234:204|248:181,3,57.5,6|0|0|0,0:0|0:0|0:0|0:0,0:0:0:0:
182,121,235964,2,0,P|211:106|238:102,3,57.5,8|0|0|0,0:0|0:0|0:0|0:0,0:0:0:0:
241,13,236236,2,0,P|271:26|291:44,3,57.5,2|0|0|0,0:0|0:0|0:0|0:0,0:0:0:0:
366,1,236509,2,0,P|375:32|374:59,3,57.5,8|0|0|0,0:0|0:0|0:0|0:0,0:0:0:0:
472,87,236782,5,2,0:0:0:0:
459,112,236850,1,0,0:0:0:0:
441,134,236918,1,0,0:0:0:0:
417,150,236986,1,0,0:0:0:0:
389,158,237054,1,8,0:0:0:0:
360,158,237122,1,0,0:0:0:0:
333,149,237191,1,0,0:0:0:0:
309,134,237259,1,0,0:0:0:0:
290,112,237328,5,2,0:0:0:0:
271,90,237396,1,0,0:0:0:0:
247,74,237464,1,0,0:0:0:0:
219,66,237533,1,0,0:0:0:0:
191,66,237601,1,8,0:0:0:0:
163,74,237669,1,0,0:0:0:0:
139,90,237737,1,0,0:0:0:0:
120,111,237805,1,0,0:0:0:0:
108,137,237873,6,0,P|116:168|130:191,3,57.5,2|0|0|0,0:0|0:0|0:0|0:0,0:0:0:0:
64,251,238146,2,0,P|93:265|120:269,3,57.5,8|0|0|0,0:0|0:0|0:0|0:0,0:0:0:0:
123,359,238418,2,0,P|153:345|173:327,3,57.5,2|0|0|0,0:0|0:0|0:0|0:0,0:0:0:0:
248,371,238691,2,0,P|257:339|256:312,3,57.5,8|0|0|0,0:0|0:0|0:0|0:0,0:0:0:0:
258,211,238964,6,0,P|289:219|313:233,3,57.5,2|0|0|0,0:0|0:0|0:0|0:0,0:0:0:0:
372,166,239237,2,0,P|386:195|390:222,3,57.5,8|0|0|0,0:0|0:0|0:0|0:0,0:0:0:0:
479,226,239509,2,0,P|465:256|447:276,3,57.5,2|0|0|0,0:0|0:0|0:0|0:0,0:0:0:0:
492,351,239782,2,0,P|460:360|433:359,3,57.5,8|0|0|0,0:0|0:0|0:0|0:0,0:0:0:0:
334,354,240055,5,2,0:0:0:0:
356,335,240123,1,0,0:0:0:0:
372,312,240191,1,0,0:0:0:0:
379,284,240259,1,0,0:0:0:0:
379,255,240327,1,8,0:0:0:0:
369,228,240395,1,0,0:0:0:0:
352,205,240464,1,0,0:0:0:0:
329,188,240532,1,0,0:0:0:0:
302,179,240600,5,2,0:0:0:0:
274,169,240668,1,0,0:0:0:0:
251,152,240736,1,0,0:0:0:0:
234,129,240805,1,0,0:0:0:0:
225,102,240873,1,8,0:0:0:0:
224,74,240941,1,0,0:0:0:0:
232,46,241009,1,0,0:0:0:0:
248,22,241077,1,0,0:0:0:0:
270,3,241146,6,0,L|337:15,3,57.5,2|0|0|0,0:0|0:0|0:0|0:0,0:0:0:0:
224,74,241418,2,0,L|157:86,3,57.5,8|0|0|0,0:0|0:0|0:0|0:0,0:0:0:0:
273,142,241691,2,0,L|340:154,3,57.5,2|0|0|0,0:0|0:0|0:0|0:0,0:0:0:0:
227,213,241963,2,0,L|160:225,3,57.5,8|0|0|0,0:0|0:0|0:0|0:0,0:0:0:0:
115,299,242236,5,2,0:0:0:0:
94,278,242304,1,0,0:0:0:0:
80,253,242372,1,0,0:0:0:0:
75,225,242440,1,0,0:0:0:0:
78,197,242508,1,8,0:0:0:0:
90,171,242576,1,0,0:0:0:0:
109,149,242645,1,0,0:0:0:0:
134,135,242713,1,0,0:0:0:0:
162,127,242782,5,2,0:0:0:0:
142,148,242850,1,0,0:0:0:0:
130,173,242918,1,0,0:0:0:0:
126,202,242986,1,0,0:0:0:0:
131,230,243054,1,10,0:0:0:0:
144,255,243122,1,2,0:0:0:0:
164,276,243191,1,2,0:0:0:0:
190,289,243259,1,2,0:0:0:0:
217,295,243327,5,2,0:0:0:0:
214,289,243395,1,0,0:0:0:0:
211,284,243463,1,0,0:0:0:0:
208,280,243531,1,0,0:0:0:0:
204,275,243600,1,8,0:0:0:0:
200,271,243667,1,0,0:0:0:0:
196,267,243736,1,0,0:0:0:0:
191,264,243804,1,0,0:0:0:0:
186,261,243872,1,2,0:0:0:0:
181,258,243940,1,2,0:0:0:0:
176,256,244008,1,2,0:0:0:0:
171,254,244077,1,2,0:0:0:0:
165,253,244145,1,10,0:0:0:0:
159,252,244213,1,2,0:0:0:0:
154,251,244281,1,2,0:0:0:0:
148,251,244349,1,2,0:0:0:0:
143,251,244418,6,0,L|78:264,7,57.5,14|0|0|0|0|0|0|0,0:0|0:0|0:0|0:0|0:0|0:0|0:0|0:0,0:0:0:0:
217,295,244964,2,0,L|282:308,7,57.5,8|0|0|0|0|0|0|0,0:0|0:0|0:0|0:0|0:0|0:0|0:0|0:0,0:0:0:0:
385,232,245509,5,8,0:0:0:0:
379,232,245577,1,0,0:0:0:0:
373,233,245645,1,0,0:0:0:0:
368,234,245713,1,0,0:0:0:0:
362,235,245781,1,2,0:0:0:0:
356,236,245849,1,0,0:0:0:0:
351,237,245918,1,0,0:0:0:0:
345,238,245986,1,0,0:0:0:0:
339,239,246055,5,8,0:0:0:0:
375,195,246123,1,0,0:0:0:0:
378,138,246191,1,0,0:0:0:0:
349,90,246259,1,0,0:0:0:0:
297,68,246327,1,2,0:0:0:0:
241,81,246395,1,0,0:0:0:0:
204,123,246464,1,0,0:0:0:0:
198,179,246532,1,0,0:0:0:0:
226,229,246600,6,0,P|246:291|245:310,7,57.5,12|0|0|0|0|0|0|0,0:0|0:0|0:0|0:0|0:0|0:0|0:0|0:0,0:0:0:0:
136,339,247146,2,0,P|155:277|154:258,7,57.5,8|0|0|0|0|0|0|0,0:0|0:0|0:0|0:0|0:0|0:0|0:0|0:0,0:0:0:0:
111,183,247691,5,8,0:0:0:0:
111,183,247759,1,0,0:0:0:0:
111,183,247827,1,0,0:0:0:0:
228,330,247964,1,2,0:0:0:0:
174,91,248100,1,0,0:0:0:0:
230,352,248236,5,8,0:0:0:0:
104,264,248373,1,0,0:0:0:0:
333,279,248509,1,2,0:0:0:0:
82,263,248646,1,0,0:0:0:0:
353,283,248782,6,0,L|424:288,7,57.5,12|0|0|0|0|0|0|0,0:0|0:0|0:0|0:0|0:0|0:0|0:0|0:0,0:0:0:0:
252,239,249327,6,0,L|194:234,3,57.5,12|0|0|0,0:0|0:0|0:0|0:0,0:0:0:0:
96,193,249600,1,0,0:0:0:0:
101,193,249668,1,0,0:0:0:0:
107,193,249736,1,0,0:0:0:0:
113,193,249804,1,0,0:0:0:0:
118,194,249873,6,0,L|100:118,2,57.5,8|0|0,0:0|0:0|0:0,0:0:0:0:
148,338,250145,1,2,0:0:0:0:
189,112,250281,1,0,0:0:0:0:
189,112,250350,1,0,0:0:0:0:
189,112,250418,1,8,0:0:0:0:
53,300,250555,1,0,0:0:0:0:
262,162,250691,1,2,0:0:0:0:
27,216,250827,1,0,0:0:0:0:
249,350,250964,5,8,0:0:0:0:
253,339,251032,1,0,0:0:0:0:
257,328,251100,1,0,0:0:0:0:
259,317,251168,1,0,0:0:0:0:
261,306,251236,1,8,0:0:0:0:
262,294,251304,1,0,0:0:0:0:
262,283,251373,1,0,0:0:0:0:
260,271,251441,1,0,0:0:0:0:
258,260,251509,1,0,0:0:0:0:
253,250,251577,1,0,0:0:0:0:
244,235,251645,1,0,0:0:0:0:
228,217,251714,1,0,0:0:0:0:
211,193,251782,1,8,0:0:0:0:
196,161,251850,1,0,0:0:0:0:
196,120,251918,1,0,0:0:0:0:
220,80,251986,1,0,0:0:0:0:
290,113,252055,5,8,0:0:0:0:
258,160,252123,1,0,0:0:0:0:
211,193,252191,1,0,0:0:0:0:
156,205,252259,1,0,0:0:0:0:
111,194,252327,1,8,0:0:0:0:
83,173,252395,1,0,0:0:0:0:
67,155,252464,1,0,0:0:0:0:
60,145,252532,1,0,0:0:0:0:
55,134,252600,6,0,L|62:207,1,57.5,10|0,0:0|0:0,0:0:0:0:
150,262,252736,2,0,L|157:189,1,57.5,10|0,0:0|0:0,0:0:0:0:
258,160,252873,2,0,L|265:233,1,57.5,10|0,0:0|0:0,0:0:0:0:
353,288,253009,2,0,L|360:215,1,57.5,10|0,0:0|0:0,0:0:0:0:
448,136,253146,6,0,L|465:262,1,115,12|0,0:0|0:0,0:0:0:0:
248,331,253418,2,0,L|265:205,1,115,8|0,0:0|0:0,0:0:0:0:
292,67,253691,1,2,0:0:0:0:
115,209,253827,1,0,0:0:0:0:
144,59,253964,1,8,0:0:0:0:
263,217,254100,1,0,0:0:0:0:
42,132,254236,6,0,L|196:136,1,115,2|0,0:0|0:0,0:0:0:0:
263,217,254509,1,8,0:0:0:0:
468,144,254646,2,0,P|393:132|314:148,1,115,0|2,0:0|0:0,0:0:0:0:
150,262,254918,1,0,0:0:0:0:
392,224,255055,1,8,0:0:0:0:
157,135,255191,1,0,0:0:0:0:
282,314,255327,6,0,L|409:320,2,115,2|0|8,0:0|0:0|0:0,0:0:0:0:
58,316,255736,2,0,P|127:295|155:223,1,115,0|2,0:0|0:0,0:0:0:0:
72,127,256009,2,0,P|55:197|104:257,1,115,0|8,0:0|0:0,0:0:0:0:
254,269,256282,1,0,0:0:0:0:
58,316,256418,6,0,L|179:311,1,115,2|0,0:0|0:0,0:0:0:0:
368,273,256691,2,0,L|247:268,1,115,8|0,0:0|0:0,0:0:0:0:
75,222,256964,1,2,0:0:0:0:
259,352,257100,1,0,0:0:0:0:
213,154,257236,1,8,0:0:0:0:
58,316,257373,1,0,0:0:0:0:
259,352,257509,5,12,0:0:0:0:
259,352,258327,1,2,0:0:0:0:
259,352,258600,6,0,P|198:329|127:341,1,115,8|0,0:0|0:0,0:0:0:0:
344,225,259418,1,2,0:0:0:0:
345,239,259486,1,2,0:0:0:0:
346,253,259554,1,2,0:0:0:0:
347,268,259622,1,2,0:0:0:0:
348,282,259691,6,0,L|426:271,1,57.5,14|0,0:0|0:0,0:0:0:0:
226,223,259964,1,2,0:0:0:0:
302,358,260100,1,8,0:0:0:0:
302,358,260168,1,0,0:0:0:0:
302,358,260236,1,0,0:0:0:0:
389,163,260373,1,2,0:0:0:0:
107,271,260509,1,8,0:0:0:0:
194,76,260646,1,0,0:0:0:0:
302,358,260782,6,0,L|305:306,3,28.75,10|0|0|0,0:0|0:0|0:0|0:0,0:0:0:0:
357,269,261055,2,0,L|360:217,3,28.75,10|0|0|0,0:0|0:0|0:0|0:0,0:0:0:0:
389,163,261327,1,0,0:0:0:0:
389,163,261395,1,0,0:0:0:0:
389,163,261464,2,0,L|387:114,1,28.75
281,32,261600,1,8,0:0:0:0:
281,32,261668,2,0,L|274:114,1,57.5
257,259,261873,1,4,0:0:0:0:
256,192,261941,12,0,266100,0:0:0:0:
256,192,266236,5,4,0:0:0:0:
160,224,266509,2,0,P|187:230|216:227,3,57.5
281,95,266782,2,0,P|261:116|251:142,3,57.5
328,263,267055,2,0,P|319:235|302:212,3,57.5
256,192,267327,5,2,0:0:0:0:
256,192,267736,1,2,0:0:0:0:
256,192,268146,1,2,0:0:0:0:
256,224,268418,5,4,0:0:0:0:
352,224,268691,2,0,P|325:230|296:227,3,57.5
231,95,268964,2,0,P|251:116|261:142,3,57.5
184,263,269237,2,0,P|193:235|210:212,3,57.5
256,192,269509,5,2,0:0:0:0:
256,192,269918,1,2,0:0:0:0:
256,192,270328,1,2,0:0:0:0:
256,224,270600,5,4,0:0:0:0:
385,148,270873,2,0,P|349:140|310:144,3,57.5
222,322,271146,2,0,P|249:294|262:259,3,57.5
158,96,271419,2,0,P|170:133|193:165,3,57.5
256,192,271691,5,2,0:0:0:0:
256,192,272100,1,2,0:0:0:0:
256,192,272510,1,2,0:0:0:0:
215,269,272782,5,6,0:0:0:0:
148,127,272918,1,2,0:0:0:0:
368,115,273055,5,10,0:0:0:0:
362,115,273123,1,0,0:0:0:0:
356,115,273191,1,0,0:0:0:0:
350,116,273259,1,0,0:0:0:0:
345,116,273327,1,2,0:0:0:0:
339,116,273395,1,0,0:0:0:0:
333,117,273464,1,0,0:0:0:0:
327,117,273532,1,0,0:0:0:0:
322,118,273600,1,8,0:0:0:0:
316,118,273668,1,0,0:0:0:0:
310,118,273736,1,0,0:0:0:0:
304,119,273805,1,0,0:0:0:0:
299,119,273873,5,8,0:0:0:0:
334,95,273941,1,0,0:0:0:0:
377,96,274009,1,0,0:0:0:0:
412,119,274077,1,0,0:0:0:0:
427,159,274146,1,2,0:0:0:0:
419,201,274213,1,0,0:0:0:0:
388,230,274282,1,0,0:0:0:0:
347,238,274350,1,0,0:0:0:0:
308,221,274418,6,0,P|278:204|237:196,3,57.5,8|0|0|0,0:0|0:0|0:0|0:0,0:0:0:0:
142,241,274691,2,0,P|114:232|90:217,3,57.5,2|0|0|0,0:0|0:0|0:0|0:0,0:0:0:0:
61,169,274964,5,12,0:0:0:0:
211,370,275100,1,0,0:0:0:0:
259,148,275236,1,2,0:0:0:0:
101,312,275373,1,0,0:0:0:0:
114,77,275509,1,8,0:0:0:0:
274,275,275646,1,0,0:0:0:0:
254,49,275782,1,2,0:0:0:0:
61,169,275918,1,0,0:0:0:0:
274,275,276055,6,0,L|411:262,1,115,8|0,0:0|0:0,0:0:0:0:
175,179,276327,2,0,L|60:168,1,115,2|0,0:0|0:0,0:0:0:0:
377,158,276600,2,0,P|400:237|347:295,1,115,8|0,0:0|0:0,0:0:0:0:
186,284,276873,2,0,P|163:205|216:147,1,115,2|0,0:0|0:0,0:0:0:0:
356,50,277146,5,8,0:0:0:0:
242,226,277282,1,0,0:0:0:0:
201,44,277418,1,8,0:0:0:0:
377,155,277554,1,0,0:0:0:0:
174,178,277691,1,2,0:0:0:0:
399,255,277827,1,0,0:0:0:0:
147,312,277964,1,8,0:0:0:0:
377,155,278100,1,0,0:0:0:0:
147,312,278236,6,0,L|180:151,1,115,2|0,0:0|0:0,0:0:0:0:
201,44,278509,1,8,0:0:0:0:
201,44,278646,1,0,0:0:0:0:
29,307,278782,2,0,L|59:165,1,115,2|0,0:0|0:0,0:0:0:0:
88,19,279055,1,8,0:0:0:0:
88,19,279192,1,0,0:0:0:0:
53,195,279327,6,0,P|137:216|204:199,1,115,8|0,0:0|0:0,0:0:0:0:
282,38,279600,2,0,P|276:111|292:174,1,115,8|0,0:0|0:0,0:0:0:0:
345,319,279873,2,0,B|341:269|341:269|348:251|348:251|345:194,1,115,2|0,0:0|0:0,0:0:0:0:
181,22,280145,2,0,B|185:72|185:72|178:90|178:90|181:147,1,115,8|0,0:0|0:0,0:0:0:0:
345,319,280418,5,2,0:0:0:0:
258,155,280555,1,0,0:0:0:0:
461,242,280691,1,8,0:0:0:0:
226,263,280827,1,0,0:0:0:0:
409,139,280964,1,2,0:0:0:0:
345,319,281100,1,0,0:0:0:0:
324,61,281236,1,8,0:0:0:0:
461,242,281373,1,0,0:0:0:0:
226,263,281509,6,0,L|109:254,1,115,2|0,0:0|0:0,0:0:0:0:
50,111,281782,1,8,0:0:0:0:
50,111,281918,1,0,0:0:0:0:
226,263,282055,6,0,L|343:254,1,115,2|0,0:0|0:0,0:0:0:0:
402,111,282328,1,8,0:0:0:0:
402,111,282464,1,0,0:0:0:0:
130,204,282600,5,2,0:0:0:0:
173,166,282668,1,2,0:0:0:0:
228,156,282736,1,2,0:0:0:0:
282,175,282804,1,2,0:0:0:0:
319,218,282873,1,2,0:0:0:0:
355,261,282941,1,0,0:0:0:0:
409,280,283009,1,2,0:0:0:0:
465,269,283077,1,0,0:0:0:0:
508,232,283145,5,8,0:0:0:0:
306,93,283282,1,0,0:0:0:0:
505,56,283418,1,8,0:0:0:0:
505,56,283486,1,0,0:0:0:0:
505,56,283555,1,0,0:0:0:0:
505,56,283623,1,0,0:0:0:0:
505,56,283691,6,0,P|445:44|350:41,1,115,10|0,0:0|0:0,0:0:0:0:
140,148,283964,1,2,0:0:0:0:
403,128,284100,1,0,0:0:0:0:
140,148,284236,2,0,P|200:160|295:163,1,115,8|0,0:0|0:0,0:0:0:0:
403,128,284509,1,2,0:0:0:0:
164,51,284646,1,0,0:0:0:0:
257,285,284782,6,0,P|280:187|280:143,1,115,8|0,0:0|0:0,0:0:0:0:
164,51,285055,1,2,0:0:0:0:
114,245,285191,1,0,0:0:0:0:
53,31,285327,1,2,0:0:0:0:
200,220,285464,1,0,0:0:0:0:
265,26,285600,1,2,0:0:0:0:
114,245,285736,1,0,0:0:0:0:
53,31,285873,6,0,L|62:161,1,115,8|0,0:0|0:0,0:0:0:0:
121,359,286146,1,2,0:0:0:0:
148,128,286282,1,0,0:0:0:0:
121,359,286418,2,0,L|113:244,1,115,8|0,0:0|0:0,0:0:0:0:
53,31,286691,1,2,0:0:0:0:
18,281,286827,1,0,0:0:0:0:
53,31,286964,6,0,L|62:161,1,115,8|0,0:0|0:0,0:0:0:0:
121,359,287236,1,2,0:0:0:0:
148,128,287373,1,0,0:0:0:0:
18,281,287509,1,2,0:0:0:0:
260,204,287646,1,0,0:0:0:0:
9,167,287782,1,2,0:0:0:0:
228,310,287918,1,0,0:0:0:0:
18,281,288055,6,0,P|129:269|159:273,1,115,8|0,0:0|0:0,0:0:0:0:
320,323,288327,1,2,0:0:0:0:
320,323,288464,1,0,0:0:0:0:
419,62,288600,6,0,P|431:173|427:203,1,115,8|0,0:0|0:0,0:0:0:0:
320,323,288872,1,2,0:0:0:0:
320,323,289009,1,0,0:0:0:0:
37,280,289146,5,8,0:0:0:0:
252,70,289282,1,0,0:0:0:0:
199,367,289418,1,2,0:0:0:0:
68,96,289555,1,0,0:0:0:0:
335,239,289691,1,8,0:0:0:0:
37,280,289827,1,0,0:0:0:0:
252,70,289964,1,2,0:0:0:0:
199,367,290100,1,0,0:0:0:0:
96,173,290236,6,0,P|256:173|151:294,1,402.5,12|0,0:0|0:0,0:0:0:0:
107,145,290782,6,0,P|266:188|143:298,1,402.5,12|0,0:0|0:0,0:0:0:0:
179,214,291327,5,14,0:0:0:0:
179,214,291600,1,2,0:0:0:0:
512,256,291873,2,0,L|413:244,1,57.5,8|0,0:0|0:0,0:0:0:0:
238,302,292418,6,0,B|133:375|72:282|97:193|271:185|278:360|417:296|417:296|349:295|311:241,1,575,6|0,0:0|0:0,0:0:0:0:
253,114,293236,2,0,L|241:-7,1,115,8|0,0:0|0:0,0:0:0:0:
54,156,293509,6,0,B|9:154|-6:45|156:15|201:140|146:256|92:328|92:328|122:255|66:203|-12:237|5:320,1,575,10|0,0:0|0:0,0:0:0:0:
0,380,294327,1,2,0:0:0:0:
233,259,294464,1,2,0:0:0:0:
235,373,294600,6,0,B|232:258,1,115,6|0,0:0|0:0,0:0:0:0:
227,82,295009,1,0,0:0:0:0:
69,65,295145,2,0,B|135:70,1,57.5,6|0,0:0|0:0,0:0:0:0:
326,94,295418,1,8,0:0:0:0:
326,94,295691,5,2,0:0:0:0:
229,316,295827,1,0,0:0:0:0:
229,316,295896,1,0,0:0:0:0:
229,316,295964,2,0,L|312:312,1,57.5
77,271,296236,1,2,0:0:0:0:
292,205,296373,1,0,0:0:0:0:
94,186,296509,1,2,0:0:0:0:
316,208,296646,1,0,0:0:0:0:
77,271,296782,6,0,P|169:231|134:108,1,230,6|0,0:0|0:0,0:0:0:0:
94,186,297191,2,0,B|201:246|201:158|329:214,1,230,8|0,0:0|0:0,0:0:0:0:
259,284,297600,2,0,L|249:135,1,115,2|0,0:0|0:0,0:0:0:0:
326,42,297873,6,0,L|333:156,1,115,8|0,0:0|0:0,0:0:0:0:
460,242,298146,2,0,P|481:189|475:132,1,115,2|0,0:0|0:0,0:0:0:0:
259,284,298418,2,0,P|237:204|250:158,1,115,8|0,0:0|0:0,0:0:0:0:
459,241,298691,2,0,P|465:297|444:350,1,115,2|0,0:0|0:0,0:0:0:0:
259,285,298964,6,0,P|349:220|362:328,1,230,12|0,0:2|0:2,0:2:0:0:
240,268,299373,2,0,P|327:212|382:300,1,230,8|0,0:0|0:0,0:0:0:0:
149,338,299782,2,0,P|153:237|183:186,1,115,2|0,0:0|0:0,0:0:0:0:
209,95,300055,6,0,L|89:104,1,115,8|0,0:0|0:0,0:0:0:0:
230,84,300327,2,0,L|344:75,1,115,2|0,0:0|0:0,0:0:0:0:
235,334,300600,1,8,0:0:0:0:
64,192,300736,1,0,0:0:0:0:
235,334,300873,2,0,P|254:279|238:220,1,115,2|0,0:0|0:0,0:0:0:0:
82,101,301145,5,2,0:0:0:0:
168,278,301282,1,0,0:0:0:0:
86,81,301418,1,8,0:0:0:0:
37,312,301555,1,0,0:0:0:0:
90,61,301691,1,2,0:0:0:0:
303,228,301827,1,0,0:0:0:0:
94,41,301964,1,8,0:0:0:0:
31,332,302100,1,0,0:0:0:0:
189,63,302236,6,0,L|180:195,1,115,2|0,0:0|0:0,0:0:0:0:
235,334,302509,2,0,B|265:303|265:303|277:275|277:275|307:247,1,115,2|0,0:0|0:0,0:0:0:0:
306,71,302782,2,0,B|317:112|317:112|335:136|335:136|345:184,1,115,2|0,0:0|0:0,0:0:0:0:
499,265,303055,2,0,B|457:254|457:254|427:258|427:258|387:244,1,115,2|0,0:0|0:0,0:0:0:0:
181,177,303327,5,2,0:0:0:0:
359,324,303464,1,0,0:0:0:0:
306,71,303600,1,2,0:0:0:0:
235,334,303737,1,0,0:0:0:0:
429,276,303873,2,0,P|369:240|302:263,1,115,2|0,0:0|0:0,0:0:0:0:
235,334,304145,2,0,P|178:337|133:304,1,115,2|0,0:0|0:0,0:0:0:0:
151,158,304418,5,2,0:0:0:0:
327,246,304555,1,0,0:0:0:0:
327,246,304691,2,0,L|341:129,1,115,8|0,0:0|0:0,0:0:0:0:
45,152,304964,2,0,P|116:138|162:171,1,115,2|0,0:0|0:0,0:0:0:0:
327,246,305236,2,0,P|378:268|432:251,1,115,8|0,0:0|0:0,0:0:0:0:
290,77,305509,5,14,0:0:0:0:
286,81,305577,1,0,0:0:0:0:
282,85,305645,1,0,0:0:0:0:
279,90,305713,1,0,0:0:0:0:
276,95,305781,1,0,0:0:0:0:
274,100,305849,1,0,0:0:0:0:
272,106,305918,1,0,0:0:0:0:
270,111,305986,1,0,0:0:0:0:
269,117,306054,1,0,0:0:0:0:
268,123,306122,1,0,0:0:0:0:
267,128,306190,1,0,0:0:0:0:
267,134,306259,1,0,0:0:0:0:
268,140,306327,6,0,L|283:235,1,57.5,2|0,0:0|0:0,0:0:0:0:
345,343,306464,2,0,L|360:248,1,57.5,2|0,0:0|0:0,0:0:0:0:
201,221,306600,5,14,0:0:0:0:
214,245,306668,1,0,0:0:0:0:
236,264,306736,1,0,0:0:0:0:
263,273,306804,1,0,0:0:0:0:
292,273,306872,1,0,0:0:0:0:
318,262,306940,1,0,0:0:0:0:
339,240,307009,5,10,0:0:0:0:
284,223,307077,1,0,0:0:0:0:
227,227,307145,1,0,0:0:0:0:
175,251,307213,1,0,0:0:0:0:
119,265,307282,1,0,0:0:0:0:
65,247,307350,1,0,0:0:0:0:
29,203,307418,1,10,0:0:0:0:
23,147,307486,1,2,0:0:0:0:
50,96,307554,1,2,0:0:0:0:
99,69,307622,1,2,0:0:0:0:
156,77,307691,5,6,0:0:0:0:
51,299,309873,6,0,B|103:292|103:292|146:301|146:301|217:294,1,137.999995788574,12|0,0:0|0:0,0:0:0:0:
354,273,310146,1,2,0:0:0:0:
125,87,310282,2,0,L|160:237,1,137.999995788574,8|0,0:0|0:0,0:0:0:0:
193,376,310555,1,2,0:0:0:0:
334,172,310691,1,8,0:0:0:0:
316,348,310827,1,0,0:0:0:0:
119,229,310964,6,0,P|220:208|251:237,1,137.999995788574,8|0,0:0|0:0,0:0:0:0:
439,344,311236,2,0,P|379:374|317:349,1,137.999995788574,2|0,0:0|0:0,0:0:0:0:
253,90,311509,2,0,P|256:179|230:245,1,137.999995788574,8|0,0:0|0:0,0:0:0:0:
138,350,311782,1,2,0:0:0:0:
138,350,311850,1,0,0:0:0:0:
138,350,311918,2,0,L|99:264,1,68.9999978942872
32,96,312055,5,8,0:0:0:0:
62,50,312123,1,0,0:0:0:0:
107,19,312191,1,0,0:0:0:0:
161,8,312259,1,0,0:0:0:0:
214,19,312327,1,2,0:0:0:0:
260,50,312395,1,0,0:0:0:0:
289,96,312464,2,0,P|301:142|296:183,1,68.9999978942872
208,292,312600,5,8,0:0:0:0:
164,272,312668,1,0,0:0:0:0:
130,238,312736,1,0,0:0:0:0:
113,193,312804,1,0,0:0:0:0:
113,145,312872,1,2,0:0:0:0:
133,101,312940,1,0,0:0:0:0:
167,68,313009,2,0,B|205:57|205:57|247:57,1,68.9999978942872
454,114,313145,5,8,0:0:0:0:
433,111,313213,1,0,0:0:0:0:
412,109,313281,1,0,0:0:0:0:
392,107,313349,1,0,0:0:0:0:
371,105,313417,1,2,0:0:0:0:
351,102,313485,1,0,0:0:0:0:
330,100,313554,1,0,0:0:0:0:
309,98,313622,1,0,0:0:0:0:
289,96,313691,2,0,L|305:187,7,57.5,8|0|0|0|2|0|0|0,0:0|0:0|0:0|0:0|0:0|0:0|0:0|0:0,0:0:0:0:
399,300,314236,5,12,0:0:0:0:
448,96,314373,1,0,0:0:0:0:
399,300,314509,1,0,0:0:0:0:
448,96,314646,1,8,0:0:0:0:
271,252,314782,1,0,0:0:0:0:
459,195,314918,1,0,0:0:0:0:
459,195,314986,1,0,0:0:0:0:
459,195,315055,1,8,0:0:0:0:
255,78,315191,1,0,0:0:0:0:
399,300,315327,5,12,0:0:0:0:
362,37,315464,1,0,0:0:0:0:
399,300,315600,1,0,0:0:0:0:
362,37,315736,1,8,0:0:0:0:
169,250,315873,1,0,0:0:0:0:
459,195,316009,1,0,0:0:0:0:
459,195,316077,1,0,0:0:0:0:
459,195,316146,1,8,0:0:0:0:
255,78,316282,1,0,0:0:0:0:
289,334,316418,5,12,0:0:0:0:
362,37,316555,1,0,0:0:0:0:
289,334,316691,1,0,0:0:0:0:
362,37,316827,1,8,0:0:0:0:
157,127,316964,1,0,0:0:0:0:
459,195,317100,1,0,0:0:0:0:
459,195,317168,1,0,0:0:0:0:
459,195,317236,2,0,L|319:214,1,137.999995788574,8|0,0:0|0:0,0:0:0:0:
92,241,317509,5,12,0:0:0:0:
269,243,317646,1,0,0:0:0:0:
24,177,317782,1,2,0:0:0:0:
289,334,317918,1,0,0:0:0:0:
5,266,318055,1,8,0:0:0:0:
256,152,318191,1,0,0:0:0:0:
72,328,318327,2,0,B|149:338|149:338|211:321,1,137.999995788574
407,241,318600,5,12,0:0:0:0:
148,189,318736,1,2,0:0:0:0:
423,243,318873,1,0,0:0:0:0:
228,51,319009,1,2,0:0:0:0:
289,334,319145,6,0,L|297:242,1,91.9999971923829,8|0,0:0|0:0,0:0:0:0:
339,81,319327,1,0,0:0:0:0:
339,81,319418,2,0,L|347:172,1,91.9999971923829,8|0,0:0|0:0,0:0:0:0:
191,279,319600,1,0,0:0:0:0:
191,279,319691,6,0,P|200:170|188:137,1,91.9999971923829,8|0,0:0|0:0,0:0:0:0:
66,83,319873,1,0,0:0:0:0:
66,83,319964,2,0,P|57:192|69:225,1,91.9999971923829,8|0,0:0|0:0,0:0:0:0:
115,351,320145,1,0,0:0:0:0:
115,351,320236,2,0,P|106:242|118:209,1,91.9999971923829,8|0,0:0|0:0,0:0:0:0:
209,106,320418,1,0,0:0:0:0:
209,106,320509,1,8,0:0:0:0:
207,133,320599,1,0,0:0:0:0:
205,161,320690,1,0,0:0:0:0:
203,188,320782,6,0,L|311:171,1,91.9999971923829,12|0,0:0|0:0,0:0:0:0:
470,225,320964,1,0,0:0:0:0:
470,225,321055,2,0,L|362:208,1,91.9999971923829,8|0,0:0|0:0,0:0:0:0:
333,44,321236,1,0,0:0:0:0:
333,44,321327,2,0,L|372:146,1,91.9999971923829,8|0,0:0|0:0,0:0:0:0:
341,340,321509,1,0,0:0:0:0:
341,340,321600,2,0,L|301:237,1,91.9999971923829,8|0,0:0|0:0,0:0:0:0:
189,98,321782,1,0,0:0:0:0:
189,98,321873,6,0,P|201:199|185:247,1,91.9999971923829,8|0,0:0|0:0,0:0:0:0:
71,353,322055,1,0,0:0:0:0:
71,353,322146,2,0,P|59:252|75:204,1,91.9999971923829,8|0,0:0|0:0,0:0:0:0:
108,50,322327,1,0,0:0:0:0:
108,50,322418,2,0,P|96:151|112:199,1,91.9999971923829,8|0,0:0|0:0,0:0:0:0:
235,317,322600,1,0,0:0:0:0:
235,317,322691,1,8,0:0:0:0:
236,261,322781,1,0,0:0:0:0:
238,206,322872,1,0,0:0:0:0:
239,150,322964,6,0,P|325:94|279:217,1,275.999991577149,12|0,0:0|0:0,0:0:0:0:
67,287,323373,1,0,0:0:0:0:
236,261,323509,1,8,0:0:0:0:
22,176,323646,1,0,0:0:0:0:
242,243,323782,1,2,0:0:0:0:
47,62,323918,1,0,0:0:0:0:
247,226,324055,6,0,B|197:222|197:222|162:209|162:209|70:200,1,137.999995788574,8|0,0:0|0:0,0:0:0:0:
313,157,324327,1,0,0:0:0:0:
313,157,324464,2,0,P|341:215|294:304,1,137.999995788574,8|0,0:0|0:0,0:0:0:0:
150,338,324736,1,2,0:0:0:0:
150,338,324873,2,0,B|146:280|146:280|156:246|156:246|153:181,1,137.999995788574,8|0,0:0|0:0,0:0:0:0:
84,44,325146,5,8,0:0:0:0:
83,50,325214,1,0,0:0:0:0:
82,57,325282,1,0,0:0:0:0:
81,64,325350,1,0,0:0:0:0:
80,71,325418,1,2,0:0:0:0:
79,78,325486,1,0,0:0:0:0:
79,85,325555,1,0,0:0:0:0:
78,91,325623,1,0,0:0:0:0:
77,98,325691,5,8,0:0:0:0:
229,210,325827,2,0,P|173:173|84:193,1,137.999995788574,2|0,0:0|0:0,0:0:0:0:
148,273,326100,1,2,0:0:0:0:
148,273,326236,2,0,L|157:110,1,137.999995788574,8|0,0:0|0:0,0:0:0:0:
303,62,326509,5,2,0:0:0:0:
302,68,326577,1,0,0:0:0:0:
301,75,326645,1,0,0:0:0:0:
300,82,326713,1,0,0:0:0:0:
315,114,326782,1,8,0:0:0:0:
315,120,326850,1,0,0:0:0:0:
316,127,326918,1,0,0:0:0:0:
317,134,326986,1,0,0:0:0:0:
288,165,327055,2,0,L|274:233,3,57.5,8|0|0|0,0:0|0:0|0:0|0:0,0:0:0:0:
201,269,327327,6,0,P|262:310|338:283,1,137.999995788574,12|0,0:0|0:0,0:0:0:0:
408,193,327600,2,0,P|347:152|270:178,1,137.999995788574,2|0,0:0|0:0,0:0:0:0:
414,310,327873,2,0,L|445:86,2,206.999993682861,8|0|0,0:0|0:0|0:0,0:0:0:0:
321,297,328418,6,0,L|349:120,1,137.999995788574,8|0,0:0|0:0,0:0:0:0:
276,19,328691,2,0,L|254:155,1,137.999995788574,8|0,0:0|0:0,0:0:0:0:
132,319,328964,2,0,L|160:142,1,137.999995788574,2|0,0:0|0:0,0:0:0:0:
89,27,329237,2,0,L|67:163,1,137.999995788574,8|0,0:0|0:0,0:0:0:0:
132,319,329509,5,2,0:0:0:0:
180,59,329646,1,2,0:0:0:0:
132,319,329782,2,0,B|184:313|184:313|223:320|223:320|286:310,1,137.999995788574,10|0,0:0|0:0,0:0:0:0:
438,198,330055,2,0,L|221:241,2,206.999993682861,8|2|2,0:0|0:0|0:0,0:0:0:0:
452,116,330600,2,0,L|288:149,1,137.999995788574,8|0,0:0|0:0,0:0:0:0:
268,312,330873,2,0,L|403:284,1,137.999995788574,8|0,0:0|0:0,0:0:0:0:
244,85,331146,6,0,P|225:158|231:186,1,68.9999978942872,2|0,0:0|0:0,0:0:0:0:
144,207,331282,2,0,P|217:226|245:220,1,68.9999978942872
268,312,331418,2,0,P|287:239|281:211,1,68.9999978942872,8|0,0:0|0:0,0:0:0:0:
371,183,331555,2,0,P|298:164|270:170,1,68.9999978942872
144,207,331691,6,0,P|70:215|140:83,1,275.999991577149,12|2,0:0|0:0,0:0:0:0:
327,225,332100,1,2,0:0:0:0:
327,225,332236,2,0,P|401:233|360:121,2,206.999993682861,8|2|2,0:0|0:0|0:0,0:0:0:0:
197,51,332782,6,0,P|232:128|218:200,1,137.999995788574,8|0,0:0|0:0,0:0:0:0:
173,335,333055,2,0,P|138:258|152:186,1,137.999995788574,8|0,0:0|0:0,0:0:0:0:
467,293,333327,2,0,P|390:328|318:314,1,137.999995788574,8|0,0:0|0:0,0:0:0:0:
143,206,333600,2,0,P|220:171|292:185,1,137.999995788574,8|0,0:0|0:0,0:0:0:0:
467,293,333873,5,2,0:0:0:0:
496,65,334009,1,2,0:0:0:0:
467,293,334146,2,0,P|390:328|318:314,1,137.999995788574,10|0,0:0|0:0,0:0:0:0:
143,206,334418,1,2,0:0:0:0:
385,223,334554,1,0,0:0:0:0:
385,223,334622,1,0,0:0:0:0:
385,223,334690,1,8,0:0:0:0:
191,367,334827,1,0,0:0:0:0:
259,78,334963,5,12,0:0:0:0:
259,78,336873,5,8,0:0:0:0:
191,367,337146,5,12,0:0:0:0:
259,78,337282,1,2,0:0:0:0:
58,297,339327,5,2,0:0:0:0:
264,247,339464,1,0,0:0:0:0:
58,297,339600,2,0,P|118:324|187:317,1,115,8|0,0:0|0:0,0:0:0:0:
264,247,339873,2,0,P|321:247|372:273,1,115,8|0,0:0|0:0,0:0:0:0:
447,355,340146,2,0,L|460:159,1,172.5,8|0,0:0|0:0,0:0:0:0:
441,163,340418,5,2,0:0:0:0:
300,337,340555,1,0,0:0:0:0:
161,142,340691,2,0,P|243:186|251:222,1,115,8|0,0:0|0:0,0:0:0:0:
171,313,340964,2,0,P|89:269|81:233,1,115,8|0,0:0|0:0,0:0:0:0:
167,135,341236,2,0,P|249:179|257:215,1,115,8|0,0:0|0:0,0:0:0:0:
171,313,341509,5,12,0:0:0:0:
267,331,342327,1,2,0:0:0:0:
171,313,342464,1,2,0:0:0:0:
75,295,342600,5,10,0:0:0:0:
438,243,342736,1,8,0:0:0:0:
425,265,343146,5,8,0:0:0:0:
99,192,343282,1,8,0:0:0:0:
111,223,343555,2,0,L|183:211,1,57.5
403,172,343691,5,6,0:0:0:0:
254,297,343827,1,0,0:0:0:0:
300,107,343964,1,8,0:0:0:0:
349,308,344100,1,0,0:0:0:0:
390,75,344236,1,2,0:0:0:0:
167,213,344373,1,0,0:0:0:0:
403,172,344509,1,8,0:0:0:0:
111,223,344645,2,0,L|193:219,1,57.5
271,22,344782,6,0,L|283:161,1,115
349,308,345055,2,0,L|360:187,1,115,8|0,0:0|0:0,0:0:0:0:
160,18,345327,2,0,L|171:139,1,115,2|0,0:0|0:0,0:0:0:0:
414,240,345600,2,0,P|364:213|308:224,1,115,8|0,0:0|0:0,0:0:0:0:
138,289,345873,5,6,0:0:0:0:
349,308,346009,1,0,0:0:0:0:
170,132,346146,1,8,0:0:0:0:
268,344,346282,1,0,0:0:0:0:
95,203,346418,1,2,0:0:0:0:
349,308,346555,1,0,0:0:0:0:
253,115,346691,1,8,0:0:0:0:
268,344,346827,6,0,B|262:233|262:233|264:214|264:214|259:199|259:199|251:77,1,230,8|0,0:0|0:0,0:0:0:0:
95,203,347236,2,0,L|236:221,1,115,2|0,0:0|0:0,0:0:0:0:
414,240,347509,1,8,0:0:0:0:
313,57,347646,2,0,P|228:39|179:76,1,115,0|8,0:0|0:0,0:0:0:0:
95,203,347918,1,0,0:0:0:0:
298,169,348055,5,12,0:0:0:0:
99,102,348191,1,0,0:0:0:0:
313,57,348327,1,2,0:0:0:0:
143,284,348464,1,0,0:0:0:0:
209,79,348600,1,8,0:0:0:0:
242,359,348736,1,0,0:0:0:0:
298,169,348873,1,2,0:0:0:0:
143,284,349009,6,0,L|380:270,1,230,2|0,0:0|0:0,0:0:0:0:
491,224,349418,1,2,0:0:0:0:
458,177,349486,1,2,0:0:0:0:
408,149,349554,1,2,0:0:0:0:
351,146,349622,1,2,0:0:0:0:
298,169,349691,1,10,0:0:0:0:
245,191,349759,1,0,0:0:0:0:
188,188,349827,1,0,0:0:0:0:
138,160,349895,1,0,0:0:0:0:
105,113,349964,6,0,L|91:20,3,57.5,8|0|0|0,0:0|0:0|0:0|0:0,0:0:0:0:
122,28,350236,5,12,0:0:0:0:
74,290,350373,1,0,0:0:0:0:
204,68,350509,1,2,0:0:0:0:
62,308,350646,1,0,0:0:0:0:
245,191,350782,1,8,0:0:0:0:
31,207,350918,1,0,0:0:0:0:
269,189,351055,1,2,0:0:0:0:
5,210,351191,1,0,0:0:0:0:
197,337,351327,5,8,0:0:0:0:
196,331,351395,1,0,0:0:0:0:
196,325,351463,1,0,0:0:0:0:
195,319,351531,1,0,0:0:0:0:
195,314,351599,1,0,0:0:0:0:
194,308,351667,1,0,0:0:0:0:
194,302,351736,1,8,0:0:0:0:
193,296,351804,1,0,0:0:0:0:
193,291,351873,6,0,L|184:192,1,57.5,2|2,0:0|0:0,0:0:0:0:
172,60,352009,1,2,0:0:0:0:
172,60,352077,1,2,0:0:0:0:
172,60,352146,1,10,0:0:0:0:
79,278,352418,5,12,0:0:0:0:
275,167,352554,1,0,0:0:0:0:
98,130,352691,1,2,0:0:0:0:
284,181,352827,2,0,L|398:167,1,115,2|0,0:0|0:0,0:0:0:0:
193,291,353100,2,0,L|78:277,1,115,8|0,0:0|0:0,0:0:0:0:
310,265,353373,5,2,0:0:0:0:
98,130,353509,1,0,0:0:0:0:
318,82,353645,1,0,0:0:0:0:
150,204,353782,5,8,0:0:0:0:
398,167,353918,1,0,0:0:0:0:
224,90,354054,1,2,0:0:0:0:
401,251,354191,1,0,0:0:0:0:
246,11,354327,2,0,P|177:19|149:58,1,115,8|0,0:0|0:0,0:0:0:0:
310,265,354600,6,0,P|321:191|296:139,1,115,12|0,0:0|0:0,0:0:0:0:
151,52,354873,1,2,0:0:0:0:
61,320,355009,2,0,P|50:246|75:194,1,115,2|0,0:0|0:0,0:0:0:0:
310,265,355282,2,0,P|321:191|296:139,1,115,2|0,0:0|0:0,0:0:0:0:
151,52,355554,5,2,0:0:0:0:
225,261,355691,1,8,0:0:0:0:
37,125,355827,1,0,0:0:0:0:
242,244,355963,5,2,0:0:0:0:
61,320,356100,1,0,0:0:0:0:
217,106,356236,1,8,0:0:0:0:
68,344,356373,1,0,0:0:0:0:
124,47,356509,2,0,B|132:98|132:98|128:126|128:126|134:179,1,115,2|0,0:0|0:0,0:0:0:0:
331,111,356782,6,0,L|193:104,1,115,12|0,0:0|0:0,0:0:0:0:
68,344,357054,1,2,0:0:0:0:
68,344,357191,2,0,L|206:337,1,115,8|0,0:0|0:0,0:0:0:0:
433,250,357463,2,0,P|349:227|306:260,1,115,2|0,0:0|0:0,0:0:0:0:
373,312,357736,6,0,L|409:67,1,230,8|0,0:0|0:0,0:0:0:0:
223,224,358146,2,0,P|272:250|327:237,1,115,2|0,0:0|0:0,0:0:0:0:
406,84,358418,1,2,0:0:0:0:
286,169,358554,1,2,0:0:0:0:
487,325,358691,2,0,L|368:311,1,115,10|0,0:0|0:0,0:0:0:0:
127,278,358964,5,8,0:0:0:0:
286,169,359100,1,0,0:0:0:0:
107,292,359236,1,2,0:0:0:0:
299,88,359373,2,0,P|349:114|368:175,1,115,8|0,0:0|0:0,0:0:0:0:
268,333,359645,1,0,0:0:0:0:
164,68,359782,1,2,0:0:0:0:
29,280,359918,6,0,P|59:357|185:301,1,230,8|0,0:0|0:0,0:0:0:0:
84,189,360327,1,2,0:0:0:0:
84,184,360395,1,2,0:0:0:0:
84,178,360463,1,2,0:0:0:0:
85,172,360531,1,2,0:0:0:0:
85,167,360599,1,2,0:0:0:0:
85,161,360667,1,0,0:0:0:0:
86,155,360736,1,0,0:0:0:0:
86,149,360804,1,0,0:0:0:0:
86,144,360873,6,0,L|191:153,1,86.25,2|0,0:0|0:0,0:0:0:0:
325,148,361146,6,0,L|168:137,1,137.999995788574,6|0,0:0|0:0,0:0:0:0:
13,121,361418,1,8,0:0:0:0:
257,62,361555,2,0,P|187:32|109:71,1,137.999995788574,2|0,0:0|0:0,0:0:0:0:
256,241,361827,2,0,P|326:271|404:232,1,137.999995788574,8|0,0:0|0:0,0:0:0:0:
177,294,362100,6,0,P|107:324|122:168,1,275.999991577149,2|0,0:0|0:0,0:0:0:0:
256,241,362509,2,0,P|326:271|404:232,1,137.999995788574,2|0,0:0|0:0,0:0:0:0:
319,74,362782,2,0,P|310:183|355:208,1,137.999995788574,8|0,0:0|0:0,0:0:0:0:
506,142,363055,2,0,L|369:134,1,137.999995788574,2|0,0:0|0:0,0:0:0:0:
127,118,363327,5,12,0:0:0:0:
319,74,363463,1,0,0:0:0:0:
73,13,363600,1,2,0:0:0:0:
117,255,363736,2,0,L|128:95,1,137.999995788574,8|0,0:0|0:0,0:0:0:0:
219,25,364009,2,0,L|209:162,1,137.999995788574,8|0,0:0|0:0,0:0:0:0:
190,342,364282,5,8,0:0:0:0:
126,117,364418,1,8,0:0:0:0:
256,241,364554,1,0,0:0:0:0:
0,291,364691,2,0,P|56:246|145:279,1,137.999995788574,2|0,0:0|0:0,0:0:0:0:
400,288,364963,2,0,P|344:333|255:300,1,137.999995788574,8|0,0:0|0:0,0:0:0:0:
269,103,365236,2,0,L|254:257,1,137.999995788574,2|0,0:0|0:0,0:0:0:0:
190,91,365509,6,0,P|263:23|335:147,1,275.999991577149,12|0,0:0|0:0,0:0:0:0:
386,206,365918,2,0,P|425:130|407:28,1,137.999995788574,2|0,0:0|0:0,0:0:0:0:
151,0,366191,2,0,P|112:76|130:178,1,137.999995788574,8|0,0:0|0:0,0:0:0:0:
296,238,366464,6,0,B|194:246|194:246|158:236|158:236|127:254|127:254|-3:266,1,275.999991577149,2|0,0:0|0:0,0:0:0:0:
185,324,366873,2,0,L|332:313,1,137.999995788574,8|0,0:0|0:0,0:0:0:0:
499,204,367145,1,2,0:0:0:0:
296,238,367282,1,2,0:0:0:0:
460,324,367418,2,0,L|313:313,1,137.999995788574,10|0,0:0|0:0,0:0:0:0:
108,302,367691,5,12,0:0:0:0:
324,90,367827,1,0,0:0:0:0:
108,302,367963,1,2,0:0:0:0:
324,90,368100,2,0,L|147:124,1,137.999995788574,8|0,0:0|0:0,0:0:0:0:
53,145,368373,1,0,0:0:0:0:
185,324,368509,1,2,0:0:0:0:
53,145,368645,2,0,L|197:114,1,137.999995788574,8|0,0:0|0:0,0:0:0:0:
403,118,368918,5,2,0:0:0:0:
372,102,368986,1,0,0:0:0:0:
338,97,369054,1,0,0:0:0:0:
304,102,369122,1,0,0:0:0:0:
273,118,369190,1,2,0:0:0:0:
249,143,369258,1,0,0:0:0:0:
234,173,369327,1,0,0:0:0:0:
229,207,369395,1,0,0:0:0:0:
235,241,369463,1,2,0:0:0:0:
251,272,369531,1,0,0:0:0:0:
276,295,369600,6,0,P|315:239|281:243,1,137.999995788574,8|0,0:0|0:0,0:0:0:0:
128,309,369873,1,12,0:0:0:0:
256,192,385146,12,4,387464,0:0:0:0:
374,169,388418,6,0,P|321:154|251:172,1,127.777777777778,8|0,0:0|0:0,0:0:0:0:
384,246,388964,2,0,P|439:212|400:94,1,191.666666666667
336,312,389509,6,0,P|426:316|432:312,1,76.6666666666667,6|0,0:0|0:0,0:0:0:0:
168,263,389691,2,0,P|86:221|84:215,1,76.6666666666667
338,278,389873,2,0,P|419:236|421:230,1,76.6666666666667
183,232,390055,2,0,P|133:155|134:149,1,76.6666666666667,8|0,0:0|0:0,0:0:0:0:
324,248,390236,2,0,P|373:171|372:165,1,76.6666666666667
210,213,390418,2,0,P|205:122|209:116,1,76.6666666666667
296,230,390600,6,0,P|300:139|296:133,5,76.6666666666667,2|0|0|0|0|0,0:0|0:0|0:0|0:0|0:0|0:0,0:0:0:0:
322,64,391146,2,0,P|284:61|249:77,5,76.6666666666667,8|0|0|0|0|0,0:0|0:0|0:0|0:0|0:0|0:0,0:0:0:0:
134,194,391691,6,0,P|142:118|125:89,1,76.6666666666667,6|0,0:0|0:0,0:0:0:0:
70,256,391873,2,0,P|62:332|79:361,1,76.6666666666667
73,196,392055,2,0,P|-3:188|-32:205,1,76.6666666666667
135,260,392237,2,0,P|211:268|240:251,1,76.6666666666667,8|0,0:0|0:0,0:0:0:0:
60,256,392418,2,0,P|52:332|69:361,1,76.6666666666667
144,194,392600,2,0,P|152:118|135:89,1,76.6666666666667
135,270,392782,6,0,P|211:278|240:261,5,76.6666666666667,2|0|0|0|0|0,0:0|0:0|0:0|0:0|0:0|0:0,0:0:0:0:
255,195,393327,2,0,P|301:260|249:367,1,153.333333333333,8|0,0:0|0:0,0:0:0:0:
375,377,393600,2,0,P|389:344|379:201,1,153.333333333333,2|0,0:0|0:0,0:0:0:0:
360,61,393873,6,0,P|345:96|336:133,3,76.6666666666667,6|0|0|0,0:0|0:0|0:0|0:0,0:0:0:0:
255,195,394236,2,0,P|240:159|231:122,1,76.6666666666667
178,12,394418,2,0,P|163:47|154:84,1,76.6666666666667,8|0,0:0|0:0,0:0:0:0:
250,211,394600,2,0,P|219:187|193:159,1,76.6666666666667
95,97,394782,2,0,P|99:134|111:171,1,76.6666666666667
258,229,394964,6,0,P|220:224|183:212,5,76.6666666666667,2|0|0|0|0|0,0:0|0:0|0:0|0:0|0:0|0:0,0:0:0:0:
33,267,395509,2,0,P|70:262|107:250,5,76.6666666666667,8|0|0|0|0|0,0:0|0:0|0:0|0:0|0:0|0:0,0:0:0:0:
258,229,396055,6,0,P|220:224|183:212,1,76.6666666666667,6|0,0:0|0:0,0:0:0:0:
95,97,396236,2,0,P|99:134|111:171,1,76.6666666666667
251,204,396418,2,0,P|220:180|194:152,1,76.6666666666667
178,12,396600,2,0,P|163:47|154:84,1,76.6666666666667,8|0,0:0|0:0,0:0:0:0:
259,182,396782,2,0,P|244:146|235:109,1,76.6666666666667
297,19,396964,2,0,P|311:54|320:91,1,76.6666666666667
364,226,397146,6,0,P|378:190|387:153,3,76.6666666666667,2|0|0|0,0:0|0:0|0:0|0:0,0:0:0:0:
448,36,397510,2,0,L|456:134,1,76.6666666666667
364,226,397691,6,0,P|372:263|387:298,2,76.6666666666667,8|0|0,0:0|0:0|0:0,0:0:0:0:
320,91,397964,1,0,0:0:0:0:
320,91,398055,2,0,L|299:190,1,76.6666666666667
263,336,398236,5,6,0:0:0:0:
263,336,398327,1,0,0:0:0:0:
263,336,398418,1,0,0:0:0:0:
263,336,398509,1,0,0:0:0:0:
263,336,398600,2,0,L|378:328,1,76.6666666666667
173,283,398782,2,0,L|58:275,1,76.6666666666667,8|0,0:0|0:0,0:0:0:0:
287,231,398964,2,0,L|402:223,1,76.6666666666667
197,178,399146,2,0,L|82:170,1,76.6666666666667
263,336,399327,5,2,0:0:0:0:
263,336,399418,1,0,0:0:0:0:
263,336,399509,1,0,0:0:0:0:
263,336,399600,1,0,0:0:0:0:
263,336,399691,2,0,L|378:328,1,76.6666666666667
439,231,399873,5,8,0:0:0:0:
439,231,399964,1,0,0:0:0:0:
439,231,400055,1,0,0:0:0:0:
439,231,400146,1,0,0:0:0:0:
439,231,400237,2,0,L|324:223,1,76.6666666666667
120,172,400418,6,0,P|216:174|223:171,1,76.6666666666667,6|0,0:0|0:0,0:0:0:0:
375,135,400600,2,0,P|279:137|272:134,1,76.6666666666667
75,25,400782,2,0,P|171:23|178:26,1,76.6666666666667
377,147,400964,2,0,P|281:149|274:146,1,76.6666666666667,8|0,0:0|0:0,0:0:0:0:
120,172,401146,2,0,P|216:174|223:171,1,76.6666666666667
330,62,401327,2,0,P|234:60|227:63,1,76.6666666666667
120,171,401509,6,0,P|83:181|44:180,5,76.6666666666667,2|0|0|0|0|0,0:0|0:0|0:0|0:0|0:0|0:0,0:0:0:0:
208,259,402055,2,0,P|304:261|311:258,1,76.6666666666667,8|0,0:0|0:0,0:0:0:0:
131,295,402236,2,0,P|35:297|28:294,1,76.6666666666667
219,346,402418,2,0,P|315:348|322:345,1,76.6666666666667
439,282,402600,6,0,P|400:280|363:290,5,76.6666666666667,6|0|0|0|0|0,0:0|0:0|0:0|0:0|0:0|0:0,0:0:0:0:
281,248,403146,2,0,P|323:222|379:207,1,76.6666666666667,8|0,0:0|0:0,0:0:0:0:
490,210,403327,2,0,P|448:184|392:169,1,76.6666666666667
239,175,403509,2,0,P|281:149|337:134,1,76.6666666666667
488,112,403691,6,0,P|442:93|384:88,5,76.6666666666667,2|0|0|0|0|0,0:0|0:0|0:0|0:0|0:0|0:0,0:0:0:0:
244,79,404236,2,0,P|289:60|347:55,5,76.6666666666667,8|0|0|0|0|0,0:0|0:0|0:0|0:0|0:0|0:0,0:0:0:0:
384,165,404782,6,0,L|285:156,1,76.6666666666667,6|0,0:0|0:0,0:0:0:0:
164,187,404964,2,0,L|240:193,1,76.6666666666667
385,241,405146,2,0,L|286:232,1,76.6666666666667
176,282,405328,2,0,L|252:288,1,76.6666666666667,8|0,0:0|0:0,0:0:0:0:
97,246,405509,2,0,L|20:239,1,76.6666666666667
164,187,405691,2,0,L|240:193,1,76.6666666666667
104,120,405873,6,0,L|27:113,5,76.6666666666667,2|0|0|0|0|0,0:0|0:0|0:0|0:0|0:0|0:0,0:0:0:0:
246,55,406418,1,8,0:0:0:0:
335,269,406600,2,0,P|326:177|332:158,1,76.6666666666667
404,26,406782,2,0,P|415:62|416:100,1,76.6666666666667
241,213,406964,6,0,L|341:189,1,84.3333359069825,6|0,0:0|0:0,0:0:0:0:
417,249,407146,2,0,L|334:268,1,84.3333359069825
128,153,407327,2,0,L|228:129,1,84.3333359069825
188,310,407509,2,0,P|161:272|154:210,1,84.3333359069825,8|0,0:0|0:0,0:0:0:0:
174,59,407691,2,0,P|199:92|209:133,1,84.3333359069825
78,270,407873,2,0,P|165:235|184:238,1,84.3333359069825
281,332,408055,6,0,P|321:321|355:296,5,84.3333359069825,6|0|0|0|0|0,0:0|0:0|0:0|0:0|0:0|0:0,0:0:0:0:
354,195,408600,2,0,P|394:205|428:230,3,84.3333359069825,8|0|0|0,0:0|0:0|0:0|0:0,0:0:0:0:
429,332,408964,2,0,P|388:321|354:296,1,84.3333359069825
389,120,409146,6,0,P|378:160|353:194,1,84.3333359069825,6|0,0:0|0:0,0:0:0:0:
226,285,409327,2,0,P|250:251|261:210,1,84.3333359069825
295,24,409509,2,0,P|270:57|259:98,1,84.3333359069825
247,302,409691,2,0,P|271:268|282:227,1,84.3333359069825,8|0,0:0|0:0,0:0:0:0:
154,85,409873,2,0,P|178:118|189:159,1,84.3333359069825
82,274,410055,2,0,P|106:240|117:199,1,84.3333359069825
42,59,410236,6,0,P|66:92|77:133,5,84.3333359069825,6|0|0|0|0|0,0:0|0:0|0:0|0:0|0:0|0:0,0:0:0:0:
82,274,410782,2,0,P|106:240|117:199,3,84.3333359069825,8|0|0|0,0:0|0:0|0:0|0:0,0:0:0:0:
154,85,411146,2,0,P|178:118|189:159,1,84.3333359069825
259,308,411327,6,0,P|283:208|281:178,3,84.3333359069825,6|0|0|0,0:0|0:0|0:0|0:0,0:0:0:0:
308,76,411691,2,0,P|332:176|330:206,1,84.3333359069825
367,290,411873,2,0,P|391:190|389:160,1,84.3333359069825,8|0,0:0|0:0,0:0:0:0:
389,46,412055,2,0,P|413:146|411:176,1,84.3333359069825
259,308,412236,2,0,P|235:208|237:178,1,84.3333359069825
308,76,412418,6,0,P|332:176|330:206,5,84.3333359069825,6|0|0|0|0|0,0:0|0:0|0:0|0:0|0:0|0:0,0:0:0:0:
235,227,412964,2,0,P|254:126|252:96,5,84.3333359069825,8|0|0|0|0|0,0:0|0:0|0:0|0:0|0:0|0:0,0:0:0:0:
138,58,413509,6,0,P|166:154|176:168,1,84.3333359069825,6|0,0:0|0:0,0:0:0:0:
254,308,413691,2,0,P|226:212|216:198,1,84.3333359069825
67,124,413873,2,0,P|115:211|128:222,1,84.3333359069825
180,331,414055,2,0,P|152:235|142:221,1,84.3333359069825,8|0,0:0|0:0,0:0:0:0:
5,287,414236,2,0,P|102:310|119:309,1,84.3333359069825
314,250,414418,2,0,P|216:226|199:227,1,84.3333359069825
298,331,414600,6,0,P|384:295|330:169,1,253.000007720947,6|0,0:0|0:0,0:0:0:0:
160,249,414964,1,0,0:0:0:0:
160,249,415055,1,0,0:0:0:0:
160,249,415146,2,0,L|152:126,2,84.3333359069825,8|0|0,0:0|0:0|0:0,0:0:0:0:
298,331,415418,1,0,0:0:0:0:
298,331,415509,2,0,L|286:191,1,84.3333359069825
271,62,415691,5,6,0:0:0:0:
271,62,415782,1,0,0:0:0:0:
271,62,415873,1,0,0:0:0:0:
271,62,415964,1,0,0:0:0:0:
271,62,416055,2,0,L|385:41,1,84.3333359069825
183,114,416236,2,0,L|57:96,1,84.3333359069825,8|0,0:0|0:0,0:0:0:0:
272,157,416418,2,0,L|398:138,1,84.3333359069825
175,210,416600,2,0,L|48:191,1,84.3333359069825
282,271,416782,5,6,0:0:0:0:
282,271,416873,1,0,0:0:0:0:
282,271,416964,1,0,0:0:0:0:
282,271,417055,1,0,0:0:0:0:
282,271,417146,2,0,L|395:259,1,84.3333359069825
195,316,417327,5,8,0:0:0:0:
195,316,417418,1,0,0:0:0:0:
195,316,417509,1,0,0:0:0:0:
195,316,417600,1,0,0:0:0:0:
195,316,417691,2,0,L|82:304,1,84.3333359069825
49,224,417873,6,0,P|149:204|167:210,1,84.3333359069825,6|0,0:0|0:0,0:0:0:0:
299,164,418055,2,0,P|199:144|181:150,1,84.3333359069825
49,224,418236,2,0,P|149:206|164:194,1,84.3333359069825
234,59,418418,2,0,P|223:158|236:188,1,84.3333359069825,8|0,0:0|0:0,0:0:0:0:
282,341,418600,2,0,P|293:242|280:212,1,84.3333359069825
234,59,418782,2,0,P|245:158|232:188,1,84.3333359069825
146,298,418964,6,0,P|135:199|148:169,5,84.3333359069825,6|0|0|0|0|0,0:0|0:0|0:0|0:0|0:0|0:0,0:0:0:0:
65,122,419509,2,0,P|50:233|51:247,1,84.3333359069825,8|0,0:0|0:0,0:0:0:0:
248,140,419691,2,0,P|263:251|262:265,1,84.3333359069825
146,133,419873,2,0,P|131:244|132:258,1,84.3333359069825
251,307,420055,6,0,P|140:322|126:321,5,84.3333359069825,6|0|0|0|0|0,0:0|0:0|0:0|0:0|0:0|0:0,0:0:0:0:
48,230,420600,6,0,P|159:215|173:216,1,84.3333359069825,8|0,0:0|0:0,0:0:0:0:
345,207,420782,2,0,P|234:222|220:221,1,84.3333359069825
49,204,420964,2,0,P|160:189|174:190,1,84.3333359069825
352,175,421146,6,0,P|241:190|227:189,5,84.3333359069825,6|0|0|0|0|0,0:0|0:0|0:0|0:0|0:0|0:0,0:0:0:0:
56,176,421691,2,0,P|167:161|181:162,5,84.3333359069825,8|0|0|0|0|0,0:0|0:0|0:0|0:0|0:0|0:0,0:0:0:0:
299,256,422236,6,0,P|216:243|189:206,1,84.3333359069825,6|0,0:0|0:0,0:0:0:0:
151,72,422418,2,0,P|234:85|261:122,1,84.3333359069825
125,323,422600,2,0,P|138:240|175:213,1,84.3333359069825
309,175,422782,2,0,P|296:258|259:285,1,84.3333359069825,8|0,0:0|0:0,0:0:0:0:
231,82,422964,2,0,P|314:95|341:132,1,84.3333359069825
379,266,423146,2,0,P|296:253|269:216,1,84.3333359069825
142,165,423327,6,0,P|213:253|79:188,1,421.666679534912,12|0,0:0|0:0,0:0:0:0:
140,159,423873,6,0,P|219:254|77:182,1,421.666679534912,12|0,0:0|0:0,0:0:0:0:
149,61,424418,5,8,0:0:0:0:
149,61,424691,1,2,0:0:0:0:
292,89,424827,1,0,0:0:0:0:
139,157,424964,1,0,0:0:0:0:
282,185,425100,1,0,0:0:0:0:
129,253,425236,1,2,0:0:0:0:
272,281,425372,1,0,0:0:0:0:
57,290,425509,6,0,P|122:334|199:293,1,172.5
122,195,426055,2,0,L|131:275,1,57.5
272,281,426327,2,0,L|265:223,1,57.5
335,88,426600,6,0,L|352:263,1,172.5
436,292,427146,2,0,L|430:225,1,57.5
272,281,427418,2,0,L|266:214,1,57.5
218,157,427691,6,0,P|261:144|300:151,2,76.6666666666667
127,147,428236,2,0,P|84:134|45:141,2,76.6666666666667
272,281,428782,5,4,0:0:0:0:
107,38,429600,5,2,0:0:0:0:
102,56,429873,1,8,0:0:0:0:
311,156,430964,5,2,0:0:0:0:
316,174,431373,1,2,0:0:0:0:
321,192,431782,1,2,0:0:0:0:
342,46,432055,1,8,0:0:0:0:
101,250,433146,6,0,B|285:331|285:186|454:272,1,345,6|2,0:0|0:0,0:0:0:0:
344,321,434236,2,0,P|329:238|440:157,1,230,8|0,0:0|0:0,0:0:0:0:
433,156,435327,6,0,P|325:149|316:153,1,115,2|0,0:0|0:0,0:0:0:0:
224,212,435736,2,0,P|116:219|107:215,1,115,2|0,0:0|0:0,0:0:0:0:
32,155,436146,1,2,0:0:0:0:
32,155,436418,6,0,P|50:225|30:286,1,115,8|0,0:0|0:0,0:0:0:0:
40,265,437509,2,0,B|119:203|197:264|197:264|281:229|281:284|371:261,1,345,4|2,0:0|0:0,0:0:0:0:
363,177,438600,6,0,P|288:231|357:346,1,230,8|0,0:0|0:0,0:0:0:0:
335,340,439691,6,0,P|277:349|201:325,1,115,2|0,0:0|0:0,0:0:0:0:
131,272,440100,2,0,P|75:259|18:268,1,115,2|0,0:0|0:0,0:0:0:0:
71,348,440509,1,2,0:0:0:0:
71,348,440782,2,0,L|79:217,1,115,8|0,0:0|0:0,0:0:0:0:
108,10,441873,6,0,L|88:359,1,345,4|2,0:0|0:0,0:0:0:0:
382,241,442964,1,8,0:0:0:0:
382,241,444055,5,2,0:0:0:0:
205,205,444464,1,2,0:0:0:0:
28,169,444873,1,2,0:0:0:0:
379,237,445146,1,8,0:0:0:0:
169,294,445691,2,0,L|248:286,1,57.5,2|0,0:0|0:0,0:0:0:0:
322,243,445964,2,0,L|401:235,1,57.5,2|0,0:0|0:0,0:0:0:0:
512,216,446236,6,0,P|423:105|381:240,1,345,12|2,0:0|0:0,0:0:0:0:
188,165,447327,2,0,P|132:155|222:323,1,460,8|2,0:0|0:0,0:0:0:0:
320,125,449236,5,2,0:0:0:0:
320,125,449509,2,0,L|312:244,1,115,8|0,0:0|0:0,0:0:0:0:
69,251,450600,6,0,B|247:200|247:310|426:239,1,345,2|2,0:0|0:0,0:0:0:0:
471,309,451691,2,0,P|334:295|422:159,1,345,8|0,0:0|0:0,0:0:0:0:
315,100,452782,6,0,P|254:110|194:91,1,115,2|0,0:0|0:0,0:0:0:0:
8,169,453191,2,0,P|69:179|129:160,1,115,2|0,0:0|0:0,0:0:0:0:
203,96,453600,2,0,P|228:157|212:222,1,115,2|8,0:0|0:0,0:0:0:0:
220,204,454146,5,2,0:0:0:0:
224,207,454691,1,2,0:0:0:0:
310,215,454964,6,0,P|234:120|171:273,1,345,12|0,0:0|0:0,0:0:0:0:
271,334,456055,1,0,0:0:0:0:
229,299,457145,6,0,P|149:139|315:206,1,460,12|0,0:0|0:0,0:0:0:0:
290,354,458373,1,2,0:0:0:0:
256,192,458441,12,0,463418,0:0:0:0:
416,315,463622,6,0,L|275:304,1,115,2|0,0:0|0:0,0:0:0:0:
44,246,463894,2,0,L|159:255,1,115,8|0,0:0|0:0,0:0:0:0:
286,166,464167,1,2,0:0:0:0:
145,343,464304,1,0,0:0:0:0:
120,121,464440,1,8,0:0:0:0:
301,306,464577,1,0,0:0:0:0:
228,106,464713,6,0,P|329:93|359:128,1,115,2|0,0:0|0:0,0:0:0:0:
405,295,464986,2,0,P|304:308|274:273,1,115,8|0,0:0|0:0,0:0:0:0:
120,121,465258,1,2,0:0:0:0:
336,207,465395,1,0,0:0:0:0:
84,219,465531,1,8,0:0:0:0:
300,305,465668,1,0,0:0:0:0:
48,317,465804,6,0,L|190:312,1,115,2|0,0:0|0:0,0:0:0:0:
450,202,466077,2,0,L|335:206,1,115,8|0,0:0|0:0,0:0:0:0:
84,219,466349,1,2,0:0:0:0:
300,305,466486,1,0,0:0:0:0:
120,121,466622,1,8,0:0:0:0:
162,312,466758,1,0,0:0:0:0:
414,315,466895,6,0,L|283:303,1,115,2|0,0:0|0:0,0:0:0:0:
220,195,467167,2,0,L|334:205,1,115,8|0,0:0|0:0,0:0:0:0:
449,215,467440,2,0,L|318:203,1,115,2|0,0:0|0:0,0:0:0:0:
184,294,467712,2,0,L|298:304,1,115,8|0,0:0|0:0,0:0:0:0:
453,125,467986,5,2,0:0:0:0:
220,195,468122,1,0,0:0:0:0:
416,322,468258,1,8,0:0:0:0:
203,184,468395,1,0,0:0:0:0:
372,72,468531,1,2,0:0:0:0:
298,304,468667,1,0,0:0:0:0:
235,91,468804,1,8,0:0:0:0:
299,322,468940,1,0,0:0:0:0:
372,72,469076,6,0,P|365:208|357:222,1,115,8|0,0:0|0:0,0:0:0:0:
299,344,469349,1,2,0:0:0:0:
141,105,469485,2,0,P|148:241|156:255,1,115,8|0,0:0|0:0,0:0:0:0:
301,364,469758,1,2,0:0:0:0:
485,198,469894,2,0,P|386:181|346:197,1,115,8|0,0:0|0:0,0:0:0:0:
181,308,470167,5,8,0:0:0:0:
275,89,470303,1,0,0:0:0:0:
388,292,470440,1,8,0:0:0:0:
138,217,470576,1,0,0:0:0:0:
374,184,470712,1,2,0:0:0:0:
169,92,470849,1,0,0:0:0:0:
292,301,470985,1,8,0:0:0:0:
380,77,471122,1,0,0:0:0:0:
138,217,471258,6,0,L|293:206,1,115,2|0,0:0|0:0,0:0:0:0:
380,77,471531,1,8,0:0:0:0:
380,77,471599,1,0,0:0:0:0:
380,77,471667,1,0,0:0:0:0:
380,77,471735,1,0,0:0:0:0:
380,77,471803,2,0,L|293:82,1,57.5,2|0,0:0|0:0,0:0:0:0:
152,133,471940,2,0,P|89:117|176:53,1,230,8|2,0:0|0:0,0:0:0:0:
252,208,472281,1,0,0:0:0:0:
252,208,472349,6,0,P|253:245|242:288,3,68.9999978942872,10|0|0|0,0:0|0:0|0:0|0:0,0:0:0:0:
147,238,472622,2,0,P|146:275|157:318,3,68.9999978942872,2|2|2|2,0:0|0:0|0:0|0:0,0:0:0:0:
295,237,472894,2,0,P|289:273|271:314,3,68.9999978942872,10|0|0|0,0:0|0:0|0:0|0:0,0:0:0:0:
101,266,473167,2,0,P|106:302|124:343,3,68.9999978942872,2|0|0|0,0:0|0:0|0:0|0:0,0:0:0:0:
220,194,473440,5,8,0:0:0:0:
177,160,473508,1,0,0:0:0:0:
122,157,473576,1,0,0:0:0:0:
76,186,473644,1,0,0:0:0:0:
55,236,473712,1,2,0:0:0:0:
67,290,473780,1,0,0:0:0:0:
107,327,473849,1,0,0:0:0:0:
160,334,473917,1,0,0:0:0:0:
212,314,473985,5,8,0:0:0:0:
254,278,474053,1,0,0:0:0:0:
306,259,474122,1,0,0:0:0:0:
360,264,474190,1,0,0:0:0:0:
399,302,474258,1,2,0:0:0:0:
396,246,474326,1,0,0:0:0:0:
394,191,474394,1,0,0:0:0:0:
392,136,474462,1,0,0:0:0:0:
390,81,474531,6,0,L|386:-4,3,68.9999978942872,8|0|0|0,0:0|0:0|0:0|0:0,0:0:0:0:
309,190,474803,2,0,L|304:275,3,68.9999978942872,2|2|2|2,0:0|0:0|0:0|0:0,0:0:0:0:
210,82,475076,2,0,L|205:-3,3,68.9999978942872,10|0|0|0,0:0|0:0|0:0|0:0,0:0:0:0:
128,190,475348,2,0,L|123:275,3,68.9999978942872,2|0|0|0,0:0|0:0|0:0|0:0,0:0:0:0:
56,333,475622,5,8,0:0:0:0:
104,358,475690,1,0,0:0:0:0:
158,355,475758,1,0,0:0:0:0:
203,323,475826,1,0,0:0:0:0:
225,273,475894,1,2,0:0:0:0:
217,219,475962,1,0,0:0:0:0:
183,177,476031,1,0,0:0:0:0:
132,159,476099,1,0,0:0:0:0:
77,165,476167,6,0,P|118:153|172:158,1,68.9999978942872,8|0,0:0|0:0,0:0:0:0:
355,175,476303,2,0,P|318:152|265:143,1,68.9999978942872,2|0,0:0|0:0,0:0:0:0:
59,153,476440,2,0,P|100:141|154:146,1,68.9999978942872,8|0,0:0|0:0,0:0:0:0:
377,168,476576,2,0,P|340:145|287:136,1,68.9999978942872,2|0,0:0|0:0,0:0:0:0:
60,241,476712,5,12,0:0:0:0:
357,73,477531,5,2,0:0:0:0:
213,335,477803,1,10,0:0:0:0:
213,335,478622,2,8,L|206:227,1,57.5
148,176,478758,2,8,L|142:89,1,57.5
235,15,478894,5,8,0:0:0:0:
235,15,478962,1,0,0:0:0:0:
235,15,479031,1,0,0:0:0:0:
235,15,479099,1,0,0:0:0:0:
235,15,479167,2,0,L|238:72,1,57.5
339,175,479303,5,8,0:0:0:0:
339,175,479372,1,0,0:0:0:0:
339,175,479440,1,0,0:0:0:0:
339,175,479508,1,0,0:0:0:0:
339,175,479576,2,0,L|327:256,1,57.5
204,278,479712,5,8,0:0:0:0:
204,278,479780,1,0,0:0:0:0:
204,278,479848,2,0,L|216:359,1,57.5
398,315,479985,5,8,0:0:0:0:
398,315,480053,1,0,0:0:0:0:
398,315,480122,2,0,P|303:315|288:322,1,57.5
212,334,480258,5,8,0:0:0:0:
212,334,480326,1,0,0:0:0:0:
212,334,480395,2,0,P|117:334|102:327,1,57.5
24,268,480531,5,8,0:0:0:0:
24,268,480599,1,0,0:0:0:0:
24,268,480668,2,0,P|119:268|134:275,1,57.5
294,212,480803,2,0,P|186:197|143:101,1,172.5,8|0,0:0|0:0,0:0:0:0:
251,18,481076,5,12,0:0:0:0:
251,18,481144,1,0,0:0:0:0:
251,18,481212,1,0,0:0:0:0:
251,18,481281,1,0,0:0:0:0:
251,18,481349,2,0,L|247:107,1,57.5,2|0,0:0|0:0,0:0:0:0:
403,263,481485,2,0,L|396:188,1,57.5
363,22,481622,2,0,L|360:104,1,57.5,8|0,0:0|0:0,0:0:0:0:
114,138,481895,2,0,P|147:131|202:137,3,57.5,2|0|0|0,0:0|0:0|0:0|0:0,0:0:0:0:
254,64,482167,5,4,0:0:0:0:
255,69,482235,1,0,0:0:0:0:
256,75,482303,1,0,0:0:0:0:
258,80,482371,1,0,0:0:0:0:
259,86,482439,1,0,0:0:0:0:
260,92,482507,1,0,0:0:0:0:
261,97,482576,1,0,0:0:0:0:
261,103,482644,1,0,0:0:0:0:
231,127,482712,5,4,0:0:0:0:
229,132,482780,1,0,0:0:0:0:
228,138,482848,1,0,0:0:0:0:
226,143,482916,1,0,0:0:0:0:
225,149,482984,1,0,0:0:0:0:
224,155,483052,1,0,0:0:0:0:
223,160,483121,1,0,0:0:0:0:
223,166,483189,1,0,0:0:0:0:
254,193,483258,6,0,P|268:259|244:326,1,115,12|0,0:0|0:0,0:0:0:0:
109,229,483531,1,2,0:0:0:0:
370,318,483667,1,0,0:0:0:0:
370,318,483735,1,0,0:0:0:0:
370,318,483803,2,0,L|231:300,1,115,8|0,0:0|0:0,0:0:0:0:
33,271,484076,1,2,0:0:0:0:
144,147,484212,1,0,0:0:0:0:
172,335,484349,5,14,0:0:0:0:
172,329,484417,1,0,0:0:0:0:
173,323,484485,1,0,0:0:0:0:
173,317,484553,1,0,0:0:0:0:
174,312,484621,1,2,0:0:0:0:
175,306,484689,1,0,0:0:0:0:
175,300,484758,1,0,0:0:0:0:
176,294,484826,1,0,0:0:0:0:
198,281,484894,6,0,L|195:215,3,57.5,8|0|0|0,0:0|0:0|0:0|0:0,0:0:0:0:
144,147,485167,6,0,P|153:49|131:14,1,115,2|0,0:0|0:0,0:0:0:0:
50,89,485440,1,12,0:0:0:0:
256,192,485508,12,4,487622,0:0:0:0:
256,192,487690,12,4,489804,0:0:0:0:
256,192,489872,12,12,491986,0:0:0:0:
