osu file format v14

[General]
AudioFilename: audio.mp3
AudioLeadIn: 0
PreviewTime: 292320
Countdown: 1
SampleSet: Normal
StackLeniency: 0.7
Mode: 1
LetterboxInBreaks: 0
WidescreenStoryboard: 0

[Editor]
DistanceSpacing: 0.7
BeatDivisor: 4
GridSize: 32
TimelineZoom: 3.099999

[Metadata]
Title:Yomi yori Kikoyu, Koukoku no Tou to Honoo no Shoujo.
TitleUnicode:黄泉より聴こゆ、皇国の燈と焔の少女。
Artist:Imperial Circus Dead Decadence
ArtistUnicode:Imperial Circus Dead Decadence
Creator:KawaiiBass
Version:Reverberation
Source:
Tags:featured artist fa nanomortis dojin rock symphonic black death metal japanese kimi bridear リブユウキ rib:y(uhki) hull icdd
BeatmapID:3734552
BeatmapSetID:1819997

[Difficulty]
HPDrainRate:4
CircleSize:5
OverallDifficulty:7.2
ApproachRate:5
SliderMultiplier:1.4
SliderTickRate:1

[Events]
//Background and Video events
0,0,"BG.png",0,0
//Break Periods
2,187810,207137
2,458465,462339
//Storyboard Layer 0 (Background)
//Storyboard Layer 1 (Fail)
//Storyboard Layer 2 (Pass)
//Storyboard Layer 3 (Foreground)
//Storyboard Layer 4 (Overlay)
//Storyboard Sound Samples

[TimingPoints]
1065,272.727272727273,4,1,0,80,1,0
10065,-100,4,1,0,90,0,1
40337,-100,4,1,0,90,0,0
41155,-100,4,1,0,80,0,0
53428,-76.9230769230769,4,1,0,80,0,0
56565,-100,4,1,0,80,0,0
75246,-100,4,1,0,90,0,1
92701,-100,4,1,0,80,0,0
118883,-76.923076923077,4,1,0,80,0,0
125155,-100,4,1,0,80,0,0
136337,-100,4,1,0,90,0,1
145065,-100,4,1,0,80,0,0
164701,-125,4,1,0,80,0,0
165792,-100,4,1,0,90,0,1
183246,-100,4,1,0,80,0,0
185974,-100,4,1,0,80,0,0
186110,-101.69070114371,4,1,0,79,0,0
186246,-103.439554881133,4,1,0,78,0,0
186383,-105.263157894737,4,1,0,78,0,0
186519,-107.138179436804,4,1,0,77,0,0
186610,-108.430540827147,4,1,0,76,0,0
186701,-109.754461290755,4,1,0,76,0,0
186883,-112.5017191583,4,1,0,74,0,0
187064,-115.373765867419,4,1,0,73,0,0
187246,-118.413433700058,4,1,0,72,0,0
187428,-121.61760333036,4,1,0,71,0,0
187610,-125,4,1,0,70,0,0
208337,-125,4,1,0,60,0,0
224701,-117.647058823529,4,1,0,70,0,0
226883,-100,4,1,0,80,0,0
244337,-100,4,1,0,90,0,1
261792,-100,4,1,0,80,0,0
266155,-76.923076923077,4,1,0,80,0,0
272019,-83.333333333333,4,1,0,80,0,0
272428,-90.909090909091,4,1,0,80,0,0
272701,-100,4,1,0,80,0,0
274883,-100,4,1,0,90,0,1
290155,-100,4,1,0,80,0,0
292337,-100,4,1,0,90,0,1
307610,-100,4,1,0,80,0,0
334883,-76.923076923077,4,1,0,80,0,0
339246,-100,4,1,0,80,0,0
343610,-100,4,1,0,90,0,1
347974,-100,4,1,0,80,0,0
361065,-100,4,1,0,100,0,1
368837,-100,4,1,0,80,0,1
368973,-102.931666307394,4,1,0,77,0,1
369110,-106.063971568192,4,1,0,74,0,1
369178,-107.690572846189,4,1,0,73,0,1
369246,-109.36784241869,4,1,0,71,0,1
369382,-112.884160756501,4,1,0,69,0,1
369451,-114.756068252824,4,1,0,67,0,1
369519,-116.662594673833,4,1,0,66,0,1
369655,-120.672226434167,4,1,0,63,0,1
369792,-125,4,1,0,60,0,0
388337,-125,4,1,0,60,0,0
389428,-100,4,1,0,90,0,1
406883,-100,4,1,0,100,0,1
415610,-100,4,1,0,90,0,1
424337,-100,4,1,0,80,0,0
427065,-100,4,1,0,80,0,0
427201,-101.69070114371,4,1,0,79,0,0
427337,-103.439554881133,4,1,0,78,0,0
427474,-105.263157894737,4,1,0,78,0,0
427610,-107.138179436804,4,1,0,77,0,0
427701,-108.430540827147,4,1,0,76,0,0
427792,-109.754461290755,4,1,0,76,0,0
427974,-112.5017191583,4,1,0,74,0,0
428155,-115.373765867419,4,1,0,73,0,0
428337,-118.413433700058,4,1,0,72,0,0
428519,-121.61760333036,4,1,0,71,0,0
428701,-125,4,1,0,70,0,0
457065,300,4,1,0,70,1,0
457065,-111.111111111111,4,1,0,70,0,0
458265,329.67032967033,4,1,0,70,1,0
458265,-102.040816326531,4,1,0,70,0,0
463539,272.727272727273,4,1,0,80,1,0
463539,-100,4,1,0,90,0,1
476629,-100,4,1,0,80,0,0

[HitObjects]
256,192,1065,5,12,0:0:0:0:
256,192,2155,1,12,0:0:0:0:
256,192,2701,1,12,0:0:0:0:
256,192,3246,1,12,0:0:0:0:
256,192,4337,1,12,0:0:0:0:
256,192,4610,1,12,0:0:0:0:
256,192,4883,1,4,0:0:0:0:
256,192,5155,1,4,0:0:0:0:
256,192,5428,1,12,0:0:0:0:
256,192,6519,1,12,0:0:0:0:
256,192,7065,1,12,0:0:0:0:
256,192,7610,1,4,0:0:0:0:
256,192,7746,5,8,0:0:0:0:
256,192,7883,1,0,0:0:0:0:
256,192,7951,1,0,0:0:0:0:
256,192,8019,1,8,0:0:0:0:
256,192,8155,1,0,0:0:0:0:
256,192,8224,1,0,0:0:0:0:
256,192,8292,1,8,0:0:0:0:
256,192,8360,1,0,0:0:0:0:
256,192,8428,1,8,0:0:0:0:
256,192,8565,1,0,0:0:0:0:
256,192,8701,1,8,0:0:0:0:
256,192,8769,1,8,0:0:0:0:
256,192,8837,1,8,0:0:0:0:
256,192,8905,1,8,0:0:0:0:
256,192,8974,1,0,0:0:0:0:
256,192,9042,1,0,0:0:0:0:
256,192,9110,1,8,0:0:0:0:
256,192,9178,1,0,0:0:0:0:
256,192,9246,1,8,0:0:0:0:
256,192,9315,1,8,0:0:0:0:
256,192,9383,1,0,0:0:0:0:
256,192,9519,1,8,0:0:0:0:
256,192,9655,1,0,0:0:0:0:
256,192,9792,1,12,0:0:0:0:
256,192,10065,1,0,0:0:0:0:
256,192,10133,1,0,0:0:0:0:
256,192,10201,1,8,0:0:0:0:
256,192,10269,1,0,0:0:0:0:
256,192,10337,1,8,0:0:0:0:
256,192,10405,1,8,0:0:0:0:
256,192,10474,1,0,0:0:0:0:
256,192,10542,1,0,0:0:0:0:
256,192,10610,1,8,0:0:0:0:
256,192,10678,1,8,0:0:0:0:
256,192,10746,1,8,0:0:0:0:
256,192,10815,1,8,0:0:0:0:
256,192,10883,1,0,0:0:0:0:
256,192,10951,1,0,0:0:0:0:
256,192,11019,1,8,0:0:0:0:
256,192,11087,1,8,0:0:0:0:
256,192,11155,1,0,0:0:0:0:
256,192,11224,1,0,0:0:0:0:
256,192,11292,1,8,0:0:0:0:
256,192,11360,1,0,0:0:0:0:
256,192,11428,1,8,0:0:0:0:
256,192,11496,1,8,0:0:0:0:
256,192,11565,1,0,0:0:0:0:
256,192,11633,1,0,0:0:0:0:
256,192,11701,1,8,0:0:0:0:
256,192,11769,1,8,0:0:0:0:
256,192,11837,1,8,0:0:0:0:
256,192,11905,1,8,0:0:0:0:
256,192,11974,1,0,0:0:0:0:
256,192,12042,1,0,0:0:0:0:
256,192,12110,1,8,0:0:0:0:
256,192,12178,1,8,0:0:0:0:
256,192,12246,1,0,0:0:0:0:
256,192,12315,1,0,0:0:0:0:
256,192,12383,1,8,0:0:0:0:
256,192,12451,1,0,0:0:0:0:
256,192,12519,1,8,0:0:0:0:
256,192,12587,1,8,0:0:0:0:
256,192,12655,1,0,0:0:0:0:
256,192,12724,1,0,0:0:0:0:
256,192,12792,1,8,0:0:0:0:
256,192,12860,1,8,0:0:0:0:
256,192,12928,1,8,0:0:0:0:
256,192,12996,1,0,0:0:0:0:
256,192,13065,1,8,0:0:0:0:
256,192,13133,1,8,0:0:0:0:
256,192,13201,1,0,0:0:0:0:
256,192,13269,1,0,0:0:0:0:
256,192,13337,1,8,0:0:0:0:
256,192,13405,1,8,0:0:0:0:
256,192,13474,1,8,0:0:0:0:
256,192,13542,1,8,0:0:0:0:
256,192,13610,1,0,0:0:0:0:
256,192,13678,1,0,0:0:0:0:
256,192,13746,1,8,0:0:0:0:
256,192,13815,1,0,0:0:0:0:
256,192,13883,1,8,0:0:0:0:
256,192,13951,1,8,0:0:0:0:
256,192,14019,1,0,0:0:0:0:
256,192,14087,1,0,0:0:0:0:
256,192,14155,1,8,0:0:0:0:
256,192,14224,1,8,0:0:0:0:
256,192,14292,1,0,0:0:0:0:
256,192,14360,1,0,0:0:0:0:
256,192,14428,1,0,0:0:0:0:
256,192,14496,1,0,0:0:0:0:
256,192,14565,1,8,0:0:0:0:
256,192,14633,1,8,0:0:0:0:
256,192,14701,1,0,0:0:0:0:
256,192,14769,1,0,0:0:0:0:
256,192,14837,1,0,0:0:0:0:
256,192,14905,1,0,0:0:0:0:
256,192,14974,1,8,0:0:0:0:
256,192,15042,1,8,0:0:0:0:
256,192,15110,1,0,0:0:0:0:
256,192,15178,1,0,0:0:0:0:
256,192,15246,1,8,0:0:0:0:
256,192,15315,1,0,0:0:0:0:
256,192,15383,1,8,0:0:0:0:
256,192,15451,1,8,0:0:0:0:
256,192,15519,1,0,0:0:0:0:
256,192,15587,1,0,0:0:0:0:
256,192,15655,1,8,0:0:0:0:
256,192,15724,1,0,0:0:0:0:
256,192,15792,1,8,0:0:0:0:
256,192,15860,1,8,0:0:0:0:
256,192,15928,1,0,0:0:0:0:
256,192,15996,1,0,0:0:0:0:
256,192,16065,1,8,0:0:0:0:
256,192,16133,1,8,0:0:0:0:
256,192,16201,1,8,0:0:0:0:
256,192,16269,5,8,0:0:0:0:
256,192,16337,1,0,0:0:0:0:
256,192,16474,1,8,0:0:0:0:
256,192,16542,1,8,0:0:0:0:
256,192,16610,1,8,0:0:0:0:
256,192,16746,1,0,0:0:0:0:
256,192,16883,1,8,0:0:0:0:
256,192,16951,1,8,0:0:0:0:
256,192,17019,1,8,0:0:0:0:
256,192,17155,1,0,0:0:0:0:
256,192,17224,1,0,0:0:0:0:
256,192,17292,1,8,0:0:0:0:
256,192,17360,1,0,0:0:0:0:
256,192,17428,5,8,0:0:0:0:
256,192,17496,1,8,0:0:0:0:
256,192,17565,1,0,0:0:0:0:
256,192,17633,1,0,0:0:0:0:
256,192,17701,1,8,0:0:0:0:
256,192,17769,1,8,0:0:0:0:
256,192,17837,1,0,0:0:0:0:
256,192,17905,1,0,0:0:0:0:
256,192,17974,1,8,0:0:0:0:
256,192,18042,1,8,0:0:0:0:
256,192,18110,1,8,0:0:0:0:
256,192,18178,1,8,0:0:0:0:
256,192,18246,1,0,0:0:0:0:
256,192,18519,1,0,0:0:0:0:
256,192,18587,1,0,0:0:0:0:
256,192,18655,1,0,0:0:0:0:
256,192,18724,1,0,0:0:0:0:
256,192,18792,1,8,0:0:0:0:
256,192,18860,1,8,0:0:0:0:
256,192,18928,1,0,0:0:0:0:
256,192,18996,1,0,0:0:0:0:
256,192,19065,1,8,0:0:0:0:
256,192,19133,1,8,0:0:0:0:
256,192,19201,1,8,0:0:0:0:
256,192,19269,1,8,0:0:0:0:
256,192,19337,1,0,0:0:0:0:
256,192,19405,1,0,0:0:0:0:
256,192,19474,1,8,0:0:0:0:
256,192,19542,1,8,0:0:0:0:
256,192,19610,1,0,0:0:0:0:
256,192,19678,1,0,0:0:0:0:
256,192,19746,1,8,0:0:0:0:
256,192,19815,1,0,0:0:0:0:
256,192,19883,1,8,0:0:0:0:
256,192,19951,1,8,0:0:0:0:
256,192,20019,1,0,0:0:0:0:
256,192,20087,1,0,0:0:0:0:
256,192,20155,1,8,0:0:0:0:
256,192,20224,1,8,0:0:0:0:
256,192,20292,1,8,0:0:0:0:
256,192,20360,1,8,0:0:0:0:
256,192,20428,1,0,0:0:0:0:
256,192,20496,1,0,0:0:0:0:
256,192,20565,1,8,0:0:0:0:
256,192,20633,1,8,0:0:0:0:
256,192,20701,1,0,0:0:0:0:
256,192,20769,1,0,0:0:0:0:
256,192,20837,1,8,0:0:0:0:
256,192,20905,1,8,0:0:0:0:
256,192,20974,1,0,0:0:0:0:
256,192,21042,1,0,0:0:0:0:
256,192,21110,1,8,0:0:0:0:
256,192,21178,1,0,0:0:0:0:
256,192,21246,1,8,0:0:0:0:
256,192,21315,1,8,0:0:0:0:
256,192,21383,1,0,0:0:0:0:
256,192,21451,1,0,0:0:0:0:
256,192,21519,1,8,0:0:0:0:
256,192,21587,1,8,0:0:0:0:
256,192,21655,1,8,0:0:0:0:
256,192,21724,1,0,0:0:0:0:
256,192,21792,1,8,0:0:0:0:
256,192,21860,1,8,0:0:0:0:
256,192,21928,1,0,0:0:0:0:
256,192,21996,1,0,0:0:0:0:
256,192,22065,1,8,0:0:0:0:
256,192,22133,1,8,0:0:0:0:
256,192,22201,1,0,0:0:0:0:
256,192,22269,1,0,0:0:0:0:
256,192,22337,1,8,0:0:0:0:
256,192,22405,1,0,0:0:0:0:
256,192,22474,1,8,0:0:0:0:
256,192,22542,1,0,0:0:0:0:
256,192,22610,1,8,0:0:0:0:
256,192,22678,1,8,0:0:0:0:
256,192,22746,1,0,0:0:0:0:
256,192,22815,1,0,0:0:0:0:
256,192,22883,1,8,0:0:0:0:
256,192,22951,1,8,0:0:0:0:
256,192,23019,1,8,0:0:0:0:
256,192,23087,1,8,0:0:0:0:
256,192,23155,1,0,0:0:0:0:
256,192,23224,1,0,0:0:0:0:
256,192,23292,1,8,0:0:0:0:
256,192,23360,1,0,0:0:0:0:
256,192,23428,1,8,0:0:0:0:
256,192,23496,1,8,0:0:0:0:
256,192,23565,1,0,0:0:0:0:
256,192,23633,1,0,0:0:0:0:
256,192,23701,1,8,0:0:0:0:
256,192,23769,1,8,0:0:0:0:
256,192,23837,1,0,0:0:0:0:
256,192,23905,1,0,0:0:0:0:
256,192,23974,1,8,0:0:0:0:
256,192,24042,1,0,0:0:0:0:
256,192,24110,1,0,0:0:0:0:
256,192,24178,1,0,0:0:0:0:
256,192,24246,1,8,0:0:0:0:
256,192,24315,1,8,0:0:0:0:
256,192,24383,1,8,0:0:0:0:
256,192,24451,1,0,0:0:0:0:
256,192,24519,1,8,0:0:0:0:
256,192,24587,1,8,0:0:0:0:
256,192,24655,1,0,0:0:0:0:
256,192,24724,1,0,0:0:0:0:
256,192,24792,1,8,0:0:0:0:
256,192,24860,1,0,0:0:0:0:
256,192,24928,1,8,0:0:0:0:
256,192,25065,1,8,0:0:0:0:
256,192,25201,1,0,0:0:0:0:
256,192,25269,1,0,0:0:0:0:
256,192,25337,1,0,0:0:0:0:
256,192,25405,1,0,0:0:0:0:
256,192,25474,1,8,0:0:0:0:
256,192,25610,1,0,0:0:0:0:
256,192,25678,1,0,0:0:0:0:
256,192,25746,1,8,0:0:0:0:
256,192,25883,1,0,0:0:0:0:
256,192,25951,1,0,0:0:0:0:
256,192,26019,1,8,0:0:0:0:
256,192,26087,1,0,0:0:0:0:
256,192,26155,1,8,0:0:0:0:
256,192,26224,1,8,0:0:0:0:
256,192,26292,1,0,0:0:0:0:
256,192,26360,1,0,0:0:0:0:
256,192,26428,1,8,0:0:0:0:
256,192,26496,1,8,0:0:0:0:
256,192,26565,1,8,0:0:0:0:
256,192,26633,1,8,0:0:0:0:
256,192,26701,1,0,0:0:0:0:
256,192,26769,1,0,0:0:0:0:
256,192,26837,1,8,0:0:0:0:
256,192,26974,1,8,0:0:0:0:
256,192,27110,1,8,0:0:0:0:
256,192,27246,1,0,0:0:0:0:
256,192,27315,1,0,0:0:0:0:
256,192,27383,1,0,0:0:0:0:
256,192,27451,1,0,0:0:0:0:
256,192,27519,1,8,0:0:0:0:
256,192,27587,1,8,0:0:0:0:
256,192,27655,1,0,0:0:0:0:
256,192,27724,1,0,0:0:0:0:
256,192,27792,1,8,0:0:0:0:
256,192,27860,1,8,0:0:0:0:
256,192,27928,1,8,0:0:0:0:
256,192,27996,1,8,0:0:0:0:
256,192,28065,1,0,0:0:0:0:
256,192,28133,1,0,0:0:0:0:
256,192,28201,1,8,0:0:0:0:
256,192,28269,1,0,0:0:0:0:
256,192,28337,1,8,0:0:0:0:
256,192,28405,1,8,0:0:0:0:
256,192,28474,1,0,0:0:0:0:
256,192,28542,1,0,0:0:0:0:
256,192,28610,1,8,0:0:0:0:
256,192,28678,1,8,0:0:0:0:
256,192,28746,1,8,0:0:0:0:
256,192,28815,1,0,0:0:0:0:
256,192,28883,1,8,0:0:0:0:
256,192,28951,1,8,0:0:0:0:
256,192,29019,1,0,0:0:0:0:
256,192,29087,1,0,0:0:0:0:
256,192,29155,1,8,0:0:0:0:
256,192,29224,1,0,0:0:0:0:
256,192,29292,1,8,0:0:0:0:
256,192,29360,1,8,0:0:0:0:
256,192,29428,1,0,0:0:0:0:
256,192,29496,1,0,0:0:0:0:
256,192,29565,1,0,0:0:0:0:
256,192,29633,1,0,0:0:0:0:
256,192,29701,1,8,0:0:0:0:
256,192,29769,1,8,0:0:0:0:
256,192,29837,1,0,0:0:0:0:
256,192,29905,1,0,0:0:0:0:
256,192,29974,1,8,0:0:0:0:
256,192,30042,1,8,0:0:0:0:
256,192,30110,1,8,0:0:0:0:
256,192,30178,1,8,0:0:0:0:
256,192,30246,1,0,0:0:0:0:
256,192,30315,1,0,0:0:0:0:
256,192,30383,1,8,0:0:0:0:
256,192,30451,1,0,0:0:0:0:
256,192,30519,1,8,0:0:0:0:
256,192,30587,1,8,0:0:0:0:
256,192,30655,1,0,0:0:0:0:
256,192,30724,1,0,0:0:0:0:
256,192,30792,1,8,0:0:0:0:
256,192,30860,1,8,0:0:0:0:
256,192,30928,1,8,0:0:0:0:
256,192,30996,1,0,0:0:0:0:
256,192,31065,1,8,0:0:0:0:
256,192,31133,1,8,0:0:0:0:
256,192,31201,1,0,0:0:0:0:
256,192,31269,1,0,0:0:0:0:
256,192,31337,1,8,0:0:0:0:
256,192,31405,1,0,0:0:0:0:
256,192,31474,1,8,0:0:0:0:
256,192,31542,1,8,0:0:0:0:
256,192,31610,1,0,0:0:0:0:
256,192,31678,1,0,0:0:0:0:
256,192,31746,1,0,0:0:0:0:
256,192,31815,1,0,0:0:0:0:
256,192,31883,1,8,0:0:0:0:
256,192,31951,1,8,0:0:0:0:
256,192,32019,1,0,0:0:0:0:
256,192,32087,1,0,0:0:0:0:
256,192,32155,1,8,0:0:0:0:
256,192,32224,1,8,0:0:0:0:
256,192,32292,1,8,0:0:0:0:
256,192,32360,1,8,0:0:0:0:
256,192,32428,1,0,0:0:0:0:
256,192,32496,1,0,0:0:0:0:
256,192,32565,1,8,0:0:0:0:
256,192,32633,1,8,0:0:0:0:
256,192,32701,1,0,0:0:0:0:
256,192,32769,1,0,0:0:0:0:
256,192,32837,1,8,0:0:0:0:
256,192,32905,1,0,0:0:0:0:
256,192,32974,1,8,0:0:0:0:
256,192,33042,1,8,0:0:0:0:
256,192,33110,1,0,0:0:0:0:
256,192,33178,1,0,0:0:0:0:
256,192,33246,1,8,0:0:0:0:
256,192,33315,1,8,0:0:0:0:
256,192,33383,1,8,0:0:0:0:
256,192,33451,1,0,0:0:0:0:
256,192,33519,1,8,0:0:0:0:
256,192,33587,1,8,0:0:0:0:
256,192,33655,1,0,0:0:0:0:
256,192,33724,5,0,0:0:0:0:
256,192,33792,1,8,0:0:0:0:
256,192,33860,1,8,0:0:0:0:
256,192,33928,1,8,0:0:0:0:
256,192,33996,1,8,0:0:0:0:
256,192,34065,1,0,0:0:0:0:
256,192,34133,1,0,0:0:0:0:
256,192,34201,1,8,0:0:0:0:
256,192,34269,1,8,0:0:0:0:
256,192,34337,1,0,0:0:0:0:
256,192,34405,1,0,0:0:0:0:
256,192,34474,1,8,0:0:0:0:
256,192,34542,1,0,0:0:0:0:
256,192,34610,1,8,0:0:0:0:
256,192,34678,1,8,0:0:0:0:
256,192,34746,1,0,0:0:0:0:
256,192,34815,1,0,0:0:0:0:
256,192,34883,5,8,0:0:0:0:
256,192,35019,1,0,0:0:0:0:
256,192,35155,1,0,0:0:0:0:
256,192,35224,1,0,0:0:0:0:
256,192,35292,1,8,0:0:0:0:
256,192,35360,1,8,0:0:0:0:
256,192,35428,1,0,0:0:0:0:
256,192,35565,1,12,0:0:0:0:
256,192,35837,1,0,0:0:0:0:
256,192,35974,1,8,0:0:0:0:
256,192,36042,1,8,0:0:0:0:
256,192,36110,1,8,0:0:0:0:
256,192,36178,1,0,0:0:0:0:
256,192,36246,1,8,0:0:0:0:
256,192,36315,1,8,0:0:0:0:
256,192,36383,1,0,0:0:0:0:
256,192,36451,1,0,0:0:0:0:
256,192,36519,1,8,0:0:0:0:
256,192,36587,1,0,0:0:0:0:
256,192,36655,1,0,0:0:0:0:
256,192,36724,1,0,0:0:0:0:
256,192,36792,1,8,0:0:0:0:
256,192,36860,1,8,0:0:0:0:
256,192,36928,1,0,0:0:0:0:
256,192,36996,1,0,0:0:0:0:
256,192,37065,1,8,0:0:0:0:
256,192,37133,1,8,0:0:0:0:
256,192,37201,1,8,0:0:0:0:
256,192,37269,1,0,0:0:0:0:
256,192,37337,1,8,0:0:0:0:
256,192,37405,1,8,0:0:0:0:
256,192,37474,1,0,0:0:0:0:
256,192,37542,1,0,0:0:0:0:
256,192,37610,1,8,0:0:0:0:
256,192,37678,1,0,0:0:0:0:
256,192,37746,1,0,0:0:0:0:
256,192,37815,1,0,0:0:0:0:
256,192,37883,1,8,0:0:0:0:
256,192,37951,1,8,0:0:0:0:
256,192,38019,1,0,0:0:0:0:
256,192,38087,1,0,0:0:0:0:
256,192,38155,1,8,0:0:0:0:
256,192,38224,1,8,0:0:0:0:
256,192,38292,1,8,0:0:0:0:
256,192,38360,1,0,0:0:0:0:
256,192,38428,1,8,0:0:0:0:
256,192,38496,1,8,0:0:0:0:
256,192,38565,1,0,0:0:0:0:
256,192,38633,1,0,0:0:0:0:
256,192,38701,1,8,0:0:0:0:
256,192,38769,1,0,0:0:0:0:
256,192,38837,1,0,0:0:0:0:
256,192,38905,1,0,0:0:0:0:
256,192,38974,1,8,0:0:0:0:
256,192,39042,1,8,0:0:0:0:
256,192,39110,1,0,0:0:0:0:
256,192,39178,1,0,0:0:0:0:
256,192,39246,1,8,0:0:0:0:
256,192,39315,1,8,0:0:0:0:
256,192,39383,1,8,0:0:0:0:
256,192,39451,1,0,0:0:0:0:
256,192,39519,1,8,0:0:0:0:
256,192,39587,1,8,0:0:0:0:
256,192,39655,1,0,0:0:0:0:
256,192,39724,1,0,0:0:0:0:
256,192,39792,1,8,0:0:0:0:
256,192,39860,1,0,0:0:0:0:
256,192,39928,1,0,0:0:0:0:
256,192,39996,1,0,0:0:0:0:
256,192,40065,1,8,0:0:0:0:
256,192,40133,1,8,0:0:0:0:
256,192,40201,1,0,0:0:0:0:
256,192,40269,1,0,0:0:0:0:
256,192,40337,1,0,0:0:0:0:
256,192,41155,1,0,0:0:0:0:
256,192,41292,1,0,0:0:0:0:
256,192,41428,1,8,0:0:0:0:
256,192,42246,1,0,0:0:0:0:
256,192,42315,1,0,0:0:0:0:
256,192,42383,1,0,0:0:0:0:
256,192,42451,1,0,0:0:0:0:
256,192,42519,1,8,0:0:0:0:
256,192,42655,1,0,0:0:0:0:
256,192,42724,1,0,0:0:0:0:
256,192,42792,1,0,0:0:0:0:
256,192,42928,1,8,0:0:0:0:
256,192,43065,1,0,0:0:0:0:
256,192,43133,1,0,0:0:0:0:
256,192,43201,1,8,0:0:0:0:
256,192,43337,1,0,0:0:0:0:
256,192,43405,1,8,0:0:0:0:
256,192,43474,1,0,0:0:0:0:
256,192,43610,1,8,0:0:0:0:
256,192,43678,1,8,0:0:0:0:
256,192,43746,1,0,0:0:0:0:
256,192,43815,1,0,0:0:0:0:
256,192,43883,1,8,0:0:0:0:
256,192,43951,1,0,0:0:0:0:
256,192,44019,1,0,0:0:0:0:
256,192,44087,1,0,0:0:0:0:
256,192,44155,1,8,0:0:0:0:
256,192,44224,1,8,0:0:0:0:
256,192,44292,1,0,0:0:0:0:
256,192,44360,1,0,0:0:0:0:
256,192,44428,1,8,0:0:0:0:
256,192,44565,1,0,0:0:0:0:
256,192,44701,1,4,0:0:0:0:
256,192,45792,1,4,0:0:0:0:
256,192,46337,1,12,0:0:0:0:
256,192,46883,1,4,0:0:0:0:
256,192,47019,1,8,0:0:0:0:
256,192,47155,1,0,0:0:0:0:
256,192,47224,1,0,0:0:0:0:
256,192,47292,1,0,0:0:0:0:
256,192,47360,1,0,0:0:0:0:
256,192,47428,1,8,0:0:0:0:
256,192,47565,1,0,0:0:0:0:
256,192,47701,1,8,0:0:0:0:
256,192,47769,1,8,0:0:0:0:
256,192,47837,1,0,0:0:0:0:
256,192,47974,1,8,0:0:0:0:
256,192,48042,1,8,0:0:0:0:
256,192,48110,1,0,0:0:0:0:
256,192,48178,1,0,0:0:0:0:
256,192,48246,1,8,0:0:0:0:
256,192,48315,1,8,0:0:0:0:
256,192,48383,1,8,0:0:0:0:
256,192,48451,1,8,0:0:0:0:
256,192,48519,1,0,0:0:0:0:
256,192,48587,1,0,0:0:0:0:
256,192,48655,1,8,0:0:0:0:
256,192,48724,1,0,0:0:0:0:
256,192,48792,1,8,0:0:0:0:
256,192,48928,1,0,0:0:0:0:
256,192,49065,1,12,0:0:0:0:
256,192,49201,12,0,50974,0:0:0:0:
256,192,51110,5,0,0:0:0:0:
256,192,51178,1,0,0:0:0:0:
256,192,51246,1,8,0:0:0:0:
256,192,51315,1,8,0:0:0:0:
256,192,51383,1,0,0:0:0:0:
256,192,51451,1,0,0:0:0:0:
256,192,51519,1,0,0:0:0:0:
256,192,51587,1,0,0:0:0:0:
256,192,51655,1,8,0:0:0:0:
256,192,51724,1,8,0:0:0:0:
256,192,51792,1,0,0:0:0:0:
256,192,51860,1,0,0:0:0:0:
256,192,51928,1,0,0:0:0:0:
256,192,51996,1,0,0:0:0:0:
256,192,52065,1,8,0:0:0:0:
256,192,52133,1,8,0:0:0:0:
256,192,52201,1,0,0:0:0:0:
256,192,52269,1,0,0:0:0:0:
256,192,52337,1,8,0:0:0:0:
256,192,52405,1,8,0:0:0:0:
256,192,52474,1,8,0:0:0:0:
256,192,52542,1,8,0:0:0:0:
256,192,52610,1,0,0:0:0:0:
256,192,52678,1,0,0:0:0:0:
256,192,52746,1,8,0:0:0:0:
256,192,52815,1,0,0:0:0:0:
256,192,52883,1,8,0:0:0:0:
256,192,52951,1,8,0:0:0:0:
256,192,53019,1,0,0:0:0:0:
256,192,53087,1,0,0:0:0:0:
256,192,53155,1,8,0:0:0:0:
256,192,53428,1,4,0:0:0:0:
256,192,55337,1,4,0:0:0:0:
256,192,55610,1,4,0:0:0:0:
256,192,56565,1,0,0:0:0:0:
256,192,56701,1,8,0:0:0:0:
256,192,56769,1,8,0:0:0:0:
256,192,56837,1,0,0:0:0:0:
256,192,56905,1,0,0:0:0:0:
256,192,56974,1,8,0:0:0:0:
256,192,57042,1,0,0:0:0:0:
256,192,57110,1,0,0:0:0:0:
256,192,57178,1,0,0:0:0:0:
256,192,57246,1,8,0:0:0:0:
256,192,57315,1,8,0:0:0:0:
256,192,57383,1,0,0:0:0:0:
256,192,57451,1,0,0:0:0:0:
256,192,57519,1,8,0:0:0:0:
256,192,57792,1,4,0:0:0:0:
256,192,57928,1,8,0:0:0:0:
256,192,58065,1,0,0:0:0:0:
256,192,58133,1,0,0:0:0:0:
256,192,58201,1,8,0:0:0:0:
256,192,58337,1,0,0:0:0:0:
256,192,58474,1,8,0:0:0:0:
256,192,58542,1,8,0:0:0:0:
256,192,58610,1,0,0:0:0:0:
256,192,58678,1,0,0:0:0:0:
256,192,58746,1,8,0:0:0:0:
256,192,58883,1,0,0:0:0:0:
256,192,59019,1,8,0:0:0:0:
256,192,59155,1,0,0:0:0:0:
256,192,59224,1,0,0:0:0:0:
256,192,59292,1,8,0:0:0:0:
256,192,59360,1,8,0:0:0:0:
256,192,59428,1,0,0:0:0:0:
256,192,59565,1,8,0:0:0:0:
256,192,59633,1,0,0:0:0:0:
256,192,59701,1,8,0:0:0:0:
256,192,59837,1,8,0:0:0:0:
256,192,59974,1,0,0:0:0:0:
256,192,60110,1,8,0:0:0:0:
256,192,60246,1,0,0:0:0:0:
256,192,60315,1,8,0:0:0:0:
256,192,60383,1,0,0:0:0:0:
256,192,60519,1,8,0:0:0:0:
256,192,60655,1,0,0:0:0:0:
256,192,60724,1,0,0:0:0:0:
256,192,60792,1,8,0:0:0:0:
256,192,60860,1,8,0:0:0:0:
256,192,60928,1,8,0:0:0:0:
256,192,60996,1,8,0:0:0:0:
256,192,61065,1,0,0:0:0:0:
256,192,61201,1,8,0:0:0:0:
256,192,61337,1,0,0:0:0:0:
256,192,61405,1,0,0:0:0:0:
256,192,61474,1,8,0:0:0:0:
256,192,61610,1,0,0:0:0:0:
256,192,61746,1,8,0:0:0:0:
256,192,61883,1,0,0:0:0:0:
256,192,61951,1,0,0:0:0:0:
256,192,62019,1,8,0:0:0:0:
256,192,62087,1,8,0:0:0:0:
256,192,62155,1,0,0:0:0:0:
256,192,62224,1,0,0:0:0:0:
256,192,62292,1,0,0:0:0:0:
256,192,62428,1,8,0:0:0:0:
256,192,62701,1,0,0:0:0:0:
256,192,62769,1,0,0:0:0:0:
256,192,62837,1,8,0:0:0:0:
256,192,62974,1,0,0:0:0:0:
256,192,63042,1,0,0:0:0:0:
256,192,63110,1,0,0:0:0:0:
256,192,63246,1,8,0:0:0:0:
256,192,63519,1,0,0:0:0:0:
256,192,63655,1,8,0:0:0:0:
256,192,63792,1,0,0:0:0:0:
256,192,63928,1,0,0:0:0:0:
256,192,63996,1,0,0:0:0:0:
256,192,64065,1,8,0:0:0:0:
256,192,64201,1,8,0:0:0:0:
256,192,64337,1,0,0:0:0:0:
256,192,64405,1,0,0:0:0:0:
256,192,64474,1,8,0:0:0:0:
256,192,64542,1,8,0:0:0:0:
256,192,64610,1,8,0:0:0:0:
256,192,64678,1,8,0:0:0:0:
256,192,64746,1,0,0:0:0:0:
256,192,64815,1,0,0:0:0:0:
256,192,64883,1,8,0:0:0:0:
256,192,64951,1,8,0:0:0:0:
256,192,65019,1,0,0:0:0:0:
256,192,65087,1,0,0:0:0:0:
256,192,65155,1,8,0:0:0:0:
256,192,65224,1,8,0:0:0:0:
256,192,65292,1,0,0:0:0:0:
256,192,65428,1,8,0:0:0:0:
256,192,65565,1,0,0:0:0:0:
256,192,65701,1,8,0:0:0:0:
256,192,65837,1,0,0:0:0:0:
256,192,65905,1,0,0:0:0:0:
256,192,65974,1,8,0:0:0:0:
256,192,66042,1,8,0:0:0:0:
256,192,66110,1,0,0:0:0:0:
256,192,66178,1,0,0:0:0:0:
256,192,66246,1,8,0:0:0:0:
256,192,66519,1,4,0:0:0:0:
256,192,66655,1,8,0:0:0:0:
256,192,66792,1,0,0:0:0:0:
256,192,66860,1,0,0:0:0:0:
256,192,66928,1,8,0:0:0:0:
256,192,67065,1,0,0:0:0:0:
256,192,67201,1,8,0:0:0:0:
256,192,67337,1,0,0:0:0:0:
256,192,67405,1,0,0:0:0:0:
256,192,67474,1,0,0:0:0:0:
256,192,67610,1,8,0:0:0:0:
256,192,67746,1,0,0:0:0:0:
256,192,67815,1,0,0:0:0:0:
256,192,67883,1,8,0:0:0:0:
256,192,68019,1,0,0:0:0:0:
256,192,68155,1,8,0:0:0:0:
256,192,68292,1,0,0:0:0:0:
256,192,68360,1,0,0:0:0:0:
256,192,68428,1,8,0:0:0:0:
256,192,68496,1,8,0:0:0:0:
256,192,68565,1,8,0:0:0:0:
256,192,68701,1,0,0:0:0:0:
256,192,68837,1,8,0:0:0:0:
256,192,68905,1,8,0:0:0:0:
256,192,68974,1,0,0:0:0:0:
256,192,69110,1,8,0:0:0:0:
256,192,69246,1,0,0:0:0:0:
256,192,69383,1,8,0:0:0:0:
256,192,69451,1,0,0:0:0:0:
256,192,69519,1,8,0:0:0:0:
256,192,69655,1,0,0:0:0:0:
256,192,69792,1,8,0:0:0:0:
256,192,69860,1,8,0:0:0:0:
256,192,69928,1,0,0:0:0:0:
256,192,69996,1,0,0:0:0:0:
256,192,70065,1,8,0:0:0:0:
256,192,70201,1,8,0:0:0:0:
256,192,70337,1,0,0:0:0:0:
256,192,70405,1,0,0:0:0:0:
256,192,70474,1,8,0:0:0:0:
256,192,70542,1,8,0:0:0:0:
256,192,70610,1,0,0:0:0:0:
256,192,70678,1,0,0:0:0:0:
256,192,70746,1,8,0:0:0:0:
256,192,70815,5,0,0:0:0:0:
256,192,70883,1,8,0:0:0:0:
256,192,71019,1,0,0:0:0:0:
256,192,71087,1,0,0:0:0:0:
256,192,71155,1,8,0:0:0:0:
256,192,71292,1,8,0:0:0:0:
256,192,71428,1,0,0:0:0:0:
256,192,71565,1,8,0:0:0:0:
256,192,71633,1,8,0:0:0:0:
256,192,71701,1,0,0:0:0:0:
256,192,71769,1,0,0:0:0:0:
256,192,71837,1,8,0:0:0:0:
256,192,71974,1,0,0:0:0:0:
256,192,72110,1,8,0:0:0:0:
256,192,72246,1,0,0:0:0:0:
256,192,72315,1,0,0:0:0:0:
256,192,72383,1,8,0:0:0:0:
256,192,72451,1,0,0:0:0:0:
256,192,72519,1,8,0:0:0:0:
256,192,72655,1,0,0:0:0:0:
256,192,72792,1,8,0:0:0:0:
256,192,72860,1,8,0:0:0:0:
256,192,72928,1,8,0:0:0:0:
256,192,73065,1,0,0:0:0:0:
256,192,73201,1,8,0:0:0:0:
256,192,73337,1,0,0:0:0:0:
256,192,73405,1,0,0:0:0:0:
256,192,73474,1,8,0:0:0:0:
256,192,73610,1,0,0:0:0:0:
256,192,73746,1,8,0:0:0:0:
256,192,73883,1,0,0:0:0:0:
256,192,73951,1,8,0:0:0:0:
256,192,74019,1,0,0:0:0:0:
256,192,74155,1,8,0:0:0:0:
256,192,74224,1,8,0:0:0:0:
256,192,74292,1,0,0:0:0:0:
256,192,74360,1,0,0:0:0:0:
256,192,74428,1,8,0:0:0:0:
256,192,74496,1,8,0:0:0:0:
256,192,74565,1,8,0:0:0:0:
256,192,74633,1,8,0:0:0:0:
256,192,74701,1,0,0:0:0:0:
256,192,74769,1,0,0:0:0:0:
256,192,74837,1,8,0:0:0:0:
256,192,74905,1,0,0:0:0:0:
256,192,74974,1,8,0:0:0:0:
256,192,75042,1,8,0:0:0:0:
256,192,75110,1,0,0:0:0:0:
256,192,75246,1,12,0:0:0:0:
256,192,75519,1,0,0:0:0:0:
256,192,75587,1,0,0:0:0:0:
256,192,75655,1,8,0:0:0:0:
256,192,75723,1,0,0:0:0:0:
256,192,75791,1,8,0:0:0:0:
256,192,75859,1,8,0:0:0:0:
256,192,75928,1,0,0:0:0:0:
256,192,75996,1,0,0:0:0:0:
256,192,76064,1,8,0:0:0:0:
256,192,76132,1,8,0:0:0:0:
256,192,76200,1,8,0:0:0:0:
256,192,76269,1,8,0:0:0:0:
256,192,76337,1,0,0:0:0:0:
256,192,76405,1,0,0:0:0:0:
256,192,76473,1,8,0:0:0:0:
256,192,76541,1,8,0:0:0:0:
256,192,76609,1,0,0:0:0:0:
256,192,76678,1,0,0:0:0:0:
256,192,76746,1,8,0:0:0:0:
256,192,76814,1,0,0:0:0:0:
256,192,76882,1,8,0:0:0:0:
256,192,76950,1,8,0:0:0:0:
256,192,77019,1,0,0:0:0:0:
256,192,77087,1,0,0:0:0:0:
256,192,77155,1,8,0:0:0:0:
256,192,77223,1,8,0:0:0:0:
256,192,77291,1,8,0:0:0:0:
256,192,77359,1,8,0:0:0:0:
256,192,77428,1,0,0:0:0:0:
256,192,77496,1,0,0:0:0:0:
256,192,77564,1,8,0:0:0:0:
256,192,77632,1,8,0:0:0:0:
256,192,77700,1,0,0:0:0:0:
256,192,77769,1,0,0:0:0:0:
256,192,77837,1,8,0:0:0:0:
256,192,77905,1,0,0:0:0:0:
256,192,77973,1,8,0:0:0:0:
256,192,78041,1,8,0:0:0:0:
256,192,78109,1,0,0:0:0:0:
256,192,78178,1,0,0:0:0:0:
256,192,78246,1,8,0:0:0:0:
256,192,78314,1,8,0:0:0:0:
256,192,78382,1,8,0:0:0:0:
256,192,78450,1,0,0:0:0:0:
256,192,78519,1,8,0:0:0:0:
256,192,78587,1,8,0:0:0:0:
256,192,78655,1,0,0:0:0:0:
256,192,78723,1,0,0:0:0:0:
256,192,78791,1,8,0:0:0:0:
256,192,78859,1,8,0:0:0:0:
256,192,78928,1,8,0:0:0:0:
256,192,78996,1,8,0:0:0:0:
256,192,79064,1,0,0:0:0:0:
256,192,79132,1,0,0:0:0:0:
256,192,79200,1,8,0:0:0:0:
256,192,79269,1,0,0:0:0:0:
256,192,79337,1,8,0:0:0:0:
256,192,79405,1,8,0:0:0:0:
256,192,79473,1,0,0:0:0:0:
256,192,79541,1,0,0:0:0:0:
256,192,79609,1,8,0:0:0:0:
256,192,79678,1,8,0:0:0:0:
256,192,79746,1,0,0:0:0:0:
256,192,79814,1,0,0:0:0:0:
256,192,79882,1,8,0:0:0:0:
256,192,79950,1,0,0:0:0:0:
256,192,80019,1,8,0:0:0:0:
256,192,80087,1,8,0:0:0:0:
256,192,80155,1,0,0:0:0:0:
256,192,80223,1,0,0:0:0:0:
256,192,80291,1,8,0:0:0:0:
256,192,80359,1,0,0:0:0:0:
256,192,80428,1,8,0:0:0:0:
256,192,80496,1,8,0:0:0:0:
256,192,80564,1,0,0:0:0:0:
256,192,80632,1,0,0:0:0:0:
256,192,80700,5,8,0:0:0:0:
256,192,80769,1,8,0:0:0:0:
256,192,80837,1,8,0:0:0:0:
256,192,80905,1,8,0:0:0:0:
256,192,80973,1,0,0:0:0:0:
256,192,81041,1,0,0:0:0:0:
256,192,81109,1,8,0:0:0:0:
256,192,81178,1,0,0:0:0:0:
256,192,81246,1,8,0:0:0:0:
256,192,81314,1,8,0:0:0:0:
256,192,81382,1,0,0:0:0:0:
256,192,81450,1,0,0:0:0:0:
256,192,81519,1,8,0:0:0:0:
256,192,81587,1,8,0:0:0:0:
256,192,81655,1,8,0:0:0:0:
256,192,81723,5,0,0:0:0:0:
256,192,81791,1,8,0:0:0:0:
256,192,81860,1,8,0:0:0:0:
256,192,81928,1,0,0:0:0:0:
256,192,81996,1,0,0:0:0:0:
256,192,82065,1,8,0:0:0:0:
256,192,82133,1,0,0:0:0:0:
256,192,82201,1,8,0:0:0:0:
256,192,82269,1,8,0:0:0:0:
256,192,82337,1,0,0:0:0:0:
256,192,82405,1,0,0:0:0:0:
256,192,82474,1,0,0:0:0:0:
256,192,82542,1,0,0:0:0:0:
256,192,82610,1,8,0:0:0:0:
256,192,82678,1,8,0:0:0:0:
256,192,82746,1,0,0:0:0:0:
256,192,82815,1,0,0:0:0:0:
256,192,82883,1,8,0:0:0:0:
256,192,83019,1,0,0:0:0:0:
256,192,83087,1,0,0:0:0:0:
256,192,83155,1,0,0:0:0:0:
256,192,83292,1,8,0:0:0:0:
256,192,83428,1,8,0:0:0:0:
256,192,83496,1,8,0:0:0:0:
256,192,83565,1,8,0:0:0:0:
256,192,83633,1,8,0:0:0:0:
256,192,83701,1,0,0:0:0:0:
256,192,83974,1,0,0:0:0:0:
256,192,84042,1,0,0:0:0:0:
256,192,84110,1,0,0:0:0:0:
256,192,84179,1,0,0:0:0:0:
256,192,84247,1,8,0:0:0:0:
256,192,84315,1,8,0:0:0:0:
256,192,84383,1,0,0:0:0:0:
256,192,84451,1,0,0:0:0:0:
256,192,84520,1,8,0:0:0:0:
256,192,84588,1,8,0:0:0:0:
256,192,84656,1,8,0:0:0:0:
256,192,84724,1,8,0:0:0:0:
256,192,84792,1,0,0:0:0:0:
256,192,84860,1,0,0:0:0:0:
256,192,84929,1,8,0:0:0:0:
256,192,84997,1,8,0:0:0:0:
256,192,85065,1,0,0:0:0:0:
256,192,85133,1,0,0:0:0:0:
256,192,85201,1,8,0:0:0:0:
256,192,85270,1,0,0:0:0:0:
256,192,85338,1,8,0:0:0:0:
256,192,85406,1,8,0:0:0:0:
256,192,85474,1,0,0:0:0:0:
256,192,85542,1,0,0:0:0:0:
256,192,85610,1,8,0:0:0:0:
256,192,85679,1,8,0:0:0:0:
256,192,85747,1,8,0:0:0:0:
256,192,85815,1,8,0:0:0:0:
256,192,85883,1,0,0:0:0:0:
256,192,85951,1,0,0:0:0:0:
256,192,86020,1,8,0:0:0:0:
256,192,86088,1,8,0:0:0:0:
256,192,86156,1,0,0:0:0:0:
256,192,86224,1,0,0:0:0:0:
256,192,86292,1,8,0:0:0:0:
256,192,86360,1,8,0:0:0:0:
256,192,86429,1,0,0:0:0:0:
256,192,86497,1,0,0:0:0:0:
256,192,86565,1,8,0:0:0:0:
256,192,86633,1,0,0:0:0:0:
256,192,86701,1,8,0:0:0:0:
256,192,86770,1,8,0:0:0:0:
256,192,86838,1,0,0:0:0:0:
256,192,86906,1,0,0:0:0:0:
256,192,86974,1,8,0:0:0:0:
256,192,87042,1,8,0:0:0:0:
256,192,87110,1,8,0:0:0:0:
256,192,87179,1,0,0:0:0:0:
256,192,87247,1,8,0:0:0:0:
256,192,87315,1,8,0:0:0:0:
256,192,87383,1,0,0:0:0:0:
256,192,87451,1,0,0:0:0:0:
256,192,87520,1,8,0:0:0:0:
256,192,87588,1,8,0:0:0:0:
256,192,87656,1,0,0:0:0:0:
256,192,87724,1,0,0:0:0:0:
256,192,87792,1,8,0:0:0:0:
256,192,87860,1,0,0:0:0:0:
256,192,87929,1,8,0:0:0:0:
256,192,87997,1,0,0:0:0:0:
256,192,88065,1,8,0:0:0:0:
256,192,88133,1,8,0:0:0:0:
256,192,88201,1,0,0:0:0:0:
256,192,88270,1,0,0:0:0:0:
256,192,88338,1,8,0:0:0:0:
256,192,88406,1,8,0:0:0:0:
256,192,88474,1,8,0:0:0:0:
256,192,88542,1,8,0:0:0:0:
256,192,88610,1,0,0:0:0:0:
256,192,88679,1,0,0:0:0:0:
256,192,88747,1,8,0:0:0:0:
256,192,88815,1,0,0:0:0:0:
256,192,88883,1,8,0:0:0:0:
256,192,88951,1,8,0:0:0:0:
256,192,89020,1,0,0:0:0:0:
256,192,89088,1,0,0:0:0:0:
256,192,89156,1,8,0:0:0:0:
256,192,89224,1,8,0:0:0:0:
256,192,89292,1,0,0:0:0:0:
256,192,89360,5,0,0:0:0:0:
256,192,89429,1,8,0:0:0:0:
256,192,89497,1,0,0:0:0:0:
256,192,89565,1,0,0:0:0:0:
256,192,89633,1,0,0:0:0:0:
256,192,89701,1,8,0:0:0:0:
256,192,89770,1,8,0:0:0:0:
256,192,89838,1,8,0:0:0:0:
256,192,89906,1,0,0:0:0:0:
256,192,89974,1,8,0:0:0:0:
256,192,90042,1,8,0:0:0:0:
256,192,90110,1,0,0:0:0:0:
256,192,90179,1,0,0:0:0:0:
256,192,90247,1,8,0:0:0:0:
256,192,90315,1,0,0:0:0:0:
256,192,90383,1,8,0:0:0:0:
256,192,90519,1,8,0:0:0:0:
256,192,90655,1,0,0:0:0:0:
256,192,90724,1,0,0:0:0:0:
256,192,90792,1,0,0:0:0:0:
256,192,90928,1,8,0:0:0:0:
256,192,91065,1,0,0:0:0:0:
256,192,91133,1,0,0:0:0:0:
256,192,91201,1,8,0:0:0:0:
256,192,91337,1,8,0:0:0:0:
256,192,91405,1,0,0:0:0:0:
256,192,91474,1,8,0:0:0:0:
256,192,91542,1,8,0:0:0:0:
256,192,91610,5,0,0:0:0:0:
256,192,91883,1,8,0:0:0:0:
256,192,92155,1,8,0:0:0:0:
256,192,92428,1,0,0:0:0:0:
256,192,92701,1,4,0:0:0:0:
256,192,92837,1,8,0:0:0:0:
256,192,92974,1,0,0:0:0:0:
256,192,93042,1,0,0:0:0:0:
256,192,93110,1,8,0:0:0:0:
256,192,93246,1,0,0:0:0:0:
256,192,93383,1,8,0:0:0:0:
256,192,93451,1,8,0:0:0:0:
256,192,93519,1,0,0:0:0:0:
256,192,93587,1,0,0:0:0:0:
256,192,93655,1,8,0:0:0:0:
256,192,93792,1,0,0:0:0:0:
256,192,93928,1,8,0:0:0:0:
256,192,94065,1,0,0:0:0:0:
256,192,94133,1,0,0:0:0:0:
256,192,94201,1,8,0:0:0:0:
256,192,94269,1,8,0:0:0:0:
256,192,94337,1,0,0:0:0:0:
256,192,94474,1,8,0:0:0:0:
256,192,94542,1,0,0:0:0:0:
256,192,94610,1,8,0:0:0:0:
256,192,94746,1,8,0:0:0:0:
256,192,94883,1,0,0:0:0:0:
256,192,95019,1,8,0:0:0:0:
256,192,95155,1,0,0:0:0:0:
256,192,95224,1,8,0:0:0:0:
256,192,95292,1,0,0:0:0:0:
256,192,95428,1,8,0:0:0:0:
256,192,95565,1,0,0:0:0:0:
256,192,95633,1,0,0:0:0:0:
256,192,95701,1,8,0:0:0:0:
256,192,95769,1,0,0:0:0:0:
256,192,95837,1,8,0:0:0:0:
256,192,95905,1,8,0:0:0:0:
256,192,95974,1,0,0:0:0:0:
256,192,96110,1,8,0:0:0:0:
256,192,96246,1,0,0:0:0:0:
256,192,96315,1,0,0:0:0:0:
256,192,96383,1,8,0:0:0:0:
256,192,96519,1,0,0:0:0:0:
256,192,96655,1,8,0:0:0:0:
256,192,96792,1,0,0:0:0:0:
256,192,96860,1,0,0:0:0:0:
256,192,96928,1,8,0:0:0:0:
256,192,96996,1,8,0:0:0:0:
256,192,97065,1,0,0:0:0:0:
256,192,97133,1,0,0:0:0:0:
256,192,97201,1,0,0:0:0:0:
256,192,97269,1,0,0:0:0:0:
256,192,97337,1,8,0:0:0:0:
256,192,97474,1,8,0:0:0:0:
256,192,97610,1,0,0:0:0:0:
256,192,97678,1,0,0:0:0:0:
256,192,97746,1,8,0:0:0:0:
256,192,97883,1,0,0:0:0:0:
256,192,97951,1,0,0:0:0:0:
256,192,98019,1,0,0:0:0:0:
256,192,98155,1,8,0:0:0:0:
256,192,98292,1,0,0:0:0:0:
256,192,98360,1,8,0:0:0:0:
256,192,98428,1,0,0:0:0:0:
256,192,98565,1,8,0:0:0:0:
256,192,98701,1,0,0:0:0:0:
256,192,98837,1,0,0:0:0:0:
256,192,98905,1,0,0:0:0:0:
256,192,98974,1,8,0:0:0:0:
256,192,99110,1,8,0:0:0:0:
256,192,99246,1,0,0:0:0:0:
256,192,99383,1,8,0:0:0:0:
256,192,99519,1,0,0:0:0:0:
256,192,99587,1,0,0:0:0:0:
256,192,99655,1,0,0:0:0:0:
256,192,99724,1,0,0:0:0:0:
256,192,99792,1,8,0:0:0:0:
256,192,99928,1,0,0:0:0:0:
256,192,99996,1,0,0:0:0:0:
256,192,100065,1,8,0:0:0:0:
256,192,100201,1,0,0:0:0:0:
256,192,100337,1,8,0:0:0:0:
256,192,100405,1,8,0:0:0:0:
256,192,100474,1,0,0:0:0:0:
256,192,100542,1,0,0:0:0:0:
256,192,100610,1,8,0:0:0:0:
256,192,100678,1,8,0:0:0:0:
256,192,100746,1,8,0:0:0:0:
256,192,100815,1,0,0:0:0:0:
256,192,100883,1,8,0:0:0:0:
256,192,100951,1,8,0:0:0:0:
256,192,101019,1,0,0:0:0:0:
256,192,101087,1,0,0:0:0:0:
256,192,101155,1,8,0:0:0:0:
256,192,101428,1,4,0:0:0:0:
256,192,101565,1,8,0:0:0:0:
256,192,101701,1,0,0:0:0:0:
256,192,101769,1,0,0:0:0:0:
256,192,101837,1,8,0:0:0:0:
256,192,101974,1,0,0:0:0:0:
256,192,102110,1,8,0:0:0:0:
256,192,102246,1,0,0:0:0:0:
256,192,102315,1,8,0:0:0:0:
256,192,102383,1,0,0:0:0:0:
256,192,102519,1,8,0:0:0:0:
256,192,102655,1,0,0:0:0:0:
256,192,102724,1,0,0:0:0:0:
256,192,102792,1,0,0:0:0:0:
256,192,102928,1,8,0:0:0:0:
256,192,103065,1,0,0:0:0:0:
256,192,103201,1,8,0:0:0:0:
256,192,103337,1,0,0:0:0:0:
256,192,103405,1,0,0:0:0:0:
256,192,103474,1,8,0:0:0:0:
256,192,103542,1,8,0:0:0:0:
256,192,103610,1,0,0:0:0:0:
256,192,103746,1,8,0:0:0:0:
256,192,103883,1,0,0:0:0:0:
256,192,103951,1,8,0:0:0:0:
256,192,104019,1,0,0:0:0:0:
256,192,104155,1,8,0:0:0:0:
256,192,104292,1,0,0:0:0:0:
256,192,104360,1,0,0:0:0:0:
256,192,104428,1,8,0:0:0:0:
256,192,104496,1,0,0:0:0:0:
256,192,104565,1,8,0:0:0:0:
256,192,104701,1,0,0:0:0:0:
256,192,104837,1,8,0:0:0:0:
256,192,104974,1,0,0:0:0:0:
256,192,105042,1,0,0:0:0:0:
256,192,105110,1,8,0:0:0:0:
256,192,105246,1,0,0:0:0:0:
256,192,105383,1,8,0:0:0:0:
256,192,105519,1,8,0:0:0:0:
256,192,105587,1,8,0:0:0:0:
256,192,105655,1,8,0:0:0:0:
256,192,105792,1,0,0:0:0:0:
256,192,105928,1,8,0:0:0:0:
256,192,106065,1,0,0:0:0:0:
256,192,106133,1,0,0:0:0:0:
256,192,106201,1,8,0:0:0:0:
256,192,106337,1,0,0:0:0:0:
256,192,106474,1,8,0:0:0:0:
256,192,106610,1,0,0:0:0:0:
256,192,106746,1,8,0:0:0:0:
256,192,106815,1,8,0:0:0:0:
256,192,106883,1,0,0:0:0:0:
256,192,107019,1,8,0:0:0:0:
256,192,107155,1,0,0:0:0:0:
256,192,107292,1,8,0:0:0:0:
256,192,107428,1,0,0:0:0:0:
256,192,107496,1,8,0:0:0:0:
256,192,107565,1,0,0:0:0:0:
256,192,107701,1,8,0:0:0:0:
256,192,107837,1,0,0:0:0:0:
256,192,107905,1,0,0:0:0:0:
256,192,107974,1,8,0:0:0:0:
256,192,108042,1,8,0:0:0:0:
256,192,108110,1,8,0:0:0:0:
256,192,108178,1,8,0:0:0:0:
256,192,108246,1,0,0:0:0:0:
256,192,108315,1,0,0:0:0:0:
256,192,108383,1,8,0:0:0:0:
256,192,108451,1,0,0:0:0:0:
256,192,108519,1,8,0:0:0:0:
256,192,108655,1,8,0:0:0:0:
256,192,108792,1,0,0:0:0:0:
256,192,109065,5,12,0:0:0:0:
256,192,110155,1,8,0:0:0:0:
256,192,110224,1,8,0:0:0:0:
256,192,110292,1,0,0:0:0:0:
256,192,110360,1,0,0:0:0:0:
256,192,110428,1,8,0:0:0:0:
256,192,110496,1,8,0:0:0:0:
256,192,110565,1,0,0:0:0:0:
256,192,110633,1,0,0:0:0:0:
256,192,110701,1,8,0:0:0:0:
256,192,110769,1,8,0:0:0:0:
256,192,110837,1,8,0:0:0:0:
256,192,110905,1,8,0:0:0:0:
256,192,110974,1,0,0:0:0:0:
256,192,111042,1,0,0:0:0:0:
256,192,111110,1,8,0:0:0:0:
256,192,111178,1,8,0:0:0:0:
256,192,111246,1,8,0:0:0:0:
256,192,111315,1,8,0:0:0:0:
256,192,111383,1,0,0:0:0:0:
256,192,111451,1,0,0:0:0:0:
256,192,111519,1,8,0:0:0:0:
256,192,111587,1,8,0:0:0:0:
256,192,111655,1,0,0:0:0:0:
256,192,111724,1,0,0:0:0:0:
256,192,111792,1,8,0:0:0:0:
256,192,111860,1,8,0:0:0:0:
256,192,111928,1,8,0:0:0:0:
256,192,111996,1,0,0:0:0:0:
256,192,112065,1,8,0:0:0:0:
256,192,112133,1,8,0:0:0:0:
256,192,112201,1,0,0:0:0:0:
256,192,112269,1,0,0:0:0:0:
256,192,112337,1,8,0:0:0:0:
256,192,112405,1,8,0:0:0:0:
256,192,112474,1,8,0:0:0:0:
256,192,112542,1,8,0:0:0:0:
256,192,112610,1,0,0:0:0:0:
256,192,112678,1,0,0:0:0:0:
256,192,112746,1,8,0:0:0:0:
256,192,112815,1,0,0:0:0:0:
256,192,112883,1,8,0:0:0:0:
256,192,112951,1,8,0:0:0:0:
256,192,113019,1,0,0:0:0:0:
256,192,113087,1,0,0:0:0:0:
256,192,113155,1,8,0:0:0:0:
256,192,113224,1,8,0:0:0:0:
256,192,113292,1,0,0:0:0:0:
256,192,113360,1,0,0:0:0:0:
256,192,113428,1,8,0:0:0:0:
256,192,113496,1,8,0:0:0:0:
256,192,113565,1,8,0:0:0:0:
256,192,113633,1,8,0:0:0:0:
256,192,113701,1,0,0:0:0:0:
256,192,113769,1,0,0:0:0:0:
256,192,113837,1,8,0:0:0:0:
256,192,113905,1,0,0:0:0:0:
256,192,113974,1,8,0:0:0:0:
256,192,114042,1,8,0:0:0:0:
256,192,114110,1,0,0:0:0:0:
256,192,114178,1,0,0:0:0:0:
256,192,114246,1,8,0:0:0:0:
256,192,114315,1,8,0:0:0:0:
256,192,114383,1,8,0:0:0:0:
256,192,114451,1,8,0:0:0:0:
256,192,114519,1,0,0:0:0:0:
256,192,114792,1,0,0:0:0:0:
256,192,114860,1,0,0:0:0:0:
256,192,114928,1,0,0:0:0:0:
256,192,114996,1,0,0:0:0:0:
256,192,115065,1,8,0:0:0:0:
256,192,115201,1,0,0:0:0:0:
256,192,115474,1,0,0:0:0:0:
256,192,115542,1,0,0:0:0:0:
256,192,115610,1,8,0:0:0:0:
256,192,115678,1,0,0:0:0:0:
256,192,115746,1,0,0:0:0:0:
256,192,115815,1,0,0:0:0:0:
256,192,115883,1,8,0:0:0:0:
256,192,115951,1,8,0:0:0:0:
256,192,116019,1,0,0:0:0:0:
256,192,116087,1,0,0:0:0:0:
256,192,116155,1,8,0:0:0:0:
256,192,116224,1,8,0:0:0:0:
256,192,116292,1,8,0:0:0:0:
256,192,116360,1,8,0:0:0:0:
256,192,116428,1,0,0:0:0:0:
256,192,116565,1,8,0:0:0:0:
256,192,116837,1,0,0:0:0:0:
256,192,116974,1,8,0:0:0:0:
256,192,117246,1,0,0:0:0:0:
256,192,117383,1,0,0:0:0:0:
256,192,117519,1,8,0:0:0:0:
256,192,117655,1,0,0:0:0:0:
256,192,117928,1,8,0:0:0:0:
256,192,118065,1,0,0:0:0:0:
256,192,118201,1,0,0:0:0:0:
256,192,118269,1,0,0:0:0:0:
256,192,118337,1,8,0:0:0:0:
256,192,118405,1,8,0:0:0:0:
256,192,118474,1,0,0:0:0:0:
256,192,118542,1,0,0:0:0:0:
256,192,118610,1,8,0:0:0:0:
256,192,118883,1,4,0:0:0:0:
256,192,119019,1,4,0:0:0:0:
256,192,120792,1,4,0:0:0:0:
256,192,121065,1,4,0:0:0:0:
256,192,121201,1,4,0:0:0:0:
256,192,123246,1,4,0:0:0:0:
256,192,123383,1,4,0:0:0:0:
256,192,125155,5,4,0:0:0:0:
256,192,125428,1,0,0:0:0:0:
256,192,125565,1,0,0:0:0:0:
256,192,125633,1,0,0:0:0:0:
256,192,125701,1,8,0:0:0:0:
256,192,125974,1,0,0:0:0:0:
256,192,126246,1,8,0:0:0:0:
256,192,126519,5,4,0:0:0:0:
256,192,126792,1,12,0:0:0:0:
256,192,127065,1,4,0:0:0:0:
256,192,127610,1,12,0:0:0:0:
256,192,127746,1,0,0:0:0:0:
256,192,127815,1,0,0:0:0:0:
256,192,127883,1,8,0:0:0:0:
256,192,128019,1,0,0:0:0:0:
256,192,128155,1,8,0:0:0:0:
256,192,128292,1,0,0:0:0:0:
256,192,128360,1,8,0:0:0:0:
256,192,128428,1,0,0:0:0:0:
256,192,128565,1,0,0:0:0:0:
256,192,128701,1,8,0:0:0:0:
256,192,128837,1,0,0:0:0:0:
256,192,128905,1,0,0:0:0:0:
256,192,128974,1,8,0:0:0:0:
256,192,129110,1,0,0:0:0:0:
256,192,129178,1,8,0:0:0:0:
256,192,129246,1,8,0:0:0:0:
256,192,129383,1,0,0:0:0:0:
256,192,129519,1,8,0:0:0:0:
256,192,129655,1,0,0:0:0:0:
256,192,129724,1,0,0:0:0:0:
256,192,129792,1,8,0:0:0:0:
256,192,129928,1,0,0:0:0:0:
256,192,130065,1,8,0:0:0:0:
256,192,130201,1,0,0:0:0:0:
256,192,130269,1,8,0:0:0:0:
256,192,130337,1,0,0:0:0:0:
256,192,130474,1,8,0:0:0:0:
256,192,130610,1,0,0:0:0:0:
256,192,130746,1,8,0:0:0:0:
256,192,130815,1,8,0:0:0:0:
256,192,130883,1,0,0:0:0:0:
256,192,131019,1,0,0:0:0:0:
256,192,131155,1,8,0:0:0:0:
256,192,131292,1,0,0:0:0:0:
256,192,131360,1,0,0:0:0:0:
256,192,131428,1,8,0:0:0:0:
256,192,131565,1,0,0:0:0:0:
256,192,131701,1,8,0:0:0:0:
256,192,131974,1,4,0:0:0:0:
256,192,132246,1,8,0:0:0:0:
256,192,132383,1,0,0:0:0:0:
256,192,132655,1,0,0:0:0:0:
256,192,132792,1,8,0:0:0:0:
256,192,132928,1,0,0:0:0:0:
256,192,133201,1,0,0:0:0:0:
256,192,133337,1,8,0:0:0:0:
256,192,133610,1,0,0:0:0:0:
256,192,133746,1,0,0:0:0:0:
256,192,133883,1,8,0:0:0:0:
256,192,134155,1,4,0:0:0:0:
256,192,134428,1,8,0:0:0:0:
256,192,134565,1,4,0:0:0:0:
256,192,134837,1,0,0:0:0:0:
256,192,134974,1,8,0:0:0:0:
256,192,135110,1,12,0:0:0:0:
256,192,135383,1,0,0:0:0:0:
256,192,135519,1,8,0:0:0:0:
256,192,135587,1,8,0:0:0:0:
256,192,135655,1,0,0:0:0:0:
256,192,135724,1,0,0:0:0:0:
256,192,135792,1,8,0:0:0:0:
256,192,135928,1,8,0:0:0:0:
256,192,136065,1,0,0:0:0:0:
256,192,136201,1,0,0:0:0:0:
256,192,136337,1,12,0:0:0:0:
256,192,136474,1,0,0:0:0:0:
256,192,136542,1,0,0:0:0:0:
256,192,136610,1,8,0:0:0:0:
256,192,136746,1,0,0:0:0:0:
256,192,136883,1,8,0:0:0:0:
256,192,137019,1,0,0:0:0:0:
256,192,137087,1,8,0:0:0:0:
256,192,137155,1,0,0:0:0:0:
256,192,137292,1,0,0:0:0:0:
256,192,137428,1,8,0:0:0:0:
256,192,137565,1,0,0:0:0:0:
256,192,137633,1,0,0:0:0:0:
256,192,137701,1,8,0:0:0:0:
256,192,137769,1,8,0:0:0:0:
256,192,137837,1,0,0:0:0:0:
256,192,137974,1,8,0:0:0:0:
256,192,138110,1,0,0:0:0:0:
256,192,138178,1,0,0:0:0:0:
256,192,138246,1,8,0:0:0:0:
256,192,138383,1,8,0:0:0:0:
256,192,138519,1,0,0:0:0:0:
256,192,138655,1,8,0:0:0:0:
256,192,138724,1,8,0:0:0:0:
256,192,138792,1,0,0:0:0:0:
256,192,138928,1,0,0:0:0:0:
256,192,139065,1,8,0:0:0:0:
256,192,139201,1,0,0:0:0:0:
256,192,139269,1,0,0:0:0:0:
256,192,139337,1,8,0:0:0:0:
256,192,139405,1,0,0:0:0:0:
256,192,139474,1,8,0:0:0:0:
256,192,139542,1,8,0:0:0:0:
256,192,139610,1,0,0:0:0:0:
256,192,139746,1,8,0:0:0:0:
256,192,139815,1,0,0:0:0:0:
256,192,139883,1,8,0:0:0:0:
256,192,140019,1,0,0:0:0:0:
256,192,140087,1,0,0:0:0:0:
256,192,140155,1,8,0:0:0:0:
256,192,140292,1,0,0:0:0:0:
256,192,140428,1,12,0:0:0:0:
256,192,140701,1,4,0:0:0:0:
256,192,140974,1,8,0:0:0:0:
256,192,141110,1,0,0:0:0:0:
256,192,141383,1,0,0:0:0:0:
256,192,141519,1,8,0:0:0:0:
256,192,141655,1,0,0:0:0:0:
256,192,141928,1,0,0:0:0:0:
256,192,142065,1,8,0:0:0:0:
256,192,142337,1,8,0:0:0:0:
256,192,142474,1,0,0:0:0:0:
256,192,142610,1,8,0:0:0:0:
256,192,142883,1,4,0:0:0:0:
256,192,143155,1,8,0:0:0:0:
256,192,143292,1,4,0:0:0:0:
256,192,143565,1,0,0:0:0:0:
256,192,143701,1,8,0:0:0:0:
256,192,143837,1,12,0:0:0:0:
256,192,144110,1,0,0:0:0:0:
256,192,144246,1,8,0:0:0:0:
256,192,144383,1,8,0:0:0:0:
256,192,144451,1,8,0:0:0:0:
256,192,144519,1,0,0:0:0:0:
256,192,144655,1,8,0:0:0:0:
256,192,144724,1,0,0:0:0:0:
256,192,144792,1,8,0:0:0:0:
256,192,144928,1,8,0:0:0:0:
256,192,145065,1,4,0:0:0:0:
256,192,145201,1,8,0:0:0:0:
256,192,145337,1,0,0:0:0:0:
256,192,145405,1,0,0:0:0:0:
256,192,145474,1,8,0:0:0:0:
256,192,145610,1,0,0:0:0:0:
256,192,145746,1,8,0:0:0:0:
256,192,145883,1,0,0:0:0:0:
256,192,145951,1,8,0:0:0:0:
256,192,146019,1,8,0:0:0:0:
256,192,146155,1,0,0:0:0:0:
256,192,146292,1,8,0:0:0:0:
256,192,146428,1,0,0:0:0:0:
256,192,146496,1,0,0:0:0:0:
256,192,146565,1,8,0:0:0:0:
256,192,146701,1,0,0:0:0:0:
256,192,146837,1,8,0:0:0:0:
256,192,146974,1,0,0:0:0:0:
256,192,147042,1,8,0:0:0:0:
256,192,147110,1,0,0:0:0:0:
256,192,147178,1,0,0:0:0:0:
256,192,147246,1,8,0:0:0:0:
256,192,147383,1,0,0:0:0:0:
256,192,147519,1,8,0:0:0:0:
256,192,147655,1,0,0:0:0:0:
256,192,147724,1,8,0:0:0:0:
256,192,147792,1,0,0:0:0:0:
256,192,147928,1,0,0:0:0:0:
256,192,148065,1,8,0:0:0:0:
256,192,148133,1,8,0:0:0:0:
256,192,148201,1,0,0:0:0:0:
256,192,148269,1,0,0:0:0:0:
256,192,148337,1,8,0:0:0:0:
256,192,148474,1,0,0:0:0:0:
256,192,148610,1,8,0:0:0:0:
256,192,148746,1,0,0:0:0:0:
256,192,148815,1,0,0:0:0:0:
256,192,148883,1,8,0:0:0:0:
256,192,149019,1,8,0:0:0:0:
256,192,149087,1,0,0:0:0:0:
256,192,149155,1,8,0:0:0:0:
256,192,149292,1,8,0:0:0:0:
256,192,149428,1,0,0:0:0:0:
256,192,149565,1,8,0:0:0:0:
256,192,149701,1,0,0:0:0:0:
256,192,149769,1,0,0:0:0:0:
256,192,149837,1,8,0:0:0:0:
256,192,149974,1,0,0:0:0:0:
256,192,150110,1,8,0:0:0:0:
256,192,150246,1,0,0:0:0:0:
256,192,150315,1,8,0:0:0:0:
256,192,150383,1,0,0:0:0:0:
256,192,150519,1,8,0:0:0:0:
256,192,150655,1,0,0:0:0:0:
256,192,150724,1,0,0:0:0:0:
256,192,150792,1,0,0:0:0:0:
256,192,150860,1,0,0:0:0:0:
256,192,150928,1,8,0:0:0:0:
256,192,151065,1,0,0:0:0:0:
256,192,151201,1,8,0:0:0:0:
256,192,151337,1,8,0:0:0:0:
256,192,151405,1,0,0:0:0:0:
256,192,151474,1,8,0:0:0:0:
256,192,151610,1,0,0:0:0:0:
256,192,151746,1,8,0:0:0:0:
256,192,151883,1,0,0:0:0:0:
256,192,151951,1,0,0:0:0:0:
256,192,152019,1,8,0:0:0:0:
256,192,152155,1,0,0:0:0:0:
256,192,152292,5,8,0:0:0:0:
256,192,152360,1,8,0:0:0:0:
256,192,152428,1,0,0:0:0:0:
256,192,152496,1,0,0:0:0:0:
256,192,152565,1,8,0:0:0:0:
256,192,152633,1,0,0:0:0:0:
256,192,152701,1,8,0:0:0:0:
256,192,152769,1,8,0:0:0:0:
256,192,152837,1,0,0:0:0:0:
256,192,152905,1,0,0:0:0:0:
256,192,152974,1,8,0:0:0:0:
256,192,153110,1,8,0:0:0:0:
256,192,153246,1,0,0:0:0:0:
256,192,153383,1,8,0:0:0:0:
256,192,153519,1,8,0:0:0:0:
256,192,153587,1,8,0:0:0:0:
256,192,153655,1,8,0:0:0:0:
256,192,153792,1,4,0:0:0:0:
256,192,154065,1,8,0:0:0:0:
256,192,154474,1,0,0:0:0:0:
256,192,154610,1,8,0:0:0:0:
256,192,154883,1,0,0:0:0:0:
256,192,155155,1,8,0:0:0:0:
256,192,155292,1,0,0:0:0:0:
256,192,155565,1,0,0:0:0:0:
256,192,155701,1,8,0:0:0:0:
256,192,155974,1,0,0:0:0:0:
256,192,156246,1,8,0:0:0:0:
256,192,156655,1,0,0:0:0:0:
256,192,156792,1,8,0:0:0:0:
256,192,156928,1,0,0:0:0:0:
256,192,157201,1,0,0:0:0:0:
256,192,157337,1,8,0:0:0:0:
256,192,157610,1,0,0:0:0:0:
256,192,157746,1,0,0:0:0:0:
256,192,157883,1,8,0:0:0:0:
256,192,158155,1,4,0:0:0:0:
256,192,158428,1,8,0:0:0:0:
256,192,158701,1,0,0:0:0:0:
256,192,158837,1,0,0:0:0:0:
256,192,158974,1,8,0:0:0:0:
256,192,159246,1,0,0:0:0:0:
256,192,159519,1,8,0:0:0:0:
256,192,159655,1,0,0:0:0:0:
256,192,159928,1,0,0:0:0:0:
256,192,160065,1,8,0:0:0:0:
256,192,160201,1,0,0:0:0:0:
256,192,160337,1,12,0:0:0:0:
256,192,160474,1,0,0:0:0:0:
256,192,160542,1,0,0:0:0:0:
256,192,160610,1,8,0:0:0:0:
256,192,160746,1,0,0:0:0:0:
256,192,160883,1,8,0:0:0:0:
256,192,161019,1,0,0:0:0:0:
256,192,161087,1,0,0:0:0:0:
256,192,161155,1,8,0:0:0:0:
256,192,161292,1,0,0:0:0:0:
256,192,161428,1,8,0:0:0:0:
256,192,161565,1,0,0:0:0:0:
256,192,161701,1,8,0:0:0:0:
256,192,161837,1,0,0:0:0:0:
256,192,161974,1,8,0:0:0:0:
256,192,162042,1,8,0:0:0:0:
256,192,162110,1,0,0:0:0:0:
256,192,162246,1,0,0:0:0:0:
256,192,162383,1,8,0:0:0:0:
256,192,162519,12,0,164155,0:0:0:0:
256,192,164701,5,0,0:0:0:0:
256,192,165246,1,8,0:0:0:0:
256,192,165792,1,4,0:0:0:0:
256,192,165974,1,8,0:0:0:0:
256,192,166065,1,8,0:0:0:0:
256,192,166155,1,8,0:0:0:0:
256,192,166337,1,0,0:0:0:0:
256,192,166519,1,8,0:0:0:0:
256,192,166610,1,0,0:0:0:0:
256,192,166701,1,8,0:0:0:0:
256,192,166792,1,8,0:0:0:0:
256,192,166883,1,0,0:0:0:0:
256,192,167065,1,0,0:0:0:0:
256,192,167155,1,0,0:0:0:0:
256,192,167246,1,8,0:0:0:0:
256,192,167337,1,0,0:0:0:0:
256,192,167428,1,8,0:0:0:0:
256,192,167519,1,8,0:0:0:0:
256,192,167610,1,0,0:0:0:0:
256,192,167701,1,0,0:0:0:0:
256,192,167792,1,8,0:0:0:0:
256,192,167883,1,0,0:0:0:0:
256,192,167974,1,8,0:0:0:0:
256,192,168155,1,0,0:0:0:0:
256,192,168246,1,0,0:0:0:0:
256,192,168337,1,0,0:0:0:0:
256,192,168519,1,8,0:0:0:0:
256,192,168701,1,0,0:0:0:0:
256,192,168792,1,8,0:0:0:0:
256,192,168883,1,0,0:0:0:0:
256,192,168974,1,0,0:0:0:0:
256,192,169065,1,8,0:0:0:0:
256,192,169246,1,0,0:0:0:0:
256,192,169337,1,8,0:0:0:0:
256,192,169428,1,0,0:0:0:0:
256,192,169610,1,8,0:0:0:0:
256,192,169701,1,8,0:0:0:0:
256,192,169792,1,0,0:0:0:0:
256,192,169883,1,8,0:0:0:0:
256,192,169974,1,0,0:0:0:0:
256,192,170065,1,0,0:0:0:0:
256,192,170155,1,8,0:0:0:0:
256,192,170337,1,0,0:0:0:0:
256,192,170428,1,8,0:0:0:0:
256,192,170519,1,0,0:0:0:0:
256,192,170701,1,8,0:0:0:0:
256,192,170792,1,8,0:0:0:0:
256,192,170883,1,8,0:0:0:0:
256,192,170974,1,8,0:0:0:0:
256,192,171065,1,0,0:0:0:0:
256,192,171155,1,0,0:0:0:0:
256,192,171246,1,8,0:0:0:0:
256,192,171428,1,8,0:0:0:0:
256,192,171519,1,8,0:0:0:0:
256,192,171610,1,0,0:0:0:0:
256,192,171792,1,0,0:0:0:0:
256,192,171883,1,8,0:0:0:0:
256,192,171974,1,0,0:0:0:0:
256,192,172065,1,0,0:0:0:0:
256,192,172155,1,8,0:0:0:0:
256,192,172246,1,0,0:0:0:0:
256,192,172337,1,8,0:0:0:0:
256,192,172519,1,0,0:0:0:0:
256,192,172610,1,0,0:0:0:0:
256,192,172701,1,0,0:0:0:0:
256,192,172883,1,8,0:0:0:0:
256,192,173065,1,8,0:0:0:0:
256,192,173155,5,0,0:0:0:0:
256,192,173246,1,8,0:0:0:0:
256,192,173337,1,8,0:0:0:0:
256,192,173428,1,0,0:0:0:0:
256,192,173610,1,0,0:0:0:0:
256,192,173701,1,0,0:0:0:0:
256,192,173792,1,0,0:0:0:0:
256,192,173883,1,0,0:0:0:0:
256,192,173974,1,8,0:0:0:0:
256,192,174065,1,8,0:0:0:0:
256,192,174155,1,0,0:0:0:0:
256,192,174246,1,0,0:0:0:0:
256,192,174337,1,8,0:0:0:0:
256,192,174428,1,0,0:0:0:0:
256,192,174519,1,8,0:0:0:0:
256,192,174701,1,0,0:0:0:0:
256,192,174792,1,0,0:0:0:0:
256,192,174883,1,8,0:0:0:0:
256,192,175065,1,8,0:0:0:0:
256,192,175155,1,0,0:0:0:0:
256,192,175246,1,8,0:0:0:0:
256,192,175337,1,8,0:0:0:0:
256,192,175428,1,8,0:0:0:0:
256,192,175519,1,0,0:0:0:0:
256,192,175610,1,8,0:0:0:0:
256,192,175792,1,0,0:0:0:0:
256,192,175883,1,0,0:0:0:0:
256,192,175974,1,0,0:0:0:0:
256,192,176155,1,8,0:0:0:0:
256,192,176337,1,0,0:0:0:0:
256,192,176428,1,0,0:0:0:0:
256,192,176519,1,8,0:0:0:0:
256,192,176610,1,0,0:0:0:0:
256,192,176701,1,8,0:0:0:0:
256,192,176792,1,8,0:0:0:0:
256,192,176883,1,0,0:0:0:0:
256,192,176974,1,0,0:0:0:0:
256,192,177065,1,8,0:0:0:0:
256,192,177155,1,0,0:0:0:0:
256,192,177246,1,8,0:0:0:0:
256,192,177428,1,8,0:0:0:0:
256,192,177519,1,0,0:0:0:0:
256,192,177610,1,8,0:0:0:0:
256,192,177701,1,8,0:0:0:0:
256,192,177792,1,8,0:0:0:0:
256,192,177883,1,0,0:0:0:0:
256,192,177974,1,0,0:0:0:0:
256,192,178065,1,8,0:0:0:0:
256,192,178155,1,0,0:0:0:0:
256,192,178246,1,0,0:0:0:0:
256,192,178337,1,8,0:0:0:0:
256,192,178428,1,8,0:0:0:0:
256,192,178519,1,8,0:0:0:0:
256,192,178610,1,0,0:0:0:0:
256,192,178701,1,0,0:0:0:0:
256,192,178792,1,0,0:0:0:0:
256,192,178883,1,8,0:0:0:0:
256,192,179065,1,0,0:0:0:0:
256,192,179155,1,0,0:0:0:0:
256,192,179246,1,0,0:0:0:0:
256,192,179428,1,8,0:0:0:0:
256,192,179519,1,8,0:0:0:0:
256,192,179610,1,0,0:0:0:0:
256,192,179701,1,0,0:0:0:0:
256,192,179792,1,8,0:0:0:0:
256,192,179883,1,0,0:0:0:0:
256,192,179974,1,8,0:0:0:0:
256,192,180065,1,8,0:0:0:0:
256,192,180155,1,0,0:0:0:0:
256,192,180246,1,0,0:0:0:0:
256,192,180337,1,0,0:0:0:0:
256,192,180428,1,0,0:0:0:0:
256,192,180519,1,8,0:0:0:0:
256,192,180610,1,8,0:0:0:0:
256,192,180701,1,0,0:0:0:0:
256,192,180792,1,8,0:0:0:0:
256,192,180883,1,0,0:0:0:0:
256,192,180974,1,0,0:0:0:0:
256,192,181065,1,8,0:0:0:0:
256,192,181246,1,8,0:0:0:0:
256,192,181337,1,0,0:0:0:0:
256,192,181428,1,8,0:0:0:0:
256,192,181519,1,0,0:0:0:0:
256,192,181610,1,8,0:0:0:0:
256,192,181701,1,8,0:0:0:0:
256,192,181792,1,8,0:0:0:0:
256,192,181883,1,0,0:0:0:0:
256,192,181974,1,8,0:0:0:0:
256,192,182155,1,8,0:0:0:0:
256,192,182246,5,8,0:0:0:0:
256,192,182337,1,0,0:0:0:0:
256,192,182428,1,0,0:0:0:0:
256,192,182519,1,0,0:0:0:0:
256,192,182610,1,0,0:0:0:0:
256,192,182701,1,8,0:0:0:0:
256,192,182792,1,8,0:0:0:0:
256,192,182883,1,0,0:0:0:0:
256,192,182974,1,0,0:0:0:0:
256,192,183065,1,0,0:0:0:0:
256,192,183246,1,12,0:0:0:0:
256,192,183519,1,0,0:0:0:0:
256,192,183655,1,8,0:0:0:0:
256,192,183792,1,8,0:0:0:0:
256,192,183928,1,8,0:0:0:0:
256,192,184065,1,0,0:0:0:0:
256,192,184201,1,0,0:0:0:0:
256,192,184337,1,8,0:0:0:0:
256,192,184883,1,0,0:0:0:0:
256,192,185019,1,8,0:0:0:0:
256,192,185155,1,8,0:0:0:0:
256,192,185292,1,8,0:0:0:0:
256,192,185428,1,0,0:0:0:0:
256,192,185974,1,0,0:0:0:0:
256,192,186110,1,8,0:0:0:0:
256,192,186246,1,8,0:0:0:0:
256,192,186383,1,8,0:0:0:0:
256,192,186519,1,0,0:0:0:0:
256,192,186610,1,8,0:0:0:0:
256,192,186701,1,0,0:0:0:0:
256,192,186883,1,0,0:0:0:0:
256,192,187065,1,8,0:0:0:0:
256,192,187246,1,0,0:0:0:0:
256,192,187428,1,0,0:0:0:0:
256,192,187610,1,4,0:0:0:0:
256,192,208337,5,4,0:0:0:0:
256,192,208883,1,8,0:0:0:0:
256,192,209155,1,0,0:0:0:0:
256,192,209428,1,0,0:0:0:0:
256,192,210519,1,8,0:0:0:0:
256,192,211610,1,0,0:0:0:0:
256,192,211883,1,0,0:0:0:0:
256,192,212701,1,8,0:0:0:0:
256,192,213792,1,0,0:0:0:0:
256,192,214883,1,8,0:0:0:0:
256,192,215974,1,0,0:0:0:0:
256,192,216246,1,0,0:0:0:0:
256,192,216792,1,0,0:0:0:0:
256,192,217065,1,8,0:0:0:0:
256,192,217337,1,0,0:0:0:0:
256,192,217610,1,0,0:0:0:0:
256,192,217883,1,8,0:0:0:0:
256,192,218155,1,4,0:0:0:0:
256,192,218974,1,0,0:0:0:0:
256,192,219246,1,8,0:0:0:0:
256,192,219792,1,0,0:0:0:0:
256,192,220337,1,4,0:0:0:0:
256,192,220610,1,0,0:0:0:0:
256,192,221155,1,0,0:0:0:0:
256,192,221428,1,8,0:0:0:0:
256,192,221837,1,0,0:0:0:0:
256,192,221905,1,0,0:0:0:0:
256,192,221974,1,8,0:0:0:0:
256,192,222246,1,0,0:0:0:0:
256,192,222519,1,4,0:0:0:0:
256,192,222792,1,0,0:0:0:0:
256,192,223337,1,0,0:0:0:0:
256,192,223610,1,8,0:0:0:0:
256,192,223883,1,0,0:0:0:0:
256,192,224292,1,0,0:0:0:0:
256,192,224428,1,8,0:0:0:0:
256,192,224701,1,4,0:0:0:0:
256,192,224974,1,8,0:0:0:0:
256,192,225110,1,8,0:0:0:0:
256,192,225246,1,0,0:0:0:0:
256,192,225519,1,8,0:0:0:0:
256,192,225655,1,0,0:0:0:0:
256,192,225724,1,0,0:0:0:0:
256,192,225792,1,8,0:0:0:0:
256,192,226065,1,8,0:0:0:0:
256,192,226201,1,8,0:0:0:0:
256,192,226337,1,0,0:0:0:0:
256,192,226610,1,0,0:0:0:0:
256,192,226883,1,4,0:0:0:0:
256,192,227019,1,0,0:0:0:0:
256,192,227155,1,8,0:0:0:0:
256,192,227292,1,0,0:0:0:0:
256,192,227428,1,8,0:0:0:0:
256,192,227565,1,0,0:0:0:0:
256,192,227701,1,8,0:0:0:0:
256,192,227837,1,0,0:0:0:0:
256,192,227905,1,0,0:0:0:0:
256,192,227974,1,8,0:0:0:0:
256,192,228110,1,0,0:0:0:0:
256,192,228246,1,8,0:0:0:0:
256,192,228383,1,0,0:0:0:0:
256,192,228451,1,0,0:0:0:0:
256,192,228519,1,8,0:0:0:0:
256,192,228655,1,8,0:0:0:0:
256,192,228792,1,0,0:0:0:0:
256,192,228928,1,8,0:0:0:0:
256,192,229065,1,0,0:0:0:0:
256,192,229201,1,0,0:0:0:0:
256,192,229337,1,8,0:0:0:0:
256,192,229474,1,0,0:0:0:0:
256,192,229610,1,8,0:0:0:0:
256,192,229746,1,0,0:0:0:0:
256,192,229883,1,8,0:0:0:0:
256,192,230019,1,0,0:0:0:0:
256,192,230087,1,0,0:0:0:0:
256,192,230155,1,8,0:0:0:0:
256,192,230292,1,0,0:0:0:0:
256,192,230428,1,8,0:0:0:0:
256,192,230565,1,0,0:0:0:0:
256,192,230633,1,0,0:0:0:0:
256,192,230701,1,8,0:0:0:0:
256,192,230769,1,8,0:0:0:0:
256,192,230837,1,0,0:0:0:0:
256,192,230974,1,8,0:0:0:0:
256,192,231110,1,0,0:0:0:0:
256,192,231246,1,0,0:0:0:0:
256,192,231383,1,0,0:0:0:0:
256,192,231519,1,8,0:0:0:0:
256,192,231655,1,0,0:0:0:0:
256,192,231792,1,8,0:0:0:0:
256,192,231928,1,0,0:0:0:0:
256,192,232065,1,8,0:0:0:0:
256,192,232201,1,0,0:0:0:0:
256,192,232269,1,0,0:0:0:0:
256,192,232337,1,8,0:0:0:0:
256,192,232474,1,0,0:0:0:0:
256,192,232610,1,8,0:0:0:0:
256,192,232746,1,0,0:0:0:0:
256,192,232815,1,8,0:0:0:0:
256,192,232883,1,8,0:0:0:0:
256,192,233019,1,0,0:0:0:0:
256,192,233155,1,8,0:0:0:0:
256,192,233292,1,0,0:0:0:0:
256,192,233428,1,0,0:0:0:0:
256,192,233496,1,0,0:0:0:0:
256,192,233565,1,8,0:0:0:0:
256,192,233701,1,8,0:0:0:0:
256,192,233837,1,0,0:0:0:0:
256,192,233905,1,0,0:0:0:0:
256,192,233974,1,0,0:0:0:0:
256,192,234110,1,8,0:0:0:0:
256,192,234246,1,0,0:0:0:0:
256,192,234383,1,0,0:0:0:0:
256,192,234519,5,8,0:0:0:0:
256,192,234587,1,8,0:0:0:0:
256,192,234655,1,8,0:0:0:0:
256,192,234724,1,0,0:0:0:0:
256,192,234792,1,8,0:0:0:0:
256,192,234860,1,8,0:0:0:0:
256,192,234928,1,0,0:0:0:0:
256,192,234996,1,0,0:0:0:0:
256,192,235065,1,8,0:0:0:0:
256,192,235201,1,0,0:0:0:0:
256,192,235337,1,8,0:0:0:0:
256,192,235405,1,8,0:0:0:0:
256,192,235474,1,0,0:0:0:0:
256,192,235542,1,0,0:0:0:0:
256,192,235610,5,8,0:0:0:0:
256,192,235678,1,0,0:0:0:0:
256,192,235746,1,0,0:0:0:0:
256,192,235815,1,0,0:0:0:0:
256,192,235883,1,8,0:0:0:0:
256,192,235951,1,8,0:0:0:0:
256,192,236019,1,0,0:0:0:0:
256,192,236087,1,0,0:0:0:0:
256,192,236155,1,8,0:0:0:0:
256,192,236224,1,8,0:0:0:0:
256,192,236292,1,8,0:0:0:0:
256,192,236360,1,0,0:0:0:0:
256,192,236428,1,8,0:0:0:0:
256,192,236496,1,8,0:0:0:0:
256,192,236565,1,0,0:0:0:0:
256,192,236633,1,0,0:0:0:0:
256,192,236701,1,8,0:0:0:0:
256,192,236769,1,0,0:0:0:0:
256,192,236837,1,0,0:0:0:0:
256,192,236905,1,0,0:0:0:0:
256,192,236974,1,8,0:0:0:0:
256,192,237042,1,8,0:0:0:0:
256,192,237110,1,0,0:0:0:0:
256,192,237178,1,0,0:0:0:0:
256,192,237246,1,8,0:0:0:0:
256,192,237315,1,8,0:0:0:0:
256,192,237383,1,8,0:0:0:0:
256,192,237451,1,0,0:0:0:0:
256,192,237519,1,8,0:0:0:0:
256,192,237587,1,8,0:0:0:0:
256,192,237655,1,0,0:0:0:0:
256,192,237724,1,0,0:0:0:0:
256,192,237792,1,8,0:0:0:0:
256,192,237860,1,8,0:0:0:0:
256,192,237928,1,8,0:0:0:0:
256,192,237996,1,0,0:0:0:0:
256,192,238065,1,8,0:0:0:0:
256,192,238133,1,8,0:0:0:0:
256,192,238201,1,0,0:0:0:0:
256,192,238269,1,0,0:0:0:0:
256,192,238337,1,8,0:0:0:0:
256,192,238405,1,0,0:0:0:0:
256,192,238474,1,0,0:0:0:0:
256,192,238542,1,0,0:0:0:0:
256,192,238610,1,8,0:0:0:0:
256,192,238678,1,8,0:0:0:0:
256,192,238746,1,0,0:0:0:0:
256,192,238815,1,0,0:0:0:0:
256,192,238883,1,8,0:0:0:0:
256,192,238951,1,8,0:0:0:0:
256,192,239019,1,8,0:0:0:0:
256,192,239087,1,0,0:0:0:0:
256,192,239155,1,8,0:0:0:0:
256,192,239224,1,8,0:0:0:0:
256,192,239292,1,0,0:0:0:0:
256,192,239360,1,0,0:0:0:0:
256,192,239428,1,8,0:0:0:0:
256,192,239496,1,0,0:0:0:0:
256,192,239565,1,0,0:0:0:0:
256,192,239633,1,0,0:0:0:0:
256,192,239701,1,8,0:0:0:0:
256,192,239769,1,8,0:0:0:0:
256,192,239837,1,0,0:0:0:0:
256,192,239905,1,0,0:0:0:0:
256,192,239974,1,8,0:0:0:0:
256,192,240042,1,0,0:0:0:0:
256,192,240110,1,0,0:0:0:0:
256,192,240178,1,0,0:0:0:0:
256,192,240246,1,8,0:0:0:0:
256,192,240315,1,8,0:0:0:0:
256,192,240383,1,0,0:0:0:0:
256,192,240451,1,0,0:0:0:0:
256,192,240519,1,8,0:0:0:0:
256,192,240587,1,8,0:0:0:0:
256,192,240655,1,8,0:0:0:0:
256,192,240724,1,0,0:0:0:0:
256,192,240792,1,8,0:0:0:0:
256,192,240860,1,8,0:0:0:0:
256,192,240928,1,0,0:0:0:0:
256,192,240996,1,0,0:0:0:0:
256,192,241065,1,8,0:0:0:0:
256,192,241133,1,0,0:0:0:0:
256,192,241201,1,0,0:0:0:0:
256,192,241269,1,0,0:0:0:0:
256,192,241337,1,8,0:0:0:0:
256,192,241405,1,8,0:0:0:0:
256,192,241474,1,0,0:0:0:0:
256,192,241542,1,0,0:0:0:0:
256,192,241610,1,8,0:0:0:0:
256,192,241678,1,8,0:0:0:0:
256,192,241746,1,8,0:0:0:0:
256,192,241815,1,0,0:0:0:0:
256,192,241883,1,8,0:0:0:0:
256,192,241951,1,8,0:0:0:0:
256,192,242019,1,0,0:0:0:0:
256,192,242087,1,0,0:0:0:0:
256,192,242155,1,8,0:0:0:0:
256,192,242224,1,8,0:0:0:0:
256,192,242292,1,8,0:0:0:0:
256,192,242360,1,0,0:0:0:0:
256,192,242428,1,8,0:0:0:0:
256,192,242496,1,8,0:0:0:0:
256,192,242565,1,0,0:0:0:0:
256,192,242633,1,0,0:0:0:0:
256,192,242701,1,8,0:0:0:0:
256,192,242769,1,0,0:0:0:0:
256,192,242837,1,0,0:0:0:0:
256,192,242905,1,0,0:0:0:0:
256,192,242974,1,8,0:0:0:0:
256,192,243042,1,8,0:0:0:0:
256,192,243110,1,0,0:0:0:0:
256,192,243178,1,0,0:0:0:0:
256,192,243246,1,8,0:0:0:0:
256,192,243315,1,0,0:0:0:0:
256,192,243383,1,8,0:0:0:0:
256,192,243451,1,8,0:0:0:0:
256,192,243519,1,0,0:0:0:0:
256,192,243587,1,8,0:0:0:0:
256,192,243655,1,0,0:0:0:0:
256,192,243724,1,0,0:0:0:0:
256,192,243792,1,8,0:0:0:0:
256,192,243860,1,8,0:0:0:0:
256,192,243928,1,0,0:0:0:0:
256,192,243996,1,0,0:0:0:0:
256,192,244065,1,8,0:0:0:0:
256,192,244133,1,0,0:0:0:0:
256,192,244201,1,0,0:0:0:0:
256,192,244269,1,0,0:0:0:0:
256,192,244337,1,8,0:0:0:0:
256,192,244405,1,8,0:0:0:0:
256,192,244474,1,8,0:0:0:0:
256,192,244542,1,0,0:0:0:0:
256,192,244610,1,8,0:0:0:0:
256,192,244678,1,8,0:0:0:0:
256,192,244746,1,0,0:0:0:0:
256,192,244815,1,0,0:0:0:0:
256,192,244883,1,8,0:0:0:0:
256,192,244974,1,0,0:0:0:0:
256,192,245065,1,0,0:0:0:0:
256,192,245155,1,8,0:0:0:0:
256,192,245224,1,0,0:0:0:0:
256,192,245292,1,8,0:0:0:0:
256,192,245360,1,8,0:0:0:0:
256,192,245428,1,0,0:0:0:0:
256,192,245565,1,0,0:0:0:0:
256,192,245633,1,0,0:0:0:0:
256,192,245701,1,8,0:0:0:0:
256,192,245769,1,8,0:0:0:0:
256,192,245837,1,8,0:0:0:0:
256,192,245905,1,0,0:0:0:0:
256,192,245974,1,8,0:0:0:0:
256,192,246042,1,8,0:0:0:0:
256,192,246110,1,0,0:0:0:0:
256,192,246178,1,0,0:0:0:0:
256,192,246246,1,8,0:0:0:0:
256,192,246337,1,8,0:0:0:0:
256,192,246428,1,0,0:0:0:0:
256,192,246519,1,8,0:0:0:0:
256,192,246610,1,8,0:0:0:0:
256,192,246701,1,0,0:0:0:0:
256,192,246792,1,8,0:0:0:0:
256,192,246860,1,0,0:0:0:0:
256,192,246928,1,0,0:0:0:0:
256,192,246996,1,0,0:0:0:0:
256,192,247065,1,8,0:0:0:0:
256,192,247155,1,8,0:0:0:0:
256,192,247246,1,0,0:0:0:0:
256,192,247337,1,8,0:0:0:0:
256,192,247428,1,8,0:0:0:0:
256,192,247519,1,0,0:0:0:0:
256,192,247610,1,8,0:0:0:0:
256,192,247678,1,8,0:0:0:0:
256,192,247746,1,8,0:0:0:0:
256,192,247815,1,8,0:0:0:0:
256,192,247883,1,0,0:0:0:0:
256,192,247974,1,0,0:0:0:0:
256,192,248065,1,0,0:0:0:0:
256,192,248155,1,8,0:0:0:0:
256,192,248292,1,0,0:0:0:0:
256,192,248360,1,0,0:0:0:0:
256,192,248428,1,8,0:0:0:0:
256,192,248496,1,8,0:0:0:0:
256,192,248565,1,0,0:0:0:0:
256,192,248633,1,0,0:0:0:0:
256,192,248701,1,8,0:0:0:0:
256,192,248792,1,8,0:0:0:0:
256,192,248883,1,0,0:0:0:0:
256,192,248974,1,8,0:0:0:0:
256,192,249065,1,0,0:0:0:0:
256,192,249155,1,0,0:0:0:0:
256,192,249246,1,8,0:0:0:0:
256,192,249315,1,8,0:0:0:0:
256,192,249383,1,0,0:0:0:0:
256,192,249451,1,0,0:0:0:0:
256,192,249519,1,8,0:0:0:0:
256,192,249610,1,0,0:0:0:0:
256,192,249701,1,0,0:0:0:0:
256,192,249792,1,8,0:0:0:0:
256,192,249860,1,0,0:0:0:0:
256,192,249928,1,8,0:0:0:0:
256,192,249996,1,8,0:0:0:0:
256,192,250065,1,0,0:0:0:0:
256,192,250133,1,0,0:0:0:0:
256,192,250201,1,8,0:0:0:0:
256,192,250337,1,0,0:0:0:0:
256,192,250405,1,8,0:0:0:0:
256,192,250474,1,0,0:0:0:0:
256,192,250542,1,0,0:0:0:0:
256,192,250610,1,8,0:0:0:0:
256,192,250746,1,8,0:0:0:0:
256,192,250883,1,0,0:0:0:0:
256,192,250974,1,0,0:0:0:0:
256,192,251065,1,0,0:0:0:0:
256,192,251155,1,8,0:0:0:0:
256,192,251246,1,0,0:0:0:0:
256,192,251337,1,0,0:0:0:0:
256,192,251428,1,8,0:0:0:0:
256,192,251496,1,8,0:0:0:0:
256,192,251565,1,8,0:0:0:0:
256,192,251633,1,0,0:0:0:0:
256,192,251701,1,8,0:0:0:0:
256,192,251769,1,8,0:0:0:0:
256,192,251837,1,0,0:0:0:0:
256,192,251905,1,0,0:0:0:0:
256,192,251974,1,8,0:0:0:0:
256,192,252042,1,8,0:0:0:0:
256,192,252110,1,8,0:0:0:0:
256,192,252178,1,8,0:0:0:0:
256,192,252246,1,0,0:0:0:0:
256,192,252315,1,0,0:0:0:0:
256,192,252383,1,8,0:0:0:0:
256,192,252519,1,0,0:0:0:0:
256,192,252587,1,0,0:0:0:0:
256,192,252655,1,8,0:0:0:0:
256,192,252724,1,0,0:0:0:0:
256,192,252792,1,8,0:0:0:0:
256,192,252928,1,8,0:0:0:0:
256,192,253065,1,4,0:0:0:0:
256,192,253201,1,8,0:0:0:0:
256,192,253337,1,0,0:0:0:0:
256,192,253405,1,0,0:0:0:0:
256,192,253474,1,8,0:0:0:0:
256,192,253610,1,0,0:0:0:0:
256,192,253746,1,8,0:0:0:0:
256,192,253883,1,0,0:0:0:0:
256,192,253951,1,0,0:0:0:0:
256,192,254019,1,8,0:0:0:0:
256,192,254087,1,8,0:0:0:0:
256,192,254155,1,0,0:0:0:0:
256,192,254292,1,8,0:0:0:0:
256,192,254428,1,0,0:0:0:0:
256,192,254496,1,0,0:0:0:0:
256,192,254565,1,8,0:0:0:0:
256,192,254701,1,0,0:0:0:0:
256,192,254837,1,8,0:0:0:0:
256,192,254974,1,8,0:0:0:0:
256,192,255042,1,0,0:0:0:0:
256,192,255110,1,8,0:0:0:0:
256,192,255246,1,0,0:0:0:0:
256,192,255383,1,8,0:0:0:0:
256,192,255519,1,0,0:0:0:0:
256,192,255587,1,0,0:0:0:0:
256,192,255655,1,0,0:0:0:0:
256,192,255792,1,8,0:0:0:0:
256,192,255928,1,0,0:0:0:0:
256,192,255996,1,0,0:0:0:0:
256,192,256065,1,8,0:0:0:0:
256,192,256201,1,8,0:0:0:0:
256,192,256337,1,0,0:0:0:0:
256,192,256474,1,8,0:0:0:0:
256,192,256610,1,0,0:0:0:0:
256,192,256678,1,0,0:0:0:0:
256,192,256746,1,8,0:0:0:0:
256,192,256815,1,0,0:0:0:0:
256,192,256883,1,8,0:0:0:0:
256,192,257019,1,8,0:0:0:0:
256,192,257087,1,8,0:0:0:0:
256,192,257155,1,0,0:0:0:0:
256,192,257292,1,8,0:0:0:0:
256,192,257428,1,0,0:0:0:0:
256,192,257519,1,0,0:0:0:0:
256,192,257610,1,0,0:0:0:0:
256,192,257701,1,8,0:0:0:0:
256,192,257792,1,0,0:0:0:0:
256,192,257883,1,0,0:0:0:0:
256,192,257974,1,8,0:0:0:0:
256,192,258065,1,8,0:0:0:0:
256,192,258156,1,8,0:0:0:0:
256,192,258246,1,0,0:0:0:0:
256,192,258337,1,0,0:0:0:0:
256,192,258428,1,0,0:0:0:0:
256,192,258519,1,8,0:0:0:0:
256,192,258587,1,8,0:0:0:0:
256,192,258655,1,0,0:0:0:0:
256,192,258724,1,0,0:0:0:0:
256,192,258792,1,8,0:0:0:0:
256,192,258883,1,0,0:0:0:0:
256,192,258974,1,0,0:0:0:0:
256,192,259065,1,8,0:0:0:0:
256,192,259155,1,8,0:0:0:0:
256,192,259246,1,8,0:0:0:0:
256,192,259337,1,0,0:0:0:0:
256,192,259405,1,0,0:0:0:0:
256,192,259474,1,0,0:0:0:0:
256,192,259542,1,0,0:0:0:0:
256,192,259610,1,8,0:0:0:0:
256,192,259701,1,8,0:0:0:0:
256,192,259792,1,8,0:0:0:0:
256,192,259883,1,0,0:0:0:0:
256,192,259951,1,8,0:0:0:0:
256,192,260019,1,0,0:0:0:0:
256,192,260087,1,0,0:0:0:0:
256,192,260155,1,8,0:0:0:0:
256,192,260246,1,8,0:0:0:0:
256,192,260337,1,0,0:0:0:0:
256,192,260428,1,8,0:0:0:0:
256,192,260496,1,8,0:0:0:0:
256,192,260565,1,0,0:0:0:0:
256,192,260633,1,0,0:0:0:0:
256,192,260701,1,8,0:0:0:0:
256,192,260769,5,0,0:0:0:0:
256,192,260837,1,8,0:0:0:0:
256,192,260905,1,8,0:0:0:0:
256,192,260974,1,0,0:0:0:0:
256,192,261110,1,0,0:0:0:0:
256,192,261178,1,0,0:0:0:0:
256,192,261246,1,8,0:0:0:0:
256,192,261315,1,0,0:0:0:0:
256,192,261383,1,8,0:0:0:0:
256,192,261451,1,8,0:0:0:0:
256,192,261519,1,0,0:0:0:0:
256,192,261610,1,0,0:0:0:0:
256,192,261701,1,0,0:0:0:0:
256,192,261792,1,12,0:0:0:0:
256,192,261928,12,0,266019,0:0:0:0:
256,192,266155,5,4,0:0:0:0:
256,192,267246,1,4,0:0:0:0:
256,192,267655,1,4,0:0:0:0:
256,192,268065,1,4,0:0:0:0:
256,192,268337,1,4,0:0:0:0:
256,192,269428,1,4,0:0:0:0:
256,192,269837,1,4,0:0:0:0:
256,192,270246,1,4,0:0:0:0:
256,192,270519,1,4,0:0:0:0:
256,192,271610,1,4,0:0:0:0:
256,192,272019,1,4,0:0:0:0:
256,192,272428,1,4,0:0:0:0:
256,192,272701,5,4,0:0:0:0:
256,192,272837,1,8,0:0:0:0:
256,192,272974,1,0,0:0:0:0:
256,192,273042,1,0,0:0:0:0:
256,192,273110,1,8,0:0:0:0:
256,192,273178,1,0,0:0:0:0:
256,192,273246,1,8,0:0:0:0:
256,192,273315,1,8,0:0:0:0:
256,192,273383,1,0,0:0:0:0:
256,192,273451,1,0,0:0:0:0:
256,192,273519,1,8,0:0:0:0:
256,192,273587,1,8,0:0:0:0:
256,192,273655,1,8,0:0:0:0:
256,192,273724,1,8,0:0:0:0:
256,192,273792,1,0,0:0:0:0:
256,192,273928,1,0,0:0:0:0:
256,192,274065,1,8,0:0:0:0:
256,192,274133,1,8,0:0:0:0:
256,192,274201,1,8,0:0:0:0:
256,192,274269,1,0,0:0:0:0:
256,192,274337,1,8,0:0:0:0:
256,192,274405,1,8,0:0:0:0:
256,192,274474,1,0,0:0:0:0:
256,192,274542,1,0,0:0:0:0:
256,192,274610,1,8,0:0:0:0:
256,192,274746,1,0,0:0:0:0:
256,192,274883,1,8,0:0:0:0:
256,192,274951,1,0,0:0:0:0:
256,192,275019,1,0,0:0:0:0:
256,192,275087,1,0,0:0:0:0:
256,192,275155,1,8,0:0:0:0:
256,192,275224,1,8,0:0:0:0:
256,192,275292,1,0,0:0:0:0:
256,192,275360,1,0,0:0:0:0:
256,192,275428,1,8,0:0:0:0:
256,192,275496,1,0,0:0:0:0:
256,192,275565,1,0,0:0:0:0:
256,192,275633,1,0,0:0:0:0:
256,192,275701,1,8,0:0:0:0:
256,192,275769,1,8,0:0:0:0:
256,192,275837,1,0,0:0:0:0:
256,192,275905,1,0,0:0:0:0:
256,192,275974,1,8,0:0:0:0:
256,192,276042,1,8,0:0:0:0:
256,192,276110,1,8,0:0:0:0:
256,192,276178,1,0,0:0:0:0:
256,192,276246,1,8,0:0:0:0:
256,192,276315,1,8,0:0:0:0:
256,192,276383,1,0,0:0:0:0:
256,192,276451,1,0,0:0:0:0:
256,192,276519,1,8,0:0:0:0:
256,192,276587,1,8,0:0:0:0:
256,192,276655,1,8,0:0:0:0:
256,192,276724,1,0,0:0:0:0:
256,192,276792,1,8,0:0:0:0:
256,192,276860,1,8,0:0:0:0:
256,192,276928,1,0,0:0:0:0:
256,192,276996,1,0,0:0:0:0:
256,192,277065,1,8,0:0:0:0:
256,192,277133,1,0,0:0:0:0:
256,192,277201,1,0,0:0:0:0:
256,192,277269,1,0,0:0:0:0:
256,192,277337,1,8,0:0:0:0:
256,192,277405,1,8,0:0:0:0:
256,192,277474,1,0,0:0:0:0:
256,192,277542,1,0,0:0:0:0:
256,192,277610,1,8,0:0:0:0:
256,192,277678,1,8,0:0:0:0:
256,192,277746,1,8,0:0:0:0:
256,192,277815,1,0,0:0:0:0:
256,192,277883,1,8,0:0:0:0:
256,192,277951,1,8,0:0:0:0:
256,192,278019,1,0,0:0:0:0:
256,192,278087,1,0,0:0:0:0:
256,192,278155,1,8,0:0:0:0:
256,192,278224,1,8,0:0:0:0:
256,192,278292,1,8,0:0:0:0:
256,192,278360,1,8,0:0:0:0:
256,192,278428,1,0,0:0:0:0:
256,192,278496,1,0,0:0:0:0:
256,192,278565,1,8,0:0:0:0:
256,192,278633,1,8,0:0:0:0:
256,192,278701,1,0,0:0:0:0:
256,192,278769,1,0,0:0:0:0:
256,192,278837,1,0,0:0:0:0:
256,192,278905,1,0,0:0:0:0:
256,192,278974,1,8,0:0:0:0:
256,192,279042,1,8,0:0:0:0:
256,192,279110,1,0,0:0:0:0:
256,192,279178,1,0,0:0:0:0:
256,192,279246,1,8,0:0:0:0:
256,192,279314,1,0,0:0:0:0:
256,192,279382,1,0,0:0:0:0:
256,192,279450,1,0,0:0:0:0:
256,192,279518,1,8,0:0:0:0:
256,192,279587,1,8,0:0:0:0:
256,192,279655,1,0,0:0:0:0:
256,192,279723,1,0,0:0:0:0:
256,192,279791,1,8,0:0:0:0:
256,192,279859,1,0,0:0:0:0:
256,192,279928,1,0,0:0:0:0:
256,192,279996,1,0,0:0:0:0:
256,192,280064,1,8,0:0:0:0:
256,192,280132,1,8,0:0:0:0:
256,192,280200,1,0,0:0:0:0:
256,192,280268,1,0,0:0:0:0:
256,192,280337,1,8,0:0:0:0:
256,192,280405,1,8,0:0:0:0:
256,192,280473,1,8,0:0:0:0:
256,192,280541,1,0,0:0:0:0:
256,192,280609,1,8,0:0:0:0:
256,192,280678,1,8,0:0:0:0:
256,192,280746,1,0,0:0:0:0:
256,192,280814,1,0,0:0:0:0:
256,192,280882,1,8,0:0:0:0:
256,192,280950,1,0,0:0:0:0:
256,192,281018,1,0,0:0:0:0:
256,192,281087,1,0,0:0:0:0:
256,192,281155,1,8,0:0:0:0:
256,192,281223,1,8,0:0:0:0:
256,192,281291,1,0,0:0:0:0:
256,192,281359,1,0,0:0:0:0:
256,192,281428,1,8,0:0:0:0:
256,192,281496,1,8,0:0:0:0:
256,192,281564,1,8,0:0:0:0:
256,192,281632,1,0,0:0:0:0:
256,192,281700,1,8,0:0:0:0:
256,192,281768,1,8,0:0:0:0:
256,192,281837,1,0,0:0:0:0:
256,192,281905,1,0,0:0:0:0:
256,192,281973,1,8,0:0:0:0:
256,192,282041,1,0,0:0:0:0:
256,192,282109,1,0,0:0:0:0:
256,192,282178,1,0,0:0:0:0:
256,192,282246,1,8,0:0:0:0:
256,192,282314,1,8,0:0:0:0:
256,192,282383,1,8,0:0:0:0:
256,192,282451,1,8,0:0:0:0:
256,192,282519,1,0,0:0:0:0:
256,192,282587,1,0,0:0:0:0:
256,192,282655,1,8,0:0:0:0:
256,192,282723,1,8,0:0:0:0:
256,192,282791,1,0,0:0:0:0:
256,192,282859,1,0,0:0:0:0:
256,192,282928,1,8,0:0:0:0:
256,192,282996,1,0,0:0:0:0:
256,192,283065,1,8,0:0:0:0:
256,192,283132,1,8,0:0:0:0:
256,192,283200,1,0,0:0:0:0:
256,192,283268,1,0,0:0:0:0:
256,192,283337,1,8,0:0:0:0:
256,192,283405,1,8,0:0:0:0:
256,192,283473,1,0,0:0:0:0:
256,192,283541,1,0,0:0:0:0:
256,192,283610,1,8,0:0:0:0:
256,192,283678,1,0,0:0:0:0:
256,192,283746,1,0,0:0:0:0:
256,192,283814,1,0,0:0:0:0:
256,192,283882,1,8,0:0:0:0:
256,192,283951,1,8,0:0:0:0:
256,192,284019,1,0,0:0:0:0:
256,192,284087,1,0,0:0:0:0:
256,192,284155,1,8,0:0:0:0:
256,192,284223,1,0,0:0:0:0:
256,192,284292,1,0,0:0:0:0:
256,192,284360,1,0,0:0:0:0:
256,192,284428,1,8,0:0:0:0:
256,192,284496,1,8,0:0:0:0:
256,192,284564,1,0,0:0:0:0:
256,192,284632,1,0,0:0:0:0:
256,192,284701,1,8,0:0:0:0:
256,192,284769,1,8,0:0:0:0:
256,192,284837,1,8,0:0:0:0:
256,192,284905,1,0,0:0:0:0:
256,192,284973,1,8,0:0:0:0:
256,192,285042,1,8,0:0:0:0:
256,192,285110,1,0,0:0:0:0:
256,192,285178,1,0,0:0:0:0:
256,192,285246,1,8,0:0:0:0:
256,192,285314,1,8,0:0:0:0:
256,192,285382,1,8,0:0:0:0:
256,192,285451,1,0,0:0:0:0:
256,192,285519,1,8,0:0:0:0:
256,192,285587,1,8,0:0:0:0:
256,192,285655,1,0,0:0:0:0:
256,192,285723,1,0,0:0:0:0:
256,192,285792,1,8,0:0:0:0:
256,192,285860,1,0,0:0:0:0:
256,192,285928,1,0,0:0:0:0:
256,192,285996,1,0,0:0:0:0:
256,192,286064,1,8,0:0:0:0:
256,192,286132,1,8,0:0:0:0:
256,192,286201,1,0,0:0:0:0:
256,192,286269,1,0,0:0:0:0:
256,192,286337,1,8,0:0:0:0:
256,192,286405,1,8,0:0:0:0:
256,192,286473,1,8,0:0:0:0:
256,192,286542,1,0,0:0:0:0:
256,192,286610,1,8,0:0:0:0:
256,192,286678,1,8,0:0:0:0:
256,192,286746,1,0,0:0:0:0:
256,192,286814,1,0,0:0:0:0:
256,192,286882,1,8,0:0:0:0:
256,192,286951,1,8,0:0:0:0:
256,192,287019,1,8,0:0:0:0:
256,192,287087,1,8,0:0:0:0:
256,192,287155,1,0,0:0:0:0:
256,192,287223,1,0,0:0:0:0:
256,192,287292,1,8,0:0:0:0:
256,192,287360,1,8,0:0:0:0:
256,192,287428,1,0,0:0:0:0:
256,192,287496,1,0,0:0:0:0:
256,192,287564,1,0,0:0:0:0:
256,192,287632,1,0,0:0:0:0:
256,192,287701,1,8,0:0:0:0:
256,192,287769,1,8,0:0:0:0:
256,192,287837,1,0,0:0:0:0:
256,192,287905,1,0,0:0:0:0:
256,192,287973,1,8,0:0:0:0:
256,192,288041,1,0,0:0:0:0:
256,192,288109,1,0,0:0:0:0:
256,192,288177,1,0,0:0:0:0:
256,192,288245,1,8,0:0:0:0:
256,192,288314,1,8,0:0:0:0:
256,192,288382,1,0,0:0:0:0:
256,192,288450,1,0,0:0:0:0:
256,192,288518,1,8,0:0:0:0:
256,192,288586,1,0,0:0:0:0:
256,192,288655,1,0,0:0:0:0:
256,192,288723,1,0,0:0:0:0:
256,192,288791,1,8,0:0:0:0:
256,192,288859,1,8,0:0:0:0:
256,192,288927,1,0,0:0:0:0:
256,192,288995,1,0,0:0:0:0:
256,192,289064,1,8,0:0:0:0:
256,192,289132,1,8,0:0:0:0:
256,192,289200,1,8,0:0:0:0:
256,192,289268,1,0,0:0:0:0:
256,192,289336,1,8,0:0:0:0:
256,192,289405,1,8,0:0:0:0:
256,192,289473,1,0,0:0:0:0:
256,192,289541,5,0,0:0:0:0:
256,192,289609,1,8,0:0:0:0:
256,192,289677,1,8,0:0:0:0:
256,192,289745,1,8,0:0:0:0:
256,192,289814,1,0,0:0:0:0:
256,192,289882,1,8,0:0:0:0:
256,192,289950,1,8,0:0:0:0:
256,192,290018,1,0,0:0:0:0:
256,192,290086,1,0,0:0:0:0:
256,192,290155,1,8,0:0:0:0:
256,192,290292,1,0,0:0:0:0:
256,192,290360,1,0,0:0:0:0:
256,192,290428,1,8,0:0:0:0:
256,192,290496,1,0,0:0:0:0:
256,192,290565,1,0,0:0:0:0:
256,192,290701,1,8,0:0:0:0:
256,192,290837,1,0,0:0:0:0:
256,192,290905,1,0,0:0:0:0:
256,192,290974,1,8,0:0:0:0:
256,192,291042,1,8,0:0:0:0:
256,192,291110,1,0,0:0:0:0:
256,192,291246,1,8,0:0:0:0:
256,192,291519,1,0,0:0:0:0:
256,192,291792,1,12,0:0:0:0:
256,192,292337,5,4,0:0:0:0:
256,192,293428,1,12,0:0:0:0:
256,192,294519,1,12,0:0:0:0:
256,192,295065,1,4,0:0:0:0:
256,192,295610,1,0,0:0:0:0:
256,192,295746,1,8,0:0:0:0:
256,192,295815,1,8,0:0:0:0:
256,192,295883,1,0,0:0:0:0:
256,192,296019,1,8,0:0:0:0:
256,192,296155,1,8,0:0:0:0:
256,192,296292,1,0,0:0:0:0:
256,192,296428,1,0,0:0:0:0:
256,192,296565,1,8,0:0:0:0:
256,192,296701,1,4,0:0:0:0:
256,192,296974,1,8,0:0:0:0:
256,192,297110,1,0,0:0:0:0:
256,192,297383,1,0,0:0:0:0:
256,192,297519,1,8,0:0:0:0:
256,192,297792,1,0,0:0:0:0:
256,192,298065,1,8,0:0:0:0:
256,192,298337,1,0,0:0:0:0:
256,192,298474,1,0,0:0:0:0:
256,192,298610,1,8,0:0:0:0:
256,192,298883,1,4,0:0:0:0:
256,192,299155,1,8,0:0:0:0:
256,192,299292,1,0,0:0:0:0:
256,192,299565,1,0,0:0:0:0:
256,192,299701,1,8,0:0:0:0:
256,192,299837,1,0,0:0:0:0:
256,192,299974,1,0,0:0:0:0:
256,192,300246,1,8,0:0:0:0:
256,192,300519,1,0,0:0:0:0:
256,192,300655,1,0,0:0:0:0:
256,192,300792,1,8,0:0:0:0:
256,192,301065,1,4,0:0:0:0:
256,192,301201,1,0,0:0:0:0:
256,192,301337,1,8,0:0:0:0:
256,192,301474,1,0,0:0:0:0:
256,192,301610,1,8,0:0:0:0:
256,192,301746,1,8,0:0:0:0:
256,192,301883,1,0,0:0:0:0:
256,192,302019,1,0,0:0:0:0:
256,192,302155,1,8,0:0:0:0:
256,192,302292,1,0,0:0:0:0:
256,192,302428,1,8,0:0:0:0:
256,192,302565,1,0,0:0:0:0:
256,192,302701,1,8,0:0:0:0:
256,192,302837,1,8,0:0:0:0:
256,192,302974,1,0,0:0:0:0:
256,192,303110,1,0,0:0:0:0:
256,192,303246,1,8,0:0:0:0:
256,192,303383,1,8,0:0:0:0:
256,192,303519,1,8,0:0:0:0:
256,192,303655,1,8,0:0:0:0:
256,192,303792,1,0,0:0:0:0:
256,192,303928,1,0,0:0:0:0:
256,192,304065,1,8,0:0:0:0:
256,192,304201,1,8,0:0:0:0:
256,192,304337,1,0,0:0:0:0:
256,192,304474,1,0,0:0:0:0:
256,192,304610,1,8,0:0:0:0:
256,192,304746,1,0,0:0:0:0:
256,192,304883,1,8,0:0:0:0:
256,192,305019,1,8,0:0:0:0:
256,192,305155,1,0,0:0:0:0:
256,192,305292,1,0,0:0:0:0:
256,192,305428,1,8,0:0:0:0:
256,192,305496,1,8,0:0:0:0:
256,192,305565,1,0,0:0:0:0:
256,192,305633,1,0,0:0:0:0:
256,192,305701,1,0,0:0:0:0:
256,192,305769,1,0,0:0:0:0:
256,192,305837,1,8,0:0:0:0:
256,192,305905,1,8,0:0:0:0:
256,192,305974,1,0,0:0:0:0:
256,192,306042,1,0,0:0:0:0:
256,192,306110,1,0,0:0:0:0:
256,192,306178,1,0,0:0:0:0:
256,192,306246,1,8,0:0:0:0:
256,192,306315,1,8,0:0:0:0:
256,192,306383,1,0,0:0:0:0:
256,192,306451,1,0,0:0:0:0:
256,192,306519,1,8,0:0:0:0:
256,192,306587,1,8,0:0:0:0:
256,192,306655,1,8,0:0:0:0:
256,192,306724,1,8,0:0:0:0:
256,192,306792,1,0,0:0:0:0:
256,192,306860,1,0,0:0:0:0:
256,192,306928,1,8,0:0:0:0:
256,192,306996,1,0,0:0:0:0:
256,192,307065,1,8,0:0:0:0:
256,192,307201,1,0,0:0:0:0:
256,192,307269,1,0,0:0:0:0:
256,192,307337,1,8,0:0:0:0:
256,192,307474,1,8,0:0:0:0:
256,192,307610,1,0,0:0:0:0:
256,192,309792,5,4,0:0:0:0:
256,192,309928,1,8,0:0:0:0:
256,192,310065,1,0,0:0:0:0:
256,192,310133,1,0,0:0:0:0:
256,192,310201,1,8,0:0:0:0:
256,192,310337,1,0,0:0:0:0:
256,192,310474,1,8,0:0:0:0:
256,192,310542,1,8,0:0:0:0:
256,192,310610,1,0,0:0:0:0:
256,192,310746,1,8,0:0:0:0:
256,192,310883,1,0,0:0:0:0:
256,192,311019,1,8,0:0:0:0:
256,192,311155,1,0,0:0:0:0:
256,192,311224,1,0,0:0:0:0:
256,192,311292,1,8,0:0:0:0:
256,192,311428,1,8,0:0:0:0:
256,192,311565,1,0,0:0:0:0:
256,192,311701,5,8,0:0:0:0:
256,192,311792,1,0,0:0:0:0:
256,192,311883,1,0,0:0:0:0:
256,192,311974,1,8,0:0:0:0:
256,192,312042,1,8,0:0:0:0:
256,192,312110,1,0,0:0:0:0:
256,192,312178,1,0,0:0:0:0:
256,192,312246,1,8,0:0:0:0:
256,192,312315,1,0,0:0:0:0:
256,192,312383,1,0,0:0:0:0:
256,192,312451,1,0,0:0:0:0:
256,192,312519,1,8,0:0:0:0:
256,192,312610,1,0,0:0:0:0:
256,192,312701,1,0,0:0:0:0:
256,192,312792,1,8,0:0:0:0:
256,192,312883,1,8,0:0:0:0:
256,192,312974,1,0,0:0:0:0:
256,192,313065,1,8,0:0:0:0:
256,192,313155,1,0,0:0:0:0:
256,192,313246,1,0,0:0:0:0:
256,192,313337,1,8,0:0:0:0:
256,192,313474,1,0,0:0:0:0:
256,192,313542,1,8,0:0:0:0:
256,192,313610,1,8,0:0:0:0:
256,192,313746,1,0,0:0:0:0:
256,192,313883,1,8,0:0:0:0:
256,192,314019,1,0,0:0:0:0:
256,192,314087,1,0,0:0:0:0:
256,192,314155,1,8,0:0:0:0:
256,192,314292,1,0,0:0:0:0:
256,192,314428,1,8,0:0:0:0:
256,192,314565,1,0,0:0:0:0:
256,192,314633,1,0,0:0:0:0:
256,192,314701,1,8,0:0:0:0:
256,192,314837,1,8,0:0:0:0:
256,192,314905,1,8,0:0:0:0:
256,192,314974,1,0,0:0:0:0:
256,192,315042,1,0,0:0:0:0:
256,192,315110,1,8,0:0:0:0:
256,192,315178,1,8,0:0:0:0:
256,192,315246,1,0,0:0:0:0:
256,192,315383,1,0,0:0:0:0:
256,192,315519,1,8,0:0:0:0:
256,192,315655,1,0,0:0:0:0:
256,192,315724,1,0,0:0:0:0:
256,192,315792,1,8,0:0:0:0:
256,192,315928,1,0,0:0:0:0:
256,192,315996,1,8,0:0:0:0:
256,192,316065,1,0,0:0:0:0:
256,192,316133,1,0,0:0:0:0:
256,192,316201,1,8,0:0:0:0:
256,192,316269,1,8,0:0:0:0:
256,192,316337,1,0,0:0:0:0:
256,192,316474,1,0,0:0:0:0:
256,192,316610,1,8,0:0:0:0:
256,192,316746,1,0,0:0:0:0:
256,192,316815,1,0,0:0:0:0:
256,192,316883,1,8,0:0:0:0:
256,192,317019,1,8,0:0:0:0:
256,192,317087,1,0,0:0:0:0:
256,192,317155,1,8,0:0:0:0:
256,192,317224,1,8,0:0:0:0:
256,192,317292,1,0,0:0:0:0:
256,192,317360,1,0,0:0:0:0:
256,192,317428,1,8,0:0:0:0:
256,192,317565,1,0,0:0:0:0:
256,192,317701,1,8,0:0:0:0:
256,192,317837,1,0,0:0:0:0:
256,192,317905,1,0,0:0:0:0:
256,192,317974,1,8,0:0:0:0:
256,192,318110,1,0,0:0:0:0:
256,192,318246,1,12,0:0:0:0:
256,192,318519,1,0,0:0:0:0:
256,192,318610,1,0,0:0:0:0:
256,192,318701,1,8,0:0:0:0:
256,192,318792,1,0,0:0:0:0:
256,192,318883,1,0,0:0:0:0:
256,192,318974,1,8,0:0:0:0:
256,192,319065,1,0,0:0:0:0:
256,192,319155,1,0,0:0:0:0:
256,192,319246,1,0,0:0:0:0:
256,192,319337,1,8,0:0:0:0:
256,192,319428,1,8,0:0:0:0:
256,192,319519,1,8,0:0:0:0:
256,192,319610,1,0,0:0:0:0:
256,192,319701,1,0,0:0:0:0:
256,192,319792,1,8,0:0:0:0:
256,192,319883,1,0,0:0:0:0:
256,192,319974,1,0,0:0:0:0:
256,192,320065,1,8,0:0:0:0:
256,192,320155,1,0,0:0:0:0:
256,192,320246,1,0,0:0:0:0:
256,192,320337,1,0,0:0:0:0:
256,192,320428,1,8,0:0:0:0:
256,192,320519,1,8,0:0:0:0:
256,192,320610,1,8,0:0:0:0:
256,192,320701,1,0,0:0:0:0:
256,192,320792,1,8,0:0:0:0:
256,192,320883,1,8,0:0:0:0:
256,192,320974,1,0,0:0:0:0:
256,192,321065,1,8,0:0:0:0:
256,192,321155,1,8,0:0:0:0:
256,192,321246,1,0,0:0:0:0:
256,192,321337,1,0,0:0:0:0:
256,192,321428,1,0,0:0:0:0:
256,192,321519,1,8,0:0:0:0:
256,192,321610,1,0,0:0:0:0:
256,192,321701,1,0,0:0:0:0:
256,192,321792,1,8,0:0:0:0:
256,192,321883,1,8,0:0:0:0:
256,192,321974,1,0,0:0:0:0:
256,192,322065,1,8,0:0:0:0:
256,192,322155,1,8,0:0:0:0:
256,192,322246,1,0,0:0:0:0:
256,192,322337,1,8,0:0:0:0:
256,192,322428,1,8,0:0:0:0:
256,192,322519,1,0,0:0:0:0:
256,192,322610,1,8,0:0:0:0:
256,192,322701,1,0,0:0:0:0:
256,192,322792,1,0,0:0:0:0:
256,192,322883,1,8,0:0:0:0:
256,192,323019,1,0,0:0:0:0:
256,192,323155,1,8,0:0:0:0:
256,192,323292,1,0,0:0:0:0:
256,192,323360,1,0,0:0:0:0:
256,192,323428,1,8,0:0:0:0:
256,192,323565,1,8,0:0:0:0:
256,192,323633,1,0,0:0:0:0:
256,192,323701,1,8,0:0:0:0:
256,192,323769,1,8,0:0:0:0:
256,192,323837,1,0,0:0:0:0:
256,192,323905,1,0,0:0:0:0:
256,192,323974,1,8,0:0:0:0:
256,192,324110,1,0,0:0:0:0:
256,192,324246,1,8,0:0:0:0:
256,192,324383,1,0,0:0:0:0:
256,192,324451,1,0,0:0:0:0:
256,192,324519,1,8,0:0:0:0:
256,192,324655,1,0,0:0:0:0:
256,192,324724,1,8,0:0:0:0:
256,192,324792,1,0,0:0:0:0:
256,192,324928,1,0,0:0:0:0:
256,192,325065,1,8,0:0:0:0:
256,192,325201,1,0,0:0:0:0:
256,192,325269,1,0,0:0:0:0:
256,192,325337,1,8,0:0:0:0:
256,192,325405,1,8,0:0:0:0:
256,192,325474,1,0,0:0:0:0:
256,192,325542,1,0,0:0:0:0:
256,192,325610,1,0,0:0:0:0:
256,192,325746,1,8,0:0:0:0:
256,192,325815,1,8,0:0:0:0:
256,192,325883,1,0,0:0:0:0:
256,192,325951,1,0,0:0:0:0:
256,192,326019,1,8,0:0:0:0:
256,192,326087,1,8,0:0:0:0:
256,192,326155,1,0,0:0:0:0:
256,192,326292,1,8,0:0:0:0:
256,192,326360,1,8,0:0:0:0:
256,192,326428,1,8,0:0:0:0:
256,192,326496,1,8,0:0:0:0:
256,192,326565,1,0,0:0:0:0:
256,192,326633,1,0,0:0:0:0:
256,192,326701,1,8,0:0:0:0:
256,192,326769,1,8,0:0:0:0:
256,192,326837,1,0,0:0:0:0:
256,192,326974,1,8,0:0:0:0:
256,192,327042,1,0,0:0:0:0:
256,192,327110,1,8,0:0:0:0:
256,192,327246,1,4,0:0:0:0:
256,192,327383,1,0,0:0:0:0:
256,192,327451,1,0,0:0:0:0:
256,192,327519,1,8,0:0:0:0:
256,192,327655,1,0,0:0:0:0:
256,192,327792,1,12,0:0:0:0:
256,192,327928,1,8,0:0:0:0:
256,192,327996,1,0,0:0:0:0:
256,192,328065,1,8,0:0:0:0:
256,192,328201,1,0,0:0:0:0:
256,192,328337,1,12,0:0:0:0:
256,192,328474,1,0,0:0:0:0:
256,192,328542,1,0,0:0:0:0:
256,192,328610,1,8,0:0:0:0:
256,192,328746,1,8,0:0:0:0:
256,192,328883,1,0,0:0:0:0:
256,192,329019,1,8,0:0:0:0:
256,192,329155,1,0,0:0:0:0:
256,192,329224,1,0,0:0:0:0:
256,192,329292,1,8,0:0:0:0:
256,192,329428,1,4,0:0:0:0:
256,192,329565,1,0,0:0:0:0:
256,192,329633,1,0,0:0:0:0:
256,192,329701,1,8,0:0:0:0:
256,192,329837,1,0,0:0:0:0:
256,192,329974,1,12,0:0:0:0:
256,192,330110,1,8,0:0:0:0:
256,192,330178,1,0,0:0:0:0:
256,192,330246,1,8,0:0:0:0:
256,192,330383,1,0,0:0:0:0:
256,192,330519,1,12,0:0:0:0:
256,192,330655,1,0,0:0:0:0:
256,192,330724,1,8,0:0:0:0:
256,192,330792,1,0,0:0:0:0:
256,192,330928,1,0,0:0:0:0:
256,192,331065,1,0,0:0:0:0:
256,192,331133,1,0,0:0:0:0:
256,192,331201,1,8,0:0:0:0:
256,192,331337,1,0,0:0:0:0:
256,192,331405,1,0,0:0:0:0:
256,192,331474,1,8,0:0:0:0:
256,192,331610,1,4,0:0:0:0:
256,192,331746,1,8,0:0:0:0:
256,192,331815,1,0,0:0:0:0:
256,192,331883,1,8,0:0:0:0:
256,192,331951,1,8,0:0:0:0:
256,192,332019,1,0,0:0:0:0:
256,192,332155,1,12,0:0:0:0:
256,192,332292,1,0,0:0:0:0:
256,192,332360,1,0,0:0:0:0:
256,192,332428,1,8,0:0:0:0:
256,192,332565,1,0,0:0:0:0:
256,192,332701,1,12,0:0:0:0:
256,192,332837,1,8,0:0:0:0:
256,192,332905,1,0,0:0:0:0:
256,192,332974,1,8,0:0:0:0:
256,192,333110,1,0,0:0:0:0:
256,192,333246,1,0,0:0:0:0:
256,192,333315,1,0,0:0:0:0:
256,192,333383,1,8,0:0:0:0:
256,192,333519,1,0,0:0:0:0:
256,192,333587,1,0,0:0:0:0:
256,192,333655,1,8,0:0:0:0:
256,192,333792,1,4,0:0:0:0:
256,192,333928,1,8,0:0:0:0:
256,192,333996,1,0,0:0:0:0:
256,192,334065,1,8,0:0:0:0:
256,192,334133,1,8,0:0:0:0:
256,192,334201,1,0,0:0:0:0:
256,192,334337,1,12,0:0:0:0:
256,192,334474,1,0,0:0:0:0:
256,192,334542,1,0,0:0:0:0:
256,192,334610,1,8,0:0:0:0:
256,192,334678,1,0,0:0:0:0:
256,192,334746,1,8,0:0:0:0:
256,192,334883,1,4,0:0:0:0:
256,192,335019,1,4,0:0:0:0:
256,192,336792,1,4,0:0:0:0:
256,192,337065,1,4,0:0:0:0:
256,192,337201,1,4,0:0:0:0:
256,192,339246,1,0,0:0:0:0:
256,192,339383,1,0,0:0:0:0:
256,192,339519,1,8,0:0:0:0:
256,192,339655,1,0,0:0:0:0:
256,192,339792,1,8,0:0:0:0:
256,192,340065,1,0,0:0:0:0:
256,192,340201,1,0,0:0:0:0:
256,192,340337,1,8,0:0:0:0:
256,192,340474,1,8,0:0:0:0:
256,192,340610,1,8,0:0:0:0:
256,192,340746,1,0,0:0:0:0:
256,192,340883,1,8,0:0:0:0:
256,192,341155,1,0,0:0:0:0:
256,192,341292,1,0,0:0:0:0:
256,192,341428,1,4,0:0:0:0:
256,192,342246,1,8,0:0:0:0:
256,192,342383,1,8,0:0:0:0:
256,192,342519,1,4,0:0:0:0:
256,192,342655,1,4,0:0:0:0:
256,192,343065,1,4,0:0:0:0:
256,192,343201,1,4,0:0:0:0:
256,192,343610,1,8,0:0:0:0:
256,192,343678,1,8,0:0:0:0:
256,192,343746,1,0,0:0:0:0:
256,192,343815,1,0,0:0:0:0:
256,192,343883,1,8,0:0:0:0:
256,192,343951,1,8,0:0:0:0:
256,192,344019,1,0,0:0:0:0:
256,192,344087,1,0,0:0:0:0:
256,192,344155,1,8,0:0:0:0:
256,192,344224,1,8,0:0:0:0:
256,192,344292,1,8,0:0:0:0:
256,192,344360,1,8,0:0:0:0:
256,192,344428,1,0,0:0:0:0:
256,192,344496,1,0,0:0:0:0:
256,192,344565,1,8,0:0:0:0:
256,192,344633,1,8,0:0:0:0:
256,192,344701,1,8,0:0:0:0:
256,192,344769,1,8,0:0:0:0:
256,192,344837,1,0,0:0:0:0:
256,192,344905,1,0,0:0:0:0:
256,192,344974,1,8,0:0:0:0:
256,192,345042,1,8,0:0:0:0:
256,192,345110,1,0,0:0:0:0:
256,192,345178,1,0,0:0:0:0:
256,192,345246,1,8,0:0:0:0:
256,192,345315,1,8,0:0:0:0:
256,192,345383,1,8,0:0:0:0:
256,192,345451,1,0,0:0:0:0:
256,192,345519,1,8,0:0:0:0:
256,192,345587,1,8,0:0:0:0:
256,192,345655,1,0,0:0:0:0:
256,192,345724,1,0,0:0:0:0:
256,192,345792,1,8,0:0:0:0:
256,192,345860,1,8,0:0:0:0:
256,192,345928,1,8,0:0:0:0:
256,192,345996,1,8,0:0:0:0:
256,192,346065,1,0,0:0:0:0:
256,192,346133,1,0,0:0:0:0:
256,192,346201,1,8,0:0:0:0:
256,192,346269,1,0,0:0:0:0:
256,192,346337,1,8,0:0:0:0:
256,192,346405,1,8,0:0:0:0:
256,192,346474,1,0,0:0:0:0:
256,192,346542,1,0,0:0:0:0:
256,192,346610,1,8,0:0:0:0:
256,192,346678,1,8,0:0:0:0:
256,192,346746,1,8,0:0:0:0:
256,192,346815,1,0,0:0:0:0:
256,192,346883,1,8,0:0:0:0:
256,192,346951,1,8,0:0:0:0:
256,192,347019,1,0,0:0:0:0:
256,192,347087,1,0,0:0:0:0:
256,192,347155,1,8,0:0:0:0:
256,192,347224,1,8,0:0:0:0:
256,192,347292,1,8,0:0:0:0:
256,192,347360,1,0,0:0:0:0:
256,192,347428,1,8,0:0:0:0:
256,192,347496,1,8,0:0:0:0:
256,192,347565,1,8,0:0:0:0:
256,192,347633,1,8,0:0:0:0:
256,192,347701,1,0,0:0:0:0:
256,192,347769,1,0,0:0:0:0:
256,192,347837,1,8,0:0:0:0:
256,192,347905,1,8,0:0:0:0:
256,192,347974,1,0,0:0:0:0:
256,192,348110,1,8,0:0:0:0:
256,192,348246,1,0,0:0:0:0:
256,192,348315,1,0,0:0:0:0:
256,192,348383,1,0,0:0:0:0:
256,192,348451,1,0,0:0:0:0:
256,192,348519,1,8,0:0:0:0:
256,192,348792,1,0,0:0:0:0:
256,192,348928,1,8,0:0:0:0:
256,192,348996,1,8,0:0:0:0:
256,192,349065,1,0,0:0:0:0:
256,192,349133,1,0,0:0:0:0:
256,192,349201,1,0,0:0:0:0:
256,192,349269,1,0,0:0:0:0:
256,192,349337,1,8,0:0:0:0:
256,192,349405,1,8,0:0:0:0:
256,192,349474,1,0,0:0:0:0:
256,192,349542,1,0,0:0:0:0:
256,192,349610,1,8,0:0:0:0:
256,192,349746,1,0,0:0:0:0:
256,192,349815,1,0,0:0:0:0:
256,192,349883,1,8,0:0:0:0:
256,192,350019,1,0,0:0:0:0:
256,192,350155,1,0,0:0:0:0:
256,192,350428,1,8,0:0:0:0:
256,192,350633,1,0,0:0:0:0:
256,192,350701,1,0,0:0:0:0:
256,192,350837,1,0,0:0:0:0:
256,192,350974,1,8,0:0:0:0:
256,192,351110,1,0,0:0:0:0:
256,192,351246,1,8,0:0:0:0:
256,192,351383,1,0,0:0:0:0:
256,192,351451,1,0,0:0:0:0:
256,192,351519,1,8,0:0:0:0:
256,192,351655,1,0,0:0:0:0:
256,192,351792,1,8,0:0:0:0:
256,192,351928,1,0,0:0:0:0:
256,192,351996,1,0,0:0:0:0:
256,192,352065,1,8,0:0:0:0:
256,192,352337,1,12,0:0:0:0:
256,192,352474,1,0,0:0:0:0:
256,192,352542,1,0,0:0:0:0:
256,192,352610,1,8,0:0:0:0:
256,192,352746,1,0,0:0:0:0:
256,192,352883,1,8,0:0:0:0:
256,192,353019,1,0,0:0:0:0:
256,192,353087,1,8,0:0:0:0:
256,192,353155,1,0,0:0:0:0:
256,192,353292,1,0,0:0:0:0:
256,192,353428,1,8,0:0:0:0:
256,192,353565,1,0,0:0:0:0:
256,192,353633,1,0,0:0:0:0:
256,192,353701,1,8,0:0:0:0:
256,192,353837,1,0,0:0:0:0:
256,192,353905,1,8,0:0:0:0:
256,192,353974,1,8,0:0:0:0:
256,192,354110,1,0,0:0:0:0:
256,192,354246,1,8,0:0:0:0:
256,192,354383,1,0,0:0:0:0:
256,192,354451,1,0,0:0:0:0:
256,192,354519,1,8,0:0:0:0:
256,192,354655,1,0,0:0:0:0:
256,192,354792,1,8,0:0:0:0:
256,192,354928,1,0,0:0:0:0:
256,192,354996,1,8,0:0:0:0:
256,192,355065,1,0,0:0:0:0:
256,192,355201,1,8,0:0:0:0:
256,192,355337,1,0,0:0:0:0:
256,192,355474,1,8,0:0:0:0:
256,192,355542,1,8,0:0:0:0:
256,192,355610,1,0,0:0:0:0:
256,192,355746,1,0,0:0:0:0:
256,192,355883,1,8,0:0:0:0:
256,192,356019,1,0,0:0:0:0:
256,192,356087,1,0,0:0:0:0:
256,192,356155,1,8,0:0:0:0:
256,192,356292,1,0,0:0:0:0:
256,192,356428,1,12,0:0:0:0:
256,192,356701,1,4,0:0:0:0:
256,192,356974,1,8,0:0:0:0:
256,192,357110,1,0,0:0:0:0:
256,192,357383,1,0,0:0:0:0:
256,192,357519,1,8,0:0:0:0:
256,192,357655,1,0,0:0:0:0:
256,192,357928,1,0,0:0:0:0:
256,192,358065,1,8,0:0:0:0:
256,192,358337,1,0,0:0:0:0:
256,192,358474,1,0,0:0:0:0:
256,192,358610,1,8,0:0:0:0:
256,192,358883,1,4,0:0:0:0:
256,192,359155,1,8,0:0:0:0:
256,192,359292,1,4,0:0:0:0:
256,192,359565,1,0,0:0:0:0:
256,192,359701,1,8,0:0:0:0:
256,192,359837,1,12,0:0:0:0:
256,192,360110,1,0,0:0:0:0:
256,192,360246,1,8,0:0:0:0:
256,192,360315,1,8,0:0:0:0:
256,192,360383,1,0,0:0:0:0:
256,192,360451,1,0,0:0:0:0:
256,192,360519,1,8,0:0:0:0:
256,192,360655,1,8,0:0:0:0:
256,192,360792,1,0,0:0:0:0:
256,192,360928,1,0,0:0:0:0:
256,192,361065,1,12,0:0:0:0:
256,192,361201,1,0,0:0:0:0:
256,192,361269,1,0,0:0:0:0:
256,192,361337,1,8,0:0:0:0:
256,192,361474,1,0,0:0:0:0:
256,192,361610,1,8,0:0:0:0:
256,192,361746,1,0,0:0:0:0:
256,192,361815,1,8,0:0:0:0:
256,192,361883,1,0,0:0:0:0:
256,192,362019,1,0,0:0:0:0:
256,192,362155,1,8,0:0:0:0:
256,192,362292,1,0,0:0:0:0:
256,192,362360,1,0,0:0:0:0:
256,192,362428,1,8,0:0:0:0:
256,192,362496,1,8,0:0:0:0:
256,192,362565,1,0,0:0:0:0:
256,192,362701,1,8,0:0:0:0:
256,192,362837,1,0,0:0:0:0:
256,192,362905,1,0,0:0:0:0:
256,192,362974,1,8,0:0:0:0:
256,192,363110,1,8,0:0:0:0:
256,192,363246,1,0,0:0:0:0:
256,192,363383,1,8,0:0:0:0:
256,192,363451,1,8,0:0:0:0:
256,192,363519,1,0,0:0:0:0:
256,192,363655,1,0,0:0:0:0:
256,192,363792,1,8,0:0:0:0:
256,192,363928,1,0,0:0:0:0:
256,192,363996,1,0,0:0:0:0:
256,192,364065,1,8,0:0:0:0:
256,192,364133,1,0,0:0:0:0:
256,192,364201,1,8,0:0:0:0:
256,192,364269,1,8,0:0:0:0:
256,192,364337,1,0,0:0:0:0:
256,192,364474,1,8,0:0:0:0:
256,192,364542,1,0,0:0:0:0:
256,192,364610,1,8,0:0:0:0:
256,192,364746,1,0,0:0:0:0:
256,192,364815,1,0,0:0:0:0:
256,192,364883,1,8,0:0:0:0:
256,192,365019,1,0,0:0:0:0:
256,192,365155,1,8,0:0:0:0:
256,192,365292,1,8,0:0:0:0:
256,192,365428,1,4,0:0:0:0:
256,192,365701,1,8,0:0:0:0:
256,192,365837,1,0,0:0:0:0:
256,192,366110,1,0,0:0:0:0:
256,192,366246,1,8,0:0:0:0:
256,192,366383,1,0,0:0:0:0:
256,192,366655,1,0,0:0:0:0:
256,192,366792,1,8,0:0:0:0:
256,192,367065,1,8,0:0:0:0:
256,192,367201,1,0,0:0:0:0:
256,192,367337,1,8,0:0:0:0:
256,192,367610,1,4,0:0:0:0:
256,192,367883,1,8,0:0:0:0:
256,192,368019,1,4,0:0:0:0:
256,192,368292,1,0,0:0:0:0:
256,192,368428,1,8,0:0:0:0:
256,192,368565,1,12,0:0:0:0:
256,192,368837,1,0,0:0:0:0:
256,192,368974,1,8,0:0:0:0:
256,192,369110,1,8,0:0:0:0:
256,192,369178,1,8,0:0:0:0:
256,192,369246,1,0,0:0:0:0:
256,192,369383,1,8,0:0:0:0:
256,192,369451,1,0,0:0:0:0:
256,192,369519,1,8,0:0:0:0:
256,192,369655,1,8,0:0:0:0:
256,192,369792,1,0,0:0:0:0:
256,192,370201,1,8,0:0:0:0:
256,192,370610,1,8,0:0:0:0:
256,192,370883,1,0,0:0:0:0:
256,192,371701,1,0,0:0:0:0:
256,192,371837,1,8,0:0:0:0:
256,192,371974,1,0,0:0:0:0:
256,192,372383,1,0,0:0:0:0:
256,192,372792,1,0,0:0:0:0:
256,192,373065,1,8,0:0:0:0:
256,192,373883,1,0,0:0:0:0:
256,192,374155,1,8,0:0:0:0:
256,192,374565,1,8,0:0:0:0:
256,192,374974,1,8,0:0:0:0:
256,192,375246,1,0,0:0:0:0:
256,192,375655,1,8,0:0:0:0:
256,192,376065,1,8,0:0:0:0:
256,192,376337,1,0,0:0:0:0:
256,192,377155,1,0,0:0:0:0:
256,192,377428,1,8,0:0:0:0:
256,192,378246,1,8,0:0:0:0:
256,192,378519,1,0,0:0:0:0:
256,192,378928,1,0,0:0:0:0:
256,192,379337,1,0,0:0:0:0:
256,192,379610,1,8,0:0:0:0:
256,192,380019,1,8,0:0:0:0:
256,192,380428,1,8,0:0:0:0:
256,192,380701,1,0,0:0:0:0:
256,192,381110,1,8,0:0:0:0:
256,192,381519,1,8,0:0:0:0:
256,192,381792,1,0,0:0:0:0:
256,192,382610,1,0,0:0:0:0:
256,192,382883,1,8,0:0:0:0:
256,192,383292,1,8,0:0:0:0:
256,192,383701,1,8,0:0:0:0:
256,192,383974,1,0,0:0:0:0:
256,192,384383,1,0,0:0:0:0:
256,192,384792,1,0,0:0:0:0:
256,192,385065,1,8,0:0:0:0:
256,192,388337,1,8,0:0:0:0:
256,192,388883,1,8,0:0:0:0:
256,192,389428,1,4,0:0:0:0:
256,192,389610,1,8,0:0:0:0:
256,192,389701,1,8,0:0:0:0:
256,192,389792,1,8,0:0:0:0:
256,192,389974,1,0,0:0:0:0:
256,192,390155,1,8,0:0:0:0:
256,192,390246,1,0,0:0:0:0:
256,192,390337,1,8,0:0:0:0:
256,192,390428,1,8,0:0:0:0:
256,192,390519,1,0,0:0:0:0:
256,192,390701,1,0,0:0:0:0:
256,192,390792,1,0,0:0:0:0:
256,192,390883,1,8,0:0:0:0:
256,192,390974,1,0,0:0:0:0:
256,192,391065,1,8,0:0:0:0:
256,192,391155,1,8,0:0:0:0:
256,192,391246,1,0,0:0:0:0:
256,192,391337,1,0,0:0:0:0:
256,192,391428,1,8,0:0:0:0:
256,192,391519,1,0,0:0:0:0:
256,192,391610,1,8,0:0:0:0:
256,192,391792,1,0,0:0:0:0:
256,192,391883,1,0,0:0:0:0:
256,192,391974,1,0,0:0:0:0:
256,192,392155,1,8,0:0:0:0:
256,192,392337,1,0,0:0:0:0:
256,192,392428,1,8,0:0:0:0:
256,192,392519,1,0,0:0:0:0:
256,192,392610,1,0,0:0:0:0:
256,192,392701,1,8,0:0:0:0:
256,192,392883,1,0,0:0:0:0:
256,192,392974,1,8,0:0:0:0:
256,192,393065,1,0,0:0:0:0:
256,192,393246,1,8,0:0:0:0:
256,192,393337,1,8,0:0:0:0:
256,192,393428,1,0,0:0:0:0:
256,192,393519,1,8,0:0:0:0:
256,192,393610,1,0,0:0:0:0:
256,192,393701,1,0,0:0:0:0:
256,192,393792,1,8,0:0:0:0:
256,192,393974,1,0,0:0:0:0:
256,192,394065,1,8,0:0:0:0:
256,192,394155,1,0,0:0:0:0:
256,192,394337,1,8,0:0:0:0:
256,192,394428,1,8,0:0:0:0:
256,192,394519,1,8,0:0:0:0:
256,192,394610,1,8,0:0:0:0:
256,192,394701,1,0,0:0:0:0:
256,192,394792,1,0,0:0:0:0:
256,192,394883,1,8,0:0:0:0:
256,192,395065,1,8,0:0:0:0:
256,192,395155,1,8,0:0:0:0:
256,192,395246,1,0,0:0:0:0:
256,192,395428,1,0,0:0:0:0:
256,192,395519,1,8,0:0:0:0:
256,192,395610,1,0,0:0:0:0:
256,192,395701,1,0,0:0:0:0:
256,192,395792,1,8,0:0:0:0:
256,192,395883,1,0,0:0:0:0:
256,192,395974,1,8,0:0:0:0:
256,192,396155,1,0,0:0:0:0:
256,192,396246,1,0,0:0:0:0:
256,192,396337,1,0,0:0:0:0:
256,192,396519,1,8,0:0:0:0:
256,192,396701,1,8,0:0:0:0:
256,192,396792,5,0,0:0:0:0:
256,192,396883,1,8,0:0:0:0:
256,192,396974,1,8,0:0:0:0:
256,192,397065,1,0,0:0:0:0:
256,192,397246,1,0,0:0:0:0:
256,192,397337,1,0,0:0:0:0:
256,192,397428,1,0,0:0:0:0:
256,192,397519,1,0,0:0:0:0:
256,192,397610,1,8,0:0:0:0:
256,192,397701,1,8,0:0:0:0:
256,192,397792,1,0,0:0:0:0:
256,192,397883,1,0,0:0:0:0:
256,192,397974,1,8,0:0:0:0:
256,192,398065,1,0,0:0:0:0:
256,192,398155,1,8,0:0:0:0:
256,192,398337,1,0,0:0:0:0:
256,192,398428,1,0,0:0:0:0:
256,192,398519,1,8,0:0:0:0:
256,192,398701,1,8,0:0:0:0:
256,192,398792,1,0,0:0:0:0:
256,192,398883,1,8,0:0:0:0:
256,192,398974,1,8,0:0:0:0:
256,192,399065,1,8,0:0:0:0:
256,192,399155,1,0,0:0:0:0:
256,192,399246,1,8,0:0:0:0:
256,192,399428,1,0,0:0:0:0:
256,192,399519,1,0,0:0:0:0:
256,192,399610,1,0,0:0:0:0:
256,192,399792,1,8,0:0:0:0:
256,192,399974,1,0,0:0:0:0:
256,192,400065,1,0,0:0:0:0:
256,192,400155,1,8,0:0:0:0:
256,192,400246,1,0,0:0:0:0:
256,192,400337,1,8,0:0:0:0:
256,192,400428,1,8,0:0:0:0:
256,192,400519,1,0,0:0:0:0:
256,192,400610,1,0,0:0:0:0:
256,192,400701,1,8,0:0:0:0:
256,192,400792,1,0,0:0:0:0:
256,192,400883,1,8,0:0:0:0:
256,192,401065,1,8,0:0:0:0:
256,192,401155,1,0,0:0:0:0:
256,192,401246,1,8,0:0:0:0:
256,192,401337,1,8,0:0:0:0:
256,192,401428,1,8,0:0:0:0:
256,192,401519,1,0,0:0:0:0:
256,192,401610,1,0,0:0:0:0:
256,192,401701,1,8,0:0:0:0:
256,192,401792,1,0,0:0:0:0:
256,192,401883,1,0,0:0:0:0:
256,192,401974,1,8,0:0:0:0:
256,192,402065,1,8,0:0:0:0:
256,192,402155,1,8,0:0:0:0:
256,192,402246,1,0,0:0:0:0:
256,192,402337,1,0,0:0:0:0:
256,192,402428,1,0,0:0:0:0:
256,192,402519,1,8,0:0:0:0:
256,192,402701,1,0,0:0:0:0:
256,192,402792,1,0,0:0:0:0:
256,192,402883,1,0,0:0:0:0:
256,192,403065,1,8,0:0:0:0:
256,192,403155,1,8,0:0:0:0:
256,192,403246,1,0,0:0:0:0:
256,192,403337,1,0,0:0:0:0:
256,192,403428,1,8,0:0:0:0:
256,192,403519,1,0,0:0:0:0:
256,192,403610,1,8,0:0:0:0:
256,192,403701,1,8,0:0:0:0:
256,192,403792,1,0,0:0:0:0:
256,192,403883,1,0,0:0:0:0:
256,192,403974,1,0,0:0:0:0:
256,192,404065,1,0,0:0:0:0:
256,192,404155,1,8,0:0:0:0:
256,192,404246,1,8,0:0:0:0:
256,192,404337,1,0,0:0:0:0:
256,192,404428,1,8,0:0:0:0:
256,192,404519,1,0,0:0:0:0:
256,192,404610,1,0,0:0:0:0:
256,192,404701,1,8,0:0:0:0:
256,192,404883,1,8,0:0:0:0:
256,192,404974,1,0,0:0:0:0:
256,192,405065,1,8,0:0:0:0:
256,192,405155,1,0,0:0:0:0:
256,192,405246,1,8,0:0:0:0:
256,192,405337,1,8,0:0:0:0:
256,192,405428,1,8,0:0:0:0:
256,192,405519,1,0,0:0:0:0:
256,192,405610,1,8,0:0:0:0:
256,192,405792,5,8,0:0:0:0:
256,192,405883,5,8,0:0:0:0:
256,192,405974,1,0,0:0:0:0:
256,192,406065,1,0,0:0:0:0:
256,192,406155,1,0,0:0:0:0:
256,192,406246,1,0,0:0:0:0:
256,192,406337,1,8,0:0:0:0:
256,192,406428,1,8,0:0:0:0:
256,192,406519,1,0,0:0:0:0:
256,192,406610,1,0,0:0:0:0:
256,192,406701,1,0,0:0:0:0:
256,192,406883,5,8,0:0:0:0:
256,192,406974,1,8,0:0:0:0:
256,192,407065,1,0,0:0:0:0:
256,192,407155,1,0,0:0:0:0:
256,192,407246,1,8,0:0:0:0:
256,192,407337,1,0,0:0:0:0:
256,192,407428,1,8,0:0:0:0:
256,192,407519,1,8,0:0:0:0:
256,192,407610,1,0,0:0:0:0:
256,192,407701,1,0,0:0:0:0:
256,192,407792,1,8,0:0:0:0:
256,192,407883,1,0,0:0:0:0:
256,192,407974,1,8,0:0:0:0:
256,192,408065,1,8,0:0:0:0:
256,192,408155,1,0,0:0:0:0:
256,192,408246,1,0,0:0:0:0:
256,192,408337,1,0,0:0:0:0:
256,192,408428,1,0,0:0:0:0:
256,192,408519,1,8,0:0:0:0:
256,192,408610,1,8,0:0:0:0:
256,192,408701,1,0,0:0:0:0:
256,192,408792,1,8,0:0:0:0:
256,192,408883,1,0,0:0:0:0:
256,192,408974,1,0,0:0:0:0:
256,192,409065,1,8,0:0:0:0:
256,192,409155,1,8,0:0:0:0:
256,192,409246,1,8,0:0:0:0:
256,192,409337,1,0,0:0:0:0:
256,192,409428,1,8,0:0:0:0:
256,192,409519,1,0,0:0:0:0:
256,192,409610,1,8,0:0:0:0:
256,192,409701,1,8,0:0:0:0:
256,192,409792,1,8,0:0:0:0:
256,192,409883,1,0,0:0:0:0:
256,192,409974,1,8,0:0:0:0:
256,192,410065,1,0,0:0:0:0:
256,192,410155,1,8,0:0:0:0:
256,192,410246,1,8,0:0:0:0:
256,192,410337,1,0,0:0:0:0:
256,192,410428,1,0,0:0:0:0:
256,192,410519,1,0,0:0:0:0:
256,192,410610,1,0,0:0:0:0:
256,192,410701,1,8,0:0:0:0:
256,192,410792,1,8,0:0:0:0:
256,192,410883,1,8,0:0:0:0:
256,192,410974,1,8,0:0:0:0:
256,192,411065,1,0,0:0:0:0:
256,192,411155,1,0,0:0:0:0:
256,192,411246,1,8,0:0:0:0:
256,192,411337,1,8,0:0:0:0:
256,192,411428,1,0,0:0:0:0:
256,192,411519,1,0,0:0:0:0:
256,192,411610,1,8,0:0:0:0:
256,192,411701,1,0,0:0:0:0:
256,192,411792,1,8,0:0:0:0:
256,192,411883,1,8,0:0:0:0:
256,192,411974,1,8,0:0:0:0:
256,192,412065,1,0,0:0:0:0:
256,192,412155,1,8,0:0:0:0:
256,192,412246,1,0,0:0:0:0:
256,192,412337,1,8,0:0:0:0:
256,192,412428,1,8,0:0:0:0:
256,192,412519,1,0,0:0:0:0:
256,192,412610,1,0,0:0:0:0:
256,192,412701,1,0,0:0:0:0:
256,192,412792,1,0,0:0:0:0:
256,192,412883,1,8,0:0:0:0:
256,192,412974,1,8,0:0:0:0:
256,192,413065,1,0,0:0:0:0:
256,192,413155,1,0,0:0:0:0:
256,192,413246,1,0,0:0:0:0:
256,192,413337,1,0,0:0:0:0:
256,192,413428,1,8,0:0:0:0:
256,192,413519,1,0,0:0:0:0:
256,192,413610,1,8,0:0:0:0:
256,192,413701,1,8,0:0:0:0:
256,192,413792,1,0,0:0:0:0:
256,192,413883,1,0,0:0:0:0:
256,192,413974,1,8,0:0:0:0:
256,192,414065,1,0,0:0:0:0:
256,192,414155,1,8,0:0:0:0:
256,192,414246,1,0,0:0:0:0:
256,192,414337,1,8,0:0:0:0:
256,192,414428,1,8,0:0:0:0:
256,192,414519,1,8,0:0:0:0:
256,192,414610,1,0,0:0:0:0:
256,192,414701,1,0,0:0:0:0:
256,192,414792,1,0,0:0:0:0:
256,192,414883,1,8,0:0:0:0:
256,192,414974,1,0,0:0:0:0:
256,192,415065,1,8,0:0:0:0:
256,192,415155,1,8,0:0:0:0:
256,192,415246,1,0,0:0:0:0:
256,192,415337,1,0,0:0:0:0:
256,192,415428,1,8,0:0:0:0:
256,192,415519,1,0,0:0:0:0:
256,192,415610,1,8,0:0:0:0:
256,192,415792,1,0,0:0:0:0:
256,192,415883,1,0,0:0:0:0:
256,192,415974,1,8,0:0:0:0:
256,192,416155,1,8,0:0:0:0:
256,192,416246,1,0,0:0:0:0:
256,192,416337,1,8,0:0:0:0:
256,192,416428,1,8,0:0:0:0:
256,192,416519,1,8,0:0:0:0:
256,192,416610,1,0,0:0:0:0:
256,192,416701,1,8,0:0:0:0:
256,192,416883,1,0,0:0:0:0:
256,192,416974,1,0,0:0:0:0:
256,192,417065,1,0,0:0:0:0:
256,192,417246,1,8,0:0:0:0:
256,192,417428,1,0,0:0:0:0:
256,192,417519,1,0,0:0:0:0:
256,192,417610,1,8,0:0:0:0:
256,192,417701,1,0,0:0:0:0:
256,192,417792,1,8,0:0:0:0:
256,192,417883,1,8,0:0:0:0:
256,192,417974,1,0,0:0:0:0:
256,192,418065,1,0,0:0:0:0:
256,192,418155,1,8,0:0:0:0:
256,192,418246,1,0,0:0:0:0:
256,192,418337,1,8,0:0:0:0:
256,192,418519,1,8,0:0:0:0:
256,192,418610,1,0,0:0:0:0:
256,192,418701,1,8,0:0:0:0:
256,192,418792,1,8,0:0:0:0:
256,192,418883,1,8,0:0:0:0:
256,192,418974,1,0,0:0:0:0:
256,192,419065,1,0,0:0:0:0:
256,192,419155,1,8,0:0:0:0:
256,192,419246,1,0,0:0:0:0:
256,192,419337,1,0,0:0:0:0:
256,192,419428,1,8,0:0:0:0:
256,192,419519,1,8,0:0:0:0:
256,192,419610,1,0,0:0:0:0:
256,192,419701,1,0,0:0:0:0:
256,192,419792,1,8,0:0:0:0:
256,192,419883,1,0,0:0:0:0:
256,192,419974,1,8,0:0:0:0:
256,192,420155,1,0,0:0:0:0:
256,192,420246,1,0,0:0:0:0:
256,192,420337,1,0,0:0:0:0:
256,192,420519,1,8,0:0:0:0:
256,192,420610,1,8,0:0:0:0:
256,192,420701,1,0,0:0:0:0:
256,192,420792,1,0,0:0:0:0:
256,192,420883,1,8,0:0:0:0:
256,192,420974,1,0,0:0:0:0:
256,192,421065,1,8,0:0:0:0:
256,192,421155,1,8,0:0:0:0:
256,192,421246,1,0,0:0:0:0:
256,192,421337,1,0,0:0:0:0:
256,192,421428,1,0,0:0:0:0:
256,192,421519,1,0,0:0:0:0:
256,192,421610,1,8,0:0:0:0:
256,192,421701,1,8,0:0:0:0:
256,192,421792,1,0,0:0:0:0:
256,192,421883,1,8,0:0:0:0:
256,192,421974,1,0,0:0:0:0:
256,192,422065,1,0,0:0:0:0:
256,192,422155,1,8,0:0:0:0:
256,192,422337,1,8,0:0:0:0:
256,192,422428,1,0,0:0:0:0:
256,192,422519,1,8,0:0:0:0:
256,192,422610,1,0,0:0:0:0:
256,192,422701,1,8,0:0:0:0:
256,192,422792,1,8,0:0:0:0:
256,192,422883,1,8,0:0:0:0:
256,192,422974,1,0,0:0:0:0:
256,192,423065,1,8,0:0:0:0:
256,192,423246,1,8,0:0:0:0:
256,192,423337,5,8,0:0:0:0:
256,192,423428,1,0,0:0:0:0:
256,192,423519,1,0,0:0:0:0:
256,192,423610,1,0,0:0:0:0:
256,192,423701,1,0,0:0:0:0:
256,192,423792,1,8,0:0:0:0:
256,192,423883,1,8,0:0:0:0:
256,192,423974,1,0,0:0:0:0:
256,192,424065,1,0,0:0:0:0:
256,192,424155,1,0,0:0:0:0:
256,192,424337,1,12,0:0:0:0:
256,192,424610,1,0,0:0:0:0:
256,192,424746,1,8,0:0:0:0:
256,192,424883,1,8,0:0:0:0:
256,192,425019,1,8,0:0:0:0:
256,192,425155,1,0,0:0:0:0:
256,192,425292,1,0,0:0:0:0:
256,192,425428,1,8,0:0:0:0:
256,192,425974,1,0,0:0:0:0:
256,192,426110,1,8,0:0:0:0:
256,192,426246,1,8,0:0:0:0:
256,192,426383,1,8,0:0:0:0:
256,192,426519,1,0,0:0:0:0:
256,192,427065,1,0,0:0:0:0:
256,192,427201,1,8,0:0:0:0:
256,192,427337,1,8,0:0:0:0:
256,192,427474,1,8,0:0:0:0:
256,192,427610,1,0,0:0:0:0:
256,192,427701,1,8,0:0:0:0:
256,192,427792,1,0,0:0:0:0:
256,192,427974,1,0,0:0:0:0:
256,192,428155,1,8,0:0:0:0:
256,192,428337,1,0,0:0:0:0:
256,192,428519,1,0,0:0:0:0:
256,192,428701,1,4,0:0:0:0:
256,192,429519,1,0,0:0:0:0:
256,192,429792,1,8,0:0:0:0:
256,192,430883,1,0,0:0:0:0:
256,192,431292,1,0,0:0:0:0:
256,192,431701,1,0,0:0:0:0:
256,192,431974,1,8,0:0:0:0:
256,192,433065,1,0,0:0:0:0:
256,192,433883,1,0,0:0:0:0:
256,192,434155,1,8,0:0:0:0:
256,192,435246,1,0,0:0:0:0:
256,192,435655,1,0,0:0:0:0:
256,192,436065,1,0,0:0:0:0:
256,192,436337,1,8,0:0:0:0:
256,192,436610,1,0,0:0:0:0:
256,192,437428,1,0,0:0:0:0:
256,192,438246,1,0,0:0:0:0:
256,192,438519,1,8,0:0:0:0:
256,192,439610,1,0,0:0:0:0:
256,192,440019,1,0,0:0:0:0:
256,192,440428,1,0,0:0:0:0:
256,192,440701,1,8,0:0:0:0:
256,192,441792,1,0,0:0:0:0:
256,192,442610,1,0,0:0:0:0:
256,192,442883,1,8,0:0:0:0:
256,192,443974,1,0,0:0:0:0:
256,192,444383,1,0,0:0:0:0:
256,192,444792,1,0,0:0:0:0:
256,192,445065,1,8,0:0:0:0:
256,192,445337,1,0,0:0:0:0:
256,192,445610,1,0,0:0:0:0:
256,192,445883,1,8,0:0:0:0:
256,192,446155,1,4,0:0:0:0:
256,192,446974,1,0,0:0:0:0:
256,192,447246,1,8,0:0:0:0:
256,192,448337,1,0,0:0:0:0:
256,192,449155,1,0,0:0:0:0:
256,192,449428,5,8,0:0:0:0:
256,192,449701,1,0,0:0:0:0:
256,192,450519,1,0,0:0:0:0:
256,192,451337,1,0,0:0:0:0:
256,192,451610,1,8,0:0:0:0:
256,192,452428,1,0,0:0:0:0:
256,192,452701,1,0,0:0:0:0:
256,192,453110,1,0,0:0:0:0:
256,192,453519,1,0,0:0:0:0:
256,192,453792,1,8,0:0:0:0:
256,192,454065,1,0,0:0:0:0:
256,192,454610,1,0,0:0:0:0:
256,192,454883,1,4,0:0:0:0:
256,192,455701,1,0,0:0:0:0:
256,192,455974,1,8,0:0:0:0:
256,192,457065,1,0,0:0:0:0:
256,192,457965,1,0,0:0:0:0:
256,192,458265,1,8,0:0:0:0:
256,192,463539,5,0,0:0:0:0:
256,192,463607,1,0,0:0:0:0:
256,192,463675,1,0,0:0:0:0:
256,192,463743,1,0,0:0:0:0:
256,192,463811,1,8,0:0:0:0:
256,192,463879,1,8,0:0:0:0:
256,192,463948,1,0,0:0:0:0:
256,192,464016,1,0,0:0:0:0:
256,192,464084,1,8,0:0:0:0:
256,192,464152,1,8,0:0:0:0:
256,192,464220,1,8,0:0:0:0:
256,192,464289,1,8,0:0:0:0:
256,192,464357,1,0,0:0:0:0:
256,192,464425,1,0,0:0:0:0:
256,192,464493,1,8,0:0:0:0:
256,192,464561,1,0,0:0:0:0:
256,192,464629,1,8,0:0:0:0:
256,192,464698,1,8,0:0:0:0:
256,192,464766,1,0,0:0:0:0:
256,192,464834,1,0,0:0:0:0:
256,192,464902,1,8,0:0:0:0:
256,192,464970,1,8,0:0:0:0:
256,192,465039,1,8,0:0:0:0:
256,192,465107,1,0,0:0:0:0:
256,192,465175,1,8,0:0:0:0:
256,192,465243,1,8,0:0:0:0:
256,192,465311,1,0,0:0:0:0:
256,192,465379,1,0,0:0:0:0:
256,192,465448,1,8,0:0:0:0:
256,192,465516,1,0,0:0:0:0:
256,192,465584,1,8,0:0:0:0:
256,192,465652,1,8,0:0:0:0:
256,192,465720,1,0,0:0:0:0:
256,192,465789,1,0,0:0:0:0:
256,192,465857,1,0,0:0:0:0:
256,192,465925,1,0,0:0:0:0:
256,192,465993,1,8,0:0:0:0:
256,192,466061,1,8,0:0:0:0:
256,192,466129,1,0,0:0:0:0:
256,192,466198,1,0,0:0:0:0:
256,192,466266,1,8,0:0:0:0:
256,192,466334,1,8,0:0:0:0:
256,192,466402,1,8,0:0:0:0:
256,192,466470,1,8,0:0:0:0:
256,192,466539,1,0,0:0:0:0:
256,192,466607,1,0,0:0:0:0:
256,192,466675,1,8,0:0:0:0:
256,192,466743,1,0,0:0:0:0:
256,192,466811,1,8,0:0:0:0:
256,192,466879,1,8,0:0:0:0:
256,192,466948,1,0,0:0:0:0:
256,192,467016,1,0,0:0:0:0:
256,192,467084,1,8,0:0:0:0:
256,192,467152,1,8,0:0:0:0:
256,192,467220,1,8,0:0:0:0:
256,192,467289,1,0,0:0:0:0:
256,192,467357,1,8,0:0:0:0:
256,192,467425,1,8,0:0:0:0:
256,192,467493,1,0,0:0:0:0:
256,192,467561,1,0,0:0:0:0:
256,192,467629,1,8,0:0:0:0:
256,192,467698,1,0,0:0:0:0:
256,192,467766,1,8,0:0:0:0:
256,192,467834,1,8,0:0:0:0:
256,192,467902,1,0,0:0:0:0:
256,192,467970,1,0,0:0:0:0:
256,192,468039,1,0,0:0:0:0:
256,192,468107,1,0,0:0:0:0:
256,192,468175,1,8,0:0:0:0:
256,192,468243,1,8,0:0:0:0:
256,192,468311,1,0,0:0:0:0:
256,192,468379,1,0,0:0:0:0:
256,192,468448,1,8,0:0:0:0:
256,192,468516,1,8,0:0:0:0:
256,192,468584,1,8,0:0:0:0:
256,192,468652,1,8,0:0:0:0:
256,192,468720,1,0,0:0:0:0:
256,192,468789,1,0,0:0:0:0:
256,192,468857,1,8,0:0:0:0:
256,192,468925,1,8,0:0:0:0:
256,192,468993,1,0,0:0:0:0:
256,192,469061,1,0,0:0:0:0:
256,192,469129,1,8,0:0:0:0:
256,192,469198,1,0,0:0:0:0:
256,192,469266,1,8,0:0:0:0:
256,192,469334,1,8,0:0:0:0:
256,192,469402,1,0,0:0:0:0:
256,192,469470,1,0,0:0:0:0:
256,192,469539,1,8,0:0:0:0:
256,192,469607,1,8,0:0:0:0:
256,192,469675,1,8,0:0:0:0:
256,192,469743,1,0,0:0:0:0:
256,192,469811,1,8,0:0:0:0:
256,192,469879,1,8,0:0:0:0:
256,192,469948,1,0,0:0:0:0:
256,192,470016,5,0,0:0:0:0:
256,192,470084,1,8,0:0:0:0:
256,192,470152,1,8,0:0:0:0:
256,192,470220,1,8,0:0:0:0:
256,192,470289,1,8,0:0:0:0:
256,192,470357,1,0,0:0:0:0:
256,192,470425,1,0,0:0:0:0:
256,192,470493,1,8,0:0:0:0:
256,192,470561,1,8,0:0:0:0:
256,192,470629,1,0,0:0:0:0:
256,192,470698,1,0,0:0:0:0:
256,192,470766,1,8,0:0:0:0:
256,192,470834,1,0,0:0:0:0:
256,192,470902,1,8,0:0:0:0:
256,192,470970,1,8,0:0:0:0:
256,192,471039,1,0,0:0:0:0:
256,192,471107,1,0,0:0:0:0:
256,192,471175,5,8,0:0:0:0:
256,192,471311,1,0,0:0:0:0:
256,192,471448,1,0,0:0:0:0:
256,192,471516,1,0,0:0:0:0:
256,192,471584,1,8,0:0:0:0:
256,192,471652,1,8,0:0:0:0:
256,192,471720,1,0,0:0:0:0:
256,192,471857,1,12,0:0:0:0:
256,192,472129,1,0,0:0:0:0:
256,192,472266,1,8,0:0:0:0:
256,192,472334,1,8,0:0:0:0:
256,192,472402,1,8,0:0:0:0:
256,192,472470,1,0,0:0:0:0:
256,192,472538,1,8,0:0:0:0:
256,192,472607,1,8,0:0:0:0:
256,192,472675,1,0,0:0:0:0:
256,192,472743,1,0,0:0:0:0:
256,192,472811,1,8,0:0:0:0:
256,192,472879,1,0,0:0:0:0:
256,192,472947,1,0,0:0:0:0:
256,192,473016,1,0,0:0:0:0:
256,192,473084,1,8,0:0:0:0:
256,192,473152,1,8,0:0:0:0:
256,192,473220,1,0,0:0:0:0:
256,192,473288,1,0,0:0:0:0:
256,192,473357,1,8,0:0:0:0:
256,192,473425,1,8,0:0:0:0:
256,192,473493,1,8,0:0:0:0:
256,192,473561,1,0,0:0:0:0:
256,192,473629,1,8,0:0:0:0:
256,192,473697,1,8,0:0:0:0:
256,192,473766,1,0,0:0:0:0:
256,192,473834,1,0,0:0:0:0:
256,192,473902,1,8,0:0:0:0:
256,192,473970,1,0,0:0:0:0:
256,192,474038,1,0,0:0:0:0:
256,192,474107,1,0,0:0:0:0:
256,192,474175,1,8,0:0:0:0:
256,192,474243,1,8,0:0:0:0:
256,192,474311,1,0,0:0:0:0:
256,192,474379,1,0,0:0:0:0:
256,192,474447,1,8,0:0:0:0:
256,192,474516,1,8,0:0:0:0:
256,192,474584,1,8,0:0:0:0:
256,192,474652,1,0,0:0:0:0:
256,192,474720,1,8,0:0:0:0:
256,192,474788,1,8,0:0:0:0:
256,192,474857,1,0,0:0:0:0:
256,192,474925,1,0,0:0:0:0:
256,192,474993,1,8,0:0:0:0:
256,192,475061,1,0,0:0:0:0:
256,192,475129,1,0,0:0:0:0:
256,192,475197,1,0,0:0:0:0:
256,192,475266,1,8,0:0:0:0:
256,192,475334,1,8,0:0:0:0:
256,192,475402,1,0,0:0:0:0:
256,192,475470,1,0,0:0:0:0:
256,192,475538,1,8,0:0:0:0:
256,192,475607,1,8,0:0:0:0:
256,192,475675,1,8,0:0:0:0:
256,192,475743,1,0,0:0:0:0:
256,192,475811,1,8,0:0:0:0:
256,192,475879,1,8,0:0:0:0:
256,192,475947,1,0,0:0:0:0:
256,192,476016,1,0,0:0:0:0:
256,192,476084,1,8,0:0:0:0:
256,192,476152,1,0,0:0:0:0:
256,192,476220,1,0,0:0:0:0:
256,192,476288,5,0,0:0:0:0:
256,192,476357,1,8,0:0:0:0:
256,192,476425,1,8,0:0:0:0:
256,192,476493,1,0,0:0:0:0:
256,192,476561,1,0,0:0:0:0:
256,192,476629,1,0,0:0:0:0:
256,192,477448,1,0,0:0:0:0:
256,192,477720,1,8,0:0:0:0:
256,192,478539,1,0,0:0:0:0:
256,192,478607,1,0,0:0:0:0:
256,192,478675,1,0,0:0:0:0:
256,192,478743,1,0,0:0:0:0:
256,192,478811,1,8,0:0:0:0:
256,192,478948,1,0,0:0:0:0:
256,192,479084,1,0,0:0:0:0:
256,192,479220,1,8,0:0:0:0:
256,192,479357,1,0,0:0:0:0:
256,192,479493,1,0,0:0:0:0:
256,192,479561,1,0,0:0:0:0:
256,192,479629,1,8,0:0:0:0:
256,192,479698,1,8,0:0:0:0:
256,192,479766,1,0,0:0:0:0:
256,192,479834,1,0,0:0:0:0:
256,192,479902,1,8,0:0:0:0:
256,192,479970,1,8,0:0:0:0:
256,192,480039,1,8,0:0:0:0:
256,192,480107,1,0,0:0:0:0:
256,192,480175,1,8,0:0:0:0:
256,192,480243,1,8,0:0:0:0:
256,192,480311,1,0,0:0:0:0:
256,192,480379,1,0,0:0:0:0:
256,192,480448,1,8,0:0:0:0:
256,192,480516,1,0,0:0:0:0:
256,192,480584,1,0,0:0:0:0:
256,192,480652,1,0,0:0:0:0:
256,192,480720,1,8,0:0:0:0:
256,192,480857,1,0,0:0:0:0:
256,192,480993,1,12,0:0:0:0:
256,192,482084,1,12,0:0:0:0:
256,192,482629,1,12,0:0:0:0:
256,192,483175,1,4,0:0:0:0:
256,192,483311,1,8,0:0:0:0:
256,192,483448,1,0,0:0:0:0:
256,192,483516,1,0,0:0:0:0:
256,192,483584,1,0,0:0:0:0:
256,192,483652,1,0,0:0:0:0:
256,192,483720,1,8,0:0:0:0:
256,192,483857,1,0,0:0:0:0:
256,192,483993,1,8,0:0:0:0:
256,192,484129,1,8,0:0:0:0:
256,192,484266,1,0,0:0:0:0:
256,192,484334,1,0,0:0:0:0:
256,192,484402,1,0,0:0:0:0:
256,192,484470,1,0,0:0:0:0:
256,192,484539,1,8,0:0:0:0:
256,192,484607,1,8,0:0:0:0:
256,192,484675,1,0,0:0:0:0:
256,192,484743,1,0,0:0:0:0:
256,192,484811,1,8,0:0:0:0:
256,192,484879,1,8,0:0:0:0:
256,192,484948,1,0,0:0:0:0:
256,192,485016,1,0,0:0:0:0:
256,192,485084,1,8,0:0:0:0:
256,192,485220,1,0,0:0:0:0:
256,192,485357,1,12,0:0:0:0:
