osu file format v14

[General]
AudioFilename: audio.mp3
AudioLeadIn: 0
PreviewTime: 292388
Countdown: 0
SampleSet: Normal
StackLeniency: 0.7
Mode: 3
LetterboxInBreaks: 0
SpecialStyle: 0
WidescreenStoryboard: 0

[Editor]
DistanceSpacing: 0.8
BeatDivisor: 4
GridSize: 16
TimelineZoom: 1.3

[Metadata]
Title:Yomi yori Kikoyu, Koukoku no Tou to Honoo no Shoujo.
TitleUnicode:黄泉より聴こゆ、皇国の燈と焔の少女。
Artist:Imperial Circus Dead Decadence
ArtistUnicode:Imperial Circus Dead Decadence
Creator:KakaoPraY
Version:Death
Source:
Tags:
BeatmapID:1496116
BeatmapSetID:707539

[Difficulty]
HPDrainRate:9
CircleSize:4
OverallDifficulty:9
ApproachRate:5
SliderMultiplier:1.4
SliderTickRate:1

[Events]
//Background and Video events
0,0,"bg.jpg",0,0
//Break Periods
2,192229,207192
2,428956,457147
//Storyboard Layer 0 (Background)
//Storyboard Layer 1 (Fail)
//Storyboard Layer 2 (Pass)
//Storyboard Layer 3 (Foreground)
//Storyboard Sound Samples

[TimingPoints]
1120,272.727272727273,4,1,0,19,1,0
458347,-1000,4,1,0,19,0,0
463597,272.727272727273,4,1,0,19,1,0
463597,-100,4,1,0,19,0,0

[HitObjects]
64,192,1120,5,0,0:0:0:0:
448,192,1120,1,0,0:0:0:0:
320,192,1120,1,0,0:0:0:0:
192,192,1188,1,0,0:0:0:0:
320,192,1256,1,0,0:0:0:0:
448,192,1324,1,0,0:0:0:0:
64,192,1392,1,0,0:0:0:0:
320,192,1460,1,0,0:0:0:0:
192,192,1529,1,0,0:0:0:0:
64,192,1597,1,0,0:0:0:0:
448,192,1665,1,0,0:0:0:0:
320,192,1733,1,0,0:0:0:0:
192,192,1801,1,0,0:0:0:0:
64,192,1870,1,0,0:0:0:0:
320,192,1938,1,0,0:0:0:0:
448,192,2006,1,0,0:0:0:0:
64,192,2074,1,0,0:0:0:0:
192,192,2142,1,0,0:0:0:0:
320,192,2210,1,0,0:0:0:0:
448,192,2210,1,0,0:0:0:0:
64,192,2210,1,0,0:0:0:0:
448,192,2279,1,0,0:0:0:0:
64,192,2347,1,0,0:0:0:0:
192,192,2415,1,0,0:0:0:0:
320,192,2483,1,0,0:0:0:0:
448,192,2551,1,0,0:0:0:0:
64,192,2620,1,0,0:0:0:0:
192,192,2688,1,0,0:0:0:0:
448,192,2756,1,0,0:0:0:0:
320,192,2756,1,0,0:0:0:0:
64,192,2756,1,0,0:0:0:0:
64,192,2824,1,0,0:0:0:0:
192,192,2892,1,0,0:0:0:0:
320,192,2960,1,0,0:0:0:0:
448,192,3029,1,0,0:0:0:0:
64,192,3097,1,0,0:0:0:0:
192,192,3165,1,0,0:0:0:0:
320,192,3233,1,0,0:0:0:0:
448,192,3301,1,0,0:0:0:0:
192,192,3301,1,0,0:0:0:0:
64,192,3301,1,0,0:0:0:0:
320,192,3370,1,0,0:0:0:0:
448,192,3438,1,0,0:0:0:0:
64,192,3506,1,0,0:0:0:0:
192,192,3574,1,0,0:0:0:0:
448,192,3642,1,0,0:0:0:0:
320,192,3710,1,0,0:0:0:0:
192,192,3779,1,0,0:0:0:0:
64,192,3847,1,0,0:0:0:0:
448,192,3915,1,0,0:0:0:0:
320,192,3983,1,0,0:0:0:0:
192,192,4051,1,0,0:0:0:0:
448,192,4120,1,0,0:0:0:0:
64,192,4188,1,0,0:0:0:0:
192,192,4256,1,0,0:0:0:0:
320,192,4324,1,0,0:0:0:0:
64,192,4392,128,0,4665:0:0:0:0:
448,192,4392,1,0,0:0:0:0:
192,192,4392,1,0,0:0:0:0:
320,192,4392,1,0,0:0:0:0:
448,192,4665,128,0,4938:0:0:0:0:
192,192,4665,1,0,0:0:0:0:
320,192,4665,1,0,0:0:0:0:
320,192,4938,128,0,5210:0:0:0:0:
64,192,4938,1,0,0:0:0:0:
192,192,4938,1,0,0:0:0:0:
192,192,5210,128,0,5483:0:0:0:0:
64,192,5210,1,0,0:0:0:0:
448,192,5210,1,0,0:0:0:0:
448,192,5483,1,0,0:0:0:0:
320,192,5483,1,0,0:0:0:0:
64,192,5483,1,0,0:0:0:0:
448,192,5551,1,0,0:0:0:0:
320,192,5620,1,0,0:0:0:0:
192,192,5688,1,0,0:0:0:0:
64,192,5756,1,0,0:0:0:0:
320,192,5824,1,0,0:0:0:0:
448,192,5892,1,0,0:0:0:0:
64,192,5960,1,0,0:0:0:0:
192,192,6029,1,0,0:0:0:0:
320,192,6097,1,0,0:0:0:0:
448,192,6165,1,0,0:0:0:0:
64,192,6233,1,0,0:0:0:0:
192,192,6301,1,0,0:0:0:0:
320,192,6370,1,0,0:0:0:0:
192,192,6506,1,0,0:0:0:0:
448,192,6574,1,0,0:0:0:0:
320,192,6574,1,0,0:0:0:0:
64,192,6574,1,0,0:0:0:0:
448,192,6642,1,0,0:0:0:0:
320,192,6710,1,0,0:0:0:0:
192,192,6779,1,0,0:0:0:0:
64,192,6847,1,0,0:0:0:0:
320,192,6915,1,0,0:0:0:0:
448,192,6983,1,0,0:0:0:0:
64,192,7051,1,0,0:0:0:0:
192,192,7120,1,0,0:0:0:0:
320,192,7120,1,0,0:0:0:0:
448,192,7120,1,0,0:0:0:0:
320,192,7188,1,0,0:0:0:0:
448,192,7256,1,0,0:0:0:0:
64,192,7324,1,0,0:0:0:0:
192,192,7392,1,0,0:0:0:0:
320,192,7460,1,0,0:0:0:0:
448,192,7529,1,0,0:0:0:0:
320,192,7597,1,0,0:0:0:0:
64,192,7665,1,0,0:0:0:0:
192,192,7665,1,0,0:0:0:0:
448,192,7801,1,0,0:0:0:0:
320,192,7801,1,0,0:0:0:0:
64,192,7938,1,0,0:0:0:0:
192,192,7938,1,0,0:0:0:0:
320,192,8006,1,0,0:0:0:0:
448,192,8074,1,0,0:0:0:0:
192,192,8074,1,0,0:0:0:0:
320,192,8210,1,0,0:0:0:0:
64,192,8210,1,0,0:0:0:0:
192,192,8279,1,0,0:0:0:0:
448,192,8347,1,0,0:0:0:0:
320,192,8347,1,0,0:0:0:0:
448,192,8483,1,0,0:0:0:0:
192,192,8483,1,0,0:0:0:0:
64,192,8551,1,0,0:0:0:0:
192,192,8620,1,0,0:0:0:0:
320,192,8620,1,0,0:0:0:0:
448,192,8756,1,0,0:0:0:0:
64,192,8756,1,0,0:0:0:0:
320,192,8824,1,0,0:0:0:0:
192,192,8892,1,0,0:0:0:0:
448,192,8960,1,0,0:0:0:0:
64,192,9029,1,0,0:0:0:0:
192,192,9097,1,0,0:0:0:0:
448,192,9165,1,0,0:0:0:0:
320,192,9233,1,0,0:0:0:0:
64,192,9301,1,0,0:0:0:0:
192,192,9370,1,0,0:0:0:0:
320,192,9438,1,0,0:0:0:0:
448,192,9506,1,0,0:0:0:0:
64,192,9574,1,0,0:0:0:0:
192,192,9574,1,0,0:0:0:0:
448,192,9710,1,0,0:0:0:0:
320,192,9847,1,0,0:0:0:0:
64,192,9847,1,0,0:0:0:0:
448,192,9847,1,0,0:0:0:0:
192,192,9915,1,0,0:0:0:0:
320,192,9983,1,0,0:0:0:0:
64,192,9983,1,0,0:0:0:0:
448,192,10051,1,0,0:0:0:0:
192,192,10120,1,0,0:0:0:0:
64,192,10120,1,0,0:0:0:0:
448,192,10188,1,0,0:0:0:0:
320,192,10256,1,0,0:0:0:0:
192,192,10256,1,0,0:0:0:0:
64,192,10324,1,0,0:0:0:0:
448,192,10392,1,0,0:0:0:0:
192,192,10392,1,0,0:0:0:0:
320,192,10460,1,0,0:0:0:0:
448,192,10529,1,0,0:0:0:0:
192,192,10529,1,0,0:0:0:0:
64,192,10597,1,0,0:0:0:0:
192,192,10665,1,0,0:0:0:0:
320,192,10665,1,0,0:0:0:0:
448,192,10733,1,0,0:0:0:0:
64,192,10801,1,0,0:0:0:0:
320,192,10801,1,0,0:0:0:0:
192,192,10870,1,0,0:0:0:0:
320,192,10938,1,0,0:0:0:0:
448,192,10938,1,0,0:0:0:0:
64,192,11006,1,0,0:0:0:0:
192,192,11074,1,0,0:0:0:0:
320,192,11074,1,0,0:0:0:0:
448,192,11142,1,0,0:0:0:0:
320,192,11210,1,0,0:0:0:0:
192,192,11210,1,0,0:0:0:0:
64,192,11279,1,0,0:0:0:0:
448,192,11347,1,0,0:0:0:0:
192,192,11347,1,0,0:0:0:0:
320,192,11415,1,0,0:0:0:0:
192,192,11483,1,0,0:0:0:0:
64,192,11483,1,0,0:0:0:0:
448,192,11551,1,0,0:0:0:0:
320,192,11620,1,0,0:0:0:0:
192,192,11620,1,0,0:0:0:0:
64,192,11688,1,0,0:0:0:0:
320,192,11756,1,0,0:0:0:0:
448,192,11756,1,0,0:0:0:0:
64,192,11824,1,0,0:0:0:0:
192,192,11892,1,0,0:0:0:0:
448,192,11892,1,0,0:0:0:0:
320,192,11960,1,0,0:0:0:0:
448,192,12029,1,0,0:0:0:0:
64,192,12029,1,0,0:0:0:0:
192,192,12097,1,0,0:0:0:0:
320,192,12165,1,0,0:0:0:0:
448,192,12165,1,0,0:0:0:0:
192,192,12233,1,0,0:0:0:0:
64,192,12301,1,0,0:0:0:0:
448,192,12301,1,0,0:0:0:0:
320,192,12370,1,0,0:0:0:0:
448,192,12438,1,0,0:0:0:0:
192,192,12438,1,0,0:0:0:0:
320,192,12506,1,0,0:0:0:0:
64,192,12574,1,0,0:0:0:0:
192,192,12574,1,0,0:0:0:0:
448,192,12642,1,0,0:0:0:0:
320,192,12710,1,0,0:0:0:0:
64,192,12710,1,0,0:0:0:0:
192,192,12779,1,0,0:0:0:0:
320,192,12847,1,0,0:0:0:0:
448,192,12847,1,0,0:0:0:0:
64,192,12915,1,0,0:0:0:0:
192,192,12983,1,0,0:0:0:0:
320,192,12983,1,0,0:0:0:0:
448,192,13051,1,0,0:0:0:0:
64,192,13120,1,0,0:0:0:0:
320,192,13120,1,0,0:0:0:0:
192,192,13188,1,0,0:0:0:0:
448,192,13256,1,0,0:0:0:0:
320,192,13256,1,0,0:0:0:0:
64,192,13324,1,0,0:0:0:0:
192,192,13392,1,0,0:0:0:0:
448,192,13392,1,0,0:0:0:0:
320,192,13460,1,0,0:0:0:0:
64,192,13529,1,0,0:0:0:0:
448,192,13529,1,0,0:0:0:0:
192,192,13597,1,0,0:0:0:0:
320,192,13665,1,0,0:0:0:0:
448,192,13665,1,0,0:0:0:0:
192,192,13733,1,0,0:0:0:0:
64,192,13801,1,0,0:0:0:0:
448,192,13801,1,0,0:0:0:0:
320,192,13870,1,0,0:0:0:0:
192,192,13938,1,0,0:0:0:0:
448,192,13938,1,0,0:0:0:0:
64,192,14006,1,0,0:0:0:0:
192,192,14074,1,0,0:0:0:0:
320,192,14074,1,0,0:0:0:0:
448,192,14142,1,0,0:0:0:0:
64,192,14210,1,0,0:0:0:0:
320,192,14210,1,0,0:0:0:0:
192,192,14279,1,0,0:0:0:0:
64,192,14347,1,0,0:0:0:0:
448,192,14347,1,0,0:0:0:0:
320,192,14415,1,0,0:0:0:0:
448,192,14483,1,0,0:0:0:0:
192,192,14483,1,0,0:0:0:0:
64,192,14551,1,0,0:0:0:0:
192,192,14620,1,0,0:0:0:0:
320,192,14620,1,0,0:0:0:0:
448,192,14688,1,0,0:0:0:0:
64,192,14756,1,0,0:0:0:0:
320,192,14756,1,0,0:0:0:0:
192,192,14824,1,0,0:0:0:0:
448,192,14892,1,0,0:0:0:0:
64,192,14892,1,0,0:0:0:0:
320,192,14960,1,0,0:0:0:0:
448,192,15029,1,0,0:0:0:0:
192,192,15029,1,0,0:0:0:0:
64,192,15097,1,0,0:0:0:0:
320,192,15165,1,0,0:0:0:0:
192,192,15165,1,0,0:0:0:0:
448,192,15233,1,0,0:0:0:0:
320,192,15301,1,0,0:0:0:0:
64,192,15301,1,0,0:0:0:0:
192,192,15370,1,0,0:0:0:0:
448,192,15438,1,0,0:0:0:0:
320,192,15438,1,0,0:0:0:0:
64,192,15506,1,0,0:0:0:0:
192,192,15574,1,0,0:0:0:0:
448,192,15574,1,0,0:0:0:0:
320,192,15642,1,0,0:0:0:0:
64,192,15710,1,0,0:0:0:0:
448,192,15710,1,0,0:0:0:0:
192,192,15779,1,0,0:0:0:0:
448,192,15847,1,0,0:0:0:0:
320,192,15847,1,0,0:0:0:0:
192,192,15915,1,0,0:0:0:0:
64,192,15983,1,0,0:0:0:0:
320,192,15983,1,0,0:0:0:0:
448,192,16051,1,0,0:0:0:0:
320,192,16120,1,0,0:0:0:0:
192,192,16120,1,0,0:0:0:0:
64,192,16188,1,0,0:0:0:0:
448,192,16256,1,0,0:0:0:0:
192,192,16256,1,0,0:0:0:0:
320,192,16324,1,0,0:0:0:0:
448,192,16392,1,0,0:0:0:0:
64,192,16392,1,0,0:0:0:0:
192,192,16460,1,0,0:0:0:0:
64,192,16529,1,0,0:0:0:0:
320,192,16529,1,0,0:0:0:0:
192,192,16597,1,0,0:0:0:0:
448,192,16665,1,0,0:0:0:0:
320,192,16665,1,0,0:0:0:0:
192,192,16733,1,0,0:0:0:0:
64,192,16801,1,0,0:0:0:0:
448,192,16801,1,0,0:0:0:0:
320,192,16870,1,0,0:0:0:0:
192,192,16938,1,0,0:0:0:0:
448,192,16938,1,0,0:0:0:0:
64,192,17006,1,0,0:0:0:0:
320,192,17074,1,0,0:0:0:0:
448,192,17074,1,0,0:0:0:0:
192,192,17142,1,0,0:0:0:0:
64,192,17210,1,0,0:0:0:0:
448,192,17210,1,0,0:0:0:0:
192,192,17279,1,0,0:0:0:0:
448,192,17347,1,0,0:0:0:0:
320,192,17347,1,0,0:0:0:0:
192,192,17415,1,0,0:0:0:0:
448,192,17483,1,0,0:0:0:0:
64,192,17483,128,0,17620:0:0:0:0:
320,192,17551,1,0,0:0:0:0:
448,192,17620,1,0,0:0:0:0:
192,192,17620,128,0,17756:0:0:0:0:
320,192,17688,1,0,0:0:0:0:
64,192,17756,1,0,0:0:0:0:
448,192,17756,128,0,17892:0:0:0:0:
192,192,17824,1,0,0:0:0:0:
64,192,17892,1,0,0:0:0:0:
320,192,17892,128,0,18029:0:0:0:0:
192,192,17960,1,0,0:0:0:0:
448,192,18029,1,0,0:0:0:0:
64,192,18029,128,0,18165:0:0:0:0:
320,192,18097,1,0,0:0:0:0:
448,192,18165,1,0,0:0:0:0:
192,192,18165,128,0,18301:0:0:0:0:
320,192,18233,1,0,0:0:0:0:
64,192,18301,1,0,0:0:0:0:
448,192,18301,128,0,18438:0:0:0:0:
192,192,18370,1,0,0:0:0:0:
64,192,18438,1,0,0:0:0:0:
320,192,18438,128,0,18574:0:0:0:0:
192,192,18506,1,0,0:0:0:0:
64,192,18574,1,0,0:0:0:0:
192,192,18574,1,0,0:0:0:0:
448,192,18574,1,0,0:0:0:0:
320,192,18642,1,0,0:0:0:0:
192,192,18710,1,0,0:0:0:0:
448,192,18710,1,0,0:0:0:0:
64,192,18779,1,0,0:0:0:0:
192,192,18847,1,0,0:0:0:0:
320,192,18847,1,0,0:0:0:0:
448,192,18915,1,0,0:0:0:0:
64,192,18983,1,0,0:0:0:0:
320,192,18983,1,0,0:0:0:0:
192,192,19051,1,0,0:0:0:0:
448,192,19120,1,0,0:0:0:0:
64,192,19120,1,0,0:0:0:0:
320,192,19188,1,0,0:0:0:0:
448,192,19256,1,0,0:0:0:0:
192,192,19256,1,0,0:0:0:0:
64,192,19324,1,0,0:0:0:0:
192,192,19392,1,0,0:0:0:0:
320,192,19392,1,0,0:0:0:0:
448,192,19460,1,0,0:0:0:0:
64,192,19529,1,0,0:0:0:0:
192,192,19529,1,0,0:0:0:0:
320,192,19597,1,0,0:0:0:0:
448,192,19665,1,0,0:0:0:0:
192,192,19665,1,0,0:0:0:0:
64,192,19733,1,0,0:0:0:0:
448,192,19801,1,0,0:0:0:0:
320,192,19801,1,0,0:0:0:0:
192,192,19870,1,0,0:0:0:0:
64,192,19938,1,0,0:0:0:0:
448,192,19938,1,0,0:0:0:0:
320,192,20006,1,0,0:0:0:0:
448,192,20074,1,0,0:0:0:0:
192,192,20074,1,0,0:0:0:0:
320,192,20142,1,0,0:0:0:0:
64,192,20210,1,0,0:0:0:0:
192,192,20210,1,0,0:0:0:0:
320,192,20279,1,0,0:0:0:0:
448,192,20347,1,0,0:0:0:0:
64,192,20347,1,0,0:0:0:0:
192,192,20415,1,0,0:0:0:0:
320,192,20483,1,0,0:0:0:0:
448,192,20483,1,0,0:0:0:0:
64,192,20551,1,0,0:0:0:0:
192,192,20620,1,0,0:0:0:0:
320,192,20620,1,0,0:0:0:0:
448,192,20688,1,0,0:0:0:0:
320,192,20756,1,0,0:0:0:0:
64,192,20756,1,0,0:0:0:0:
192,192,20824,1,0,0:0:0:0:
448,192,20892,1,0,0:0:0:0:
64,192,20892,1,0,0:0:0:0:
320,192,20960,1,0,0:0:0:0:
192,192,21029,1,0,0:0:0:0:
64,192,21029,1,0,0:0:0:0:
448,192,21097,1,0,0:0:0:0:
320,192,21165,1,0,0:0:0:0:
192,192,21165,1,0,0:0:0:0:
64,192,21233,1,0,0:0:0:0:
192,192,21301,1,0,0:0:0:0:
448,192,21301,1,0,0:0:0:0:
320,192,21370,1,0,0:0:0:0:
448,192,21438,1,0,0:0:0:0:
64,192,21438,1,0,0:0:0:0:
192,192,21506,1,0,0:0:0:0:
320,192,21574,1,0,0:0:0:0:
64,192,21574,1,0,0:0:0:0:
448,192,21642,1,0,0:0:0:0:
320,192,21710,1,0,0:0:0:0:
192,192,21710,1,0,0:0:0:0:
64,192,21779,1,0,0:0:0:0:
192,192,21847,1,0,0:0:0:0:
448,192,21847,1,0,0:0:0:0:
320,192,21915,1,0,0:0:0:0:
448,192,21983,1,0,0:0:0:0:
64,192,21983,1,0,0:0:0:0:
192,192,22051,1,0,0:0:0:0:
320,192,22120,1,0,0:0:0:0:
448,192,22120,1,0,0:0:0:0:
192,192,22188,1,0,0:0:0:0:
64,192,22256,1,0,0:0:0:0:
320,192,22256,1,0,0:0:0:0:
448,192,22324,1,0,0:0:0:0:
320,192,22392,1,0,0:0:0:0:
192,192,22392,1,0,0:0:0:0:
64,192,22460,1,0,0:0:0:0:
448,192,22529,1,0,0:0:0:0:
192,192,22529,1,0,0:0:0:0:
320,192,22597,1,0,0:0:0:0:
448,192,22665,1,0,0:0:0:0:
64,192,22665,1,0,0:0:0:0:
192,192,22733,1,0,0:0:0:0:
320,192,22801,1,0,0:0:0:0:
448,192,22801,1,0,0:0:0:0:
192,192,22870,1,0,0:0:0:0:
64,192,22938,1,0,0:0:0:0:
448,192,22938,1,0,0:0:0:0:
320,192,23006,1,0,0:0:0:0:
192,192,23074,1,0,0:0:0:0:
64,192,23074,1,0,0:0:0:0:
320,192,23142,1,0,0:0:0:0:
448,192,23210,1,0,0:0:0:0:
192,192,23210,1,0,0:0:0:0:
64,192,23279,1,0,0:0:0:0:
192,192,23347,1,0,0:0:0:0:
320,192,23347,1,0,0:0:0:0:
448,192,23415,1,0,0:0:0:0:
64,192,23483,1,0,0:0:0:0:
320,192,23483,1,0,0:0:0:0:
192,192,23551,1,0,0:0:0:0:
448,192,23620,1,0,0:0:0:0:
320,192,23620,1,0,0:0:0:0:
192,192,23688,1,0,0:0:0:0:
64,192,23756,1,0,0:0:0:0:
448,192,23756,1,0,0:0:0:0:
320,192,23824,1,0,0:0:0:0:
448,192,23892,1,0,0:0:0:0:
192,192,23892,1,0,0:0:0:0:
64,192,23960,1,0,0:0:0:0:
192,192,24029,1,0,0:0:0:0:
320,192,24029,1,0,0:0:0:0:
448,192,24097,1,0,0:0:0:0:
64,192,24165,1,0,0:0:0:0:
320,192,24165,1,0,0:0:0:0:
192,192,24233,1,0,0:0:0:0:
448,192,24301,1,0,0:0:0:0:
320,192,24301,1,0,0:0:0:0:
192,192,24370,1,0,0:0:0:0:
64,192,24438,1,0,0:0:0:0:
448,192,24438,1,0,0:0:0:0:
320,192,24506,1,0,0:0:0:0:
192,192,24574,1,0,0:0:0:0:
448,192,24574,1,0,0:0:0:0:
64,192,24642,1,0,0:0:0:0:
192,192,24710,1,0,0:0:0:0:
320,192,24710,1,0,0:0:0:0:
448,192,24779,1,0,0:0:0:0:
64,192,24847,1,0,0:0:0:0:
320,192,24847,1,0,0:0:0:0:
448,192,24915,1,0,0:0:0:0:
192,192,24983,1,0,0:0:0:0:
320,192,24983,1,0,0:0:0:0:
64,192,25051,1,0,0:0:0:0:
448,192,25120,1,0,0:0:0:0:
192,192,25120,1,0,0:0:0:0:
320,192,25120,1,0,0:0:0:0:
64,192,25188,1,0,0:0:0:0:
448,192,25256,1,0,0:0:0:0:
320,192,25324,1,0,0:0:0:0:
192,192,25392,1,0,0:0:0:0:
64,192,25460,1,0,0:0:0:0:
448,192,25529,1,0,0:0:0:0:
320,192,25529,1,0,0:0:0:0:
192,192,25529,1,0,0:0:0:0:
64,192,25597,1,0,0:0:0:0:
192,192,25665,1,0,0:0:0:0:
320,192,25733,1,0,0:0:0:0:
448,192,25801,1,0,0:0:0:0:
64,192,25870,1,0,0:0:0:0:
192,192,25938,1,0,0:0:0:0:
320,192,26006,1,0,0:0:0:0:
192,192,26074,1,0,0:0:0:0:
320,192,26142,1,0,0:0:0:0:
64,192,26210,1,0,0:0:0:0:
192,192,26279,1,0,0:0:0:0:
64,192,26347,1,0,0:0:0:0:
192,192,26415,1,0,0:0:0:0:
448,192,26483,1,0,0:0:0:0:
320,192,26551,1,0,0:0:0:0:
448,192,26620,1,0,0:0:0:0:
320,192,26688,1,0,0:0:0:0:
192,192,26756,1,0,0:0:0:0:
320,192,26824,1,0,0:0:0:0:
192,192,26892,1,0,0:0:0:0:
320,192,26960,1,0,0:0:0:0:
448,192,27029,1,0,0:0:0:0:
64,192,27097,1,0,0:0:0:0:
448,192,27165,1,0,0:0:0:0:
64,192,27233,1,0,0:0:0:0:
192,192,27301,1,0,0:0:0:0:
448,192,27301,1,0,0:0:0:0:
320,192,27370,1,0,0:0:0:0:
64,192,27438,1,0,0:0:0:0:
192,192,27438,1,0,0:0:0:0:
320,192,27506,1,0,0:0:0:0:
448,192,27574,1,0,0:0:0:0:
64,192,27574,1,0,0:0:0:0:
192,192,27642,1,0,0:0:0:0:
320,192,27710,1,0,0:0:0:0:
448,192,27710,1,0,0:0:0:0:
192,192,27779,1,0,0:0:0:0:
64,192,27847,1,0,0:0:0:0:
320,192,27847,1,0,0:0:0:0:
448,192,27915,1,0,0:0:0:0:
192,192,27983,1,0,0:0:0:0:
320,192,27983,1,0,0:0:0:0:
64,192,28051,1,0,0:0:0:0:
192,192,28120,1,0,0:0:0:0:
448,192,28120,1,0,0:0:0:0:
320,192,28188,1,0,0:0:0:0:
192,192,28256,1,0,0:0:0:0:
64,192,28256,1,0,0:0:0:0:
320,192,28324,1,0,0:0:0:0:
448,192,28392,1,0,0:0:0:0:
64,192,28392,1,0,0:0:0:0:
192,192,28460,1,0,0:0:0:0:
320,192,28529,1,0,0:0:0:0:
448,192,28529,1,0,0:0:0:0:
64,192,28597,1,0,0:0:0:0:
192,192,28665,1,0,0:0:0:0:
320,192,28665,1,0,0:0:0:0:
448,192,28733,1,0,0:0:0:0:
320,192,28801,1,0,0:0:0:0:
64,192,28801,1,0,0:0:0:0:
192,192,28870,1,0,0:0:0:0:
448,192,28938,1,0,0:0:0:0:
320,192,28938,1,0,0:0:0:0:
192,192,29006,1,0,0:0:0:0:
64,192,29074,1,0,0:0:0:0:
448,192,29074,1,0,0:0:0:0:
320,192,29142,1,0,0:0:0:0:
448,192,29210,1,0,0:0:0:0:
192,192,29210,1,0,0:0:0:0:
320,192,29279,1,0,0:0:0:0:
448,192,29347,1,0,0:0:0:0:
64,192,29347,1,0,0:0:0:0:
192,192,29415,1,0,0:0:0:0:
320,192,29483,1,0,0:0:0:0:
448,192,29483,1,0,0:0:0:0:
192,192,29551,1,0,0:0:0:0:
64,192,29620,1,0,0:0:0:0:
320,192,29620,1,0,0:0:0:0:
448,192,29688,1,0,0:0:0:0:
320,192,29756,1,0,0:0:0:0:
192,192,29756,1,0,0:0:0:0:
64,192,29824,1,0,0:0:0:0:
320,192,29892,1,0,0:0:0:0:
448,192,29892,1,0,0:0:0:0:
192,192,29960,1,0,0:0:0:0:
320,192,30029,1,0,0:0:0:0:
448,192,30029,1,0,0:0:0:0:
64,192,30097,1,0,0:0:0:0:
192,192,30165,1,0,0:0:0:0:
448,192,30165,1,0,0:0:0:0:
320,192,30233,1,0,0:0:0:0:
64,192,30301,1,0,0:0:0:0:
192,192,30301,1,0,0:0:0:0:
448,192,30370,1,0,0:0:0:0:
320,192,30438,1,0,0:0:0:0:
192,192,30438,1,0,0:0:0:0:
64,192,30506,1,0,0:0:0:0:
192,192,30574,1,0,0:0:0:0:
448,192,30574,1,0,0:0:0:0:
320,192,30642,1,0,0:0:0:0:
448,192,30710,1,0,0:0:0:0:
64,192,30710,1,0,0:0:0:0:
192,192,30779,1,0,0:0:0:0:
448,192,30847,1,0,0:0:0:0:
64,192,30847,1,0,0:0:0:0:
320,192,30915,1,0,0:0:0:0:
192,192,30983,1,0,0:0:0:0:
64,192,30983,1,0,0:0:0:0:
320,192,31051,1,0,0:0:0:0:
64,192,31120,1,0,0:0:0:0:
448,192,31120,1,0,0:0:0:0:
192,192,31188,1,0,0:0:0:0:
320,192,31256,1,0,0:0:0:0:
448,192,31256,1,0,0:0:0:0:
192,192,31324,1,0,0:0:0:0:
64,192,31392,1,0,0:0:0:0:
320,192,31392,1,0,0:0:0:0:
448,192,31529,1,0,0:0:0:0:
64,192,31665,1,0,0:0:0:0:
320,192,31665,1,0,0:0:0:0:
448,192,31733,1,0,0:0:0:0:
192,192,31801,1,0,0:0:0:0:
320,192,31801,1,0,0:0:0:0:
64,192,31870,1,0,0:0:0:0:
192,192,31938,1,0,0:0:0:0:
448,192,31938,1,0,0:0:0:0:
320,192,32006,1,0,0:0:0:0:
448,192,32074,1,0,0:0:0:0:
192,192,32074,1,0,0:0:0:0:
64,192,32142,1,0,0:0:0:0:
320,192,32210,1,0,0:0:0:0:
448,192,32210,1,0,0:0:0:0:
192,192,32279,1,0,0:0:0:0:
64,192,32347,1,0,0:0:0:0:
448,192,32347,1,0,0:0:0:0:
320,192,32415,1,0,0:0:0:0:
448,192,32483,1,0,0:0:0:0:
192,192,32483,1,0,0:0:0:0:
64,192,32551,1,0,0:0:0:0:
192,192,32620,1,0,0:0:0:0:
320,192,32620,1,0,0:0:0:0:
448,192,32688,1,0,0:0:0:0:
64,192,32756,1,0,0:0:0:0:
320,192,32756,1,0,0:0:0:0:
192,192,32824,1,0,0:0:0:0:
448,192,32892,1,0,0:0:0:0:
320,192,32892,1,0,0:0:0:0:
192,192,32960,1,0,0:0:0:0:
64,192,33029,1,0,0:0:0:0:
320,192,33029,1,0,0:0:0:0:
448,192,33097,1,0,0:0:0:0:
320,192,33165,1,0,0:0:0:0:
192,192,33165,1,0,0:0:0:0:
64,192,33233,1,0,0:0:0:0:
192,192,33301,1,0,0:0:0:0:
448,192,33301,1,0,0:0:0:0:
320,192,33370,1,0,0:0:0:0:
448,192,33438,1,0,0:0:0:0:
64,192,33438,1,0,0:0:0:0:
192,192,33506,1,0,0:0:0:0:
320,192,33574,1,0,0:0:0:0:
448,192,33574,1,0,0:0:0:0:
192,192,33642,1,0,0:0:0:0:
64,192,33710,1,0,0:0:0:0:
320,192,33710,1,0,0:0:0:0:
448,192,33779,1,0,0:0:0:0:
192,192,33847,1,0,0:0:0:0:
320,192,33847,1,0,0:0:0:0:
64,192,33915,1,0,0:0:0:0:
192,192,33983,1,0,0:0:0:0:
320,192,33983,1,0,0:0:0:0:
448,192,34051,1,0,0:0:0:0:
64,192,34120,1,0,0:0:0:0:
320,192,34120,1,0,0:0:0:0:
192,192,34188,1,0,0:0:0:0:
448,192,34256,1,0,0:0:0:0:
320,192,34256,1,0,0:0:0:0:
192,192,34324,1,0,0:0:0:0:
64,192,34392,1,0,0:0:0:0:
448,192,34392,1,0,0:0:0:0:
320,192,34460,1,0,0:0:0:0:
448,192,34529,1,0,0:0:0:0:
192,192,34529,1,0,0:0:0:0:
64,192,34597,1,0,0:0:0:0:
192,192,34665,1,0,0:0:0:0:
320,192,34665,1,0,0:0:0:0:
448,192,34733,1,0,0:0:0:0:
64,192,34801,1,0,0:0:0:0:
192,192,34801,1,0,0:0:0:0:
320,192,34870,1,0,0:0:0:0:
192,192,34938,1,0,0:0:0:0:
448,192,34938,128,0,35756:0:0:0:0:
64,192,35006,1,0,0:0:0:0:
320,192,35074,1,0,0:0:0:0:
192,192,35142,1,0,0:0:0:0:
320,192,35210,1,0,0:0:0:0:
64,192,35279,1,0,0:0:0:0:
192,192,35347,1,0,0:0:0:0:
320,192,35415,1,0,0:0:0:0:
64,192,35483,1,0,0:0:0:0:
192,192,35551,1,0,0:0:0:0:
320,192,35620,1,0,0:0:0:0:
64,192,35688,1,0,0:0:0:0:
192,192,35756,1,0,0:0:0:0:
448,192,35892,1,0,0:0:0:0:
320,192,35960,1,0,0:0:0:0:
64,192,36029,1,0,0:0:0:0:
448,192,36029,1,0,0:0:0:0:
192,192,36063,1,0,0:0:0:0:
320,192,36097,1,0,0:0:0:0:
448,192,36131,1,0,0:0:0:0:
64,192,36165,1,0,0:0:0:0:
192,192,36199,1,0,0:0:0:0:
448,192,36233,1,0,0:0:0:0:
320,192,36267,1,0,0:0:0:0:
192,192,36301,1,0,0:0:0:0:
64,192,36335,1,0,0:0:0:0:
448,192,36370,1,0,0:0:0:0:
320,192,36404,1,0,0:0:0:0:
64,192,36438,1,0,0:0:0:0:
192,192,36472,1,0,0:0:0:0:
320,192,36506,1,0,0:0:0:0:
448,192,36540,1,0,0:0:0:0:
64,192,36574,1,0,0:0:0:0:
192,192,36608,1,0,0:0:0:0:
448,192,36642,1,0,0:0:0:0:
320,192,36676,1,0,0:0:0:0:
192,192,36710,1,0,0:0:0:0:
64,192,36745,1,0,0:0:0:0:
448,192,36779,1,0,0:0:0:0:
320,192,36813,1,0,0:0:0:0:
64,192,36847,1,0,0:0:0:0:
192,192,36881,1,0,0:0:0:0:
320,192,36915,1,0,0:0:0:0:
448,192,36949,1,0,0:0:0:0:
64,192,36983,1,0,0:0:0:0:
192,192,37017,1,0,0:0:0:0:
448,192,37051,1,0,0:0:0:0:
320,192,37085,1,0,0:0:0:0:
192,192,37120,1,0,0:0:0:0:
64,192,37120,1,0,0:0:0:0:
320,192,37188,1,0,0:0:0:0:
448,192,37188,1,0,0:0:0:0:
64,192,37256,1,0,0:0:0:0:
192,192,37256,1,0,0:0:0:0:
320,192,37324,1,0,0:0:0:0:
448,192,37324,1,0,0:0:0:0:
64,192,37392,1,0,0:0:0:0:
192,192,37392,1,0,0:0:0:0:
320,192,37460,1,0,0:0:0:0:
448,192,37460,1,0,0:0:0:0:
64,192,37529,1,0,0:0:0:0:
192,192,37529,1,0,0:0:0:0:
320,192,37597,1,0,0:0:0:0:
448,192,37597,1,0,0:0:0:0:
64,192,37665,1,0,0:0:0:0:
192,192,37665,1,0,0:0:0:0:
320,192,37733,1,0,0:0:0:0:
448,192,37733,1,0,0:0:0:0:
64,192,37801,1,0,0:0:0:0:
192,192,37801,1,0,0:0:0:0:
320,192,37870,1,0,0:0:0:0:
448,192,37870,1,0,0:0:0:0:
64,192,37938,1,0,0:0:0:0:
192,192,37938,1,0,0:0:0:0:
320,192,38006,1,0,0:0:0:0:
448,192,38006,1,0,0:0:0:0:
64,192,38074,1,0,0:0:0:0:
192,192,38074,1,0,0:0:0:0:
320,192,38142,1,0,0:0:0:0:
448,192,38142,1,0,0:0:0:0:
64,192,38210,1,0,0:0:0:0:
192,192,38245,1,0,0:0:0:0:
448,192,38279,1,0,0:0:0:0:
320,192,38313,1,0,0:0:0:0:
64,192,38347,1,0,0:0:0:0:
192,192,38381,1,0,0:0:0:0:
448,192,38415,1,0,0:0:0:0:
320,192,38449,1,0,0:0:0:0:
64,192,38483,1,0,0:0:0:0:
192,192,38517,1,0,0:0:0:0:
448,192,38551,1,0,0:0:0:0:
320,192,38585,1,0,0:0:0:0:
64,192,38620,1,0,0:0:0:0:
192,192,38654,1,0,0:0:0:0:
448,192,38688,1,0,0:0:0:0:
320,192,38722,1,0,0:0:0:0:
64,192,38756,1,0,0:0:0:0:
192,192,38790,1,0,0:0:0:0:
448,192,38824,1,0,0:0:0:0:
320,192,38858,1,0,0:0:0:0:
64,192,38892,1,0,0:0:0:0:
192,192,38926,1,0,0:0:0:0:
448,192,38960,1,0,0:0:0:0:
320,192,38995,1,0,0:0:0:0:
64,192,39029,1,0,0:0:0:0:
192,192,39063,1,0,0:0:0:0:
448,192,39097,1,0,0:0:0:0:
320,192,39131,1,0,0:0:0:0:
64,192,39165,1,0,0:0:0:0:
192,192,39199,1,0,0:0:0:0:
448,192,39233,1,0,0:0:0:0:
320,192,39267,1,0,0:0:0:0:
64,192,39301,1,0,0:0:0:0:
192,192,39335,1,0,0:0:0:0:
448,192,39370,1,0,0:0:0:0:
320,192,39404,1,0,0:0:0:0:
192,192,39438,1,0,0:0:0:0:
64,192,39472,1,0,0:0:0:0:
448,192,39506,1,0,0:0:0:0:
320,192,39540,1,0,0:0:0:0:
64,192,39574,1,0,0:0:0:0:
192,192,39608,1,0,0:0:0:0:
320,192,39642,1,0,0:0:0:0:
448,192,39676,1,0,0:0:0:0:
64,192,39710,1,0,0:0:0:0:
192,192,39745,1,0,0:0:0:0:
448,192,39779,1,0,0:0:0:0:
320,192,39813,1,0,0:0:0:0:
192,192,39847,1,0,0:0:0:0:
64,192,39881,1,0,0:0:0:0:
448,192,39915,1,0,0:0:0:0:
320,192,39949,1,0,0:0:0:0:
64,192,39983,1,0,0:0:0:0:
192,192,40017,1,0,0:0:0:0:
320,192,40051,1,0,0:0:0:0:
448,192,40085,1,0,0:0:0:0:
64,192,40120,1,0,0:0:0:0:
192,192,40120,1,0,0:0:0:0:
320,192,40256,1,0,0:0:0:0:
192,192,40392,1,0,0:0:0:0:
448,192,40392,1,0,0:0:0:0:
192,192,41210,1,0,0:0:0:0:
320,192,41483,1,0,0:0:0:0:
448,192,41483,1,0,0:0:0:0:
320,192,42438,1,0,0:0:0:0:
192,192,42506,1,0,0:0:0:0:
64,192,42574,1,0,0:0:0:0:
448,192,42574,1,0,0:0:0:0:
320,192,42710,1,0,0:0:0:0:
192,192,42779,1,0,0:0:0:0:
448,192,42847,1,0,0:0:0:0:
64,192,42847,1,0,0:0:0:0:
192,192,42915,1,0,0:0:0:0:
320,192,42983,1,0,0:0:0:0:
448,192,43051,1,0,0:0:0:0:
64,192,43120,1,0,0:0:0:0:
192,192,43120,1,0,0:0:0:0:
320,192,43188,1,0,0:0:0:0:
448,192,43256,1,0,0:0:0:0:
192,192,43256,1,0,0:0:0:0:
64,192,43324,1,0,0:0:0:0:
192,192,43392,1,0,0:0:0:0:
320,192,43460,1,0,0:0:0:0:
448,192,43529,1,0,0:0:0:0:
64,192,43597,1,0,0:0:0:0:
192,192,43665,1,0,0:0:0:0:
320,192,43665,1,0,0:0:0:0:
448,192,43665,1,0,0:0:0:0:
320,192,43801,1,0,0:0:0:0:
64,192,43938,1,0,0:0:0:0:
192,192,43938,1,0,0:0:0:0:
320,192,43938,1,0,0:0:0:0:
64,192,44074,1,0,0:0:0:0:
448,192,44210,1,0,0:0:0:0:
320,192,44210,1,0,0:0:0:0:
192,192,44210,1,0,0:0:0:0:
448,192,44347,1,0,0:0:0:0:
64,192,44483,1,0,0:0:0:0:
192,192,44483,1,0,0:0:0:0:
320,192,44483,1,0,0:0:0:0:
192,192,44620,1,0,0:0:0:0:
448,192,44756,128,0,45438:0:0:0:0:
320,192,44756,1,0,0:0:0:0:
64,192,44756,1,0,0:0:0:0:
64,192,45165,1,0,0:0:0:0:
192,192,45233,1,0,0:0:0:0:
320,192,45301,1,0,0:0:0:0:
64,192,45370,1,0,0:0:0:0:
192,192,45438,1,0,0:0:0:0:
320,192,45506,1,0,0:0:0:0:
448,192,45574,1,0,0:0:0:0:
64,192,45642,1,0,0:0:0:0:
192,192,45710,1,0,0:0:0:0:
320,192,45779,1,0,0:0:0:0:
448,192,45847,1,0,0:0:0:0:
192,192,45847,1,0,0:0:0:0:
64,192,45847,1,0,0:0:0:0:
64,192,45915,1,0,0:0:0:0:
192,192,45983,1,0,0:0:0:0:
320,192,46051,1,0,0:0:0:0:
448,192,46120,1,0,0:0:0:0:
64,192,46188,1,0,0:0:0:0:
192,192,46256,1,0,0:0:0:0:
320,192,46324,1,0,0:0:0:0:
192,192,46392,1,0,0:0:0:0:
448,192,46392,1,0,0:0:0:0:
64,192,46392,1,0,0:0:0:0:
448,192,46460,1,0,0:0:0:0:
320,192,46529,1,0,0:0:0:0:
192,192,46597,1,0,0:0:0:0:
64,192,46665,1,0,0:0:0:0:
448,192,46733,1,0,0:0:0:0:
320,192,46801,1,0,0:0:0:0:
192,192,46870,1,0,0:0:0:0:
64,192,46938,1,0,0:0:0:0:
320,192,46938,1,0,0:0:0:0:
448,192,47006,1,0,0:0:0:0:
64,192,47074,1,0,0:0:0:0:
192,192,47074,1,0,0:0:0:0:
448,192,47142,1,0,0:0:0:0:
64,192,47210,1,0,0:0:0:0:
448,192,47279,1,0,0:0:0:0:
64,192,47347,1,0,0:0:0:0:
448,192,47415,1,0,0:0:0:0:
64,192,47483,1,0,0:0:0:0:
320,192,47483,1,0,0:0:0:0:
448,192,47551,1,0,0:0:0:0:
64,192,47620,1,0,0:0:0:0:
448,192,47688,1,0,0:0:0:0:
64,192,47756,1,0,0:0:0:0:
448,192,47824,1,0,0:0:0:0:
64,192,47892,1,0,0:0:0:0:
448,192,47960,1,0,0:0:0:0:
64,192,48029,1,0,0:0:0:0:
192,192,48029,1,0,0:0:0:0:
320,192,48097,1,0,0:0:0:0:
64,192,48165,1,0,0:0:0:0:
320,192,48233,1,0,0:0:0:0:
64,192,48301,1,0,0:0:0:0:
320,192,48370,1,0,0:0:0:0:
64,192,48438,1,0,0:0:0:0:
320,192,48506,1,0,0:0:0:0:
64,192,48574,1,0,0:0:0:0:
320,192,48642,1,0,0:0:0:0:
64,192,48710,1,0,0:0:0:0:
320,192,48779,1,0,0:0:0:0:
64,192,48847,1,0,0:0:0:0:
320,192,48915,1,0,0:0:0:0:
64,192,48983,1,0,0:0:0:0:
320,192,49051,1,0,0:0:0:0:
448,192,49120,1,0,0:0:0:0:
192,192,49120,1,0,0:0:0:0:
192,192,51165,1,0,0:0:0:0:
320,192,51233,1,0,0:0:0:0:
448,192,51301,1,0,0:0:0:0:
320,192,51370,1,0,0:0:0:0:
192,192,51438,1,0,0:0:0:0:
64,192,51506,1,0,0:0:0:0:
448,192,51574,1,0,0:0:0:0:
320,192,51642,1,0,0:0:0:0:
64,192,51710,1,0,0:0:0:0:
192,192,51779,1,0,0:0:0:0:
320,192,51847,1,0,0:0:0:0:
448,192,51915,1,0,0:0:0:0:
64,192,51983,1,0,0:0:0:0:
192,192,52051,1,0,0:0:0:0:
448,192,52120,1,0,0:0:0:0:
320,192,52188,1,0,0:0:0:0:
192,192,52256,1,0,0:0:0:0:
64,192,52324,1,0,0:0:0:0:
448,192,52392,1,0,0:0:0:0:
320,192,52460,1,0,0:0:0:0:
64,192,52529,1,0,0:0:0:0:
192,192,52597,1,0,0:0:0:0:
320,192,52665,1,0,0:0:0:0:
448,192,52733,1,0,0:0:0:0:
64,192,52801,1,0,0:0:0:0:
192,192,52870,1,0,0:0:0:0:
320,192,52938,1,0,0:0:0:0:
448,192,53006,1,0,0:0:0:0:
192,192,53074,1,0,0:0:0:0:
320,192,53142,1,0,0:0:0:0:
448,192,53210,1,0,0:0:0:0:
64,192,53210,1,0,0:0:0:0:
192,192,53483,1,0,0:0:0:0:
320,192,53483,1,0,0:0:0:0:
64,192,55392,1,0,0:0:0:0:
320,192,55392,1,0,0:0:0:0:
192,192,55665,1,0,0:0:0:0:
448,192,55665,1,0,0:0:0:0:
64,192,56620,1,0,0:0:0:0:
448,192,56756,1,0,0:0:0:0:
192,192,56756,1,0,0:0:0:0:
320,192,56824,1,0,0:0:0:0:
64,192,56892,1,0,0:0:0:0:
192,192,56960,1,0,0:0:0:0:
448,192,57029,1,0,0:0:0:0:
320,192,57097,1,0,0:0:0:0:
192,192,57165,1,0,0:0:0:0:
64,192,57233,1,0,0:0:0:0:
448,192,57301,1,0,0:0:0:0:
320,192,57370,1,0,0:0:0:0:
192,192,57438,1,0,0:0:0:0:
64,192,57506,1,0,0:0:0:0:
320,192,57574,1,0,0:0:0:0:
448,192,57574,1,0,0:0:0:0:
192,192,57847,1,0,0:0:0:0:
320,192,57847,1,0,0:0:0:0:
448,192,57847,1,0,0:0:0:0:
64,192,57983,1,0,0:0:0:0:
320,192,57983,1,0,0:0:0:0:
448,192,58120,1,0,0:0:0:0:
64,192,58120,1,0,0:0:0:0:
320,192,58188,1,0,0:0:0:0:
448,192,58256,1,0,0:0:0:0:
192,192,58256,1,0,0:0:0:0:
64,192,58392,1,0,0:0:0:0:
448,192,58392,1,0,0:0:0:0:
192,192,58529,1,0,0:0:0:0:
320,192,58529,1,0,0:0:0:0:
448,192,58665,1,0,0:0:0:0:
192,192,58665,1,0,0:0:0:0:
64,192,58733,1,0,0:0:0:0:
192,192,58801,1,0,0:0:0:0:
320,192,58801,1,0,0:0:0:0:
64,192,58938,1,0,0:0:0:0:
448,192,58938,1,0,0:0:0:0:
448,192,59074,1,0,0:0:0:0:
192,192,59074,1,0,0:0:0:0:
320,192,59210,1,0,0:0:0:0:
64,192,59210,1,0,0:0:0:0:
192,192,59279,1,0,0:0:0:0:
320,192,59347,1,0,0:0:0:0:
448,192,59347,1,0,0:0:0:0:
64,192,59483,1,0,0:0:0:0:
192,192,59483,1,0,0:0:0:0:
448,192,59620,1,0,0:0:0:0:
192,192,59620,1,0,0:0:0:0:
448,192,59756,1,0,0:0:0:0:
320,192,59756,1,0,0:0:0:0:
192,192,59824,1,0,0:0:0:0:
64,192,59892,1,0,0:0:0:0:
448,192,59892,1,0,0:0:0:0:
192,192,60029,1,0,0:0:0:0:
320,192,60029,1,0,0:0:0:0:
64,192,60165,1,0,0:0:0:0:
448,192,60165,1,0,0:0:0:0:
192,192,60301,1,0,0:0:0:0:
448,192,60301,1,0,0:0:0:0:
64,192,60370,1,0,0:0:0:0:
192,192,60438,1,0,0:0:0:0:
320,192,60438,1,0,0:0:0:0:
320,192,60574,1,0,0:0:0:0:
64,192,60574,1,0,0:0:0:0:
448,192,60574,1,0,0:0:0:0:
192,192,60710,1,0,0:0:0:0:
448,192,60710,1,0,0:0:0:0:
448,192,60847,1,0,0:0:0:0:
320,192,60847,1,0,0:0:0:0:
64,192,60915,1,0,0:0:0:0:
192,192,60983,1,0,0:0:0:0:
448,192,60983,1,0,0:0:0:0:
192,192,61120,1,0,0:0:0:0:
320,192,61120,1,0,0:0:0:0:
64,192,61256,1,0,0:0:0:0:
192,192,61256,1,0,0:0:0:0:
448,192,61392,1,0,0:0:0:0:
64,192,61392,1,0,0:0:0:0:
320,192,61460,1,0,0:0:0:0:
192,192,61529,1,0,0:0:0:0:
64,192,61529,1,0,0:0:0:0:
320,192,61665,1,0,0:0:0:0:
448,192,61665,1,0,0:0:0:0:
192,192,61801,1,0,0:0:0:0:
448,192,61801,1,0,0:0:0:0:
64,192,61938,1,0,0:0:0:0:
320,192,61938,1,0,0:0:0:0:
192,192,62074,1,0,0:0:0:0:
448,192,62074,1,0,0:0:0:0:
64,192,62210,1,0,0:0:0:0:
192,192,62210,1,0,0:0:0:0:
320,192,62279,1,0,0:0:0:0:
448,192,62279,1,0,0:0:0:0:
64,192,62347,1,0,0:0:0:0:
192,192,62347,1,0,0:0:0:0:
320,192,62483,1,0,0:0:0:0:
448,192,62483,1,0,0:0:0:0:
64,192,62756,1,0,0:0:0:0:
320,192,62756,1,0,0:0:0:0:
448,192,62824,1,0,0:0:0:0:
192,192,62824,1,0,0:0:0:0:
320,192,62892,1,0,0:0:0:0:
64,192,62892,1,0,0:0:0:0:
192,192,63029,1,0,0:0:0:0:
192,192,63165,1,0,0:0:0:0:
448,192,63165,1,0,0:0:0:0:
64,192,63301,1,0,0:0:0:0:
192,192,63301,1,0,0:0:0:0:
320,192,63301,1,0,0:0:0:0:
64,192,63438,1,0,0:0:0:0:
64,192,63574,1,0,0:0:0:0:
448,192,63710,1,0,0:0:0:0:
192,192,63710,1,0,0:0:0:0:
320,192,63710,1,0,0:0:0:0:
448,192,63847,1,0,0:0:0:0:
448,192,63983,1,0,0:0:0:0:
320,192,64051,1,0,0:0:0:0:
192,192,64120,1,0,0:0:0:0:
64,192,64120,1,0,0:0:0:0:
448,192,64256,1,0,0:0:0:0:
320,192,64392,1,0,0:0:0:0:
192,192,64392,1,0,0:0:0:0:
448,192,64529,1,0,0:0:0:0:
64,192,64529,1,0,0:0:0:0:
192,192,64665,1,0,0:0:0:0:
64,192,64665,1,0,0:0:0:0:
320,192,64733,1,0,0:0:0:0:
448,192,64801,1,0,0:0:0:0:
192,192,64801,1,0,0:0:0:0:
64,192,64938,1,0,0:0:0:0:
320,192,64938,1,0,0:0:0:0:
192,192,65006,1,0,0:0:0:0:
320,192,65074,1,0,0:0:0:0:
448,192,65074,1,0,0:0:0:0:
192,192,65210,1,0,0:0:0:0:
448,192,65210,1,0,0:0:0:0:
320,192,65279,1,0,0:0:0:0:
192,192,65347,1,0,0:0:0:0:
64,192,65347,1,0,0:0:0:0:
448,192,65483,1,0,0:0:0:0:
320,192,65483,1,0,0:0:0:0:
192,192,65551,1,0,0:0:0:0:
64,192,65620,1,0,0:0:0:0:
448,192,65688,1,0,0:0:0:0:
320,192,65756,1,0,0:0:0:0:
192,192,65756,1,0,0:0:0:0:
64,192,65824,1,0,0:0:0:0:
448,192,65892,1,0,0:0:0:0:
64,192,65960,1,0,0:0:0:0:
192,192,66029,1,0,0:0:0:0:
320,192,66029,1,0,0:0:0:0:
448,192,66097,1,0,0:0:0:0:
64,192,66165,1,0,0:0:0:0:
192,192,66233,1,0,0:0:0:0:
320,192,66301,1,0,0:0:0:0:
448,192,66301,1,0,0:0:0:0:
64,192,66438,1,0,0:0:0:0:
192,192,66574,1,0,0:0:0:0:
448,192,66574,1,0,0:0:0:0:
320,192,66710,1,0,0:0:0:0:
64,192,66710,1,0,0:0:0:0:
192,192,66847,1,0,0:0:0:0:
448,192,66847,1,0,0:0:0:0:
320,192,66915,1,0,0:0:0:0:
448,192,66983,1,0,0:0:0:0:
64,192,66983,1,0,0:0:0:0:
192,192,67120,1,0,0:0:0:0:
320,192,67120,1,0,0:0:0:0:
64,192,67256,1,0,0:0:0:0:
448,192,67256,1,0,0:0:0:0:
192,192,67392,1,0,0:0:0:0:
448,192,67392,1,0,0:0:0:0:
320,192,67460,1,0,0:0:0:0:
448,192,67529,1,0,0:0:0:0:
64,192,67529,1,0,0:0:0:0:
64,192,67665,1,0,0:0:0:0:
192,192,67665,1,0,0:0:0:0:
448,192,67801,1,0,0:0:0:0:
192,192,67801,1,0,0:0:0:0:
320,192,67938,1,0,0:0:0:0:
448,192,67938,1,0,0:0:0:0:
64,192,68006,1,0,0:0:0:0:
192,192,68074,1,0,0:0:0:0:
320,192,68074,1,0,0:0:0:0:
448,192,68210,1,0,0:0:0:0:
64,192,68210,1,0,0:0:0:0:
320,192,68347,1,0,0:0:0:0:
64,192,68347,1,0,0:0:0:0:
192,192,68483,1,0,0:0:0:0:
448,192,68483,1,0,0:0:0:0:
64,192,68551,1,0,0:0:0:0:
192,192,68620,1,0,0:0:0:0:
320,192,68620,1,0,0:0:0:0:
64,192,68756,1,0,0:0:0:0:
192,192,68756,1,0,0:0:0:0:
320,192,68892,1,0,0:0:0:0:
64,192,68892,1,0,0:0:0:0:
192,192,69029,1,0,0:0:0:0:
320,192,69029,1,0,0:0:0:0:
448,192,69097,1,0,0:0:0:0:
320,192,69165,1,0,0:0:0:0:
64,192,69165,1,0,0:0:0:0:
192,192,69301,1,0,0:0:0:0:
448,192,69301,1,0,0:0:0:0:
64,192,69438,1,0,0:0:0:0:
192,192,69438,1,0,0:0:0:0:
320,192,69506,1,0,0:0:0:0:
448,192,69574,1,0,0:0:0:0:
192,192,69574,1,0,0:0:0:0:
64,192,69710,1,0,0:0:0:0:
192,192,69710,1,0,0:0:0:0:
320,192,69847,1,0,0:0:0:0:
448,192,69847,1,0,0:0:0:0:
64,192,69983,1,0,0:0:0:0:
448,192,69983,1,0,0:0:0:0:
192,192,70051,1,0,0:0:0:0:
320,192,70120,1,0,0:0:0:0:
448,192,70120,1,0,0:0:0:0:
64,192,70256,1,0,0:0:0:0:
448,192,70256,1,0,0:0:0:0:
192,192,70392,1,0,0:0:0:0:
64,192,70392,1,0,0:0:0:0:
448,192,70529,1,0,0:0:0:0:
320,192,70529,1,0,0:0:0:0:
192,192,70597,1,0,0:0:0:0:
64,192,70665,1,0,0:0:0:0:
320,192,70665,1,0,0:0:0:0:
192,192,70801,1,0,0:0:0:0:
320,192,70801,1,0,0:0:0:0:
64,192,70938,1,0,0:0:0:0:
320,192,70938,1,0,0:0:0:0:
192,192,71074,1,0,0:0:0:0:
448,192,71074,1,0,0:0:0:0:
320,192,71210,1,0,0:0:0:0:
192,192,71210,1,0,0:0:0:0:
448,192,71279,1,0,0:0:0:0:
320,192,71347,1,0,0:0:0:0:
64,192,71347,1,0,0:0:0:0:
192,192,71483,1,0,0:0:0:0:
448,192,71483,1,0,0:0:0:0:
64,192,71620,1,0,0:0:0:0:
192,192,71620,1,0,0:0:0:0:
320,192,71756,1,0,0:0:0:0:
448,192,71756,1,0,0:0:0:0:
192,192,71824,1,0,0:0:0:0:
64,192,71892,1,0,0:0:0:0:
448,192,71892,1,0,0:0:0:0:
192,192,72029,1,0,0:0:0:0:
320,192,72029,1,0,0:0:0:0:
192,192,72165,1,0,0:0:0:0:
448,192,72165,1,0,0:0:0:0:
64,192,72301,1,0,0:0:0:0:
192,192,72301,1,0,0:0:0:0:
320,192,72370,1,0,0:0:0:0:
448,192,72438,1,0,0:0:0:0:
64,192,72438,1,0,0:0:0:0:
64,192,72574,1,0,0:0:0:0:
192,192,72574,1,0,0:0:0:0:
448,192,72710,1,0,0:0:0:0:
192,192,72710,1,0,0:0:0:0:
448,192,72847,1,0,0:0:0:0:
320,192,72847,1,0,0:0:0:0:
192,192,72915,1,0,0:0:0:0:
64,192,72983,1,0,0:0:0:0:
448,192,72983,1,0,0:0:0:0:
192,192,73120,1,0,0:0:0:0:
320,192,73120,1,0,0:0:0:0:
448,192,73256,1,0,0:0:0:0:
64,192,73256,1,0,0:0:0:0:
64,192,73392,1,0,0:0:0:0:
320,192,73392,1,0,0:0:0:0:
192,192,73529,1,0,0:0:0:0:
448,192,73529,1,0,0:0:0:0:
320,192,73665,1,0,0:0:0:0:
448,192,73665,1,0,0:0:0:0:
192,192,73801,1,0,0:0:0:0:
64,192,73801,1,0,0:0:0:0:
192,192,73938,1,0,0:0:0:0:
320,192,73938,1,0,0:0:0:0:
448,192,74074,1,0,0:0:0:0:
320,192,74074,1,0,0:0:0:0:
64,192,74210,128,0,75165:0:0:0:0:
448,192,74210,1,0,0:0:0:0:
320,192,74279,1,0,0:0:0:0:
192,192,74347,1,0,0:0:0:0:
448,192,74415,1,0,0:0:0:0:
320,192,74483,1,0,0:0:0:0:
192,192,74551,1,0,0:0:0:0:
448,192,74620,1,0,0:0:0:0:
320,192,74688,1,0,0:0:0:0:
192,192,74756,1,0,0:0:0:0:
448,192,74824,1,0,0:0:0:0:
320,192,74892,1,0,0:0:0:0:
192,192,74960,1,0,0:0:0:0:
448,192,75029,1,0,0:0:0:0:
320,192,75165,1,0,0:0:0:0:
192,192,75301,1,0,0:0:0:0:
320,192,75301,1,0,0:0:0:0:
448,192,75301,1,0,0:0:0:0:
192,192,75438,1,0,0:0:0:0:
64,192,75574,1,0,0:0:0:0:
320,192,75574,1,0,0:0:0:0:
448,192,75642,1,0,0:0:0:0:
192,192,75710,1,0,0:0:0:0:
320,192,75710,1,0,0:0:0:0:
64,192,75779,1,0,0:0:0:0:
192,192,75847,1,0,0:0:0:0:
320,192,75847,1,0,0:0:0:0:
448,192,75915,1,0,0:0:0:0:
64,192,75983,1,0,0:0:0:0:
320,192,75983,1,0,0:0:0:0:
192,192,76051,1,0,0:0:0:0:
64,192,76120,1,0,0:0:0:0:
448,192,76120,1,0,0:0:0:0:
320,192,76188,1,0,0:0:0:0:
192,192,76256,1,0,0:0:0:0:
64,192,76256,1,0,0:0:0:0:
320,192,76324,1,0,0:0:0:0:
448,192,76392,1,0,0:0:0:0:
64,192,76392,1,0,0:0:0:0:
192,192,76460,1,0,0:0:0:0:
448,192,76529,1,0,0:0:0:0:
320,192,76529,1,0,0:0:0:0:
64,192,76597,1,0,0:0:0:0:
192,192,76665,1,0,0:0:0:0:
320,192,76665,1,0,0:0:0:0:
448,192,76733,1,0,0:0:0:0:
64,192,76801,1,0,0:0:0:0:
320,192,76801,1,0,0:0:0:0:
192,192,76870,1,0,0:0:0:0:
64,192,76938,1,0,0:0:0:0:
448,192,76938,1,0,0:0:0:0:
320,192,77006,1,0,0:0:0:0:
448,192,77074,1,0,0:0:0:0:
192,192,77074,1,0,0:0:0:0:
64,192,77142,1,0,0:0:0:0:
192,192,77210,1,0,0:0:0:0:
320,192,77210,1,0,0:0:0:0:
448,192,77279,1,0,0:0:0:0:
64,192,77347,1,0,0:0:0:0:
320,192,77347,1,0,0:0:0:0:
192,192,77415,1,0,0:0:0:0:
448,192,77483,1,0,0:0:0:0:
320,192,77483,1,0,0:0:0:0:
192,192,77551,1,0,0:0:0:0:
64,192,77620,1,0,0:0:0:0:
448,192,77620,1,0,0:0:0:0:
320,192,77688,1,0,0:0:0:0:
192,192,77756,1,0,0:0:0:0:
64,192,77756,1,0,0:0:0:0:
320,192,77824,1,0,0:0:0:0:
448,192,77892,1,0,0:0:0:0:
192,192,77892,1,0,0:0:0:0:
64,192,77960,1,0,0:0:0:0:
192,192,78029,1,0,0:0:0:0:
320,192,78029,1,0,0:0:0:0:
448,192,78097,1,0,0:0:0:0:
64,192,78165,1,0,0:0:0:0:
320,192,78165,1,0,0:0:0:0:
192,192,78233,1,0,0:0:0:0:
320,192,78301,1,0,0:0:0:0:
448,192,78301,1,0,0:0:0:0:
192,192,78370,1,0,0:0:0:0:
64,192,78438,1,0,0:0:0:0:
448,192,78438,1,0,0:0:0:0:
320,192,78506,1,0,0:0:0:0:
192,192,78574,1,0,0:0:0:0:
64,192,78574,1,0,0:0:0:0:
320,192,78642,1,0,0:0:0:0:
448,192,78710,1,0,0:0:0:0:
64,192,78710,1,0,0:0:0:0:
192,192,78779,1,0,0:0:0:0:
320,192,78847,1,0,0:0:0:0:
64,192,78847,1,0,0:0:0:0:
448,192,78915,1,0,0:0:0:0:
320,192,78983,1,0,0:0:0:0:
192,192,78983,1,0,0:0:0:0:
64,192,79051,1,0,0:0:0:0:
448,192,79120,1,0,0:0:0:0:
192,192,79120,1,0,0:0:0:0:
320,192,79188,1,0,0:0:0:0:
448,192,79256,1,0,0:0:0:0:
64,192,79256,1,0,0:0:0:0:
192,192,79324,1,0,0:0:0:0:
320,192,79392,1,0,0:0:0:0:
448,192,79392,1,0,0:0:0:0:
192,192,79529,1,0,0:0:0:0:
320,192,79665,1,0,0:0:0:0:
192,192,79665,1,0,0:0:0:0:
64,192,79665,1,0,0:0:0:0:
448,192,79733,1,0,0:0:0:0:
192,192,79801,1,0,0:0:0:0:
64,192,79801,1,0,0:0:0:0:
320,192,79870,1,0,0:0:0:0:
448,192,79938,1,0,0:0:0:0:
64,192,79938,1,0,0:0:0:0:
192,192,80006,1,0,0:0:0:0:
320,192,80074,1,0,0:0:0:0:
64,192,80074,1,0,0:0:0:0:
448,192,80142,1,0,0:0:0:0:
320,192,80210,1,0,0:0:0:0:
192,192,80210,1,0,0:0:0:0:
64,192,80279,1,0,0:0:0:0:
448,192,80347,1,0,0:0:0:0:
192,192,80347,1,0,0:0:0:0:
320,192,80415,1,0,0:0:0:0:
448,192,80483,1,0,0:0:0:0:
64,192,80483,1,0,0:0:0:0:
192,192,80551,1,0,0:0:0:0:
320,192,80620,1,0,0:0:0:0:
64,192,80620,1,0,0:0:0:0:
448,192,80688,1,0,0:0:0:0:
320,192,80756,1,0,0:0:0:0:
192,192,80756,1,0,0:0:0:0:
64,192,80824,1,0,0:0:0:0:
448,192,80892,1,0,0:0:0:0:
320,192,80892,1,0,0:0:0:0:
192,192,80960,1,0,0:0:0:0:
64,192,81029,1,0,0:0:0:0:
448,192,81029,1,0,0:0:0:0:
320,192,81097,1,0,0:0:0:0:
192,192,81165,1,0,0:0:0:0:
448,192,81165,1,0,0:0:0:0:
64,192,81233,1,0,0:0:0:0:
192,192,81301,1,0,0:0:0:0:
320,192,81301,1,0,0:0:0:0:
448,192,81370,1,0,0:0:0:0:
64,192,81438,1,0,0:0:0:0:
320,192,81438,1,0,0:0:0:0:
192,192,81506,1,0,0:0:0:0:
64,192,81574,1,0,0:0:0:0:
448,192,81574,1,0,0:0:0:0:
320,192,81642,1,0,0:0:0:0:
192,192,81710,1,0,0:0:0:0:
64,192,81710,1,0,0:0:0:0:
320,192,81779,1,0,0:0:0:0:
448,192,81847,1,0,0:0:0:0:
192,192,81847,1,0,0:0:0:0:
64,192,81915,1,0,0:0:0:0:
192,192,81983,1,0,0:0:0:0:
320,192,81983,1,0,0:0:0:0:
448,192,82051,1,0,0:0:0:0:
64,192,82120,1,0,0:0:0:0:
320,192,82120,1,0,0:0:0:0:
192,192,82188,1,0,0:0:0:0:
64,192,82256,1,0,0:0:0:0:
448,192,82256,1,0,0:0:0:0:
320,192,82324,1,0,0:0:0:0:
448,192,82392,1,0,0:0:0:0:
192,192,82392,1,0,0:0:0:0:
64,192,82460,1,0,0:0:0:0:
192,192,82529,1,0,0:0:0:0:
320,192,82529,1,0,0:0:0:0:
448,192,82597,1,0,0:0:0:0:
64,192,82665,1,0,0:0:0:0:
320,192,82665,1,0,0:0:0:0:
192,192,82733,1,0,0:0:0:0:
64,192,82801,1,0,0:0:0:0:
448,192,82801,1,0,0:0:0:0:
320,192,82870,1,0,0:0:0:0:
192,192,82938,1,0,0:0:0:0:
64,192,83006,1,0,0:0:0:0:
192,192,83074,1,0,0:0:0:0:
64,192,83142,1,0,0:0:0:0:
320,192,83210,1,0,0:0:0:0:
448,192,83279,1,0,0:0:0:0:
320,192,83347,1,0,0:0:0:0:
448,192,83415,1,0,0:0:0:0:
192,192,83483,1,0,0:0:0:0:
64,192,83483,1,0,0:0:0:0:
320,192,83551,1,0,0:0:0:0:
448,192,83551,1,0,0:0:0:0:
192,192,83620,1,0,0:0:0:0:
64,192,83620,1,0,0:0:0:0:
320,192,83688,1,0,0:0:0:0:
448,192,83688,1,0,0:0:0:0:
64,192,83756,1,0,0:0:0:0:
448,192,83824,1,0,0:0:0:0:
64,192,83892,1,0,0:0:0:0:
448,192,83960,1,0,0:0:0:0:
320,192,84029,1,0,0:0:0:0:
192,192,84029,1,0,0:0:0:0:
64,192,84029,1,0,0:0:0:0:
448,192,84097,1,0,0:0:0:0:
320,192,84165,1,0,0:0:0:0:
192,192,84165,1,0,0:0:0:0:
64,192,84233,1,0,0:0:0:0:
192,192,84301,1,0,0:0:0:0:
448,192,84301,1,0,0:0:0:0:
320,192,84370,1,0,0:0:0:0:
64,192,84438,1,0,0:0:0:0:
448,192,84438,1,0,0:0:0:0:
192,192,84506,1,0,0:0:0:0:
320,192,84574,1,0,0:0:0:0:
448,192,84574,1,0,0:0:0:0:
192,192,84642,1,0,0:0:0:0:
64,192,84710,1,0,0:0:0:0:
320,192,84710,1,0,0:0:0:0:
448,192,84779,1,0,0:0:0:0:
320,192,84847,1,0,0:0:0:0:
192,192,84847,1,0,0:0:0:0:
64,192,84915,1,0,0:0:0:0:
448,192,84983,1,0,0:0:0:0:
192,192,84983,1,0,0:0:0:0:
320,192,85051,1,0,0:0:0:0:
448,192,85120,1,0,0:0:0:0:
64,192,85120,1,0,0:0:0:0:
192,192,85188,1,0,0:0:0:0:
320,192,85256,1,0,0:0:0:0:
448,192,85256,1,0,0:0:0:0:
192,192,85324,1,0,0:0:0:0:
64,192,85392,1,0,0:0:0:0:
320,192,85392,1,0,0:0:0:0:
448,192,85460,1,0,0:0:0:0:
192,192,85529,1,0,0:0:0:0:
320,192,85529,1,0,0:0:0:0:
64,192,85597,1,0,0:0:0:0:
192,192,85665,1,0,0:0:0:0:
448,192,85665,1,0,0:0:0:0:
320,192,85733,1,0,0:0:0:0:
448,192,85801,1,0,0:0:0:0:
64,192,85801,1,0,0:0:0:0:
320,192,85870,1,0,0:0:0:0:
192,192,85938,1,0,0:0:0:0:
64,192,85938,1,0,0:0:0:0:
320,192,86006,1,0,0:0:0:0:
448,192,86074,1,0,0:0:0:0:
192,192,86074,1,0,0:0:0:0:
64,192,86142,1,0,0:0:0:0:
192,192,86210,1,0,0:0:0:0:
320,192,86210,1,0,0:0:0:0:
448,192,86279,1,0,0:0:0:0:
320,192,86347,1,0,0:0:0:0:
64,192,86347,1,0,0:0:0:0:
192,192,86415,1,0,0:0:0:0:
448,192,86483,1,0,0:0:0:0:
320,192,86483,1,0,0:0:0:0:
192,192,86551,1,0,0:0:0:0:
64,192,86620,1,0,0:0:0:0:
448,192,86620,1,0,0:0:0:0:
320,192,86688,1,0,0:0:0:0:
192,192,86756,1,0,0:0:0:0:
64,192,86756,1,0,0:0:0:0:
320,192,86824,1,0,0:0:0:0:
448,192,86892,1,0,0:0:0:0:
192,192,86892,1,0,0:0:0:0:
64,192,86960,1,0,0:0:0:0:
320,192,87029,1,0,0:0:0:0:
192,192,87029,1,0,0:0:0:0:
448,192,87097,1,0,0:0:0:0:
320,192,87165,1,0,0:0:0:0:
64,192,87165,1,0,0:0:0:0:
192,192,87233,1,0,0:0:0:0:
320,192,87301,1,0,0:0:0:0:
448,192,87301,1,0,0:0:0:0:
64,192,87370,1,0,0:0:0:0:
192,192,87438,1,0,0:0:0:0:
448,192,87438,1,0,0:0:0:0:
320,192,87506,1,0,0:0:0:0:
192,192,87574,1,0,0:0:0:0:
64,192,87574,1,0,0:0:0:0:
448,192,87642,1,0,0:0:0:0:
320,192,87710,1,0,0:0:0:0:
64,192,87710,1,0,0:0:0:0:
192,192,87779,1,0,0:0:0:0:
320,192,87847,1,0,0:0:0:0:
448,192,87847,1,0,0:0:0:0:
64,192,87915,1,0,0:0:0:0:
192,192,87983,1,0,0:0:0:0:
320,192,87983,1,0,0:0:0:0:
448,192,88051,1,0,0:0:0:0:
64,192,88120,1,0,0:0:0:0:
320,192,88120,1,0,0:0:0:0:
192,192,88188,1,0,0:0:0:0:
64,192,88256,1,0,0:0:0:0:
448,192,88256,1,0,0:0:0:0:
320,192,88324,1,0,0:0:0:0:
192,192,88392,1,0,0:0:0:0:
64,192,88392,1,0,0:0:0:0:
448,192,88392,1,0,0:0:0:0:
320,192,88460,1,0,0:0:0:0:
192,192,88529,1,0,0:0:0:0:
64,192,88597,1,0,0:0:0:0:
192,192,88665,1,0,0:0:0:0:
320,192,88665,1,0,0:0:0:0:
448,192,88733,1,0,0:0:0:0:
64,192,88801,1,0,0:0:0:0:
320,192,88801,1,0,0:0:0:0:
192,192,88870,1,0,0:0:0:0:
320,192,88938,1,0,0:0:0:0:
448,192,88938,1,0,0:0:0:0:
192,192,89006,1,0,0:0:0:0:
64,192,89074,1,0,0:0:0:0:
320,192,89074,1,0,0:0:0:0:
448,192,89142,1,0,0:0:0:0:
320,192,89210,1,0,0:0:0:0:
192,192,89210,1,0,0:0:0:0:
64,192,89279,1,0,0:0:0:0:
448,192,89347,1,0,0:0:0:0:
320,192,89347,1,0,0:0:0:0:
192,192,89415,1,0,0:0:0:0:
64,192,89483,1,0,0:0:0:0:
448,192,89483,1,0,0:0:0:0:
320,192,89551,1,0,0:0:0:0:
192,192,89620,1,0,0:0:0:0:
448,192,89620,1,0,0:0:0:0:
64,192,89688,1,0,0:0:0:0:
192,192,89756,1,0,0:0:0:0:
320,192,89756,1,0,0:0:0:0:
448,192,89824,1,0,0:0:0:0:
64,192,89892,1,0,0:0:0:0:
320,192,89892,1,0,0:0:0:0:
192,192,89960,1,0,0:0:0:0:
448,192,90029,1,0,0:0:0:0:
64,192,90029,1,0,0:0:0:0:
192,192,90097,1,0,0:0:0:0:
320,192,90165,1,0,0:0:0:0:
448,192,90165,1,0,0:0:0:0:
192,192,90233,1,0,0:0:0:0:
64,192,90301,1,0,0:0:0:0:
448,192,90301,1,0,0:0:0:0:
320,192,90370,1,0,0:0:0:0:
448,192,90438,1,0,0:0:0:0:
192,192,90438,1,0,0:0:0:0:
64,192,90506,1,0,0:0:0:0:
320,192,90574,1,0,0:0:0:0:
448,192,90574,1,0,0:0:0:0:
192,192,90574,1,0,0:0:0:0:
448,192,90710,1,0,0:0:0:0:
448,192,90847,1,0,0:0:0:0:
64,192,90983,1,0,0:0:0:0:
192,192,90983,1,0,0:0:0:0:
320,192,90983,1,0,0:0:0:0:
64,192,91120,1,0,0:0:0:0:
64,192,91256,1,0,0:0:0:0:
192,192,91392,1,0,0:0:0:0:
320,192,91460,1,0,0:0:0:0:
192,192,91529,1,0,0:0:0:0:
320,192,91597,1,0,0:0:0:0:
64,192,91665,1,0,0:0:0:0:
448,192,91665,1,0,0:0:0:0:
192,192,91938,1,0,0:0:0:0:
448,192,91938,1,0,0:0:0:0:
320,192,92210,1,0,0:0:0:0:
64,192,92210,1,0,0:0:0:0:
192,192,92483,1,0,0:0:0:0:
64,192,92483,1,0,0:0:0:0:
448,192,92483,1,0,0:0:0:0:
64,192,92756,1,0,0:0:0:0:
320,192,92756,1,0,0:0:0:0:
192,192,92756,1,0,0:0:0:0:
192,192,92892,1,0,0:0:0:0:
448,192,92892,1,0,0:0:0:0:
320,192,93029,1,0,0:0:0:0:
192,192,93029,1,0,0:0:0:0:
64,192,93029,1,0,0:0:0:0:
64,192,93165,1,0,0:0:0:0:
320,192,93165,1,0,0:0:0:0:
448,192,93301,1,0,0:0:0:0:
192,192,93301,1,0,0:0:0:0:
320,192,93301,1,0,0:0:0:0:
448,192,93438,1,0,0:0:0:0:
320,192,93438,1,0,0:0:0:0:
64,192,93574,1,0,0:0:0:0:
320,192,93574,1,0,0:0:0:0:
192,192,93574,1,0,0:0:0:0:
192,192,93710,1,0,0:0:0:0:
64,192,93710,1,0,0:0:0:0:
448,192,93847,1,0,0:0:0:0:
192,192,93847,1,0,0:0:0:0:
320,192,93847,1,0,0:0:0:0:
320,192,93983,1,0,0:0:0:0:
448,192,93983,1,0,0:0:0:0:
64,192,94120,1,0,0:0:0:0:
320,192,94120,1,0,0:0:0:0:
192,192,94120,1,0,0:0:0:0:
192,192,94256,1,0,0:0:0:0:
320,192,94256,1,0,0:0:0:0:
448,192,94392,1,0,0:0:0:0:
64,192,94392,1,0,0:0:0:0:
192,192,94392,1,0,0:0:0:0:
64,192,94529,1,0,0:0:0:0:
320,192,94529,1,0,0:0:0:0:
192,192,94665,1,0,0:0:0:0:
448,192,94665,1,0,0:0:0:0:
64,192,94665,1,0,0:0:0:0:
320,192,94801,1,0,0:0:0:0:
64,192,94801,1,0,0:0:0:0:
192,192,94938,1,0,0:0:0:0:
320,192,94938,1,0,0:0:0:0:
448,192,94938,1,0,0:0:0:0:
448,192,95074,1,0,0:0:0:0:
320,192,95074,1,0,0:0:0:0:
64,192,95210,1,0,0:0:0:0:
192,192,95210,1,0,0:0:0:0:
448,192,95210,1,0,0:0:0:0:
320,192,95279,1,0,0:0:0:0:
448,192,95347,1,0,0:0:0:0:
64,192,95347,1,0,0:0:0:0:
192,192,95415,1,0,0:0:0:0:
320,192,95483,1,0,0:0:0:0:
448,192,95483,1,0,0:0:0:0:
64,192,95551,1,0,0:0:0:0:
192,192,95620,1,0,0:0:0:0:
320,192,95620,1,0,0:0:0:0:
448,192,95688,1,0,0:0:0:0:
64,192,95756,1,0,0:0:0:0:
192,192,95756,1,0,0:0:0:0:
320,192,95756,1,0,0:0:0:0:
320,192,95824,1,0,0:0:0:0:
448,192,95892,1,0,0:0:0:0:
64,192,95892,1,0,0:0:0:0:
192,192,95960,1,0,0:0:0:0:
320,192,96029,1,0,0:0:0:0:
448,192,96029,1,0,0:0:0:0:
64,192,96029,1,0,0:0:0:0:
64,192,96165,1,0,0:0:0:0:
320,192,96165,1,0,0:0:0:0:
192,192,96301,1,0,0:0:0:0:
448,192,96301,1,0,0:0:0:0:
320,192,96301,1,0,0:0:0:0:
192,192,96438,1,0,0:0:0:0:
64,192,96438,1,0,0:0:0:0:
320,192,96574,1,0,0:0:0:0:
192,192,96574,1,0,0:0:0:0:
448,192,96574,1,0,0:0:0:0:
448,192,96710,1,0,0:0:0:0:
64,192,96710,1,0,0:0:0:0:
320,192,96847,1,0,0:0:0:0:
192,192,96847,1,0,0:0:0:0:
448,192,96847,1,0,0:0:0:0:
64,192,96983,1,0,0:0:0:0:
448,192,96983,1,0,0:0:0:0:
192,192,97120,1,0,0:0:0:0:
320,192,97120,1,0,0:0:0:0:
448,192,97120,1,0,0:0:0:0:
64,192,97256,1,0,0:0:0:0:
320,192,97256,1,0,0:0:0:0:
64,192,97392,1,0,0:0:0:0:
192,192,97392,1,0,0:0:0:0:
320,192,97392,1,0,0:0:0:0:
448,192,97529,1,0,0:0:0:0:
192,192,97529,1,0,0:0:0:0:
448,192,97665,1,0,0:0:0:0:
320,192,97665,1,0,0:0:0:0:
64,192,97665,1,0,0:0:0:0:
320,192,97801,1,0,0:0:0:0:
64,192,97801,1,0,0:0:0:0:
64,192,97938,1,0,0:0:0:0:
192,192,97938,1,0,0:0:0:0:
320,192,97938,1,0,0:0:0:0:
448,192,98074,1,0,0:0:0:0:
64,192,98074,1,0,0:0:0:0:
192,192,98210,1,0,0:0:0:0:
448,192,98210,1,0,0:0:0:0:
320,192,98210,1,0,0:0:0:0:
320,192,98347,1,0,0:0:0:0:
64,192,98347,1,0,0:0:0:0:
192,192,98483,1,0,0:0:0:0:
320,192,98483,1,0,0:0:0:0:
448,192,98483,1,0,0:0:0:0:
64,192,98620,1,0,0:0:0:0:
448,192,98620,1,0,0:0:0:0:
448,192,98756,1,0,0:0:0:0:
192,192,98756,1,0,0:0:0:0:
64,192,98756,1,0,0:0:0:0:
320,192,98892,1,0,0:0:0:0:
448,192,98892,1,0,0:0:0:0:
64,192,99029,1,0,0:0:0:0:
320,192,99029,1,0,0:0:0:0:
192,192,99029,1,0,0:0:0:0:
64,192,99165,1,0,0:0:0:0:
192,192,99165,1,0,0:0:0:0:
448,192,99301,1,0,0:0:0:0:
192,192,99301,1,0,0:0:0:0:
64,192,99301,1,0,0:0:0:0:
448,192,99438,1,0,0:0:0:0:
320,192,99438,1,0,0:0:0:0:
64,192,99574,1,0,0:0:0:0:
320,192,99574,1,0,0:0:0:0:
448,192,99574,1,0,0:0:0:0:
64,192,99710,1,0,0:0:0:0:
192,192,99710,1,0,0:0:0:0:
192,192,99847,1,0,0:0:0:0:
320,192,99847,1,0,0:0:0:0:
448,192,99847,1,0,0:0:0:0:
448,192,99983,1,0,0:0:0:0:
64,192,99983,1,0,0:0:0:0:
192,192,100120,1,0,0:0:0:0:
320,192,100120,1,0,0:0:0:0:
448,192,100120,1,0,0:0:0:0:
64,192,100256,1,0,0:0:0:0:
320,192,100256,1,0,0:0:0:0:
448,192,100392,1,0,0:0:0:0:
64,192,100392,1,0,0:0:0:0:
192,192,100392,1,0,0:0:0:0:
320,192,100529,1,0,0:0:0:0:
192,192,100529,1,0,0:0:0:0:
64,192,100665,1,0,0:0:0:0:
448,192,100665,1,0,0:0:0:0:
192,192,100665,1,0,0:0:0:0:
64,192,100801,1,0,0:0:0:0:
320,192,100801,1,0,0:0:0:0:
192,192,100938,1,0,0:0:0:0:
448,192,100938,1,0,0:0:0:0:
320,192,101006,1,0,0:0:0:0:
192,192,101074,1,0,0:0:0:0:
320,192,101142,1,0,0:0:0:0:
448,192,101210,1,0,0:0:0:0:
64,192,101210,1,0,0:0:0:0:
192,192,101347,1,0,0:0:0:0:
64,192,101347,1,0,0:0:0:0:
448,192,101483,1,0,0:0:0:0:
192,192,101483,1,0,0:0:0:0:
320,192,101483,1,0,0:0:0:0:
320,192,101620,1,0,0:0:0:0:
64,192,101620,1,0,0:0:0:0:
192,192,101756,1,0,0:0:0:0:
448,192,101756,1,0,0:0:0:0:
320,192,101756,1,0,0:0:0:0:
64,192,101824,1,0,0:0:0:0:
192,192,101892,1,0,0:0:0:0:
320,192,101892,1,0,0:0:0:0:
448,192,102029,1,0,0:0:0:0:
64,192,102029,1,0,0:0:0:0:
192,192,102029,1,0,0:0:0:0:
320,192,102165,1,0,0:0:0:0:
64,192,102165,1,0,0:0:0:0:
192,192,102301,1,0,0:0:0:0:
448,192,102301,1,0,0:0:0:0:
320,192,102301,1,0,0:0:0:0:
64,192,102370,1,0,0:0:0:0:
192,192,102438,1,0,0:0:0:0:
320,192,102438,1,0,0:0:0:0:
64,192,102574,1,0,0:0:0:0:
192,192,102574,1,0,0:0:0:0:
448,192,102574,1,0,0:0:0:0:
448,192,102710,1,0,0:0:0:0:
192,192,102710,1,0,0:0:0:0:
448,192,102847,1,0,0:0:0:0:
320,192,102847,1,0,0:0:0:0:
64,192,102847,1,0,0:0:0:0:
192,192,102915,1,0,0:0:0:0:
64,192,102983,1,0,0:0:0:0:
448,192,102983,1,0,0:0:0:0:
192,192,103120,1,0,0:0:0:0:
320,192,103120,1,0,0:0:0:0:
448,192,103120,1,0,0:0:0:0:
64,192,103256,1,0,0:0:0:0:
320,192,103256,1,0,0:0:0:0:
192,192,103392,1,0,0:0:0:0:
64,192,103392,1,0,0:0:0:0:
320,192,103392,1,0,0:0:0:0:
448,192,103529,1,0,0:0:0:0:
64,192,103529,1,0,0:0:0:0:
320,192,103665,1,0,0:0:0:0:
448,192,103665,1,0,0:0:0:0:
64,192,103665,1,0,0:0:0:0:
192,192,103801,1,0,0:0:0:0:
320,192,103801,1,0,0:0:0:0:
64,192,103938,1,0,0:0:0:0:
448,192,103938,1,0,0:0:0:0:
192,192,103938,1,0,0:0:0:0:
448,192,104074,1,0,0:0:0:0:
192,192,104074,1,0,0:0:0:0:
64,192,104210,1,0,0:0:0:0:
320,192,104210,1,0,0:0:0:0:
448,192,104210,1,0,0:0:0:0:
64,192,104347,1,0,0:0:0:0:
192,192,104347,1,0,0:0:0:0:
448,192,104483,1,0,0:0:0:0:
64,192,104483,1,0,0:0:0:0:
320,192,104483,1,0,0:0:0:0:
448,192,104620,1,0,0:0:0:0:
192,192,104620,1,0,0:0:0:0:
320,192,104756,1,0,0:0:0:0:
64,192,104756,1,0,0:0:0:0:
192,192,104756,1,0,0:0:0:0:
192,192,104892,1,0,0:0:0:0:
320,192,104892,1,0,0:0:0:0:
64,192,105029,1,0,0:0:0:0:
448,192,105029,1,0,0:0:0:0:
320,192,105029,1,0,0:0:0:0:
192,192,105165,1,0,0:0:0:0:
448,192,105165,1,0,0:0:0:0:
320,192,105301,1,0,0:0:0:0:
64,192,105301,1,0,0:0:0:0:
448,192,105301,1,0,0:0:0:0:
192,192,105438,1,0,0:0:0:0:
320,192,105438,1,0,0:0:0:0:
448,192,105574,1,0,0:0:0:0:
64,192,105574,1,0,0:0:0:0:
192,192,105574,1,0,0:0:0:0:
64,192,105710,1,0,0:0:0:0:
320,192,105710,1,0,0:0:0:0:
448,192,105847,1,0,0:0:0:0:
320,192,105847,1,0,0:0:0:0:
192,192,105915,1,0,0:0:0:0:
448,192,105983,1,0,0:0:0:0:
192,192,106051,1,0,0:0:0:0:
448,192,106120,1,0,0:0:0:0:
320,192,106120,1,0,0:0:0:0:
192,192,106188,1,0,0:0:0:0:
448,192,106256,1,0,0:0:0:0:
192,192,106324,1,0,0:0:0:0:
448,192,106392,1,0,0:0:0:0:
320,192,106392,1,0,0:0:0:0:
192,192,106460,1,0,0:0:0:0:
448,192,106529,1,0,0:0:0:0:
192,192,106597,1,0,0:0:0:0:
448,192,106665,1,0,0:0:0:0:
320,192,106665,1,0,0:0:0:0:
192,192,106733,1,0,0:0:0:0:
448,192,106801,1,0,0:0:0:0:
192,192,106870,1,0,0:0:0:0:
448,192,106938,1,0,0:0:0:0:
320,192,106938,1,0,0:0:0:0:
192,192,107006,1,0,0:0:0:0:
448,192,107074,1,0,0:0:0:0:
192,192,107142,1,0,0:0:0:0:
448,192,107210,1,0,0:0:0:0:
320,192,107210,1,0,0:0:0:0:
192,192,107279,1,0,0:0:0:0:
320,192,107347,1,0,0:0:0:0:
192,192,107415,1,0,0:0:0:0:
320,192,107483,1,0,0:0:0:0:
448,192,107483,1,0,0:0:0:0:
192,192,107551,1,0,0:0:0:0:
320,192,107620,1,0,0:0:0:0:
192,192,107688,1,0,0:0:0:0:
320,192,107756,1,0,0:0:0:0:
448,192,107756,1,0,0:0:0:0:
64,192,107824,1,0,0:0:0:0:
320,192,107892,1,0,0:0:0:0:
64,192,107960,1,0,0:0:0:0:
320,192,108029,1,0,0:0:0:0:
192,192,108029,1,0,0:0:0:0:
448,192,108097,1,0,0:0:0:0:
320,192,108165,1,0,0:0:0:0:
448,192,108233,1,0,0:0:0:0:
320,192,108301,1,0,0:0:0:0:
192,192,108301,1,0,0:0:0:0:
448,192,108370,1,0,0:0:0:0:
320,192,108438,1,0,0:0:0:0:
448,192,108506,1,0,0:0:0:0:
320,192,108574,1,0,0:0:0:0:
192,192,108574,1,0,0:0:0:0:
448,192,108642,1,0,0:0:0:0:
320,192,108710,1,0,0:0:0:0:
448,192,108779,1,0,0:0:0:0:
320,192,108847,1,0,0:0:0:0:
192,192,108847,1,0,0:0:0:0:
448,192,108915,1,0,0:0:0:0:
320,192,108983,1,0,0:0:0:0:
448,192,109051,1,0,0:0:0:0:
64,192,109120,1,0,0:0:0:0:
192,192,109120,1,0,0:0:0:0:
192,192,110210,1,0,0:0:0:0:
448,192,110210,1,0,0:0:0:0:
320,192,110279,1,0,0:0:0:0:
192,192,110347,1,0,0:0:0:0:
64,192,110415,1,0,0:0:0:0:
320,192,110483,1,0,0:0:0:0:
448,192,110551,1,0,0:0:0:0:
64,192,110620,1,0,0:0:0:0:
192,192,110688,1,0,0:0:0:0:
320,192,110756,1,0,0:0:0:0:
64,192,110824,1,0,0:0:0:0:
192,192,110892,1,0,0:0:0:0:
448,192,110960,1,0,0:0:0:0:
320,192,111029,1,0,0:0:0:0:
64,192,111097,1,0,0:0:0:0:
192,192,111165,1,0,0:0:0:0:
448,192,111233,1,0,0:0:0:0:
320,192,111301,1,0,0:0:0:0:
64,192,111370,1,0,0:0:0:0:
192,192,111438,1,0,0:0:0:0:
320,192,111506,1,0,0:0:0:0:
64,192,111574,1,0,0:0:0:0:
448,192,111642,1,0,0:0:0:0:
320,192,111710,1,0,0:0:0:0:
192,192,111779,1,0,0:0:0:0:
448,192,111847,1,0,0:0:0:0:
320,192,111915,1,0,0:0:0:0:
64,192,111983,1,0,0:0:0:0:
192,192,112051,1,0,0:0:0:0:
448,192,112120,1,0,0:0:0:0:
320,192,112188,1,0,0:0:0:0:
192,192,112256,1,0,0:0:0:0:
64,192,112324,1,0,0:0:0:0:
448,192,112392,1,0,0:0:0:0:
320,192,112460,1,0,0:0:0:0:
192,192,112529,1,0,0:0:0:0:
64,192,112597,1,0,0:0:0:0:
320,192,112665,1,0,0:0:0:0:
448,192,112733,1,0,0:0:0:0:
64,192,112801,1,0,0:0:0:0:
192,192,112870,1,0,0:0:0:0:
448,192,112938,1,0,0:0:0:0:
320,192,113006,1,0,0:0:0:0:
192,192,113074,1,0,0:0:0:0:
64,192,113142,1,0,0:0:0:0:
448,192,113210,1,0,0:0:0:0:
320,192,113279,1,0,0:0:0:0:
192,192,113347,1,0,0:0:0:0:
64,192,113415,1,0,0:0:0:0:
320,192,113483,1,0,0:0:0:0:
448,192,113551,1,0,0:0:0:0:
64,192,113620,1,0,0:0:0:0:
192,192,113688,1,0,0:0:0:0:
320,192,113756,1,0,0:0:0:0:
448,192,113824,1,0,0:0:0:0:
64,192,113892,1,0,0:0:0:0:
192,192,113960,1,0,0:0:0:0:
320,192,114029,1,0,0:0:0:0:
192,192,114097,1,0,0:0:0:0:
64,192,114165,1,0,0:0:0:0:
448,192,114233,1,0,0:0:0:0:
320,192,114301,1,0,0:0:0:0:
192,192,114370,1,0,0:0:0:0:
64,192,114438,1,0,0:0:0:0:
448,192,114506,1,0,0:0:0:0:
192,192,114574,1,0,0:0:0:0:
320,192,114642,1,0,0:0:0:0:
192,192,114710,1,0,0:0:0:0:
320,192,114779,1,0,0:0:0:0:
192,192,114847,1,0,0:0:0:0:
320,192,114915,1,0,0:0:0:0:
192,192,114983,1,0,0:0:0:0:
448,192,114983,1,0,0:0:0:0:
64,192,115051,1,0,0:0:0:0:
192,192,115120,1,0,0:0:0:0:
320,192,115120,1,0,0:0:0:0:
448,192,115188,1,0,0:0:0:0:
64,192,115256,1,0,0:0:0:0:
192,192,115324,1,0,0:0:0:0:
320,192,115392,1,0,0:0:0:0:
448,192,115392,1,0,0:0:0:0:
64,192,115529,1,0,0:0:0:0:
192,192,115529,1,0,0:0:0:0:
320,192,115597,1,0,0:0:0:0:
448,192,115597,1,0,0:0:0:0:
64,192,115665,1,0,0:0:0:0:
192,192,115665,1,0,0:0:0:0:
320,192,115801,1,0,0:0:0:0:
448,192,115801,1,0,0:0:0:0:
192,192,115938,1,0,0:0:0:0:
448,192,115938,1,0,0:0:0:0:
64,192,116074,1,0,0:0:0:0:
320,192,116074,1,0,0:0:0:0:
64,192,116210,1,0,0:0:0:0:
192,192,116210,1,0,0:0:0:0:
320,192,116347,1,0,0:0:0:0:
448,192,116347,1,0,0:0:0:0:
320,192,116483,1,0,0:0:0:0:
64,192,116483,1,0,0:0:0:0:
64,192,116620,1,0,0:0:0:0:
192,192,116620,1,0,0:0:0:0:
448,192,116756,1,0,0:0:0:0:
64,192,116756,1,0,0:0:0:0:
192,192,116892,1,0,0:0:0:0:
448,192,116892,1,0,0:0:0:0:
320,192,117029,1,0,0:0:0:0:
64,192,117029,1,0,0:0:0:0:
64,192,117165,1,0,0:0:0:0:
192,192,117165,1,0,0:0:0:0:
448,192,117301,1,0,0:0:0:0:
192,192,117301,1,0,0:0:0:0:
320,192,117438,1,0,0:0:0:0:
64,192,117438,1,0,0:0:0:0:
192,192,117574,1,0,0:0:0:0:
448,192,117574,1,0,0:0:0:0:
64,192,117710,128,0,117915:0:0:0:0:
192,192,117710,128,0,117915:0:0:0:0:
64,192,117983,1,0,0:0:0:0:
192,192,117983,1,0,0:0:0:0:
64,192,118120,1,0,0:0:0:0:
192,192,118120,1,0,0:0:0:0:
64,192,118256,1,0,0:0:0:0:
192,192,118256,1,0,0:0:0:0:
64,192,118392,1,0,0:0:0:0:
192,192,118392,1,0,0:0:0:0:
448,192,118460,1,0,0:0:0:0:
320,192,118460,1,0,0:0:0:0:
64,192,118529,1,0,0:0:0:0:
192,192,118529,1,0,0:0:0:0:
320,192,118597,1,0,0:0:0:0:
448,192,118597,1,0,0:0:0:0:
64,192,118665,1,0,0:0:0:0:
192,192,118665,1,0,0:0:0:0:
192,192,118938,1,0,0:0:0:0:
448,192,118938,1,0,0:0:0:0:
320,192,118938,1,0,0:0:0:0:
192,192,119074,1,0,0:0:0:0:
448,192,119074,1,0,0:0:0:0:
320,192,119074,1,0,0:0:0:0:
64,192,120847,1,0,0:0:0:0:
320,192,120847,1,0,0:0:0:0:
64,192,121120,1,0,0:0:0:0:
192,192,121120,1,0,0:0:0:0:
320,192,121120,1,0,0:0:0:0:
192,192,121256,1,0,0:0:0:0:
64,192,121256,1,0,0:0:0:0:
320,192,121256,1,0,0:0:0:0:
192,192,123301,1,0,0:0:0:0:
320,192,123301,1,0,0:0:0:0:
448,192,123301,1,0,0:0:0:0:
448,192,123438,1,0,0:0:0:0:
320,192,123438,1,0,0:0:0:0:
192,192,123438,1,0,0:0:0:0:
192,192,125210,1,0,0:0:0:0:
448,192,125483,1,0,0:0:0:0:
64,192,125551,1,0,0:0:0:0:
192,192,125551,1,0,0:0:0:0:
320,192,125620,1,0,0:0:0:0:
448,192,125688,1,0,0:0:0:0:
64,192,126029,1,0,0:0:0:0:
192,192,126029,1,0,0:0:0:0:
448,192,126574,1,0,0:0:0:0:
320,192,126574,1,0,0:0:0:0:
64,192,126574,1,0,0:0:0:0:
64,192,126847,1,0,0:0:0:0:
192,192,126847,1,0,0:0:0:0:
448,192,126847,1,0,0:0:0:0:
448,192,127120,1,0,0:0:0:0:
320,192,127120,1,0,0:0:0:0:
64,192,127120,1,0,0:0:0:0:
448,192,127665,1,0,0:0:0:0:
192,192,127665,1,0,0:0:0:0:
320,192,127665,1,0,0:0:0:0:
64,192,127801,1,0,0:0:0:0:
320,192,127801,1,0,0:0:0:0:
192,192,127938,1,0,0:0:0:0:
320,192,127938,1,0,0:0:0:0:
448,192,127938,1,0,0:0:0:0:
192,192,128074,1,0,0:0:0:0:
64,192,128074,1,0,0:0:0:0:
448,192,128210,1,0,0:0:0:0:
320,192,128210,1,0,0:0:0:0:
64,192,128210,1,0,0:0:0:0:
448,192,128347,1,0,0:0:0:0:
64,192,128347,1,0,0:0:0:0:
64,192,128483,1,0,0:0:0:0:
192,192,128483,1,0,0:0:0:0:
320,192,128483,1,0,0:0:0:0:
192,192,128620,1,0,0:0:0:0:
448,192,128620,1,0,0:0:0:0:
448,192,128756,1,0,0:0:0:0:
320,192,128756,1,0,0:0:0:0:
64,192,128756,1,0,0:0:0:0:
192,192,128892,1,0,0:0:0:0:
64,192,128892,1,0,0:0:0:0:
448,192,129029,1,0,0:0:0:0:
320,192,129029,1,0,0:0:0:0:
64,192,129029,1,0,0:0:0:0:
192,192,129165,1,0,0:0:0:0:
448,192,129165,1,0,0:0:0:0:
192,192,129301,1,0,0:0:0:0:
320,192,129301,1,0,0:0:0:0:
64,192,129301,1,0,0:0:0:0:
64,192,129438,1,0,0:0:0:0:
320,192,129438,1,0,0:0:0:0:
448,192,129574,1,0,0:0:0:0:
320,192,129574,1,0,0:0:0:0:
192,192,129574,1,0,0:0:0:0:
448,192,129710,1,0,0:0:0:0:
320,192,129710,1,0,0:0:0:0:
64,192,129847,1,0,0:0:0:0:
192,192,129847,1,0,0:0:0:0:
448,192,129847,1,0,0:0:0:0:
64,192,129983,1,0,0:0:0:0:
192,192,129983,1,0,0:0:0:0:
448,192,130120,1,0,0:0:0:0:
320,192,130120,1,0,0:0:0:0:
192,192,130120,1,0,0:0:0:0:
448,192,130256,1,0,0:0:0:0:
64,192,130256,1,0,0:0:0:0:
64,192,130392,1,0,0:0:0:0:
192,192,130392,1,0,0:0:0:0:
320,192,130392,1,0,0:0:0:0:
64,192,130529,1,0,0:0:0:0:
320,192,130529,1,0,0:0:0:0:
192,192,130665,1,0,0:0:0:0:
320,192,130665,1,0,0:0:0:0:
448,192,130665,1,0,0:0:0:0:
448,192,130801,1,0,0:0:0:0:
64,192,130801,1,0,0:0:0:0:
64,192,130938,1,0,0:0:0:0:
192,192,130938,1,0,0:0:0:0:
320,192,130938,1,0,0:0:0:0:
192,192,131074,1,0,0:0:0:0:
320,192,131074,1,0,0:0:0:0:
320,192,131210,1,0,0:0:0:0:
448,192,131210,1,0,0:0:0:0:
64,192,131210,1,0,0:0:0:0:
64,192,131347,1,0,0:0:0:0:
320,192,131347,1,0,0:0:0:0:
448,192,131483,1,0,0:0:0:0:
320,192,131483,1,0,0:0:0:0:
192,192,131483,1,0,0:0:0:0:
448,192,131620,1,0,0:0:0:0:
192,192,131620,1,0,0:0:0:0:
320,192,131756,1,0,0:0:0:0:
192,192,131756,1,0,0:0:0:0:
64,192,131756,1,0,0:0:0:0:
64,192,131892,1,0,0:0:0:0:
192,192,131892,1,0,0:0:0:0:
192,192,132029,1,0,0:0:0:0:
320,192,132029,1,0,0:0:0:0:
448,192,132029,1,0,0:0:0:0:
64,192,132301,1,0,0:0:0:0:
320,192,132301,1,0,0:0:0:0:
192,192,132438,1,0,0:0:0:0:
448,192,132438,1,0,0:0:0:0:
320,192,132438,1,0,0:0:0:0:
64,192,132710,1,0,0:0:0:0:
320,192,132710,1,0,0:0:0:0:
64,192,132847,1,0,0:0:0:0:
192,192,132847,1,0,0:0:0:0:
64,192,132983,1,0,0:0:0:0:
192,192,132983,1,0,0:0:0:0:
448,192,133256,1,0,0:0:0:0:
192,192,133256,1,0,0:0:0:0:
320,192,133256,1,0,0:0:0:0:
64,192,133392,1,0,0:0:0:0:
320,192,133392,1,0,0:0:0:0:
192,192,133529,1,0,0:0:0:0:
448,192,133529,1,0,0:0:0:0:
320,192,133665,1,0,0:0:0:0:
192,192,133665,1,0,0:0:0:0:
64,192,133801,1,0,0:0:0:0:
448,192,133801,1,0,0:0:0:0:
192,192,133938,1,0,0:0:0:0:
448,192,133938,1,0,0:0:0:0:
320,192,134074,1,0,0:0:0:0:
64,192,134074,1,0,0:0:0:0:
192,192,134210,1,0,0:0:0:0:
320,192,134210,1,0,0:0:0:0:
448,192,134210,1,0,0:0:0:0:
320,192,134347,1,0,0:0:0:0:
448,192,134347,1,0,0:0:0:0:
320,192,134483,1,0,0:0:0:0:
448,192,134483,1,0,0:0:0:0:
64,192,134620,1,0,0:0:0:0:
192,192,134620,1,0,0:0:0:0:
448,192,134620,1,0,0:0:0:0:
64,192,134892,1,0,0:0:0:0:
192,192,134892,1,0,0:0:0:0:
64,192,135029,1,0,0:0:0:0:
192,192,135029,1,0,0:0:0:0:
64,192,135165,1,0,0:0:0:0:
192,192,135165,1,0,0:0:0:0:
448,192,135165,1,0,0:0:0:0:
320,192,135574,1,0,0:0:0:0:
192,192,135642,1,0,0:0:0:0:
64,192,135710,1,0,0:0:0:0:
448,192,135779,1,0,0:0:0:0:
320,192,135847,1,0,0:0:0:0:
192,192,135915,1,0,0:0:0:0:
320,192,135983,1,0,0:0:0:0:
448,192,136051,1,0,0:0:0:0:
64,192,136120,1,0,0:0:0:0:
192,192,136188,1,0,0:0:0:0:
320,192,136256,1,0,0:0:0:0:
448,192,136324,1,0,0:0:0:0:
64,192,136392,1,0,0:0:0:0:
192,192,136392,1,0,0:0:0:0:
320,192,136392,1,0,0:0:0:0:
448,192,136392,1,0,0:0:0:0:
64,192,136529,1,0,0:0:0:0:
448,192,136665,1,0,0:0:0:0:
192,192,136665,1,0,0:0:0:0:
320,192,136665,1,0,0:0:0:0:
448,192,136801,1,0,0:0:0:0:
192,192,136938,1,0,0:0:0:0:
320,192,136938,1,0,0:0:0:0:
64,192,136938,1,0,0:0:0:0:
192,192,137074,1,0,0:0:0:0:
448,192,137210,1,0,0:0:0:0:
320,192,137210,1,0,0:0:0:0:
192,192,137210,1,0,0:0:0:0:
448,192,137347,1,0,0:0:0:0:
64,192,137483,1,0,0:0:0:0:
192,192,137483,1,0,0:0:0:0:
320,192,137483,1,0,0:0:0:0:
64,192,137620,1,0,0:0:0:0:
448,192,137756,1,0,0:0:0:0:
320,192,137756,1,0,0:0:0:0:
192,192,137756,1,0,0:0:0:0:
448,192,137892,1,0,0:0:0:0:
64,192,138029,1,0,0:0:0:0:
192,192,138029,1,0,0:0:0:0:
320,192,138029,1,0,0:0:0:0:
64,192,138165,1,0,0:0:0:0:
192,192,138301,1,0,0:0:0:0:
320,192,138301,1,0,0:0:0:0:
448,192,138301,1,0,0:0:0:0:
448,192,138438,1,0,0:0:0:0:
64,192,138574,1,0,0:0:0:0:
192,192,138574,1,0,0:0:0:0:
320,192,138574,1,0,0:0:0:0:
192,192,138710,1,0,0:0:0:0:
448,192,138847,1,0,0:0:0:0:
320,192,138847,1,0,0:0:0:0:
192,192,138847,1,0,0:0:0:0:
448,192,138983,1,0,0:0:0:0:
64,192,139120,1,0,0:0:0:0:
192,192,139120,1,0,0:0:0:0:
320,192,139120,1,0,0:0:0:0:
64,192,139256,1,0,0:0:0:0:
448,192,139392,1,0,0:0:0:0:
320,192,139392,1,0,0:0:0:0:
192,192,139392,1,0,0:0:0:0:
448,192,139529,1,0,0:0:0:0:
64,192,139665,1,0,0:0:0:0:
320,192,139665,1,0,0:0:0:0:
192,192,139665,1,0,0:0:0:0:
192,192,139801,1,0,0:0:0:0:
448,192,139938,1,0,0:0:0:0:
192,192,139938,1,0,0:0:0:0:
320,192,139938,1,0,0:0:0:0:
448,192,140074,1,0,0:0:0:0:
64,192,140210,1,0,0:0:0:0:
192,192,140210,1,0,0:0:0:0:
320,192,140210,1,0,0:0:0:0:
192,192,140347,1,0,0:0:0:0:
448,192,140483,1,0,0:0:0:0:
320,192,140483,1,0,0:0:0:0:
448,192,140620,1,0,0:0:0:0:
320,192,140620,1,0,0:0:0:0:
192,192,140756,1,0,0:0:0:0:
320,192,140756,1,0,0:0:0:0:
64,192,140756,1,0,0:0:0:0:
448,192,140756,1,0,0:0:0:0:
64,192,140892,1,0,0:0:0:0:
192,192,141029,1,0,0:0:0:0:
320,192,141029,1,0,0:0:0:0:
448,192,141029,1,0,0:0:0:0:
448,192,141165,1,0,0:0:0:0:
64,192,141301,1,0,0:0:0:0:
192,192,141301,1,0,0:0:0:0:
320,192,141301,1,0,0:0:0:0:
192,192,141438,1,0,0:0:0:0:
448,192,141574,1,0,0:0:0:0:
320,192,141574,1,0,0:0:0:0:
192,192,141574,1,0,0:0:0:0:
448,192,141710,1,0,0:0:0:0:
64,192,141847,1,0,0:0:0:0:
192,192,141847,1,0,0:0:0:0:
320,192,141847,1,0,0:0:0:0:
64,192,141983,1,0,0:0:0:0:
448,192,142120,1,0,0:0:0:0:
320,192,142120,1,0,0:0:0:0:
192,192,142120,1,0,0:0:0:0:
448,192,142256,1,0,0:0:0:0:
64,192,142392,1,0,0:0:0:0:
192,192,142392,1,0,0:0:0:0:
320,192,142392,1,0,0:0:0:0:
192,192,142529,1,0,0:0:0:0:
448,192,142665,1,0,0:0:0:0:
320,192,142665,1,0,0:0:0:0:
192,192,142665,1,0,0:0:0:0:
320,192,142801,1,0,0:0:0:0:
64,192,142938,1,0,0:0:0:0:
192,192,142938,1,0,0:0:0:0:
192,192,143074,1,0,0:0:0:0:
320,192,143074,1,0,0:0:0:0:
320,192,143210,1,0,0:0:0:0:
448,192,143210,1,0,0:0:0:0:
64,192,143347,1,0,0:0:0:0:
192,192,143347,1,0,0:0:0:0:
448,192,143347,1,0,0:0:0:0:
320,192,143620,1,0,0:0:0:0:
192,192,143620,1,0,0:0:0:0:
192,192,143756,1,0,0:0:0:0:
64,192,143756,1,0,0:0:0:0:
448,192,143892,1,0,0:0:0:0:
320,192,143892,1,0,0:0:0:0:
64,192,143892,1,0,0:0:0:0:
192,192,144165,1,0,0:0:0:0:
448,192,144301,1,0,0:0:0:0:
320,192,144370,1,0,0:0:0:0:
192,192,144438,1,0,0:0:0:0:
320,192,144506,1,0,0:0:0:0:
448,192,144574,1,0,0:0:0:0:
64,192,144642,1,0,0:0:0:0:
192,192,144710,1,0,0:0:0:0:
320,192,144779,1,0,0:0:0:0:
448,192,144847,1,0,0:0:0:0:
64,192,144915,1,0,0:0:0:0:
192,192,144983,1,0,0:0:0:0:
320,192,145051,1,0,0:0:0:0:
448,192,145120,1,0,0:0:0:0:
64,192,145120,1,0,0:0:0:0:
192,192,145120,1,0,0:0:0:0:
64,192,145256,1,0,0:0:0:0:
320,192,145256,1,0,0:0:0:0:
192,192,145392,1,0,0:0:0:0:
448,192,145392,1,0,0:0:0:0:
320,192,145529,1,0,0:0:0:0:
64,192,145529,1,0,0:0:0:0:
64,192,145665,1,0,0:0:0:0:
192,192,145665,1,0,0:0:0:0:
448,192,145801,1,0,0:0:0:0:
192,192,145801,1,0,0:0:0:0:
320,192,145938,1,0,0:0:0:0:
448,192,145938,1,0,0:0:0:0:
320,192,146074,1,0,0:0:0:0:
64,192,146074,1,0,0:0:0:0:
192,192,146142,1,0,0:0:0:0:
64,192,146210,1,0,0:0:0:0:
448,192,146210,1,0,0:0:0:0:
320,192,146347,1,0,0:0:0:0:
448,192,146347,1,0,0:0:0:0:
192,192,146483,1,0,0:0:0:0:
448,192,146483,1,0,0:0:0:0:
64,192,146620,1,0,0:0:0:0:
320,192,146620,1,0,0:0:0:0:
64,192,146756,1,0,0:0:0:0:
192,192,146756,1,0,0:0:0:0:
448,192,146892,1,0,0:0:0:0:
64,192,146892,1,0,0:0:0:0:
320,192,147029,1,0,0:0:0:0:
192,192,147029,1,0,0:0:0:0:
448,192,147165,1,0,0:0:0:0:
192,192,147165,1,0,0:0:0:0:
64,192,147301,1,0,0:0:0:0:
320,192,147301,1,0,0:0:0:0:
64,192,147438,1,0,0:0:0:0:
192,192,147438,1,0,0:0:0:0:
448,192,147574,1,0,0:0:0:0:
64,192,147574,1,0,0:0:0:0:
192,192,147710,1,0,0:0:0:0:
320,192,147710,1,0,0:0:0:0:
448,192,147847,1,0,0:0:0:0:
64,192,147847,1,0,0:0:0:0:
320,192,147983,1,0,0:0:0:0:
64,192,147983,1,0,0:0:0:0:
192,192,148120,1,0,0:0:0:0:
448,192,148120,1,0,0:0:0:0:
448,192,148256,1,0,0:0:0:0:
320,192,148256,1,0,0:0:0:0:
192,192,148392,1,0,0:0:0:0:
64,192,148392,1,0,0:0:0:0:
448,192,148529,1,0,0:0:0:0:
192,192,148529,1,0,0:0:0:0:
320,192,148665,1,0,0:0:0:0:
448,192,148665,1,0,0:0:0:0:
320,192,148801,1,0,0:0:0:0:
64,192,148801,1,0,0:0:0:0:
64,192,148938,1,0,0:0:0:0:
192,192,148938,1,0,0:0:0:0:
448,192,149074,1,0,0:0:0:0:
64,192,149074,1,0,0:0:0:0:
192,192,149210,1,0,0:0:0:0:
448,192,149210,1,0,0:0:0:0:
320,192,149347,1,0,0:0:0:0:
64,192,149347,1,0,0:0:0:0:
320,192,149483,1,0,0:0:0:0:
448,192,149483,1,0,0:0:0:0:
192,192,149620,1,0,0:0:0:0:
320,192,149620,1,0,0:0:0:0:
448,192,149756,1,0,0:0:0:0:
64,192,149756,1,0,0:0:0:0:
192,192,149892,1,0,0:0:0:0:
320,192,149892,1,0,0:0:0:0:
64,192,150029,1,0,0:0:0:0:
320,192,150029,1,0,0:0:0:0:
448,192,150165,1,0,0:0:0:0:
192,192,150165,1,0,0:0:0:0:
320,192,150301,1,0,0:0:0:0:
64,192,150301,1,0,0:0:0:0:
192,192,150438,1,0,0:0:0:0:
320,192,150438,1,0,0:0:0:0:
448,192,150574,1,0,0:0:0:0:
64,192,150574,1,0,0:0:0:0:
448,192,150710,1,0,0:0:0:0:
192,192,150710,1,0,0:0:0:0:
320,192,150847,1,0,0:0:0:0:
448,192,150847,1,0,0:0:0:0:
64,192,150983,1,0,0:0:0:0:
320,192,150983,1,0,0:0:0:0:
64,192,151120,1,0,0:0:0:0:
192,192,151120,1,0,0:0:0:0:
448,192,151256,1,0,0:0:0:0:
64,192,151256,1,0,0:0:0:0:
448,192,151392,1,0,0:0:0:0:
192,192,151392,1,0,0:0:0:0:
64,192,151529,1,0,0:0:0:0:
320,192,151529,1,0,0:0:0:0:
192,192,151665,1,0,0:0:0:0:
320,192,151665,1,0,0:0:0:0:
448,192,151801,1,0,0:0:0:0:
64,192,151801,1,0,0:0:0:0:
64,192,151938,1,0,0:0:0:0:
320,192,151938,1,0,0:0:0:0:
64,192,152074,1,0,0:0:0:0:
192,192,152074,1,0,0:0:0:0:
448,192,152210,1,0,0:0:0:0:
192,192,152210,1,0,0:0:0:0:
320,192,152347,1,0,0:0:0:0:
64,192,152347,1,0,0:0:0:0:
64,192,152483,1,0,0:0:0:0:
192,192,152483,1,0,0:0:0:0:
192,192,152620,1,0,0:0:0:0:
320,192,152620,1,0,0:0:0:0:
448,192,152756,1,0,0:0:0:0:
64,192,152756,1,0,0:0:0:0:
320,192,152824,1,0,0:0:0:0:
192,192,152892,1,0,0:0:0:0:
320,192,152960,1,0,0:0:0:0:
448,192,153029,1,0,0:0:0:0:
64,192,153097,1,0,0:0:0:0:
192,192,153165,1,0,0:0:0:0:
320,192,153233,1,0,0:0:0:0:
448,192,153301,1,0,0:0:0:0:
64,192,153301,1,0,0:0:0:0:
192,192,153438,1,0,0:0:0:0:
320,192,153438,1,0,0:0:0:0:
64,192,153574,1,0,0:0:0:0:
448,192,153574,1,0,0:0:0:0:
320,192,153642,1,0,0:0:0:0:
192,192,153710,1,0,0:0:0:0:
320,192,153779,1,0,0:0:0:0:
64,192,153847,1,0,0:0:0:0:
448,192,153847,1,0,0:0:0:0:
64,192,154120,1,0,0:0:0:0:
320,192,154120,1,0,0:0:0:0:
192,192,154120,1,0,0:0:0:0:
448,192,154256,1,0,0:0:0:0:
192,192,154256,1,0,0:0:0:0:
192,192,154392,1,0,0:0:0:0:
320,192,154392,1,0,0:0:0:0:
64,192,154529,1,0,0:0:0:0:
320,192,154529,1,0,0:0:0:0:
64,192,154665,1,0,0:0:0:0:
192,192,154665,1,0,0:0:0:0:
320,192,154665,1,0,0:0:0:0:
448,192,154938,1,0,0:0:0:0:
192,192,154938,1,0,0:0:0:0:
64,192,154938,1,0,0:0:0:0:
192,192,155210,1,0,0:0:0:0:
448,192,155210,1,0,0:0:0:0:
320,192,155210,1,0,0:0:0:0:
64,192,155347,1,0,0:0:0:0:
320,192,155347,1,0,0:0:0:0:
64,192,155483,1,0,0:0:0:0:
192,192,155483,1,0,0:0:0:0:
448,192,155620,1,0,0:0:0:0:
192,192,155620,1,0,0:0:0:0:
320,192,155756,1,0,0:0:0:0:
448,192,155756,1,0,0:0:0:0:
192,192,155892,1,0,0:0:0:0:
448,192,155892,1,0,0:0:0:0:
64,192,156029,1,0,0:0:0:0:
192,192,156029,1,0,0:0:0:0:
320,192,156029,1,0,0:0:0:0:
448,192,156301,1,0,0:0:0:0:
192,192,156301,1,0,0:0:0:0:
320,192,156438,1,0,0:0:0:0:
64,192,156438,1,0,0:0:0:0:
64,192,156574,1,0,0:0:0:0:
192,192,156574,1,0,0:0:0:0:
192,192,156710,1,0,0:0:0:0:
320,192,156710,1,0,0:0:0:0:
448,192,156847,1,0,0:0:0:0:
192,192,156847,1,0,0:0:0:0:
64,192,156847,1,0,0:0:0:0:
448,192,157120,1,0,0:0:0:0:
192,192,157120,1,0,0:0:0:0:
192,192,157256,1,0,0:0:0:0:
320,192,157256,1,0,0:0:0:0:
64,192,157392,1,0,0:0:0:0:
448,192,157392,1,0,0:0:0:0:
192,192,157392,1,0,0:0:0:0:
64,192,157665,1,0,0:0:0:0:
320,192,157665,1,0,0:0:0:0:
192,192,157801,1,0,0:0:0:0:
448,192,157801,1,0,0:0:0:0:
320,192,157938,1,0,0:0:0:0:
192,192,157938,1,0,0:0:0:0:
448,192,157938,1,0,0:0:0:0:
192,192,158210,1,0,0:0:0:0:
448,192,158210,1,0,0:0:0:0:
320,192,158210,1,0,0:0:0:0:
192,192,158483,1,0,0:0:0:0:
320,192,158483,1,0,0:0:0:0:
448,192,158620,1,0,0:0:0:0:
192,192,158620,1,0,0:0:0:0:
64,192,158756,1,0,0:0:0:0:
320,192,158756,1,0,0:0:0:0:
64,192,158892,1,0,0:0:0:0:
192,192,158892,1,0,0:0:0:0:
64,192,159029,1,0,0:0:0:0:
320,192,159029,1,0,0:0:0:0:
448,192,159029,1,0,0:0:0:0:
192,192,159301,1,0,0:0:0:0:
320,192,159301,1,0,0:0:0:0:
64,192,159301,1,0,0:0:0:0:
448,192,159574,1,0,0:0:0:0:
192,192,159574,1,0,0:0:0:0:
64,192,159710,1,0,0:0:0:0:
320,192,159710,1,0,0:0:0:0:
64,192,159983,1,0,0:0:0:0:
320,192,159983,1,0,0:0:0:0:
192,192,160120,1,0,0:0:0:0:
448,192,160120,1,0,0:0:0:0:
320,192,160256,1,0,0:0:0:0:
64,192,160256,1,0,0:0:0:0:
192,192,160392,1,0,0:0:0:0:
320,192,160392,1,0,0:0:0:0:
448,192,160392,1,0,0:0:0:0:
448,192,160529,1,0,0:0:0:0:
192,192,160665,1,0,0:0:0:0:
320,192,160665,1,0,0:0:0:0:
64,192,160665,1,0,0:0:0:0:
64,192,160801,1,0,0:0:0:0:
192,192,160938,1,0,0:0:0:0:
320,192,160938,1,0,0:0:0:0:
448,192,160938,1,0,0:0:0:0:
320,192,161074,1,0,0:0:0:0:
64,192,161210,1,0,0:0:0:0:
192,192,161210,1,0,0:0:0:0:
320,192,161210,1,0,0:0:0:0:
192,192,161347,1,0,0:0:0:0:
448,192,161483,1,0,0:0:0:0:
320,192,161483,1,0,0:0:0:0:
64,192,161483,1,0,0:0:0:0:
448,192,161620,1,0,0:0:0:0:
64,192,161756,1,0,0:0:0:0:
192,192,161756,1,0,0:0:0:0:
448,192,161756,1,0,0:0:0:0:
64,192,161892,1,0,0:0:0:0:
192,192,162029,1,0,0:0:0:0:
320,192,162029,1,0,0:0:0:0:
448,192,162029,1,0,0:0:0:0:
320,192,162165,1,0,0:0:0:0:
64,192,162301,1,0,0:0:0:0:
192,192,162301,1,0,0:0:0:0:
192,192,162438,1,0,0:0:0:0:
192,192,162574,1,0,0:0:0:0:
448,192,162574,128,0,164210:0:0:0:0:
64,192,164756,128,0,165301:0:0:0:0:
192,192,165301,128,0,165847:0:0:0:0:
448,192,165847,128,0,166029:0:0:0:0:
320,192,165847,1,0,0:0:0:0:
64,192,165847,1,0,0:0:0:0:
320,192,166029,128,0,166210:0:0:0:0:
192,192,166029,1,0,0:0:0:0:
64,192,166029,1,0,0:0:0:0:
192,192,166210,128,0,166392:0:0:0:0:
448,192,166210,1,0,0:0:0:0:
64,192,166210,1,0,0:0:0:0:
64,192,166392,128,0,166574:0:0:0:0:
320,192,166392,1,0,0:0:0:0:
448,192,166392,1,0,0:0:0:0:
192,192,166574,128,0,166756:0:0:0:0:
320,192,166574,1,0,0:0:0:0:
448,192,166574,1,0,0:0:0:0:
320,192,166756,128,0,166938:0:0:0:0:
448,192,166756,1,0,0:0:0:0:
64,192,166756,1,0,0:0:0:0:
64,192,166938,1,0,0:0:0:0:
192,192,166938,1,0,0:0:0:0:
448,192,166938,1,0,0:0:0:0:
320,192,167120,1,0,0:0:0:0:
64,192,167120,1,0,0:0:0:0:
192,192,167301,1,0,0:0:0:0:
448,192,167301,1,0,0:0:0:0:
320,192,167483,1,0,0:0:0:0:
192,192,167483,1,0,0:0:0:0:
64,192,167665,1,0,0:0:0:0:
320,192,167665,1,0,0:0:0:0:
192,192,167847,1,0,0:0:0:0:
448,192,167847,1,0,0:0:0:0:
192,192,168029,128,0,168392:0:0:0:0:
64,192,168029,1,0,0:0:0:0:
320,192,168029,1,0,0:0:0:0:
448,192,168029,1,0,0:0:0:0:
320,192,168210,1,0,0:0:0:0:
448,192,168210,1,0,0:0:0:0:
448,192,168392,128,0,168574:0:0:0:0:
64,192,168392,1,0,0:0:0:0:
320,192,168392,1,0,0:0:0:0:
64,192,168574,128,0,168756:0:0:0:0:
320,192,168574,1,0,0:0:0:0:
192,192,168574,1,0,0:0:0:0:
192,192,168756,128,0,168938:0:0:0:0:
320,192,168756,1,0,0:0:0:0:
448,192,168756,1,0,0:0:0:0:
448,192,168938,128,0,169120:0:0:0:0:
320,192,168938,1,0,0:0:0:0:
64,192,168938,1,0,0:0:0:0:
320,192,169120,128,0,169301:0:0:0:0:
64,192,169120,1,0,0:0:0:0:
192,192,169120,1,0,0:0:0:0:
192,192,169301,1,0,0:0:0:0:
448,192,169301,1,0,0:0:0:0:
192,192,169483,1,0,0:0:0:0:
448,192,169483,1,0,0:0:0:0:
320,192,169665,128,0,170029:0:0:0:0:
64,192,169665,1,0,0:0:0:0:
192,192,169665,1,0,0:0:0:0:
448,192,169665,1,0,0:0:0:0:
448,192,169847,1,0,0:0:0:0:
64,192,169847,1,0,0:0:0:0:
192,192,170029,128,0,170210:0:0:0:0:
64,192,170029,1,0,0:0:0:0:
448,192,170029,1,0,0:0:0:0:
64,192,170210,128,0,170574:0:0:0:0:
448,192,170210,1,0,0:0:0:0:
320,192,170210,1,0,0:0:0:0:
320,192,170392,1,0,0:0:0:0:
448,192,170392,1,0,0:0:0:0:
192,192,170574,128,0,170756:0:0:0:0:
320,192,170574,1,0,0:0:0:0:
448,192,170574,1,0,0:0:0:0:
320,192,170756,128,0,170938:0:0:0:0:
64,192,170756,1,0,0:0:0:0:
448,192,170756,1,0,0:0:0:0:
448,192,170938,128,0,171120:0:0:0:0:
192,192,170938,1,0,0:0:0:0:
64,192,170938,1,0,0:0:0:0:
192,192,171120,128,0,171301:0:0:0:0:
64,192,171120,1,0,0:0:0:0:
320,192,171120,1,0,0:0:0:0:
320,192,171301,128,0,171483:0:0:0:0:
64,192,171301,1,0,0:0:0:0:
448,192,171301,1,0,0:0:0:0:
64,192,171483,1,0,0:0:0:0:
448,192,171483,1,0,0:0:0:0:
192,192,171665,1,0,0:0:0:0:
448,192,171665,1,0,0:0:0:0:
320,192,171847,1,0,0:0:0:0:
64,192,171847,1,0,0:0:0:0:
64,192,172029,1,0,0:0:0:0:
192,192,172029,1,0,0:0:0:0:
320,192,172210,1,0,0:0:0:0:
448,192,172210,1,0,0:0:0:0:
320,192,172392,128,0,172574:0:0:0:0:
64,192,172392,1,0,0:0:0:0:
192,192,172392,1,0,0:0:0:0:
448,192,172392,1,0,0:0:0:0:
192,192,172574,128,0,172756:0:0:0:0:
448,192,172574,1,0,0:0:0:0:
64,192,172574,1,0,0:0:0:0:
320,192,172756,128,0,172938:0:0:0:0:
64,192,172756,1,0,0:0:0:0:
448,192,172756,1,0,0:0:0:0:
448,192,172938,128,0,173120:0:0:0:0:
192,192,172938,1,0,0:0:0:0:
64,192,172938,1,0,0:0:0:0:
320,192,173120,128,0,173301:0:0:0:0:
64,192,173120,1,0,0:0:0:0:
192,192,173120,1,0,0:0:0:0:
192,192,173301,128,0,173483:0:0:0:0:
448,192,173301,1,0,0:0:0:0:
64,192,173301,1,0,0:0:0:0:
64,192,173483,128,0,173665:0:0:0:0:
320,192,173483,1,0,0:0:0:0:
448,192,173483,1,0,0:0:0:0:
192,192,173665,1,0,0:0:0:0:
320,192,173665,1,0,0:0:0:0:
448,192,173756,1,0,0:0:0:0:
320,192,173824,1,0,0:0:0:0:
192,192,173892,1,0,0:0:0:0:
64,192,173960,1,0,0:0:0:0:
192,192,174029,1,0,0:0:0:0:
320,192,174097,1,0,0:0:0:0:
448,192,174165,1,0,0:0:0:0:
320,192,174233,1,0,0:0:0:0:
64,192,174301,1,0,0:0:0:0:
192,192,174370,1,0,0:0:0:0:
320,192,174438,1,0,0:0:0:0:
448,192,174506,1,0,0:0:0:0:
64,192,174574,1,0,0:0:0:0:
192,192,174574,1,0,0:0:0:0:
448,192,174642,1,0,0:0:0:0:
64,192,174710,1,0,0:0:0:0:
448,192,174779,1,0,0:0:0:0:
64,192,174847,1,0,0:0:0:0:
448,192,174915,1,0,0:0:0:0:
64,192,174983,1,0,0:0:0:0:
448,192,175051,1,0,0:0:0:0:
192,192,175120,1,0,0:0:0:0:
64,192,175120,1,0,0:0:0:0:
320,192,175188,1,0,0:0:0:0:
192,192,175256,1,0,0:0:0:0:
320,192,175324,1,0,0:0:0:0:
192,192,175392,1,0,0:0:0:0:
320,192,175460,1,0,0:0:0:0:
192,192,175529,1,0,0:0:0:0:
320,192,175597,1,0,0:0:0:0:
64,192,175665,1,0,0:0:0:0:
448,192,175665,1,0,0:0:0:0:
320,192,175733,1,0,0:0:0:0:
64,192,175801,1,0,0:0:0:0:
320,192,175870,1,0,0:0:0:0:
64,192,175938,1,0,0:0:0:0:
320,192,176006,1,0,0:0:0:0:
64,192,176074,1,0,0:0:0:0:
320,192,176142,1,0,0:0:0:0:
64,192,176210,1,0,0:0:0:0:
192,192,176210,1,0,0:0:0:0:
320,192,176279,1,0,0:0:0:0:
64,192,176347,1,0,0:0:0:0:
320,192,176415,1,0,0:0:0:0:
64,192,176483,1,0,0:0:0:0:
320,192,176551,1,0,0:0:0:0:
64,192,176620,1,0,0:0:0:0:
320,192,176688,1,0,0:0:0:0:
192,192,176756,1,0,0:0:0:0:
64,192,176756,1,0,0:0:0:0:
448,192,176824,1,0,0:0:0:0:
192,192,176892,1,0,0:0:0:0:
448,192,176960,1,0,0:0:0:0:
192,192,177029,1,0,0:0:0:0:
448,192,177097,1,0,0:0:0:0:
192,192,177165,1,0,0:0:0:0:
448,192,177233,1,0,0:0:0:0:
192,192,177301,1,0,0:0:0:0:
320,192,177301,1,0,0:0:0:0:
448,192,177370,1,0,0:0:0:0:
192,192,177438,1,0,0:0:0:0:
448,192,177506,1,0,0:0:0:0:
192,192,177574,1,0,0:0:0:0:
448,192,177642,1,0,0:0:0:0:
192,192,177710,1,0,0:0:0:0:
448,192,177779,1,0,0:0:0:0:
64,192,177847,1,0,0:0:0:0:
192,192,177847,1,0,0:0:0:0:
448,192,177915,1,0,0:0:0:0:
192,192,177983,1,0,0:0:0:0:
448,192,178051,1,0,0:0:0:0:
192,192,178120,1,0,0:0:0:0:
448,192,178188,1,0,0:0:0:0:
192,192,178256,1,0,0:0:0:0:
448,192,178324,1,0,0:0:0:0:
192,192,178392,1,0,0:0:0:0:
320,192,178392,1,0,0:0:0:0:
448,192,178460,1,0,0:0:0:0:
192,192,178529,1,0,0:0:0:0:
448,192,178597,1,0,0:0:0:0:
192,192,178665,1,0,0:0:0:0:
448,192,178733,1,0,0:0:0:0:
192,192,178801,1,0,0:0:0:0:
448,192,178870,1,0,0:0:0:0:
64,192,178938,1,0,0:0:0:0:
192,192,178938,1,0,0:0:0:0:
320,192,179006,1,0,0:0:0:0:
64,192,179074,1,0,0:0:0:0:
320,192,179142,1,0,0:0:0:0:
64,192,179210,1,0,0:0:0:0:
320,192,179279,1,0,0:0:0:0:
64,192,179347,1,0,0:0:0:0:
320,192,179415,1,0,0:0:0:0:
64,192,179483,1,0,0:0:0:0:
192,192,179483,1,0,0:0:0:0:
320,192,179551,1,0,0:0:0:0:
64,192,179620,1,0,0:0:0:0:
320,192,179688,1,0,0:0:0:0:
64,192,179756,1,0,0:0:0:0:
320,192,179824,1,0,0:0:0:0:
64,192,179892,1,0,0:0:0:0:
320,192,179960,1,0,0:0:0:0:
64,192,180029,1,0,0:0:0:0:
192,192,180029,1,0,0:0:0:0:
448,192,180097,1,0,0:0:0:0:
64,192,180165,1,0,0:0:0:0:
448,192,180233,1,0,0:0:0:0:
64,192,180301,1,0,0:0:0:0:
448,192,180370,1,0,0:0:0:0:
64,192,180438,1,0,0:0:0:0:
448,192,180506,1,0,0:0:0:0:
64,192,180574,1,0,0:0:0:0:
320,192,180574,1,0,0:0:0:0:
448,192,180642,1,0,0:0:0:0:
64,192,180710,1,0,0:0:0:0:
448,192,180779,1,0,0:0:0:0:
64,192,180847,1,0,0:0:0:0:
448,192,180915,1,0,0:0:0:0:
64,192,180983,1,0,0:0:0:0:
448,192,181051,1,0,0:0:0:0:
64,192,181120,1,0,0:0:0:0:
320,192,181120,1,0,0:0:0:0:
192,192,181188,1,0,0:0:0:0:
64,192,181256,1,0,0:0:0:0:
192,192,181324,1,0,0:0:0:0:
64,192,181392,1,0,0:0:0:0:
192,192,181460,1,0,0:0:0:0:
64,192,181529,1,0,0:0:0:0:
192,192,181597,1,0,0:0:0:0:
64,192,181665,1,0,0:0:0:0:
448,192,181665,1,0,0:0:0:0:
192,192,181733,1,0,0:0:0:0:
64,192,181801,1,0,0:0:0:0:
192,192,181870,1,0,0:0:0:0:
64,192,181938,1,0,0:0:0:0:
192,192,182006,1,0,0:0:0:0:
64,192,182074,1,0,0:0:0:0:
192,192,182142,1,0,0:0:0:0:
320,192,182210,1,0,0:0:0:0:
448,192,182210,1,0,0:0:0:0:
192,192,182279,1,0,0:0:0:0:
64,192,182279,1,0,0:0:0:0:
320,192,182347,1,0,0:0:0:0:
448,192,182347,1,0,0:0:0:0:
64,192,182756,1,0,0:0:0:0:
320,192,182756,1,0,0:0:0:0:
448,192,182824,1,0,0:0:0:0:
192,192,182892,1,0,0:0:0:0:
320,192,182960,1,0,0:0:0:0:
448,192,183029,1,0,0:0:0:0:
64,192,183097,1,0,0:0:0:0:
192,192,183165,1,0,0:0:0:0:
320,192,183233,1,0,0:0:0:0:
448,192,183301,1,0,0:0:0:0:
64,192,183301,1,0,0:0:0:0:
320,192,183574,1,0,0:0:0:0:
320,192,183710,1,0,0:0:0:0:
192,192,183847,1,0,0:0:0:0:
448,192,183847,1,0,0:0:0:0:
320,192,183983,1,0,0:0:0:0:
64,192,183983,1,0,0:0:0:0:
192,192,184120,1,0,0:0:0:0:
448,192,184120,1,0,0:0:0:0:
64,192,184256,1,0,0:0:0:0:
320,192,184256,1,0,0:0:0:0:
192,192,184392,1,0,0:0:0:0:
320,192,184392,1,0,0:0:0:0:
448,192,184392,1,0,0:0:0:0:
64,192,184665,1,0,0:0:0:0:
64,192,184801,1,0,0:0:0:0:
192,192,184938,1,0,0:0:0:0:
320,192,184938,1,0,0:0:0:0:
448,192,185074,1,0,0:0:0:0:
192,192,185074,1,0,0:0:0:0:
64,192,185210,1,0,0:0:0:0:
320,192,185210,1,0,0:0:0:0:
448,192,185347,1,0,0:0:0:0:
192,192,185347,1,0,0:0:0:0:
64,192,185483,1,0,0:0:0:0:
320,192,185483,1,0,0:0:0:0:
448,192,185483,1,0,0:0:0:0:
192,192,185756,1,0,0:0:0:0:
192,192,185892,1,0,0:0:0:0:
192,192,186029,1,0,0:0:0:0:
448,192,186029,1,0,0:0:0:0:
320,192,186165,1,0,0:0:0:0:
64,192,186165,1,0,0:0:0:0:
192,192,186301,1,0,0:0:0:0:
320,192,186301,1,0,0:0:0:0:
448,192,186438,1,0,0:0:0:0:
64,192,186438,1,0,0:0:0:0:
64,192,186574,1,0,0:0:0:0:
192,192,186574,1,0,0:0:0:0:
320,192,186574,1,0,0:0:0:0:
448,192,186642,1,0,0:0:0:0:
320,192,186710,1,0,0:0:0:0:
192,192,186938,1,0,0:0:0:0:
64,192,187120,1,0,0:0:0:0:
192,192,187120,1,0,0:0:0:0:
320,192,187210,1,0,0:0:0:0:
448,192,187210,1,0,0:0:0:0:
192,192,187301,1,0,0:0:0:0:
64,192,187301,1,0,0:0:0:0:
320,192,187392,1,0,0:0:0:0:
448,192,187483,1,0,0:0:0:0:
64,192,187665,128,0,192029:0:0:0:0:
192,192,187665,128,0,192029:0:0:0:0:
192,192,208392,5,0,0:0:0:0:
320,192,208392,1,0,0:0:0:0:
448,192,208392,1,0,0:0:0:0:
64,192,209483,1,0,0:0:0:0:
320,192,209483,128,0,210574:0:0:0:0:
64,192,210301,1,0,0:0:0:0:
192,192,210574,128,0,211665:0:0:0:0:
448,192,210574,1,0,0:0:0:0:
64,192,210574,1,0,0:0:0:0:
448,192,211120,1,0,0:0:0:0:
320,192,211665,128,0,212756:0:0:0:0:
448,192,211665,1,0,0:0:0:0:
192,192,211938,1,0,0:0:0:0:
64,192,212483,1,0,0:0:0:0:
192,192,212756,1,0,0:0:0:0:
448,192,212756,1,0,0:0:0:0:
64,192,212756,128,0,213301:0:0:0:0:
448,192,213301,128,0,213574:0:0:0:0:
320,192,213574,128,0,213847:0:0:0:0:
64,192,213847,128,0,214665:0:0:0:0:
448,192,213847,1,0,0:0:0:0:
192,192,214665,128,0,214938:0:0:0:0:
64,192,214938,1,0,0:0:0:0:
320,192,214938,1,0,0:0:0:0:
448,192,214938,128,0,215210:0:0:0:0:
320,192,215210,128,0,215483:0:0:0:0:
192,192,215210,1,0,0:0:0:0:
192,192,215483,128,0,215756:0:0:0:0:
64,192,215483,1,0,0:0:0:0:
64,192,215756,128,0,216029:0:0:0:0:
448,192,215756,1,0,0:0:0:0:
192,192,216029,128,0,216301:0:0:0:0:
448,192,216029,1,0,0:0:0:0:
448,192,216301,1,0,0:0:0:0:
320,192,216301,128,0,216574:0:0:0:0:
448,192,216574,128,0,216847:0:0:0:0:
320,192,216847,128,0,217120:0:0:0:0:
192,192,216847,1,0,0:0:0:0:
64,192,217120,128,0,217392:0:0:0:0:
448,192,217120,1,0,0:0:0:0:
192,192,217120,1,0,0:0:0:0:
192,192,217392,128,0,217665:0:0:0:0:
320,192,217392,1,0,0:0:0:0:
320,192,217665,128,0,217938:0:0:0:0:
448,192,217665,1,0,0:0:0:0:
448,192,217938,128,0,218210:0:0:0:0:
64,192,217938,1,0,0:0:0:0:
192,192,218210,1,0,0:0:0:0:
64,192,218210,128,0,219301:0:0:0:0:
320,192,219029,1,0,0:0:0:0:
192,192,219301,1,0,0:0:0:0:
448,192,219301,1,0,0:0:0:0:
320,192,219301,128,0,219847:0:0:0:0:
448,192,219847,128,0,220392:0:0:0:0:
64,192,219847,1,0,0:0:0:0:
320,192,220392,128,0,221483:0:0:0:0:
192,192,220392,1,0,0:0:0:0:
192,192,220665,1,0,0:0:0:0:
64,192,221210,1,0,0:0:0:0:
192,192,221483,1,0,0:0:0:0:
64,192,221483,1,0,0:0:0:0:
448,192,221483,128,0,222574:0:0:0:0:
64,192,222029,1,0,0:0:0:0:
192,192,222301,1,0,0:0:0:0:
64,192,222574,128,0,223665:0:0:0:0:
192,192,222574,1,0,0:0:0:0:
192,192,222847,1,0,0:0:0:0:
320,192,223392,1,0,0:0:0:0:
192,192,223665,1,0,0:0:0:0:
448,192,223665,128,0,223938:0:0:0:0:
320,192,223938,128,0,224210:0:0:0:0:
192,192,223938,1,0,0:0:0:0:
192,192,224210,128,0,224483:0:0:0:0:
448,192,224210,1,0,0:0:0:0:
448,192,224347,1,0,0:0:0:0:
64,192,224483,128,0,224756:0:0:0:0:
448,192,224483,1,0,0:0:0:0:
192,192,224756,1,0,0:0:0:0:
448,192,224756,1,0,0:0:0:0:
320,192,225029,1,0,0:0:0:0:
448,192,225097,1,0,0:0:0:0:
64,192,225165,1,0,0:0:0:0:
192,192,225233,1,0,0:0:0:0:
320,192,225574,1,0,0:0:0:0:
192,192,225642,1,0,0:0:0:0:
64,192,225710,1,0,0:0:0:0:
192,192,225847,1,0,0:0:0:0:
448,192,225847,1,0,0:0:0:0:
320,192,226120,1,0,0:0:0:0:
64,192,226120,1,0,0:0:0:0:
320,192,226256,1,0,0:0:0:0:
192,192,226392,1,0,0:0:0:0:
64,192,226392,1,0,0:0:0:0:
320,192,226665,1,0,0:0:0:0:
192,192,226665,1,0,0:0:0:0:
64,192,226938,1,0,0:0:0:0:
192,192,226938,1,0,0:0:0:0:
320,192,226938,1,0,0:0:0:0:
192,192,227074,1,0,0:0:0:0:
448,192,227210,1,0,0:0:0:0:
320,192,227210,1,0,0:0:0:0:
192,192,227210,1,0,0:0:0:0:
448,192,227347,1,0,0:0:0:0:
64,192,227483,1,0,0:0:0:0:
192,192,227483,1,0,0:0:0:0:
320,192,227483,1,0,0:0:0:0:
64,192,227620,1,0,0:0:0:0:
448,192,227756,1,0,0:0:0:0:
320,192,227756,1,0,0:0:0:0:
192,192,227756,1,0,0:0:0:0:
448,192,227892,1,0,0:0:0:0:
64,192,228029,1,0,0:0:0:0:
192,192,228029,1,0,0:0:0:0:
320,192,228029,1,0,0:0:0:0:
192,192,228165,1,0,0:0:0:0:
448,192,228301,1,0,0:0:0:0:
320,192,228301,1,0,0:0:0:0:
192,192,228301,1,0,0:0:0:0:
448,192,228438,1,0,0:0:0:0:
64,192,228574,1,0,0:0:0:0:
320,192,228574,1,0,0:0:0:0:
192,192,228574,1,0,0:0:0:0:
64,192,228710,1,0,0:0:0:0:
448,192,228847,1,0,0:0:0:0:
320,192,228847,1,0,0:0:0:0:
192,192,228847,1,0,0:0:0:0:
320,192,228983,1,0,0:0:0:0:
64,192,229120,1,0,0:0:0:0:
192,192,229120,1,0,0:0:0:0:
320,192,229120,1,0,0:0:0:0:
64,192,229256,1,0,0:0:0:0:
448,192,229392,1,0,0:0:0:0:
320,192,229392,1,0,0:0:0:0:
192,192,229392,1,0,0:0:0:0:
448,192,229529,1,0,0:0:0:0:
64,192,229665,1,0,0:0:0:0:
192,192,229665,1,0,0:0:0:0:
320,192,229665,1,0,0:0:0:0:
64,192,229801,1,0,0:0:0:0:
448,192,229938,1,0,0:0:0:0:
320,192,229938,1,0,0:0:0:0:
192,192,229938,1,0,0:0:0:0:
448,192,230074,1,0,0:0:0:0:
64,192,230210,1,0,0:0:0:0:
192,192,230210,1,0,0:0:0:0:
320,192,230210,1,0,0:0:0:0:
192,192,230347,1,0,0:0:0:0:
448,192,230483,1,0,0:0:0:0:
320,192,230483,1,0,0:0:0:0:
192,192,230483,1,0,0:0:0:0:
448,192,230620,1,0,0:0:0:0:
64,192,230756,1,0,0:0:0:0:
192,192,230756,1,0,0:0:0:0:
320,192,230756,1,0,0:0:0:0:
64,192,230892,1,0,0:0:0:0:
192,192,231029,1,0,0:0:0:0:
320,192,231029,1,0,0:0:0:0:
320,192,231165,1,0,0:0:0:0:
448,192,231165,1,0,0:0:0:0:
64,192,231301,1,0,0:0:0:0:
192,192,231301,1,0,0:0:0:0:
320,192,231301,1,0,0:0:0:0:
64,192,231438,1,0,0:0:0:0:
448,192,231574,1,0,0:0:0:0:
320,192,231574,1,0,0:0:0:0:
192,192,231574,1,0,0:0:0:0:
448,192,231710,1,0,0:0:0:0:
64,192,231847,1,0,0:0:0:0:
320,192,231847,1,0,0:0:0:0:
192,192,231847,1,0,0:0:0:0:
192,192,231983,1,0,0:0:0:0:
448,192,232120,1,0,0:0:0:0:
320,192,232120,1,0,0:0:0:0:
192,192,232120,1,0,0:0:0:0:
448,192,232256,1,0,0:0:0:0:
64,192,232392,1,0,0:0:0:0:
192,192,232392,1,0,0:0:0:0:
320,192,232392,1,0,0:0:0:0:
64,192,232529,1,0,0:0:0:0:
448,192,232665,1,0,0:0:0:0:
320,192,232665,1,0,0:0:0:0:
192,192,232665,1,0,0:0:0:0:
448,192,232801,1,0,0:0:0:0:
64,192,232938,1,0,0:0:0:0:
320,192,232938,1,0,0:0:0:0:
192,192,232938,1,0,0:0:0:0:
64,192,233074,1,0,0:0:0:0:
448,192,233210,1,0,0:0:0:0:
192,192,233210,1,0,0:0:0:0:
320,192,233210,1,0,0:0:0:0:
320,192,233347,1,0,0:0:0:0:
64,192,233483,1,0,0:0:0:0:
192,192,233483,1,0,0:0:0:0:
320,192,233483,1,0,0:0:0:0:
64,192,233620,1,0,0:0:0:0:
320,192,233620,1,0,0:0:0:0:
448,192,233756,1,0,0:0:0:0:
192,192,233756,1,0,0:0:0:0:
448,192,233892,1,0,0:0:0:0:
64,192,233892,1,0,0:0:0:0:
320,192,234029,1,0,0:0:0:0:
192,192,234029,1,0,0:0:0:0:
192,192,234301,1,0,0:0:0:0:
448,192,234301,1,0,0:0:0:0:
64,192,234438,1,0,0:0:0:0:
192,192,234506,1,0,0:0:0:0:
448,192,234574,1,0,0:0:0:0:
320,192,234642,1,0,0:0:0:0:
192,192,234710,1,0,0:0:0:0:
64,192,234779,1,0,0:0:0:0:
448,192,234847,1,0,0:0:0:0:
320,192,234915,1,0,0:0:0:0:
192,192,234983,1,0,0:0:0:0:
64,192,235051,1,0,0:0:0:0:
448,192,235120,1,0,0:0:0:0:
320,192,235188,1,0,0:0:0:0:
192,192,235256,1,0,0:0:0:0:
64,192,235324,1,0,0:0:0:0:
448,192,235392,1,0,0:0:0:0:
320,192,235460,1,0,0:0:0:0:
192,192,235529,1,0,0:0:0:0:
64,192,235597,1,0,0:0:0:0:
448,192,235665,1,0,0:0:0:0:
320,192,235665,1,0,0:0:0:0:
192,192,235733,1,0,0:0:0:0:
64,192,235801,1,0,0:0:0:0:
448,192,235801,1,0,0:0:0:0:
192,192,235870,1,0,0:0:0:0:
320,192,235938,1,0,0:0:0:0:
448,192,235938,1,0,0:0:0:0:
192,192,236006,1,0,0:0:0:0:
64,192,236074,1,0,0:0:0:0:
320,192,236074,1,0,0:0:0:0:
448,192,236142,1,0,0:0:0:0:
320,192,236210,1,0,0:0:0:0:
192,192,236210,1,0,0:0:0:0:
64,192,236279,1,0,0:0:0:0:
192,192,236347,1,0,0:0:0:0:
448,192,236347,1,0,0:0:0:0:
320,192,236415,1,0,0:0:0:0:
448,192,236483,1,0,0:0:0:0:
64,192,236483,1,0,0:0:0:0:
192,192,236551,1,0,0:0:0:0:
320,192,236620,1,0,0:0:0:0:
448,192,236620,1,0,0:0:0:0:
64,192,236688,1,0,0:0:0:0:
192,192,236756,1,0,0:0:0:0:
320,192,236756,1,0,0:0:0:0:
448,192,236824,1,0,0:0:0:0:
64,192,236892,1,0,0:0:0:0:
320,192,236892,1,0,0:0:0:0:
192,192,236960,1,0,0:0:0:0:
64,192,237029,1,0,0:0:0:0:
448,192,237029,1,0,0:0:0:0:
320,192,237097,1,0,0:0:0:0:
192,192,237165,1,0,0:0:0:0:
448,192,237165,1,0,0:0:0:0:
64,192,237233,1,0,0:0:0:0:
192,192,237301,1,0,0:0:0:0:
320,192,237301,1,0,0:0:0:0:
448,192,237370,1,0,0:0:0:0:
64,192,237438,1,0,0:0:0:0:
320,192,237438,1,0,0:0:0:0:
192,192,237506,1,0,0:0:0:0:
320,192,237574,1,0,0:0:0:0:
448,192,237574,1,0,0:0:0:0:
192,192,237642,1,0,0:0:0:0:
64,192,237710,1,0,0:0:0:0:
320,192,237710,1,0,0:0:0:0:
448,192,237779,1,0,0:0:0:0:
320,192,237847,1,0,0:0:0:0:
192,192,237847,1,0,0:0:0:0:
64,192,237915,1,0,0:0:0:0:
448,192,237983,1,0,0:0:0:0:
192,192,237983,1,0,0:0:0:0:
320,192,238051,1,0,0:0:0:0:
448,192,238120,1,0,0:0:0:0:
192,192,238120,1,0,0:0:0:0:
64,192,238188,1,0,0:0:0:0:
320,192,238256,1,0,0:0:0:0:
192,192,238256,1,0,0:0:0:0:
64,192,238324,1,0,0:0:0:0:
448,192,238392,1,0,0:0:0:0:
192,192,238392,1,0,0:0:0:0:
320,192,238460,1,0,0:0:0:0:
448,192,238529,1,0,0:0:0:0:
64,192,238529,1,0,0:0:0:0:
192,192,238597,1,0,0:0:0:0:
320,192,238665,1,0,0:0:0:0:
64,192,238665,1,0,0:0:0:0:
448,192,238733,1,0,0:0:0:0:
320,192,238801,1,0,0:0:0:0:
192,192,238801,1,0,0:0:0:0:
64,192,238870,1,0,0:0:0:0:
192,192,238938,1,0,0:0:0:0:
448,192,238938,1,0,0:0:0:0:
320,192,239006,1,0,0:0:0:0:
448,192,239074,1,0,0:0:0:0:
192,192,239074,1,0,0:0:0:0:
64,192,239142,1,0,0:0:0:0:
192,192,239210,1,0,0:0:0:0:
320,192,239210,1,0,0:0:0:0:
448,192,239279,1,0,0:0:0:0:
64,192,239347,1,0,0:0:0:0:
320,192,239347,1,0,0:0:0:0:
192,192,239415,1,0,0:0:0:0:
64,192,239483,1,0,0:0:0:0:
448,192,239483,1,0,0:0:0:0:
320,192,239551,1,0,0:0:0:0:
448,192,239620,1,0,0:0:0:0:
192,192,239620,1,0,0:0:0:0:
320,192,239688,1,0,0:0:0:0:
448,192,239756,1,0,0:0:0:0:
64,192,239756,1,0,0:0:0:0:
192,192,239824,1,0,0:0:0:0:
320,192,239892,1,0,0:0:0:0:
448,192,239892,1,0,0:0:0:0:
192,192,239960,1,0,0:0:0:0:
64,192,240029,1,0,0:0:0:0:
448,192,240029,1,0,0:0:0:0:
320,192,240097,1,0,0:0:0:0:
192,192,240165,1,0,0:0:0:0:
448,192,240165,1,0,0:0:0:0:
64,192,240233,1,0,0:0:0:0:
192,192,240301,1,0,0:0:0:0:
320,192,240301,1,0,0:0:0:0:
448,192,240370,1,0,0:0:0:0:
64,192,240438,1,0,0:0:0:0:
192,192,240438,1,0,0:0:0:0:
320,192,240506,1,0,0:0:0:0:
448,192,240574,1,0,0:0:0:0:
64,192,240574,1,0,0:0:0:0:
320,192,240642,1,0,0:0:0:0:
192,192,240710,1,0,0:0:0:0:
64,192,240710,1,0,0:0:0:0:
320,192,240779,1,0,0:0:0:0:
448,192,240847,1,0,0:0:0:0:
192,192,240847,1,0,0:0:0:0:
320,192,240915,1,0,0:0:0:0:
448,192,240983,1,0,0:0:0:0:
64,192,240983,1,0,0:0:0:0:
192,192,241051,1,0,0:0:0:0:
320,192,241120,1,0,0:0:0:0:
448,192,241120,1,0,0:0:0:0:
192,192,241188,1,0,0:0:0:0:
64,192,241256,1,0,0:0:0:0:
320,192,241256,1,0,0:0:0:0:
448,192,241324,1,0,0:0:0:0:
320,192,241392,1,0,0:0:0:0:
192,192,241392,1,0,0:0:0:0:
64,192,241460,1,0,0:0:0:0:
192,192,241529,1,0,0:0:0:0:
448,192,241529,1,0,0:0:0:0:
320,192,241597,1,0,0:0:0:0:
64,192,241665,1,0,0:0:0:0:
192,192,241665,1,0,0:0:0:0:
448,192,241733,1,0,0:0:0:0:
320,192,241801,1,0,0:0:0:0:
64,192,241801,1,0,0:0:0:0:
192,192,241870,1,0,0:0:0:0:
448,192,241938,1,0,0:0:0:0:
64,192,241938,1,0,0:0:0:0:
320,192,242006,1,0,0:0:0:0:
192,192,242074,1,0,0:0:0:0:
448,192,242074,1,0,0:0:0:0:
64,192,242142,1,0,0:0:0:0:
192,192,242210,1,0,0:0:0:0:
320,192,242210,1,0,0:0:0:0:
448,192,242279,1,0,0:0:0:0:
64,192,242347,1,0,0:0:0:0:
320,192,242347,1,0,0:0:0:0:
192,192,242415,1,0,0:0:0:0:
64,192,242483,1,0,0:0:0:0:
448,192,242483,1,0,0:0:0:0:
320,192,242551,1,0,0:0:0:0:
448,192,242620,1,0,0:0:0:0:
192,192,242620,1,0,0:0:0:0:
320,192,242688,1,0,0:0:0:0:
448,192,242756,1,0,0:0:0:0:
64,192,242756,1,0,0:0:0:0:
192,192,242824,1,0,0:0:0:0:
320,192,242892,1,0,0:0:0:0:
448,192,242892,1,0,0:0:0:0:
192,192,242960,1,0,0:0:0:0:
64,192,243029,1,0,0:0:0:0:
448,192,243097,1,0,0:0:0:0:
64,192,243165,1,0,0:0:0:0:
448,192,243233,1,0,0:0:0:0:
320,192,243301,1,0,0:0:0:0:
64,192,243301,1,0,0:0:0:0:
64,192,243438,1,0,0:0:0:0:
320,192,243438,1,0,0:0:0:0:
192,192,243574,1,0,0:0:0:0:
448,192,243642,1,0,0:0:0:0:
192,192,243710,1,0,0:0:0:0:
448,192,243779,1,0,0:0:0:0:
64,192,243847,1,0,0:0:0:0:
192,192,243915,1,0,0:0:0:0:
320,192,243983,1,0,0:0:0:0:
448,192,243983,1,0,0:0:0:0:
64,192,244051,1,0,0:0:0:0:
192,192,244120,1,0,0:0:0:0:
448,192,244120,1,0,0:0:0:0:
320,192,244188,1,0,0:0:0:0:
192,192,244256,1,0,0:0:0:0:
64,192,244256,1,0,0:0:0:0:
320,192,244324,1,0,0:0:0:0:
448,192,244392,128,0,246301:0:0:0:0:
64,192,244392,1,0,0:0:0:0:
192,192,244460,1,0,0:0:0:0:
320,192,244529,1,0,0:0:0:0:
192,192,244597,1,0,0:0:0:0:
64,192,244665,1,0,0:0:0:0:
320,192,244733,1,0,0:0:0:0:
192,192,244801,1,0,0:0:0:0:
64,192,244870,1,0,0:0:0:0:
192,192,244938,1,0,0:0:0:0:
320,192,245006,1,0,0:0:0:0:
64,192,245074,1,0,0:0:0:0:
192,192,245142,1,0,0:0:0:0:
320,192,245210,1,0,0:0:0:0:
192,192,245279,1,0,0:0:0:0:
64,192,245347,1,0,0:0:0:0:
320,192,245415,1,0,0:0:0:0:
192,192,245483,1,0,0:0:0:0:
64,192,245551,1,0,0:0:0:0:
192,192,245620,1,0,0:0:0:0:
320,192,245688,1,0,0:0:0:0:
64,192,245756,1,0,0:0:0:0:
192,192,245824,1,0,0:0:0:0:
320,192,245892,1,0,0:0:0:0:
64,192,245960,1,0,0:0:0:0:
192,192,246029,1,0,0:0:0:0:
320,192,246097,1,0,0:0:0:0:
64,192,246165,1,0,0:0:0:0:
192,192,246233,1,0,0:0:0:0:
320,192,246301,1,0,0:0:0:0:
192,192,246370,1,0,0:0:0:0:
64,192,246438,1,0,0:0:0:0:
448,192,246506,1,0,0:0:0:0:
64,192,246574,128,0,248483:0:0:0:0:
320,192,246574,1,0,0:0:0:0:
192,192,246642,1,0,0:0:0:0:
320,192,246710,1,0,0:0:0:0:
448,192,246779,1,0,0:0:0:0:
192,192,246847,1,0,0:0:0:0:
320,192,246915,1,0,0:0:0:0:
448,192,246983,1,0,0:0:0:0:
320,192,247051,1,0,0:0:0:0:
192,192,247120,1,0,0:0:0:0:
448,192,247188,1,0,0:0:0:0:
320,192,247256,1,0,0:0:0:0:
192,192,247324,1,0,0:0:0:0:
448,192,247392,1,0,0:0:0:0:
320,192,247460,1,0,0:0:0:0:
192,192,247529,1,0,0:0:0:0:
448,192,247597,1,0,0:0:0:0:
320,192,247665,1,0,0:0:0:0:
448,192,247733,1,0,0:0:0:0:
192,192,247801,1,0,0:0:0:0:
320,192,247870,1,0,0:0:0:0:
448,192,247938,1,0,0:0:0:0:
192,192,248006,1,0,0:0:0:0:
320,192,248074,1,0,0:0:0:0:
448,192,248142,1,0,0:0:0:0:
192,192,248210,1,0,0:0:0:0:
320,192,248279,1,0,0:0:0:0:
448,192,248347,1,0,0:0:0:0:
192,192,248415,1,0,0:0:0:0:
320,192,248483,1,0,0:0:0:0:
448,192,248551,1,0,0:0:0:0:
320,192,248620,1,0,0:0:0:0:
192,192,248688,1,0,0:0:0:0:
448,192,248756,128,0,250665:0:0:0:0:
64,192,248756,1,0,0:0:0:0:
320,192,248824,1,0,0:0:0:0:
192,192,248892,1,0,0:0:0:0:
64,192,248960,1,0,0:0:0:0:
192,192,249029,1,0,0:0:0:0:
320,192,249097,1,0,0:0:0:0:
64,192,249165,1,0,0:0:0:0:
192,192,249233,1,0,0:0:0:0:
320,192,249301,1,0,0:0:0:0:
64,192,249370,1,0,0:0:0:0:
192,192,249438,1,0,0:0:0:0:
320,192,249506,1,0,0:0:0:0:
64,192,249574,1,0,0:0:0:0:
192,192,249642,1,0,0:0:0:0:
320,192,249710,1,0,0:0:0:0:
192,192,249779,1,0,0:0:0:0:
64,192,249847,1,0,0:0:0:0:
320,192,249915,1,0,0:0:0:0:
192,192,249983,1,0,0:0:0:0:
64,192,250051,1,0,0:0:0:0:
320,192,250120,1,0,0:0:0:0:
192,192,250188,1,0,0:0:0:0:
64,192,250256,1,0,0:0:0:0:
320,192,250324,1,0,0:0:0:0:
192,192,250392,1,0,0:0:0:0:
64,192,250460,1,0,0:0:0:0:
320,192,250529,1,0,0:0:0:0:
192,192,250597,1,0,0:0:0:0:
64,192,250665,1,0,0:0:0:0:
192,192,250733,1,0,0:0:0:0:
320,192,250801,1,0,0:0:0:0:
192,192,250870,1,0,0:0:0:0:
64,192,250938,1,0,0:0:0:0:
448,192,250938,1,0,0:0:0:0:
192,192,251006,1,0,0:0:0:0:
320,192,251074,1,0,0:0:0:0:
64,192,251142,1,0,0:0:0:0:
192,192,251210,1,0,0:0:0:0:
320,192,251279,1,0,0:0:0:0:
448,192,251347,1,0,0:0:0:0:
64,192,251415,1,0,0:0:0:0:
192,192,251483,1,0,0:0:0:0:
320,192,251551,1,0,0:0:0:0:
448,192,251620,1,0,0:0:0:0:
64,192,251688,1,0,0:0:0:0:
192,192,251756,1,0,0:0:0:0:
320,192,251824,1,0,0:0:0:0:
448,192,251892,1,0,0:0:0:0:
320,192,251960,1,0,0:0:0:0:
64,192,252029,1,0,0:0:0:0:
448,192,252029,1,0,0:0:0:0:
320,192,252097,1,0,0:0:0:0:
192,192,252165,1,0,0:0:0:0:
64,192,252233,1,0,0:0:0:0:
448,192,252301,1,0,0:0:0:0:
320,192,252370,1,0,0:0:0:0:
192,192,252438,1,0,0:0:0:0:
64,192,252506,1,0,0:0:0:0:
448,192,252574,1,0,0:0:0:0:
320,192,252642,1,0,0:0:0:0:
192,192,252710,1,0,0:0:0:0:
64,192,252779,1,0,0:0:0:0:
448,192,252847,1,0,0:0:0:0:
320,192,252915,1,0,0:0:0:0:
192,192,252983,1,0,0:0:0:0:
64,192,253051,1,0,0:0:0:0:
448,192,253120,1,0,0:0:0:0:
320,192,253120,1,0,0:0:0:0:
192,192,253188,1,0,0:0:0:0:
64,192,253256,1,0,0:0:0:0:
320,192,253256,1,0,0:0:0:0:
448,192,253324,1,0,0:0:0:0:
64,192,253392,1,0,0:0:0:0:
192,192,253392,1,0,0:0:0:0:
320,192,253460,1,0,0:0:0:0:
448,192,253529,1,0,0:0:0:0:
64,192,253529,1,0,0:0:0:0:
192,192,253597,1,0,0:0:0:0:
320,192,253665,1,0,0:0:0:0:
448,192,253665,1,0,0:0:0:0:
192,192,253733,1,0,0:0:0:0:
64,192,253801,1,0,0:0:0:0:
448,192,253801,1,0,0:0:0:0:
320,192,253870,1,0,0:0:0:0:
192,192,253938,1,0,0:0:0:0:
64,192,253938,1,0,0:0:0:0:
320,192,254006,1,0,0:0:0:0:
448,192,254074,1,0,0:0:0:0:
64,192,254074,1,0,0:0:0:0:
192,192,254142,1,0,0:0:0:0:
320,192,254210,1,0,0:0:0:0:
448,192,254210,1,0,0:0:0:0:
192,192,254279,1,0,0:0:0:0:
64,192,254347,1,0,0:0:0:0:
448,192,254347,1,0,0:0:0:0:
320,192,254415,1,0,0:0:0:0:
192,192,254483,1,0,0:0:0:0:
64,192,254483,1,0,0:0:0:0:
320,192,254551,1,0,0:0:0:0:
448,192,254620,1,0,0:0:0:0:
64,192,254620,1,0,0:0:0:0:
192,192,254688,1,0,0:0:0:0:
320,192,254756,1,0,0:0:0:0:
448,192,254756,1,0,0:0:0:0:
192,192,254824,1,0,0:0:0:0:
64,192,254892,1,0,0:0:0:0:
448,192,254892,1,0,0:0:0:0:
320,192,254960,1,0,0:0:0:0:
192,192,255029,1,0,0:0:0:0:
64,192,255029,1,0,0:0:0:0:
320,192,255097,1,0,0:0:0:0:
448,192,255165,1,0,0:0:0:0:
64,192,255165,1,0,0:0:0:0:
192,192,255233,1,0,0:0:0:0:
320,192,255301,1,0,0:0:0:0:
448,192,255301,1,0,0:0:0:0:
192,192,255370,1,0,0:0:0:0:
64,192,255438,1,0,0:0:0:0:
448,192,255438,1,0,0:0:0:0:
320,192,255506,1,0,0:0:0:0:
192,192,255574,1,0,0:0:0:0:
64,192,255574,1,0,0:0:0:0:
320,192,255642,1,0,0:0:0:0:
448,192,255710,1,0,0:0:0:0:
64,192,255710,1,0,0:0:0:0:
192,192,255779,1,0,0:0:0:0:
320,192,255847,1,0,0:0:0:0:
448,192,255847,1,0,0:0:0:0:
192,192,255915,1,0,0:0:0:0:
64,192,255983,1,0,0:0:0:0:
448,192,255983,1,0,0:0:0:0:
320,192,256051,1,0,0:0:0:0:
192,192,256120,1,0,0:0:0:0:
64,192,256120,1,0,0:0:0:0:
320,192,256188,1,0,0:0:0:0:
448,192,256256,1,0,0:0:0:0:
64,192,256256,1,0,0:0:0:0:
192,192,256324,1,0,0:0:0:0:
320,192,256392,1,0,0:0:0:0:
448,192,256392,1,0,0:0:0:0:
192,192,256460,1,0,0:0:0:0:
64,192,256529,1,0,0:0:0:0:
448,192,256529,1,0,0:0:0:0:
320,192,256597,1,0,0:0:0:0:
192,192,256665,1,0,0:0:0:0:
64,192,256665,1,0,0:0:0:0:
320,192,256733,1,0,0:0:0:0:
448,192,256801,1,0,0:0:0:0:
64,192,256801,1,0,0:0:0:0:
192,192,256870,1,0,0:0:0:0:
320,192,256938,1,0,0:0:0:0:
448,192,256938,1,0,0:0:0:0:
192,192,257006,1,0,0:0:0:0:
64,192,257074,1,0,0:0:0:0:
448,192,257074,1,0,0:0:0:0:
320,192,257142,1,0,0:0:0:0:
192,192,257210,1,0,0:0:0:0:
64,192,257210,1,0,0:0:0:0:
320,192,257279,1,0,0:0:0:0:
448,192,257347,1,0,0:0:0:0:
64,192,257347,1,0,0:0:0:0:
192,192,257415,1,0,0:0:0:0:
448,192,257483,128,0,258301:0:0:0:0:
320,192,257483,128,0,258301:0:0:0:0:
64,192,258301,1,0,0:0:0:0:
192,192,258301,1,0,0:0:0:0:
192,192,258574,1,0,0:0:0:0:
320,192,258574,1,0,0:0:0:0:
448,192,258574,1,0,0:0:0:0:
64,192,258847,1,0,0:0:0:0:
192,192,258847,1,0,0:0:0:0:
192,192,259392,1,0,0:0:0:0:
320,192,259460,1,0,0:0:0:0:
192,192,259529,1,0,0:0:0:0:
320,192,259597,1,0,0:0:0:0:
448,192,259665,1,0,0:0:0:0:
64,192,259665,1,0,0:0:0:0:
320,192,259938,1,0,0:0:0:0:
64,192,259938,1,0,0:0:0:0:
192,192,259938,1,0,0:0:0:0:
448,192,260006,1,0,0:0:0:0:
64,192,260074,1,0,0:0:0:0:
448,192,260142,1,0,0:0:0:0:
64,192,260210,1,0,0:0:0:0:
192,192,260279,1,0,0:0:0:0:
320,192,260347,1,0,0:0:0:0:
448,192,260415,1,0,0:0:0:0:
64,192,260483,1,0,0:0:0:0:
192,192,260551,1,0,0:0:0:0:
320,192,260620,1,0,0:0:0:0:
448,192,260688,1,0,0:0:0:0:
192,192,260756,1,0,0:0:0:0:
64,192,260824,1,0,0:0:0:0:
448,192,260892,1,0,0:0:0:0:
320,192,260960,1,0,0:0:0:0:
192,192,261029,1,0,0:0:0:0:
64,192,261097,1,0,0:0:0:0:
320,192,261165,1,0,0:0:0:0:
448,192,261233,1,0,0:0:0:0:
320,192,261301,1,0,0:0:0:0:
192,192,261370,1,0,0:0:0:0:
64,192,261438,1,0,0:0:0:0:
448,192,261506,1,0,0:0:0:0:
64,192,261574,1,0,0:0:0:0:
192,192,261642,1,0,0:0:0:0:
320,192,261710,1,0,0:0:0:0:
448,192,261779,1,0,0:0:0:0:
64,192,261847,1,0,0:0:0:0:
192,192,261847,1,0,0:0:0:0:
320,192,261847,1,0,0:0:0:0:
64,192,266210,1,0,0:0:0:0:
320,192,266210,1,0,0:0:0:0:
64,192,266483,1,0,0:0:0:0:
320,192,266551,1,0,0:0:0:0:
64,192,266620,1,0,0:0:0:0:
320,192,266688,1,0,0:0:0:0:
64,192,266756,1,0,0:0:0:0:
320,192,266824,1,0,0:0:0:0:
64,192,266892,1,0,0:0:0:0:
320,192,266960,1,0,0:0:0:0:
64,192,267029,1,0,0:0:0:0:
320,192,267097,1,0,0:0:0:0:
64,192,267165,1,0,0:0:0:0:
320,192,267233,1,0,0:0:0:0:
64,192,267301,1,0,0:0:0:0:
192,192,267301,1,0,0:0:0:0:
448,192,267301,1,0,0:0:0:0:
64,192,267574,1,0,0:0:0:0:
320,192,267642,1,0,0:0:0:0:
64,192,267710,1,0,0:0:0:0:
192,192,267710,1,0,0:0:0:0:
448,192,267710,1,0,0:0:0:0:
320,192,267779,1,0,0:0:0:0:
64,192,267847,1,0,0:0:0:0:
320,192,267915,1,0,0:0:0:0:
64,192,267983,1,0,0:0:0:0:
320,192,268051,1,0,0:0:0:0:
64,192,268120,1,0,0:0:0:0:
192,192,268120,1,0,0:0:0:0:
448,192,268120,1,0,0:0:0:0:
320,192,268188,1,0,0:0:0:0:
64,192,268256,1,0,0:0:0:0:
320,192,268324,1,0,0:0:0:0:
64,192,268392,1,0,0:0:0:0:
448,192,268392,1,0,0:0:0:0:
448,192,268665,1,0,0:0:0:0:
192,192,268733,1,0,0:0:0:0:
448,192,268801,1,0,0:0:0:0:
192,192,268870,1,0,0:0:0:0:
448,192,268938,1,0,0:0:0:0:
192,192,269006,1,0,0:0:0:0:
448,192,269074,1,0,0:0:0:0:
192,192,269142,1,0,0:0:0:0:
448,192,269210,1,0,0:0:0:0:
192,192,269279,1,0,0:0:0:0:
448,192,269347,1,0,0:0:0:0:
192,192,269415,1,0,0:0:0:0:
448,192,269483,1,0,0:0:0:0:
64,192,269483,1,0,0:0:0:0:
320,192,269483,1,0,0:0:0:0:
448,192,269756,1,0,0:0:0:0:
192,192,269824,1,0,0:0:0:0:
448,192,269892,1,0,0:0:0:0:
320,192,269892,1,0,0:0:0:0:
64,192,269892,1,0,0:0:0:0:
192,192,269960,1,0,0:0:0:0:
448,192,270029,1,0,0:0:0:0:
192,192,270097,1,0,0:0:0:0:
448,192,270165,1,0,0:0:0:0:
192,192,270233,1,0,0:0:0:0:
448,192,270301,1,0,0:0:0:0:
320,192,270301,1,0,0:0:0:0:
64,192,270301,1,0,0:0:0:0:
192,192,270370,1,0,0:0:0:0:
448,192,270438,1,0,0:0:0:0:
192,192,270506,1,0,0:0:0:0:
64,192,270574,1,0,0:0:0:0:
320,192,270574,1,0,0:0:0:0:
64,192,270847,1,0,0:0:0:0:
448,192,270915,1,0,0:0:0:0:
64,192,270983,1,0,0:0:0:0:
448,192,271051,1,0,0:0:0:0:
64,192,271120,1,0,0:0:0:0:
448,192,271188,1,0,0:0:0:0:
64,192,271256,1,0,0:0:0:0:
448,192,271324,1,0,0:0:0:0:
64,192,271392,1,0,0:0:0:0:
448,192,271460,1,0,0:0:0:0:
64,192,271529,1,0,0:0:0:0:
448,192,271597,1,0,0:0:0:0:
320,192,271665,1,0,0:0:0:0:
192,192,271665,1,0,0:0:0:0:
64,192,271665,1,0,0:0:0:0:
448,192,271733,1,0,0:0:0:0:
64,192,271801,1,0,0:0:0:0:
192,192,271870,1,0,0:0:0:0:
320,192,271938,1,0,0:0:0:0:
448,192,271938,1,0,0:0:0:0:
192,192,272006,1,0,0:0:0:0:
64,192,272074,1,0,0:0:0:0:
320,192,272074,1,0,0:0:0:0:
448,192,272074,1,0,0:0:0:0:
192,192,272142,1,0,0:0:0:0:
320,192,272210,1,0,0:0:0:0:
448,192,272279,1,0,0:0:0:0:
64,192,272347,1,0,0:0:0:0:
192,192,272415,1,0,0:0:0:0:
320,192,272483,1,0,0:0:0:0:
448,192,272483,1,0,0:0:0:0:
64,192,272483,1,0,0:0:0:0:
192,192,272551,1,0,0:0:0:0:
64,192,272620,1,0,0:0:0:0:
448,192,272688,1,0,0:0:0:0:
320,192,272756,1,0,0:0:0:0:
64,192,272756,1,0,0:0:0:0:
192,192,272892,1,0,0:0:0:0:
448,192,272892,1,0,0:0:0:0:
64,192,273029,1,0,0:0:0:0:
192,192,273097,1,0,0:0:0:0:
448,192,273165,1,0,0:0:0:0:
320,192,273233,1,0,0:0:0:0:
64,192,273301,1,0,0:0:0:0:
192,192,273370,1,0,0:0:0:0:
320,192,273438,1,0,0:0:0:0:
448,192,273506,1,0,0:0:0:0:
64,192,273574,1,0,0:0:0:0:
192,192,273642,1,0,0:0:0:0:
448,192,273710,1,0,0:0:0:0:
320,192,273779,1,0,0:0:0:0:
192,192,273847,1,0,0:0:0:0:
448,192,273915,1,0,0:0:0:0:
192,192,273983,1,0,0:0:0:0:
448,192,274051,1,0,0:0:0:0:
192,192,274120,1,0,0:0:0:0:
448,192,274188,1,0,0:0:0:0:
192,192,274256,1,0,0:0:0:0:
448,192,274324,1,0,0:0:0:0:
192,192,274392,1,0,0:0:0:0:
448,192,274460,1,0,0:0:0:0:
192,192,274529,1,0,0:0:0:0:
448,192,274597,1,0,0:0:0:0:
192,192,274665,1,0,0:0:0:0:
448,192,274733,1,0,0:0:0:0:
192,192,274801,1,0,0:0:0:0:
448,192,274870,1,0,0:0:0:0:
64,192,274938,1,0,0:0:0:0:
192,192,274938,1,0,0:0:0:0:
320,192,275006,1,0,0:0:0:0:
448,192,275074,1,0,0:0:0:0:
64,192,275074,1,0,0:0:0:0:
192,192,275142,1,0,0:0:0:0:
320,192,275210,1,0,0:0:0:0:
448,192,275210,1,0,0:0:0:0:
192,192,275279,1,0,0:0:0:0:
64,192,275347,1,0,0:0:0:0:
320,192,275347,1,0,0:0:0:0:
192,192,275415,1,0,0:0:0:0:
448,192,275483,1,0,0:0:0:0:
64,192,275483,1,0,0:0:0:0:
320,192,275551,1,0,0:0:0:0:
192,192,275620,1,0,0:0:0:0:
448,192,275620,1,0,0:0:0:0:
64,192,275688,1,0,0:0:0:0:
192,192,275756,1,0,0:0:0:0:
320,192,275756,1,0,0:0:0:0:
448,192,275824,1,0,0:0:0:0:
64,192,275892,1,0,0:0:0:0:
320,192,275892,1,0,0:0:0:0:
192,192,275960,1,0,0:0:0:0:
64,192,276029,1,0,0:0:0:0:
448,192,276029,1,0,0:0:0:0:
320,192,276097,1,0,0:0:0:0:
448,192,276165,1,0,0:0:0:0:
192,192,276165,1,0,0:0:0:0:
64,192,276233,1,0,0:0:0:0:
192,192,276301,1,0,0:0:0:0:
448,192,276301,1,0,0:0:0:0:
320,192,276370,1,0,0:0:0:0:
192,192,276438,1,0,0:0:0:0:
64,192,276438,1,0,0:0:0:0:
448,192,276506,1,0,0:0:0:0:
320,192,276574,1,0,0:0:0:0:
64,192,276574,1,0,0:0:0:0:
192,192,276642,1,0,0:0:0:0:
448,192,276710,1,0,0:0:0:0:
320,192,276710,1,0,0:0:0:0:
192,192,276779,1,0,0:0:0:0:
64,192,276847,1,0,0:0:0:0:
320,192,276847,1,0,0:0:0:0:
448,192,276915,1,0,0:0:0:0:
192,192,276983,1,0,0:0:0:0:
320,192,276983,1,0,0:0:0:0:
64,192,277051,1,0,0:0:0:0:
192,192,277120,1,0,0:0:0:0:
448,192,277120,1,0,0:0:0:0:
320,192,277188,1,0,0:0:0:0:
64,192,277256,1,0,0:0:0:0:
448,192,277256,1,0,0:0:0:0:
192,192,277324,1,0,0:0:0:0:
320,192,277392,1,0,0:0:0:0:
448,192,277392,1,0,0:0:0:0:
192,192,277460,1,0,0:0:0:0:
64,192,277529,1,0,0:0:0:0:
320,192,277529,1,0,0:0:0:0:
448,192,277597,1,0,0:0:0:0:
320,192,277665,1,0,0:0:0:0:
192,192,277665,1,0,0:0:0:0:
64,192,277733,1,0,0:0:0:0:
192,192,277801,1,0,0:0:0:0:
448,192,277801,1,0,0:0:0:0:
320,192,277870,1,0,0:0:0:0:
448,192,277938,1,0,0:0:0:0:
64,192,277938,1,0,0:0:0:0:
192,192,278006,1,0,0:0:0:0:
320,192,278074,1,0,0:0:0:0:
448,192,278074,1,0,0:0:0:0:
192,192,278142,1,0,0:0:0:0:
64,192,278210,1,0,0:0:0:0:
320,192,278210,1,0,0:0:0:0:
448,192,278279,1,0,0:0:0:0:
192,192,278347,1,0,0:0:0:0:
64,192,278347,1,0,0:0:0:0:
320,192,278415,1,0,0:0:0:0:
448,192,278483,1,0,0:0:0:0:
64,192,278483,1,0,0:0:0:0:
192,192,278551,1,0,0:0:0:0:
64,192,278620,1,0,0:0:0:0:
320,192,278620,1,0,0:0:0:0:
448,192,278688,1,0,0:0:0:0:
320,192,278756,1,0,0:0:0:0:
192,192,278756,1,0,0:0:0:0:
64,192,278824,1,0,0:0:0:0:
192,192,278892,1,0,0:0:0:0:
448,192,278892,1,0,0:0:0:0:
320,192,278960,1,0,0:0:0:0:
448,192,279029,1,0,0:0:0:0:
64,192,279029,1,0,0:0:0:0:
320,192,279097,1,0,0:0:0:0:
192,192,279165,1,0,0:0:0:0:
64,192,279165,1,0,0:0:0:0:
320,192,279233,1,0,0:0:0:0:
448,192,279301,1,0,0:0:0:0:
64,192,279301,1,0,0:0:0:0:
192,192,279370,1,0,0:0:0:0:
320,192,279438,1,0,0:0:0:0:
64,192,279438,1,0,0:0:0:0:
448,192,279506,1,0,0:0:0:0:
64,192,279574,1,0,0:0:0:0:
192,192,279574,1,0,0:0:0:0:
320,192,279642,1,0,0:0:0:0:
448,192,279710,1,0,0:0:0:0:
64,192,279710,1,0,0:0:0:0:
192,192,279779,1,0,0:0:0:0:
320,192,279847,1,0,0:0:0:0:
64,192,279847,1,0,0:0:0:0:
448,192,279915,1,0,0:0:0:0:
64,192,279983,1,0,0:0:0:0:
192,192,279983,1,0,0:0:0:0:
320,192,280051,1,0,0:0:0:0:
448,192,280120,1,0,0:0:0:0:
64,192,280120,1,0,0:0:0:0:
192,192,280188,1,0,0:0:0:0:
320,192,280256,1,0,0:0:0:0:
64,192,280256,1,0,0:0:0:0:
448,192,280324,1,0,0:0:0:0:
320,192,280392,1,0,0:0:0:0:
192,192,280392,1,0,0:0:0:0:
64,192,280460,1,0,0:0:0:0:
192,192,280529,1,0,0:0:0:0:
448,192,280529,1,0,0:0:0:0:
320,192,280597,1,0,0:0:0:0:
448,192,280665,1,0,0:0:0:0:
64,192,280665,1,0,0:0:0:0:
192,192,280733,1,0,0:0:0:0:
320,192,280801,1,0,0:0:0:0:
64,192,280801,1,0,0:0:0:0:
448,192,280870,1,0,0:0:0:0:
320,192,280938,1,0,0:0:0:0:
192,192,280938,1,0,0:0:0:0:
64,192,281006,1,0,0:0:0:0:
448,192,281074,1,0,0:0:0:0:
192,192,281074,1,0,0:0:0:0:
320,192,281142,1,0,0:0:0:0:
448,192,281210,1,0,0:0:0:0:
64,192,281210,1,0,0:0:0:0:
192,192,281279,1,0,0:0:0:0:
320,192,281347,1,0,0:0:0:0:
448,192,281347,1,0,0:0:0:0:
192,192,281415,1,0,0:0:0:0:
64,192,281483,1,0,0:0:0:0:
448,192,281483,1,0,0:0:0:0:
320,192,281551,1,0,0:0:0:0:
192,192,281620,1,0,0:0:0:0:
448,192,281620,1,0,0:0:0:0:
64,192,281688,1,0,0:0:0:0:
192,192,281756,1,0,0:0:0:0:
320,192,281756,1,0,0:0:0:0:
448,192,281824,1,0,0:0:0:0:
64,192,281892,1,0,0:0:0:0:
192,192,281892,1,0,0:0:0:0:
320,192,281960,1,0,0:0:0:0:
448,192,282029,1,0,0:0:0:0:
64,192,282029,1,0,0:0:0:0:
192,192,282097,1,0,0:0:0:0:
320,192,282165,1,0,0:0:0:0:
448,192,282165,1,0,0:0:0:0:
192,192,282233,1,0,0:0:0:0:
64,192,282301,1,0,0:0:0:0:
448,192,282301,1,0,0:0:0:0:
320,192,282370,1,0,0:0:0:0:
192,192,282438,1,0,0:0:0:0:
448,192,282438,1,0,0:0:0:0:
64,192,282506,1,0,0:0:0:0:
192,192,282574,1,0,0:0:0:0:
320,192,282574,1,0,0:0:0:0:
448,192,282710,1,0,0:0:0:0:
320,192,282710,1,0,0:0:0:0:
64,192,282779,1,0,0:0:0:0:
192,192,282779,1,0,0:0:0:0:
320,192,282847,1,0,0:0:0:0:
448,192,282847,1,0,0:0:0:0:
64,192,282915,1,0,0:0:0:0:
192,192,282915,1,0,0:0:0:0:
320,192,282983,1,0,0:0:0:0:
448,192,282983,1,0,0:0:0:0:
64,192,283051,1,0,0:0:0:0:
192,192,283051,1,0,0:0:0:0:
320,192,283120,1,0,0:0:0:0:
448,192,283120,1,0,0:0:0:0:
192,192,283188,1,0,0:0:0:0:
64,192,283256,1,0,0:0:0:0:
192,192,283324,1,0,0:0:0:0:
320,192,283392,1,0,0:0:0:0:
448,192,283460,1,0,0:0:0:0:
320,192,283529,1,0,0:0:0:0:
448,192,283597,1,0,0:0:0:0:
192,192,283665,1,0,0:0:0:0:
64,192,283665,1,0,0:0:0:0:
320,192,283665,1,0,0:0:0:0:
448,192,283733,1,0,0:0:0:0:
320,192,283801,1,0,0:0:0:0:
64,192,283801,1,0,0:0:0:0:
192,192,283870,1,0,0:0:0:0:
448,192,283938,1,0,0:0:0:0:
320,192,283938,1,0,0:0:0:0:
192,192,284006,1,0,0:0:0:0:
64,192,284074,1,0,0:0:0:0:
448,192,284074,1,0,0:0:0:0:
320,192,284142,1,0,0:0:0:0:
192,192,284210,1,0,0:0:0:0:
448,192,284210,1,0,0:0:0:0:
64,192,284210,1,0,0:0:0:0:
320,192,284279,1,0,0:0:0:0:
448,192,284347,1,0,0:0:0:0:
64,192,284347,1,0,0:0:0:0:
192,192,284415,1,0,0:0:0:0:
320,192,284483,1,0,0:0:0:0:
64,192,284483,1,0,0:0:0:0:
448,192,284551,1,0,0:0:0:0:
320,192,284620,1,0,0:0:0:0:
192,192,284620,1,0,0:0:0:0:
64,192,284688,1,0,0:0:0:0:
448,192,284756,1,0,0:0:0:0:
192,192,284756,1,0,0:0:0:0:
320,192,284756,1,0,0:0:0:0:
64,192,284824,1,0,0:0:0:0:
192,192,284892,1,0,0:0:0:0:
320,192,284892,1,0,0:0:0:0:
448,192,284960,1,0,0:0:0:0:
320,192,285029,1,0,0:0:0:0:
192,192,285029,1,0,0:0:0:0:
64,192,285097,1,0,0:0:0:0:
192,192,285165,1,0,0:0:0:0:
448,192,285165,1,0,0:0:0:0:
320,192,285233,1,0,0:0:0:0:
448,192,285301,1,0,0:0:0:0:
64,192,285301,1,0,0:0:0:0:
320,192,285370,1,0,0:0:0:0:
192,192,285438,1,0,0:0:0:0:
64,192,285438,1,0,0:0:0:0:
320,192,285506,1,0,0:0:0:0:
448,192,285574,1,0,0:0:0:0:
192,192,285574,1,0,0:0:0:0:
320,192,285642,1,0,0:0:0:0:
448,192,285710,1,0,0:0:0:0:
64,192,285710,1,0,0:0:0:0:
192,192,285779,1,0,0:0:0:0:
320,192,285847,1,0,0:0:0:0:
448,192,285847,1,0,0:0:0:0:
64,192,285847,1,0,0:0:0:0:
192,192,285915,1,0,0:0:0:0:
320,192,285983,1,0,0:0:0:0:
64,192,285983,1,0,0:0:0:0:
192,192,286051,1,0,0:0:0:0:
320,192,286120,1,0,0:0:0:0:
448,192,286120,1,0,0:0:0:0:
64,192,286188,1,0,0:0:0:0:
448,192,286256,1,0,0:0:0:0:
320,192,286256,1,0,0:0:0:0:
192,192,286324,1,0,0:0:0:0:
64,192,286392,1,0,0:0:0:0:
320,192,286392,1,0,0:0:0:0:
448,192,286392,1,0,0:0:0:0:
192,192,286460,1,0,0:0:0:0:
64,192,286529,1,0,0:0:0:0:
448,192,286529,1,0,0:0:0:0:
320,192,286597,1,0,0:0:0:0:
192,192,286665,1,0,0:0:0:0:
448,192,286665,1,0,0:0:0:0:
64,192,286733,1,0,0:0:0:0:
192,192,286801,1,0,0:0:0:0:
320,192,286801,1,0,0:0:0:0:
448,192,286870,1,0,0:0:0:0:
64,192,286938,1,0,0:0:0:0:
320,192,286938,1,0,0:0:0:0:
192,192,286938,1,0,0:0:0:0:
448,192,287006,1,0,0:0:0:0:
64,192,287074,1,0,0:0:0:0:
192,192,287074,1,0,0:0:0:0:
320,192,287142,1,0,0:0:0:0:
448,192,287210,1,0,0:0:0:0:
64,192,287210,1,0,0:0:0:0:
192,192,287279,1,0,0:0:0:0:
320,192,287347,1,0,0:0:0:0:
64,192,287347,1,0,0:0:0:0:
448,192,287415,1,0,0:0:0:0:
320,192,287483,1,0,0:0:0:0:
192,192,287483,1,0,0:0:0:0:
64,192,287551,1,0,0:0:0:0:
448,192,287620,1,0,0:0:0:0:
192,192,287620,1,0,0:0:0:0:
320,192,287688,1,0,0:0:0:0:
448,192,287756,1,0,0:0:0:0:
192,192,287756,1,0,0:0:0:0:
64,192,287824,1,0,0:0:0:0:
192,192,287892,1,0,0:0:0:0:
320,192,287892,1,0,0:0:0:0:
448,192,287960,1,0,0:0:0:0:
64,192,288029,1,0,0:0:0:0:
192,192,288029,1,0,0:0:0:0:
320,192,288029,1,0,0:0:0:0:
448,192,288097,1,0,0:0:0:0:
320,192,288165,1,0,0:0:0:0:
192,192,288165,1,0,0:0:0:0:
64,192,288233,1,0,0:0:0:0:
448,192,288301,1,0,0:0:0:0:
192,192,288301,1,0,0:0:0:0:
320,192,288370,1,0,0:0:0:0:
448,192,288438,1,0,0:0:0:0:
192,192,288438,1,0,0:0:0:0:
64,192,288506,1,0,0:0:0:0:
448,192,288574,1,0,0:0:0:0:
192,192,288574,1,0,0:0:0:0:
320,192,288574,1,0,0:0:0:0:
64,192,288642,1,0,0:0:0:0:
192,192,288710,1,0,0:0:0:0:
448,192,288710,1,0,0:0:0:0:
320,192,288779,1,0,0:0:0:0:
64,192,288847,1,0,0:0:0:0:
192,192,288847,1,0,0:0:0:0:
448,192,288915,1,0,0:0:0:0:
320,192,288983,1,0,0:0:0:0:
64,192,288983,1,0,0:0:0:0:
192,192,289051,1,0,0:0:0:0:
448,192,289120,1,0,0:0:0:0:
320,192,289120,1,0,0:0:0:0:
64,192,289120,1,0,0:0:0:0:
192,192,289188,1,0,0:0:0:0:
320,192,289256,1,0,0:0:0:0:
448,192,289256,1,0,0:0:0:0:
192,192,289324,1,0,0:0:0:0:
64,192,289392,1,0,0:0:0:0:
448,192,289392,1,0,0:0:0:0:
320,192,289460,1,0,0:0:0:0:
192,192,289529,1,0,0:0:0:0:
448,192,289529,1,0,0:0:0:0:
64,192,289597,1,0,0:0:0:0:
192,192,289665,1,0,0:0:0:0:
320,192,289665,1,0,0:0:0:0:
448,192,289733,1,0,0:0:0:0:
64,192,289801,1,0,0:0:0:0:
192,192,289801,1,0,0:0:0:0:
320,192,289870,1,0,0:0:0:0:
448,192,289938,1,0,0:0:0:0:
64,192,289938,1,0,0:0:0:0:
192,192,290006,1,0,0:0:0:0:
320,192,290074,1,0,0:0:0:0:
448,192,290074,1,0,0:0:0:0:
192,192,290142,1,0,0:0:0:0:
320,192,290210,1,0,0:0:0:0:
64,192,290210,1,0,0:0:0:0:
192,192,290756,1,0,0:0:0:0:
448,192,290756,1,0,0:0:0:0:
64,192,291301,1,0,0:0:0:0:
320,192,291301,1,0,0:0:0:0:
192,192,291574,1,0,0:0:0:0:
192,192,291710,1,0,0:0:0:0:
192,192,291847,1,0,0:0:0:0:
320,192,291847,1,0,0:0:0:0:
448,192,291847,1,0,0:0:0:0:
320,192,292392,128,0,293210:0:0:0:0:
64,192,292392,1,0,0:0:0:0:
192,192,292392,1,0,0:0:0:0:
448,192,292392,1,0,0:0:0:0:
192,192,293210,128,0,293483:0:0:0:0:
448,192,293483,128,0,294301:0:0:0:0:
320,192,293483,1,0,0:0:0:0:
320,192,294301,128,0,294438:0:0:0:0:
192,192,294438,128,0,294574:0:0:0:0:
64,192,294574,128,0,294983:0:0:0:0:
320,192,294574,1,0,0:0:0:0:
448,192,294574,1,0,0:0:0:0:
192,192,294983,128,0,295392:0:0:0:0:
448,192,295120,1,0,0:0:0:0:
320,192,295392,128,0,295665:0:0:0:0:
192,192,295665,128,0,296210:0:0:0:0:
64,192,295665,1,0,0:0:0:0:
448,192,295733,1,0,0:0:0:0:
64,192,295801,1,0,0:0:0:0:
320,192,295870,1,0,0:0:0:0:
448,192,295938,1,0,0:0:0:0:
64,192,296210,128,0,296483:0:0:0:0:
320,192,296210,1,0,0:0:0:0:
448,192,296347,1,0,0:0:0:0:
320,192,296483,1,0,0:0:0:0:
192,192,296620,1,0,0:0:0:0:
64,192,296756,1,0,0:0:0:0:
320,192,296756,1,0,0:0:0:0:
448,192,296756,1,0,0:0:0:0:
64,192,297029,1,0,0:0:0:0:
448,192,297029,1,0,0:0:0:0:
320,192,297029,1,0,0:0:0:0:
64,192,297165,1,0,0:0:0:0:
192,192,297165,1,0,0:0:0:0:
448,192,297301,1,0,0:0:0:0:
192,192,297301,1,0,0:0:0:0:
320,192,297438,1,0,0:0:0:0:
448,192,297438,1,0,0:0:0:0:
448,192,297574,1,0,0:0:0:0:
192,192,297574,1,0,0:0:0:0:
64,192,297574,1,0,0:0:0:0:
64,192,297847,1,0,0:0:0:0:
192,192,297847,1,0,0:0:0:0:
448,192,297847,1,0,0:0:0:0:
448,192,298120,1,0,0:0:0:0:
320,192,298120,1,0,0:0:0:0:
64,192,298120,1,0,0:0:0:0:
64,192,298256,1,0,0:0:0:0:
192,192,298256,1,0,0:0:0:0:
448,192,298392,1,0,0:0:0:0:
192,192,298392,1,0,0:0:0:0:
448,192,298529,1,0,0:0:0:0:
320,192,298529,1,0,0:0:0:0:
64,192,298665,1,0,0:0:0:0:
192,192,298665,1,0,0:0:0:0:
320,192,298665,1,0,0:0:0:0:
64,192,298938,1,0,0:0:0:0:
192,192,298938,1,0,0:0:0:0:
320,192,298938,1,0,0:0:0:0:
192,192,299210,1,0,0:0:0:0:
448,192,299210,1,0,0:0:0:0:
448,192,299347,1,0,0:0:0:0:
320,192,299347,1,0,0:0:0:0:
192,192,299347,1,0,0:0:0:0:
64,192,299620,1,0,0:0:0:0:
320,192,299620,1,0,0:0:0:0:
64,192,299756,1,0,0:0:0:0:
320,192,299756,1,0,0:0:0:0:
64,192,299892,1,0,0:0:0:0:
320,192,299892,1,0,0:0:0:0:
64,192,300029,5,0,0:0:0:0:
192,192,300029,1,0,0:0:0:0:
192,192,300301,1,0,0:0:0:0:
320,192,300301,1,0,0:0:0:0:
448,192,300301,1,0,0:0:0:0:
64,192,300574,1,0,0:0:0:0:
192,192,300574,1,0,0:0:0:0:
64,192,300710,1,0,0:0:0:0:
192,192,300710,1,0,0:0:0:0:
192,192,300847,1,0,0:0:0:0:
64,192,300847,1,0,0:0:0:0:
320,192,300983,1,0,0:0:0:0:
192,192,301120,1,0,0:0:0:0:
448,192,301120,1,0,0:0:0:0:
320,192,301256,1,0,0:0:0:0:
64,192,301256,1,0,0:0:0:0:
64,192,301392,1,0,0:0:0:0:
192,192,301392,1,0,0:0:0:0:
448,192,301529,1,0,0:0:0:0:
192,192,301529,1,0,0:0:0:0:
448,192,301665,1,0,0:0:0:0:
320,192,301665,1,0,0:0:0:0:
64,192,301801,1,0,0:0:0:0:
448,192,301801,1,0,0:0:0:0:
64,192,301938,1,0,0:0:0:0:
320,192,301938,1,0,0:0:0:0:
192,192,302074,1,0,0:0:0:0:
448,192,302074,1,0,0:0:0:0:
320,192,302210,1,0,0:0:0:0:
64,192,302210,1,0,0:0:0:0:
64,192,302347,1,0,0:0:0:0:
192,192,302347,1,0,0:0:0:0:
448,192,302483,1,0,0:0:0:0:
64,192,302483,1,0,0:0:0:0:
320,192,302620,1,0,0:0:0:0:
448,192,302620,1,0,0:0:0:0:
192,192,302756,1,0,0:0:0:0:
448,192,302756,1,0,0:0:0:0:
64,192,302892,1,0,0:0:0:0:
320,192,302892,1,0,0:0:0:0:
64,192,303029,1,0,0:0:0:0:
448,192,303029,1,0,0:0:0:0:
192,192,303165,1,0,0:0:0:0:
320,192,303165,1,0,0:0:0:0:
64,192,303301,1,0,0:0:0:0:
320,192,303301,1,0,0:0:0:0:
192,192,303438,1,0,0:0:0:0:
448,192,303438,1,0,0:0:0:0:
320,192,303574,1,0,0:0:0:0:
64,192,303574,1,0,0:0:0:0:
64,192,303710,1,0,0:0:0:0:
448,192,303710,1,0,0:0:0:0:
192,192,303847,1,0,0:0:0:0:
320,192,303847,1,0,0:0:0:0:
448,192,303983,1,0,0:0:0:0:
64,192,303983,1,0,0:0:0:0:
448,192,304120,1,0,0:0:0:0:
320,192,304120,1,0,0:0:0:0:
64,192,304256,1,0,0:0:0:0:
320,192,304256,1,0,0:0:0:0:
64,192,304392,1,0,0:0:0:0:
192,192,304392,1,0,0:0:0:0:
448,192,304529,1,0,0:0:0:0:
192,192,304529,1,0,0:0:0:0:
320,192,304665,1,0,0:0:0:0:
448,192,304665,1,0,0:0:0:0:
192,192,304801,1,0,0:0:0:0:
320,192,304801,1,0,0:0:0:0:
64,192,304938,1,0,0:0:0:0:
448,192,304938,1,0,0:0:0:0:
320,192,305074,1,0,0:0:0:0:
64,192,305074,1,0,0:0:0:0:
192,192,305210,1,0,0:0:0:0:
448,192,305210,1,0,0:0:0:0:
64,192,305210,1,0,0:0:0:0:
320,192,305347,1,0,0:0:0:0:
448,192,305347,1,0,0:0:0:0:
64,192,305483,1,0,0:0:0:0:
448,192,305483,1,0,0:0:0:0:
320,192,305620,1,0,0:0:0:0:
192,192,305688,1,0,0:0:0:0:
64,192,305756,1,0,0:0:0:0:
448,192,305824,1,0,0:0:0:0:
320,192,305892,1,0,0:0:0:0:
192,192,305960,1,0,0:0:0:0:
64,192,306029,1,0,0:0:0:0:
448,192,306029,1,0,0:0:0:0:
192,192,306165,1,0,0:0:0:0:
320,192,306233,1,0,0:0:0:0:
192,192,306301,1,0,0:0:0:0:
320,192,306370,1,0,0:0:0:0:
448,192,306438,1,0,0:0:0:0:
64,192,306506,1,0,0:0:0:0:
192,192,306574,1,0,0:0:0:0:
448,192,306642,1,0,0:0:0:0:
64,192,306710,1,0,0:0:0:0:
448,192,306779,1,0,0:0:0:0:
64,192,306847,1,0,0:0:0:0:
192,192,306915,1,0,0:0:0:0:
320,192,306983,1,0,0:0:0:0:
448,192,307051,1,0,0:0:0:0:
64,192,307120,1,0,0:0:0:0:
192,192,307188,1,0,0:0:0:0:
320,192,307256,1,0,0:0:0:0:
64,192,307324,1,0,0:0:0:0:
192,192,307392,1,0,0:0:0:0:
448,192,307392,1,0,0:0:0:0:
320,192,307460,1,0,0:0:0:0:
448,192,307529,1,0,0:0:0:0:
64,192,307597,1,0,0:0:0:0:
192,192,307665,1,0,0:0:0:0:
320,192,307665,1,0,0:0:0:0:
64,192,309847,1,0,0:0:0:0:
192,192,309847,1,0,0:0:0:0:
448,192,309847,1,0,0:0:0:0:
64,192,309983,1,0,0:0:0:0:
192,192,310120,1,0,0:0:0:0:
320,192,310120,1,0,0:0:0:0:
448,192,310120,1,0,0:0:0:0:
448,192,310256,1,0,0:0:0:0:
64,192,310392,1,0,0:0:0:0:
192,192,310392,1,0,0:0:0:0:
320,192,310392,1,0,0:0:0:0:
64,192,310529,1,0,0:0:0:0:
192,192,310665,1,0,0:0:0:0:
320,192,310665,1,0,0:0:0:0:
448,192,310665,1,0,0:0:0:0:
320,192,310801,1,0,0:0:0:0:
64,192,310938,1,0,0:0:0:0:
192,192,310938,1,0,0:0:0:0:
320,192,310938,1,0,0:0:0:0:
64,192,311074,1,0,0:0:0:0:
192,192,311210,1,0,0:0:0:0:
320,192,311210,1,0,0:0:0:0:
448,192,311210,1,0,0:0:0:0:
448,192,311347,1,0,0:0:0:0:
64,192,311483,1,0,0:0:0:0:
192,192,311483,1,0,0:0:0:0:
320,192,311483,1,0,0:0:0:0:
192,192,311620,1,0,0:0:0:0:
448,192,311756,1,0,0:0:0:0:
64,192,311756,1,0,0:0:0:0:
192,192,311824,1,0,0:0:0:0:
320,192,311892,1,0,0:0:0:0:
448,192,311960,1,0,0:0:0:0:
192,192,312029,1,0,0:0:0:0:
64,192,312097,1,0,0:0:0:0:
448,192,312165,1,0,0:0:0:0:
320,192,312233,1,0,0:0:0:0:
192,192,312301,1,0,0:0:0:0:
320,192,312370,1,0,0:0:0:0:
448,192,312438,1,0,0:0:0:0:
64,192,312506,1,0,0:0:0:0:
192,192,312574,1,0,0:0:0:0:
320,192,312642,1,0,0:0:0:0:
448,192,312710,1,0,0:0:0:0:
192,192,312779,1,0,0:0:0:0:
64,192,312847,1,0,0:0:0:0:
448,192,312915,1,0,0:0:0:0:
320,192,312983,1,0,0:0:0:0:
192,192,313051,1,0,0:0:0:0:
64,192,313120,1,0,0:0:0:0:
448,192,313188,1,0,0:0:0:0:
320,192,313256,1,0,0:0:0:0:
192,192,313324,1,0,0:0:0:0:
64,192,313392,1,0,0:0:0:0:
448,192,313460,1,0,0:0:0:0:
320,192,313529,1,0,0:0:0:0:
192,192,313597,1,0,0:0:0:0:
64,192,313665,1,0,0:0:0:0:
448,192,313733,1,0,0:0:0:0:
64,192,313801,1,0,0:0:0:0:
448,192,313870,1,0,0:0:0:0:
320,192,313938,1,0,0:0:0:0:
192,192,314006,1,0,0:0:0:0:
64,192,314074,1,0,0:0:0:0:
448,192,314142,1,0,0:0:0:0:
320,192,314210,1,0,0:0:0:0:
192,192,314210,1,0,0:0:0:0:
64,192,314210,1,0,0:0:0:0:
192,192,314347,1,0,0:0:0:0:
192,192,314483,1,0,0:0:0:0:
320,192,314483,1,0,0:0:0:0:
448,192,314483,1,0,0:0:0:0:
448,192,314620,1,0,0:0:0:0:
64,192,314756,1,0,0:0:0:0:
192,192,314824,1,0,0:0:0:0:
64,192,314892,1,0,0:0:0:0:
192,192,314960,1,0,0:0:0:0:
320,192,315029,1,0,0:0:0:0:
448,192,315097,1,0,0:0:0:0:
320,192,315165,1,0,0:0:0:0:
192,192,315233,1,0,0:0:0:0:
64,192,315301,1,0,0:0:0:0:
320,192,315301,1,0,0:0:0:0:
448,192,315301,1,0,0:0:0:0:
448,192,315438,1,0,0:0:0:0:
64,192,315574,1,0,0:0:0:0:
192,192,315574,1,0,0:0:0:0:
320,192,315574,1,0,0:0:0:0:
64,192,315710,1,0,0:0:0:0:
192,192,315847,1,0,0:0:0:0:
320,192,315915,1,0,0:0:0:0:
192,192,315983,1,0,0:0:0:0:
320,192,316051,1,0,0:0:0:0:
448,192,316120,1,0,0:0:0:0:
64,192,316188,1,0,0:0:0:0:
192,192,316256,1,0,0:0:0:0:
320,192,316324,1,0,0:0:0:0:
448,192,316392,1,0,0:0:0:0:
192,192,316392,1,0,0:0:0:0:
64,192,316392,1,0,0:0:0:0:
64,192,316529,1,0,0:0:0:0:
448,192,316665,1,0,0:0:0:0:
320,192,316665,1,0,0:0:0:0:
192,192,316665,1,0,0:0:0:0:
448,192,316801,1,0,0:0:0:0:
64,192,316938,1,0,0:0:0:0:
192,192,316938,1,0,0:0:0:0:
320,192,316938,1,0,0:0:0:0:
64,192,317074,1,0,0:0:0:0:
192,192,317210,1,0,0:0:0:0:
320,192,317210,1,0,0:0:0:0:
448,192,317210,1,0,0:0:0:0:
320,192,317347,1,0,0:0:0:0:
64,192,317483,1,0,0:0:0:0:
192,192,317483,1,0,0:0:0:0:
64,192,317620,1,0,0:0:0:0:
192,192,317620,1,0,0:0:0:0:
448,192,317756,1,0,0:0:0:0:
192,192,317756,1,0,0:0:0:0:
320,192,317892,1,0,0:0:0:0:
448,192,317892,1,0,0:0:0:0:
64,192,318029,1,0,0:0:0:0:
192,192,318029,1,0,0:0:0:0:
320,192,318097,1,0,0:0:0:0:
192,192,318165,1,0,0:0:0:0:
320,192,318233,1,0,0:0:0:0:
448,192,318301,1,0,0:0:0:0:
64,192,318301,1,0,0:0:0:0:
192,192,318438,1,0,0:0:0:0:
320,192,318438,1,0,0:0:0:0:
64,192,318574,1,0,0:0:0:0:
448,192,318574,1,0,0:0:0:0:
192,192,318642,1,0,0:0:0:0:
320,192,318710,1,0,0:0:0:0:
448,192,318779,1,0,0:0:0:0:
64,192,318847,1,0,0:0:0:0:
192,192,318847,1,0,0:0:0:0:
320,192,318915,1,0,0:0:0:0:
448,192,318983,1,0,0:0:0:0:
64,192,319051,1,0,0:0:0:0:
448,192,319120,1,0,0:0:0:0:
192,192,319120,1,0,0:0:0:0:
320,192,319188,1,0,0:0:0:0:
192,192,319256,1,0,0:0:0:0:
320,192,319324,1,0,0:0:0:0:
448,192,319392,1,0,0:0:0:0:
64,192,319392,1,0,0:0:0:0:
320,192,319460,1,0,0:0:0:0:
192,192,319529,1,0,0:0:0:0:
320,192,319597,1,0,0:0:0:0:
448,192,319665,1,0,0:0:0:0:
64,192,319665,1,0,0:0:0:0:
320,192,319733,1,0,0:0:0:0:
192,192,319801,1,0,0:0:0:0:
320,192,319870,1,0,0:0:0:0:
448,192,319938,1,0,0:0:0:0:
64,192,319938,1,0,0:0:0:0:
320,192,320006,1,0,0:0:0:0:
192,192,320074,1,0,0:0:0:0:
320,192,320142,1,0,0:0:0:0:
448,192,320210,1,0,0:0:0:0:
64,192,320210,1,0,0:0:0:0:
320,192,320279,1,0,0:0:0:0:
192,192,320347,1,0,0:0:0:0:
320,192,320415,1,0,0:0:0:0:
192,192,320483,1,0,0:0:0:0:
64,192,320551,1,0,0:0:0:0:
320,192,320620,1,0,0:0:0:0:
192,192,320688,1,0,0:0:0:0:
64,192,320756,1,0,0:0:0:0:
448,192,320756,1,0,0:0:0:0:
192,192,320824,1,0,0:0:0:0:
320,192,320892,1,0,0:0:0:0:
192,192,320960,1,0,0:0:0:0:
64,192,321029,1,0,0:0:0:0:
448,192,321029,1,0,0:0:0:0:
192,192,321097,1,0,0:0:0:0:
320,192,321165,1,0,0:0:0:0:
192,192,321233,1,0,0:0:0:0:
64,192,321301,1,0,0:0:0:0:
448,192,321301,1,0,0:0:0:0:
192,192,321370,1,0,0:0:0:0:
320,192,321438,1,0,0:0:0:0:
192,192,321506,1,0,0:0:0:0:
64,192,321574,1,0,0:0:0:0:
448,192,321574,1,0,0:0:0:0:
192,192,321642,1,0,0:0:0:0:
320,192,321710,1,0,0:0:0:0:
192,192,321779,1,0,0:0:0:0:
64,192,321847,1,0,0:0:0:0:
448,192,321847,1,0,0:0:0:0:
320,192,321915,1,0,0:0:0:0:
192,192,321983,1,0,0:0:0:0:
64,192,322051,1,0,0:0:0:0:
448,192,322120,1,0,0:0:0:0:
320,192,322120,1,0,0:0:0:0:
192,192,322188,1,0,0:0:0:0:
64,192,322256,1,0,0:0:0:0:
448,192,322324,1,0,0:0:0:0:
320,192,322392,1,0,0:0:0:0:
192,192,322392,1,0,0:0:0:0:
64,192,322460,1,0,0:0:0:0:
448,192,322529,1,0,0:0:0:0:
320,192,322597,1,0,0:0:0:0:
192,192,322665,1,0,0:0:0:0:
64,192,322665,1,0,0:0:0:0:
320,192,322733,1,0,0:0:0:0:
448,192,322801,1,0,0:0:0:0:
64,192,322870,1,0,0:0:0:0:
192,192,322938,1,0,0:0:0:0:
320,192,322938,1,0,0:0:0:0:
448,192,323074,1,0,0:0:0:0:
192,192,323074,1,0,0:0:0:0:
64,192,323210,1,0,0:0:0:0:
320,192,323210,1,0,0:0:0:0:
192,192,323347,1,0,0:0:0:0:
64,192,323347,1,0,0:0:0:0:
192,192,323483,1,0,0:0:0:0:
448,192,323483,1,0,0:0:0:0:
320,192,323620,1,0,0:0:0:0:
64,192,323620,1,0,0:0:0:0:
192,192,323756,1,0,0:0:0:0:
448,192,323756,1,0,0:0:0:0:
320,192,323892,1,0,0:0:0:0:
192,192,323892,1,0,0:0:0:0:
64,192,324029,1,0,0:0:0:0:
192,192,324029,1,0,0:0:0:0:
448,192,324165,1,0,0:0:0:0:
192,192,324165,1,0,0:0:0:0:
320,192,324301,1,0,0:0:0:0:
448,192,324301,1,0,0:0:0:0:
320,192,324438,1,0,0:0:0:0:
64,192,324438,1,0,0:0:0:0:
64,192,324574,1,0,0:0:0:0:
192,192,324574,1,0,0:0:0:0:
448,192,324710,1,0,0:0:0:0:
64,192,324710,1,0,0:0:0:0:
448,192,324847,1,0,0:0:0:0:
192,192,324847,1,0,0:0:0:0:
320,192,324983,1,0,0:0:0:0:
64,192,324983,1,0,0:0:0:0:
192,192,325120,1,0,0:0:0:0:
448,192,325120,1,0,0:0:0:0:
320,192,325256,1,0,0:0:0:0:
192,192,325256,1,0,0:0:0:0:
64,192,325324,1,0,0:0:0:0:
192,192,325392,1,0,0:0:0:0:
448,192,325392,1,0,0:0:0:0:
320,192,325460,1,0,0:0:0:0:
64,192,325529,1,0,0:0:0:0:
192,192,325529,1,0,0:0:0:0:
320,192,325597,1,0,0:0:0:0:
448,192,325665,1,0,0:0:0:0:
64,192,325665,1,0,0:0:0:0:
192,192,325801,1,0,0:0:0:0:
320,192,325870,1,0,0:0:0:0:
192,192,325938,1,0,0:0:0:0:
320,192,326006,1,0,0:0:0:0:
192,192,326074,1,0,0:0:0:0:
64,192,326074,1,0,0:0:0:0:
448,192,326210,1,0,0:0:0:0:
192,192,326210,1,0,0:0:0:0:
320,192,326279,1,0,0:0:0:0:
64,192,326347,1,0,0:0:0:0:
192,192,326347,1,0,0:0:0:0:
320,192,326415,1,0,0:0:0:0:
448,192,326415,1,0,0:0:0:0:
64,192,326483,1,0,0:0:0:0:
192,192,326483,1,0,0:0:0:0:
320,192,326551,1,0,0:0:0:0:
448,192,326620,1,0,0:0:0:0:
64,192,326688,1,0,0:0:0:0:
192,192,326756,1,0,0:0:0:0:
320,192,326756,1,0,0:0:0:0:
448,192,326824,1,0,0:0:0:0:
64,192,326892,1,0,0:0:0:0:
448,192,326960,1,0,0:0:0:0:
64,192,327029,1,0,0:0:0:0:
448,192,327097,1,0,0:0:0:0:
64,192,327165,1,0,0:0:0:0:
448,192,327233,1,0,0:0:0:0:
64,192,327301,1,0,0:0:0:0:
192,192,327301,1,0,0:0:0:0:
320,192,327370,1,0,0:0:0:0:
448,192,327438,1,0,0:0:0:0:
64,192,327506,1,0,0:0:0:0:
192,192,327574,1,0,0:0:0:0:
320,192,327642,1,0,0:0:0:0:
448,192,327710,1,0,0:0:0:0:
192,192,327779,1,0,0:0:0:0:
64,192,327847,1,0,0:0:0:0:
448,192,327915,1,0,0:0:0:0:
320,192,327983,1,0,0:0:0:0:
192,192,328051,1,0,0:0:0:0:
64,192,328120,1,0,0:0:0:0:
448,192,328188,1,0,0:0:0:0:
320,192,328256,1,0,0:0:0:0:
64,192,328324,1,0,0:0:0:0:
192,192,328392,1,0,0:0:0:0:
448,192,328460,1,0,0:0:0:0:
320,192,328529,1,0,0:0:0:0:
64,192,328597,1,0,0:0:0:0:
192,192,328665,1,0,0:0:0:0:
320,192,328733,1,0,0:0:0:0:
448,192,328801,1,0,0:0:0:0:
64,192,328870,1,0,0:0:0:0:
192,192,328938,1,0,0:0:0:0:
448,192,329006,1,0,0:0:0:0:
320,192,329074,1,0,0:0:0:0:
192,192,329142,1,0,0:0:0:0:
64,192,329210,1,0,0:0:0:0:
448,192,329279,1,0,0:0:0:0:
320,192,329347,1,0,0:0:0:0:
192,192,329415,1,0,0:0:0:0:
64,192,329483,1,0,0:0:0:0:
448,192,329551,1,0,0:0:0:0:
320,192,329620,1,0,0:0:0:0:
64,192,329688,1,0,0:0:0:0:
192,192,329756,1,0,0:0:0:0:
320,192,329824,1,0,0:0:0:0:
64,192,329892,1,0,0:0:0:0:
192,192,329960,1,0,0:0:0:0:
320,192,330029,1,0,0:0:0:0:
448,192,330097,1,0,0:0:0:0:
192,192,330165,1,0,0:0:0:0:
64,192,330233,1,0,0:0:0:0:
448,192,330301,1,0,0:0:0:0:
320,192,330370,1,0,0:0:0:0:
192,192,330438,1,0,0:0:0:0:
64,192,330506,1,0,0:0:0:0:
448,192,330574,1,0,0:0:0:0:
320,192,330574,1,0,0:0:0:0:
448,192,330710,1,0,0:0:0:0:
320,192,330710,1,0,0:0:0:0:
448,192,330847,1,0,0:0:0:0:
320,192,330847,1,0,0:0:0:0:
448,192,330983,1,0,0:0:0:0:
320,192,330983,1,0,0:0:0:0:
64,192,331120,1,0,0:0:0:0:
192,192,331120,1,0,0:0:0:0:
192,192,331256,1,0,0:0:0:0:
320,192,331256,1,0,0:0:0:0:
320,192,331392,1,0,0:0:0:0:
448,192,331392,1,0,0:0:0:0:
64,192,331529,1,0,0:0:0:0:
192,192,331529,1,0,0:0:0:0:
448,192,331665,1,0,0:0:0:0:
320,192,331733,1,0,0:0:0:0:
192,192,331801,1,0,0:0:0:0:
64,192,331870,1,0,0:0:0:0:
448,192,331938,1,0,0:0:0:0:
320,192,332006,1,0,0:0:0:0:
192,192,332074,1,0,0:0:0:0:
320,192,332142,1,0,0:0:0:0:
448,192,332210,1,0,0:0:0:0:
64,192,332279,1,0,0:0:0:0:
192,192,332347,1,0,0:0:0:0:
320,192,332415,1,0,0:0:0:0:
64,192,332483,1,0,0:0:0:0:
192,192,332551,1,0,0:0:0:0:
320,192,332620,1,0,0:0:0:0:
448,192,332688,1,0,0:0:0:0:
192,192,332756,1,0,0:0:0:0:
320,192,332824,1,0,0:0:0:0:
192,192,332892,1,0,0:0:0:0:
64,192,332960,1,0,0:0:0:0:
448,192,333029,1,0,0:0:0:0:
320,192,333097,1,0,0:0:0:0:
192,192,333165,1,0,0:0:0:0:
64,192,333233,1,0,0:0:0:0:
448,192,333301,1,0,0:0:0:0:
320,192,333370,1,0,0:0:0:0:
192,192,333438,1,0,0:0:0:0:
64,192,333506,1,0,0:0:0:0:
448,192,333574,1,0,0:0:0:0:
320,192,333642,1,0,0:0:0:0:
192,192,333710,1,0,0:0:0:0:
64,192,333779,1,0,0:0:0:0:
320,192,333847,1,0,0:0:0:0:
448,192,333915,1,0,0:0:0:0:
64,192,333983,1,0,0:0:0:0:
192,192,334051,1,0,0:0:0:0:
320,192,334120,1,0,0:0:0:0:
448,192,334188,1,0,0:0:0:0:
64,192,334256,1,0,0:0:0:0:
192,192,334324,1,0,0:0:0:0:
320,192,334392,1,0,0:0:0:0:
192,192,334460,1,0,0:0:0:0:
64,192,334529,1,0,0:0:0:0:
448,192,334597,1,0,0:0:0:0:
320,192,334665,1,0,0:0:0:0:
192,192,334733,1,0,0:0:0:0:
64,192,334801,1,0,0:0:0:0:
448,192,334870,1,0,0:0:0:0:
320,192,334938,1,0,0:0:0:0:
64,192,334938,1,0,0:0:0:0:
64,192,335074,1,0,0:0:0:0:
192,192,336847,1,0,0:0:0:0:
320,192,336847,1,0,0:0:0:0:
192,192,337120,1,0,0:0:0:0:
320,192,337120,1,0,0:0:0:0:
448,192,337120,1,0,0:0:0:0:
192,192,337256,1,0,0:0:0:0:
320,192,337256,1,0,0:0:0:0:
448,192,337256,1,0,0:0:0:0:
64,192,339301,1,0,0:0:0:0:
192,192,339301,1,0,0:0:0:0:
320,192,339301,1,0,0:0:0:0:
64,192,339438,1,0,0:0:0:0:
192,192,339574,1,0,0:0:0:0:
320,192,339574,1,0,0:0:0:0:
448,192,339574,1,0,0:0:0:0:
448,192,339710,1,0,0:0:0:0:
64,192,339847,1,0,0:0:0:0:
192,192,339847,1,0,0:0:0:0:
320,192,339847,1,0,0:0:0:0:
64,192,339983,1,0,0:0:0:0:
192,192,340120,1,0,0:0:0:0:
320,192,340120,1,0,0:0:0:0:
448,192,340120,1,0,0:0:0:0:
320,192,340256,1,0,0:0:0:0:
64,192,340392,1,0,0:0:0:0:
192,192,340392,1,0,0:0:0:0:
320,192,340392,1,0,0:0:0:0:
64,192,340529,1,0,0:0:0:0:
448,192,340665,1,0,0:0:0:0:
320,192,340665,1,0,0:0:0:0:
192,192,340665,1,0,0:0:0:0:
448,192,340801,1,0,0:0:0:0:
64,192,340938,1,0,0:0:0:0:
320,192,340938,1,0,0:0:0:0:
192,192,340938,1,0,0:0:0:0:
192,192,341074,1,0,0:0:0:0:
192,192,341210,1,0,0:0:0:0:
320,192,341210,1,0,0:0:0:0:
448,192,341210,1,0,0:0:0:0:
448,192,341347,1,0,0:0:0:0:
64,192,341483,128,0,342574:0:0:0:0:
320,192,341483,128,0,342574:0:0:0:0:
192,192,342301,1,0,0:0:0:0:
448,192,342301,1,0,0:0:0:0:
448,192,342438,1,0,0:0:0:0:
192,192,342438,1,0,0:0:0:0:
192,192,342574,1,0,0:0:0:0:
448,192,342574,1,0,0:0:0:0:
192,192,342710,1,0,0:0:0:0:
448,192,342710,1,0,0:0:0:0:
64,192,343120,1,0,0:0:0:0:
320,192,343120,1,0,0:0:0:0:
64,192,343256,1,0,0:0:0:0:
320,192,343256,1,0,0:0:0:0:
64,192,343665,1,0,0:0:0:0:
192,192,343665,1,0,0:0:0:0:
320,192,343733,1,0,0:0:0:0:
448,192,343801,1,0,0:0:0:0:
64,192,343870,1,0,0:0:0:0:
192,192,343938,1,0,0:0:0:0:
320,192,343938,1,0,0:0:0:0:
448,192,344006,1,0,0:0:0:0:
64,192,344074,1,0,0:0:0:0:
320,192,344142,1,0,0:0:0:0:
192,192,344210,1,0,0:0:0:0:
448,192,344210,1,0,0:0:0:0:
64,192,344279,1,0,0:0:0:0:
320,192,344347,1,0,0:0:0:0:
192,192,344415,1,0,0:0:0:0:
64,192,344483,1,0,0:0:0:0:
448,192,344483,1,0,0:0:0:0:
320,192,344551,1,0,0:0:0:0:
192,192,344620,1,0,0:0:0:0:
320,192,344688,1,0,0:0:0:0:
448,192,344756,1,0,0:0:0:0:
64,192,344756,1,0,0:0:0:0:
192,192,344824,1,0,0:0:0:0:
320,192,344892,1,0,0:0:0:0:
64,192,344960,1,0,0:0:0:0:
192,192,345029,1,0,0:0:0:0:
448,192,345029,1,0,0:0:0:0:
320,192,345097,1,0,0:0:0:0:
64,192,345165,1,0,0:0:0:0:
192,192,345233,1,0,0:0:0:0:
448,192,345301,1,0,0:0:0:0:
320,192,345301,1,0,0:0:0:0:
192,192,345370,1,0,0:0:0:0:
64,192,345438,1,0,0:0:0:0:
448,192,345506,1,0,0:0:0:0:
320,192,345574,1,0,0:0:0:0:
192,192,345574,1,0,0:0:0:0:
64,192,345642,1,0,0:0:0:0:
448,192,345710,1,0,0:0:0:0:
320,192,345779,1,0,0:0:0:0:
192,192,345847,1,0,0:0:0:0:
64,192,345847,1,0,0:0:0:0:
320,192,345915,1,0,0:0:0:0:
448,192,345983,1,0,0:0:0:0:
192,192,346051,1,0,0:0:0:0:
320,192,346120,1,0,0:0:0:0:
448,192,346120,1,0,0:0:0:0:
64,192,346188,1,0,0:0:0:0:
192,192,346256,1,0,0:0:0:0:
320,192,346324,1,0,0:0:0:0:
448,192,346392,1,0,0:0:0:0:
64,192,346392,1,0,0:0:0:0:
192,192,346460,1,0,0:0:0:0:
320,192,346529,1,0,0:0:0:0:
192,192,346597,1,0,0:0:0:0:
64,192,346665,1,0,0:0:0:0:
448,192,346665,1,0,0:0:0:0:
320,192,346733,1,0,0:0:0:0:
192,192,346801,1,0,0:0:0:0:
64,192,346870,1,0,0:0:0:0:
320,192,346938,1,0,0:0:0:0:
192,192,346938,1,0,0:0:0:0:
448,192,347006,1,0,0:0:0:0:
64,192,347074,1,0,0:0:0:0:
192,192,347142,1,0,0:0:0:0:
448,192,347210,1,0,0:0:0:0:
64,192,347210,1,0,0:0:0:0:
320,192,347279,1,0,0:0:0:0:
192,192,347347,1,0,0:0:0:0:
320,192,347415,1,0,0:0:0:0:
448,192,347483,1,0,0:0:0:0:
192,192,347483,1,0,0:0:0:0:
64,192,347551,1,0,0:0:0:0:
320,192,347620,1,0,0:0:0:0:
192,192,347688,1,0,0:0:0:0:
64,192,347756,1,0,0:0:0:0:
320,192,347756,1,0,0:0:0:0:
448,192,347824,1,0,0:0:0:0:
192,192,347892,1,0,0:0:0:0:
320,192,347960,1,0,0:0:0:0:
64,192,348029,1,0,0:0:0:0:
192,192,348029,1,0,0:0:0:0:
320,192,348097,1,0,0:0:0:0:
448,192,348097,1,0,0:0:0:0:
64,192,348165,1,0,0:0:0:0:
192,192,348165,1,0,0:0:0:0:
320,192,348233,1,0,0:0:0:0:
448,192,348233,1,0,0:0:0:0:
64,192,348301,1,0,0:0:0:0:
192,192,348301,1,0,0:0:0:0:
448,192,348574,1,0,0:0:0:0:
320,192,348574,1,0,0:0:0:0:
64,192,348642,1,0,0:0:0:0:
192,192,348642,1,0,0:0:0:0:
320,192,348710,1,0,0:0:0:0:
448,192,348710,1,0,0:0:0:0:
64,192,348779,1,0,0:0:0:0:
192,192,348779,1,0,0:0:0:0:
320,192,348847,1,0,0:0:0:0:
448,192,348847,1,0,0:0:0:0:
64,192,349120,1,0,0:0:0:0:
192,192,349120,1,0,0:0:0:0:
320,192,349188,1,0,0:0:0:0:
448,192,349188,1,0,0:0:0:0:
64,192,349256,1,0,0:0:0:0:
192,192,349256,1,0,0:0:0:0:
320,192,349324,1,0,0:0:0:0:
448,192,349324,1,0,0:0:0:0:
64,192,349392,1,0,0:0:0:0:
192,192,349392,1,0,0:0:0:0:
448,192,349665,1,0,0:0:0:0:
320,192,349665,1,0,0:0:0:0:
64,192,349733,1,0,0:0:0:0:
192,192,349733,1,0,0:0:0:0:
320,192,349801,1,0,0:0:0:0:
448,192,349801,1,0,0:0:0:0:
64,192,349870,1,0,0:0:0:0:
192,192,349870,1,0,0:0:0:0:
320,192,349938,1,0,0:0:0:0:
448,192,349938,1,0,0:0:0:0:
64,192,350210,1,0,0:0:0:0:
448,192,350210,1,0,0:0:0:0:
192,192,350279,1,0,0:0:0:0:
320,192,350347,1,0,0:0:0:0:
448,192,350415,1,0,0:0:0:0:
192,192,350483,1,0,0:0:0:0:
64,192,350483,1,0,0:0:0:0:
320,192,350551,1,0,0:0:0:0:
448,192,350620,1,0,0:0:0:0:
192,192,350688,1,0,0:0:0:0:
64,192,350756,1,0,0:0:0:0:
320,192,350756,1,0,0:0:0:0:
448,192,350824,1,0,0:0:0:0:
320,192,350892,1,0,0:0:0:0:
192,192,350960,1,0,0:0:0:0:
64,192,351029,1,0,0:0:0:0:
448,192,351029,1,0,0:0:0:0:
320,192,351165,1,0,0:0:0:0:
192,192,351165,1,0,0:0:0:0:
64,192,351438,1,0,0:0:0:0:
192,192,351506,1,0,0:0:0:0:
448,192,351574,1,0,0:0:0:0:
320,192,351642,1,0,0:0:0:0:
192,192,351710,1,0,0:0:0:0:
64,192,351779,1,0,0:0:0:0:
448,192,351847,1,0,0:0:0:0:
320,192,351915,1,0,0:0:0:0:
64,192,351983,1,0,0:0:0:0:
320,192,352051,1,0,0:0:0:0:
448,192,352120,1,0,0:0:0:0:
192,192,352120,1,0,0:0:0:0:
64,192,352392,1,0,0:0:0:0:
192,192,352392,1,0,0:0:0:0:
320,192,352392,1,0,0:0:0:0:
64,192,352529,1,0,0:0:0:0:
448,192,352665,1,0,0:0:0:0:
320,192,352665,1,0,0:0:0:0:
192,192,352665,1,0,0:0:0:0:
448,192,352801,1,0,0:0:0:0:
64,192,352938,1,0,0:0:0:0:
192,192,352938,1,0,0:0:0:0:
320,192,352938,1,0,0:0:0:0:
192,192,353074,1,0,0:0:0:0:
448,192,353210,1,0,0:0:0:0:
192,192,353210,1,0,0:0:0:0:
320,192,353210,1,0,0:0:0:0:
320,192,353347,1,0,0:0:0:0:
64,192,353483,1,0,0:0:0:0:
192,192,353483,1,0,0:0:0:0:
320,192,353483,1,0,0:0:0:0:
64,192,353620,1,0,0:0:0:0:
448,192,353756,1,0,0:0:0:0:
192,192,353756,1,0,0:0:0:0:
320,192,353756,1,0,0:0:0:0:
448,192,353892,1,0,0:0:0:0:
64,192,354029,1,0,0:0:0:0:
192,192,354029,1,0,0:0:0:0:
320,192,354029,1,0,0:0:0:0:
64,192,354165,1,0,0:0:0:0:
448,192,354301,1,0,0:0:0:0:
192,192,354301,1,0,0:0:0:0:
320,192,354301,1,0,0:0:0:0:
448,192,354438,1,0,0:0:0:0:
64,192,354574,1,0,0:0:0:0:
192,192,354574,1,0,0:0:0:0:
320,192,354574,1,0,0:0:0:0:
192,192,354710,1,0,0:0:0:0:
448,192,354847,1,0,0:0:0:0:
320,192,354847,1,0,0:0:0:0:
192,192,354847,1,0,0:0:0:0:
448,192,354983,1,0,0:0:0:0:
64,192,355120,1,0,0:0:0:0:
192,192,355120,1,0,0:0:0:0:
320,192,355120,1,0,0:0:0:0:
64,192,355256,1,0,0:0:0:0:
448,192,355392,1,0,0:0:0:0:
192,192,355392,1,0,0:0:0:0:
320,192,355392,1,0,0:0:0:0:
448,192,355529,1,0,0:0:0:0:
64,192,355665,1,0,0:0:0:0:
192,192,355665,1,0,0:0:0:0:
320,192,355665,1,0,0:0:0:0:
64,192,355801,1,0,0:0:0:0:
192,192,355938,1,0,0:0:0:0:
320,192,355938,1,0,0:0:0:0:
448,192,355938,1,0,0:0:0:0:
320,192,356074,1,0,0:0:0:0:
64,192,356210,1,0,0:0:0:0:
192,192,356210,1,0,0:0:0:0:
320,192,356210,1,0,0:0:0:0:
192,192,356347,1,0,0:0:0:0:
448,192,356483,1,0,0:0:0:0:
192,192,356483,1,0,0:0:0:0:
320,192,356483,1,0,0:0:0:0:
64,192,356620,1,0,0:0:0:0:
192,192,356688,1,0,0:0:0:0:
320,192,356756,1,0,0:0:0:0:
448,192,356756,1,0,0:0:0:0:
64,192,357029,1,0,0:0:0:0:
192,192,357029,1,0,0:0:0:0:
320,192,357029,1,0,0:0:0:0:
192,192,357165,1,0,0:0:0:0:
448,192,357165,1,0,0:0:0:0:
320,192,357301,1,0,0:0:0:0:
64,192,357301,1,0,0:0:0:0:
64,192,357438,1,0,0:0:0:0:
192,192,357438,1,0,0:0:0:0:
448,192,357574,1,0,0:0:0:0:
320,192,357574,1,0,0:0:0:0:
192,192,357574,1,0,0:0:0:0:
64,192,357710,1,0,0:0:0:0:
192,192,357847,1,0,0:0:0:0:
320,192,357847,1,0,0:0:0:0:
448,192,358120,1,0,0:0:0:0:
192,192,358120,1,0,0:0:0:0:
64,192,358392,1,0,0:0:0:0:
320,192,358392,1,0,0:0:0:0:
192,192,358529,1,0,0:0:0:0:
448,192,358529,1,0,0:0:0:0:
320,192,358665,1,0,0:0:0:0:
64,192,358665,1,0,0:0:0:0:
320,192,358938,1,0,0:0:0:0:
448,192,358938,1,0,0:0:0:0:
192,192,359074,1,0,0:0:0:0:
320,192,359074,1,0,0:0:0:0:
192,192,359210,1,0,0:0:0:0:
64,192,359210,1,0,0:0:0:0:
192,192,359347,1,0,0:0:0:0:
320,192,359347,1,0,0:0:0:0:
448,192,359347,1,0,0:0:0:0:
64,192,359620,1,0,0:0:0:0:
192,192,359620,1,0,0:0:0:0:
192,192,359756,1,0,0:0:0:0:
320,192,359756,1,0,0:0:0:0:
320,192,359892,1,0,0:0:0:0:
448,192,359892,1,0,0:0:0:0:
64,192,359892,1,0,0:0:0:0:
448,192,360165,1,0,0:0:0:0:
448,192,360301,1,0,0:0:0:0:
448,192,360438,1,0,0:0:0:0:
448,192,360574,1,0,0:0:0:0:
448,192,360710,1,0,0:0:0:0:
448,192,360847,1,0,0:0:0:0:
320,192,360847,1,0,0:0:0:0:
64,192,361120,1,0,0:0:0:0:
320,192,361120,1,0,0:0:0:0:
448,192,361120,1,0,0:0:0:0:
192,192,361256,1,0,0:0:0:0:
64,192,361392,1,0,0:0:0:0:
192,192,361392,1,0,0:0:0:0:
320,192,361392,1,0,0:0:0:0:
64,192,361529,1,0,0:0:0:0:
192,192,361529,1,0,0:0:0:0:
448,192,361665,1,0,0:0:0:0:
320,192,361665,1,0,0:0:0:0:
192,192,361665,1,0,0:0:0:0:
448,192,361801,1,0,0:0:0:0:
192,192,361801,1,0,0:0:0:0:
192,192,361938,1,0,0:0:0:0:
64,192,361938,1,0,0:0:0:0:
448,192,361938,1,0,0:0:0:0:
448,192,362074,1,0,0:0:0:0:
320,192,362074,1,0,0:0:0:0:
64,192,362210,1,0,0:0:0:0:
192,192,362210,1,0,0:0:0:0:
320,192,362210,1,0,0:0:0:0:
64,192,362347,1,0,0:0:0:0:
192,192,362347,1,0,0:0:0:0:
448,192,362483,1,0,0:0:0:0:
320,192,362483,1,0,0:0:0:0:
192,192,362483,1,0,0:0:0:0:
448,192,362620,1,0,0:0:0:0:
192,192,362620,1,0,0:0:0:0:
64,192,362756,1,0,0:0:0:0:
192,192,362756,1,0,0:0:0:0:
320,192,362756,1,0,0:0:0:0:
64,192,362892,1,0,0:0:0:0:
192,192,362892,1,0,0:0:0:0:
448,192,363029,1,0,0:0:0:0:
320,192,363029,1,0,0:0:0:0:
192,192,363029,1,0,0:0:0:0:
448,192,363165,1,0,0:0:0:0:
64,192,363165,1,0,0:0:0:0:
448,192,363301,1,0,0:0:0:0:
320,192,363301,1,0,0:0:0:0:
192,192,363301,1,0,0:0:0:0:
320,192,363438,1,0,0:0:0:0:
192,192,363438,1,0,0:0:0:0:
64,192,363574,1,0,0:0:0:0:
192,192,363574,1,0,0:0:0:0:
448,192,363574,1,0,0:0:0:0:
64,192,363710,1,0,0:0:0:0:
192,192,363710,1,0,0:0:0:0:
448,192,363847,1,0,0:0:0:0:
320,192,363847,1,0,0:0:0:0:
64,192,363847,1,0,0:0:0:0:
192,192,363983,1,0,0:0:0:0:
448,192,363983,1,0,0:0:0:0:
320,192,364120,1,0,0:0:0:0:
448,192,364120,1,0,0:0:0:0:
192,192,364120,1,0,0:0:0:0:
64,192,364256,1,0,0:0:0:0:
192,192,364256,1,0,0:0:0:0:
64,192,364392,1,0,0:0:0:0:
192,192,364392,1,0,0:0:0:0:
448,192,364392,1,0,0:0:0:0:
320,192,364529,1,0,0:0:0:0:
448,192,364529,1,0,0:0:0:0:
192,192,364665,1,0,0:0:0:0:
320,192,364665,1,0,0:0:0:0:
64,192,364665,1,0,0:0:0:0:
192,192,364801,1,0,0:0:0:0:
320,192,364801,1,0,0:0:0:0:
192,192,364938,1,0,0:0:0:0:
64,192,364938,1,0,0:0:0:0:
320,192,364938,1,0,0:0:0:0:
448,192,365074,1,0,0:0:0:0:
192,192,365074,1,0,0:0:0:0:
192,192,365210,1,0,0:0:0:0:
448,192,365210,1,0,0:0:0:0:
64,192,365210,1,0,0:0:0:0:
64,192,365347,1,0,0:0:0:0:
320,192,365347,1,0,0:0:0:0:
448,192,365483,1,0,0:0:0:0:
320,192,365483,1,0,0:0:0:0:
192,192,365483,1,0,0:0:0:0:
192,192,365756,1,0,0:0:0:0:
448,192,365756,1,0,0:0:0:0:
64,192,365892,1,0,0:0:0:0:
320,192,365892,1,0,0:0:0:0:
192,192,366029,1,0,0:0:0:0:
448,192,366029,1,0,0:0:0:0:
320,192,366165,1,0,0:0:0:0:
192,192,366165,1,0,0:0:0:0:
64,192,366301,1,0,0:0:0:0:
192,192,366301,1,0,0:0:0:0:
320,192,366301,1,0,0:0:0:0:
448,192,366438,1,0,0:0:0:0:
320,192,366574,1,0,0:0:0:0:
192,192,366574,1,0,0:0:0:0:
64,192,366847,1,0,0:0:0:0:
320,192,366847,1,0,0:0:0:0:
192,192,366983,1,0,0:0:0:0:
448,192,366983,1,0,0:0:0:0:
320,192,367120,1,0,0:0:0:0:
192,192,367120,1,0,0:0:0:0:
448,192,367256,1,0,0:0:0:0:
64,192,367256,1,0,0:0:0:0:
320,192,367392,1,0,0:0:0:0:
64,192,367392,1,0,0:0:0:0:
320,192,367529,1,0,0:0:0:0:
64,192,367665,1,0,0:0:0:0:
192,192,367665,1,0,0:0:0:0:
320,192,367665,1,0,0:0:0:0:
64,192,367801,1,0,0:0:0:0:
192,192,367938,1,0,0:0:0:0:
320,192,367938,1,0,0:0:0:0:
448,192,368074,1,0,0:0:0:0:
320,192,368074,1,0,0:0:0:0:
64,192,368074,1,0,0:0:0:0:
192,192,368347,1,0,0:0:0:0:
448,192,368347,1,0,0:0:0:0:
320,192,368483,1,0,0:0:0:0:
64,192,368483,1,0,0:0:0:0:
64,192,368620,1,0,0:0:0:0:
192,192,368620,1,0,0:0:0:0:
448,192,368620,1,0,0:0:0:0:
448,192,368892,1,0,0:0:0:0:
320,192,368960,1,0,0:0:0:0:
64,192,369029,1,0,0:0:0:0:
192,192,369097,1,0,0:0:0:0:
320,192,369165,1,0,0:0:0:0:
448,192,369233,1,0,0:0:0:0:
64,192,369301,1,0,0:0:0:0:
192,192,369370,1,0,0:0:0:0:
448,192,369438,1,0,0:0:0:0:
320,192,369506,1,0,0:0:0:0:
192,192,369574,1,0,0:0:0:0:
64,192,369642,1,0,0:0:0:0:
448,192,369710,1,0,0:0:0:0:
320,192,369779,1,0,0:0:0:0:
192,192,369847,1,0,0:0:0:0:
320,192,370938,1,0,0:0:0:0:
64,192,372029,1,0,0:0:0:0:
320,192,373120,1,0,0:0:0:0:
192,192,374210,1,0,0:0:0:0:
448,192,375301,1,0,0:0:0:0:
320,192,376392,1,0,0:0:0:0:
192,192,377483,1,0,0:0:0:0:
320,192,378574,1,0,0:0:0:0:
192,192,379665,1,0,0:0:0:0:
448,192,380756,1,0,0:0:0:0:
64,192,381847,1,0,0:0:0:0:
192,192,382938,1,0,0:0:0:0:
320,192,384029,1,0,0:0:0:0:
448,192,385120,128,0,387301:0:0:0:0:
448,192,388392,128,0,388938:0:0:0:0:
320,192,388938,128,0,389483:0:0:0:0:
64,192,389483,128,0,389665:0:0:0:0:
192,192,389483,1,0,0:0:0:0:
448,192,389483,1,0,0:0:0:0:
192,192,389665,128,0,389847:0:0:0:0:
320,192,389665,1,0,0:0:0:0:
448,192,389665,1,0,0:0:0:0:
320,192,389847,128,0,390029:0:0:0:0:
64,192,389847,1,0,0:0:0:0:
448,192,389847,1,0,0:0:0:0:
448,192,390029,128,0,390210:0:0:0:0:
192,192,390029,1,0,0:0:0:0:
64,192,390029,1,0,0:0:0:0:
320,192,390210,128,0,390392:0:0:0:0:
192,192,390210,1,0,0:0:0:0:
64,192,390210,1,0,0:0:0:0:
192,192,390392,128,0,390574:0:0:0:0:
64,192,390392,1,0,0:0:0:0:
448,192,390392,1,0,0:0:0:0:
448,192,390574,1,0,0:0:0:0:
320,192,390574,1,0,0:0:0:0:
64,192,390574,1,0,0:0:0:0:
192,192,390756,1,0,0:0:0:0:
448,192,390756,1,0,0:0:0:0:
320,192,390938,1,0,0:0:0:0:
64,192,390938,1,0,0:0:0:0:
192,192,391120,1,0,0:0:0:0:
320,192,391120,1,0,0:0:0:0:
448,192,391301,1,0,0:0:0:0:
192,192,391301,1,0,0:0:0:0:
320,192,391483,1,0,0:0:0:0:
64,192,391483,1,0,0:0:0:0:
320,192,391665,128,0,392029:0:0:0:0:
448,192,391665,1,0,0:0:0:0:
192,192,391665,1,0,0:0:0:0:
64,192,391665,1,0,0:0:0:0:
192,192,391847,1,0,0:0:0:0:
64,192,391847,1,0,0:0:0:0:
64,192,392029,128,0,392210:0:0:0:0:
448,192,392029,1,0,0:0:0:0:
192,192,392029,1,0,0:0:0:0:
448,192,392210,128,0,392392:0:0:0:0:
192,192,392210,1,0,0:0:0:0:
320,192,392210,1,0,0:0:0:0:
320,192,392392,128,0,392574:0:0:0:0:
192,192,392392,1,0,0:0:0:0:
64,192,392392,1,0,0:0:0:0:
64,192,392574,128,0,392756:0:0:0:0:
192,192,392574,1,0,0:0:0:0:
448,192,392574,1,0,0:0:0:0:
192,192,392756,128,0,392938:0:0:0:0:
448,192,392756,1,0,0:0:0:0:
320,192,392756,1,0,0:0:0:0:
320,192,392938,1,0,0:0:0:0:
64,192,392938,1,0,0:0:0:0:
320,192,393120,1,0,0:0:0:0:
64,192,393120,1,0,0:0:0:0:
192,192,393301,128,0,393665:0:0:0:0:
448,192,393301,1,0,0:0:0:0:
320,192,393301,1,0,0:0:0:0:
64,192,393301,1,0,0:0:0:0:
64,192,393483,1,0,0:0:0:0:
448,192,393483,1,0,0:0:0:0:
320,192,393665,128,0,393847:0:0:0:0:
448,192,393665,1,0,0:0:0:0:
64,192,393665,1,0,0:0:0:0:
448,192,393847,128,0,394210:0:0:0:0:
64,192,393847,1,0,0:0:0:0:
192,192,393847,1,0,0:0:0:0:
192,192,394029,1,0,0:0:0:0:
64,192,394029,1,0,0:0:0:0:
320,192,394210,128,0,394392:0:0:0:0:
192,192,394210,1,0,0:0:0:0:
64,192,394210,1,0,0:0:0:0:
192,192,394392,128,0,394574:0:0:0:0:
448,192,394392,1,0,0:0:0:0:
64,192,394392,1,0,0:0:0:0:
64,192,394574,128,0,394756:0:0:0:0:
320,192,394574,1,0,0:0:0:0:
448,192,394574,1,0,0:0:0:0:
320,192,394756,128,0,394938:0:0:0:0:
448,192,394756,1,0,0:0:0:0:
192,192,394756,1,0,0:0:0:0:
192,192,394938,128,0,395120:0:0:0:0:
448,192,394938,1,0,0:0:0:0:
64,192,394938,1,0,0:0:0:0:
448,192,395120,1,0,0:0:0:0:
64,192,395120,1,0,0:0:0:0:
320,192,395301,1,0,0:0:0:0:
64,192,395301,1,0,0:0:0:0:
192,192,395483,1,0,0:0:0:0:
448,192,395483,1,0,0:0:0:0:
448,192,395665,1,0,0:0:0:0:
320,192,395665,1,0,0:0:0:0:
192,192,395847,1,0,0:0:0:0:
64,192,395847,1,0,0:0:0:0:
192,192,396029,128,0,396210:0:0:0:0:
448,192,396029,1,0,0:0:0:0:
320,192,396029,1,0,0:0:0:0:
64,192,396029,1,0,0:0:0:0:
320,192,396210,128,0,396392:0:0:0:0:
64,192,396210,1,0,0:0:0:0:
448,192,396210,1,0,0:0:0:0:
192,192,396392,128,0,396574:0:0:0:0:
448,192,396392,1,0,0:0:0:0:
64,192,396392,1,0,0:0:0:0:
64,192,396574,128,0,396756:0:0:0:0:
320,192,396574,1,0,0:0:0:0:
448,192,396574,1,0,0:0:0:0:
192,192,396756,128,0,396938:0:0:0:0:
448,192,396756,1,0,0:0:0:0:
320,192,396756,1,0,0:0:0:0:
320,192,396938,128,0,397120:0:0:0:0:
64,192,396938,1,0,0:0:0:0:
448,192,396938,1,0,0:0:0:0:
448,192,397120,128,0,397301:0:0:0:0:
192,192,397120,1,0,0:0:0:0:
64,192,397120,1,0,0:0:0:0:
320,192,397301,1,0,0:0:0:0:
192,192,397301,1,0,0:0:0:0:
64,192,397392,1,0,0:0:0:0:
192,192,397460,1,0,0:0:0:0:
320,192,397529,1,0,0:0:0:0:
448,192,397597,1,0,0:0:0:0:
320,192,397665,1,0,0:0:0:0:
192,192,397733,1,0,0:0:0:0:
64,192,397801,1,0,0:0:0:0:
192,192,397870,1,0,0:0:0:0:
448,192,397938,1,0,0:0:0:0:
320,192,398006,1,0,0:0:0:0:
192,192,398074,1,0,0:0:0:0:
64,192,398142,1,0,0:0:0:0:
448,192,398210,1,0,0:0:0:0:
320,192,398210,1,0,0:0:0:0:
64,192,398279,1,0,0:0:0:0:
448,192,398347,1,0,0:0:0:0:
64,192,398415,1,0,0:0:0:0:
448,192,398483,1,0,0:0:0:0:
64,192,398551,1,0,0:0:0:0:
448,192,398620,1,0,0:0:0:0:
64,192,398688,1,0,0:0:0:0:
320,192,398756,1,0,0:0:0:0:
448,192,398756,1,0,0:0:0:0:
192,192,398824,1,0,0:0:0:0:
320,192,398892,1,0,0:0:0:0:
192,192,398960,1,0,0:0:0:0:
320,192,399029,1,0,0:0:0:0:
192,192,399097,1,0,0:0:0:0:
320,192,399165,1,0,0:0:0:0:
192,192,399233,1,0,0:0:0:0:
448,192,399301,1,0,0:0:0:0:
64,192,399301,1,0,0:0:0:0:
192,192,399370,1,0,0:0:0:0:
448,192,399438,1,0,0:0:0:0:
192,192,399506,1,0,0:0:0:0:
448,192,399574,1,0,0:0:0:0:
192,192,399642,1,0,0:0:0:0:
448,192,399710,1,0,0:0:0:0:
192,192,399779,1,0,0:0:0:0:
448,192,399847,1,0,0:0:0:0:
320,192,399847,1,0,0:0:0:0:
192,192,399915,1,0,0:0:0:0:
448,192,399983,1,0,0:0:0:0:
192,192,400051,1,0,0:0:0:0:
448,192,400120,1,0,0:0:0:0:
192,192,400188,1,0,0:0:0:0:
448,192,400256,1,0,0:0:0:0:
192,192,400324,1,0,0:0:0:0:
320,192,400392,1,0,0:0:0:0:
448,192,400392,1,0,0:0:0:0:
64,192,400460,1,0,0:0:0:0:
320,192,400529,1,0,0:0:0:0:
64,192,400597,1,0,0:0:0:0:
320,192,400665,1,0,0:0:0:0:
64,192,400733,1,0,0:0:0:0:
320,192,400801,1,0,0:0:0:0:
64,192,400870,1,0,0:0:0:0:
320,192,400938,1,0,0:0:0:0:
192,192,400938,1,0,0:0:0:0:
64,192,401006,1,0,0:0:0:0:
320,192,401074,1,0,0:0:0:0:
64,192,401142,1,0,0:0:0:0:
320,192,401210,1,0,0:0:0:0:
64,192,401279,1,0,0:0:0:0:
320,192,401347,1,0,0:0:0:0:
64,192,401415,1,0,0:0:0:0:
448,192,401483,1,0,0:0:0:0:
320,192,401483,1,0,0:0:0:0:
64,192,401551,1,0,0:0:0:0:
320,192,401620,1,0,0:0:0:0:
64,192,401688,1,0,0:0:0:0:
320,192,401756,1,0,0:0:0:0:
64,192,401824,1,0,0:0:0:0:
320,192,401892,1,0,0:0:0:0:
64,192,401960,1,0,0:0:0:0:
320,192,402029,1,0,0:0:0:0:
192,192,402029,1,0,0:0:0:0:
64,192,402097,1,0,0:0:0:0:
320,192,402165,1,0,0:0:0:0:
64,192,402233,1,0,0:0:0:0:
320,192,402301,1,0,0:0:0:0:
64,192,402370,1,0,0:0:0:0:
320,192,402438,1,0,0:0:0:0:
64,192,402506,1,0,0:0:0:0:
448,192,402574,1,0,0:0:0:0:
320,192,402574,1,0,0:0:0:0:
192,192,402642,1,0,0:0:0:0:
448,192,402710,1,0,0:0:0:0:
192,192,402779,1,0,0:0:0:0:
448,192,402847,1,0,0:0:0:0:
192,192,402915,1,0,0:0:0:0:
448,192,402983,1,0,0:0:0:0:
192,192,403051,1,0,0:0:0:0:
448,192,403120,1,0,0:0:0:0:
320,192,403120,1,0,0:0:0:0:
192,192,403188,1,0,0:0:0:0:
448,192,403256,1,0,0:0:0:0:
192,192,403324,1,0,0:0:0:0:
448,192,403392,1,0,0:0:0:0:
192,192,403460,1,0,0:0:0:0:
448,192,403529,1,0,0:0:0:0:
192,192,403597,1,0,0:0:0:0:
448,192,403665,1,0,0:0:0:0:
320,192,403665,1,0,0:0:0:0:
64,192,403733,1,0,0:0:0:0:
448,192,403801,1,0,0:0:0:0:
64,192,403870,1,0,0:0:0:0:
448,192,403938,1,0,0:0:0:0:
64,192,404006,1,0,0:0:0:0:
448,192,404074,1,0,0:0:0:0:
64,192,404142,1,0,0:0:0:0:
448,192,404210,1,0,0:0:0:0:
192,192,404210,1,0,0:0:0:0:
64,192,404279,1,0,0:0:0:0:
448,192,404347,1,0,0:0:0:0:
64,192,404415,1,0,0:0:0:0:
448,192,404483,1,0,0:0:0:0:
64,192,404551,1,0,0:0:0:0:
448,192,404620,1,0,0:0:0:0:
64,192,404688,1,0,0:0:0:0:
448,192,404756,1,0,0:0:0:0:
192,192,404756,1,0,0:0:0:0:
320,192,404824,1,0,0:0:0:0:
448,192,404892,1,0,0:0:0:0:
320,192,404960,1,0,0:0:0:0:
448,192,405029,1,0,0:0:0:0:
320,192,405097,1,0,0:0:0:0:
448,192,405165,1,0,0:0:0:0:
320,192,405233,1,0,0:0:0:0:
448,192,405301,1,0,0:0:0:0:
64,192,405301,1,0,0:0:0:0:
320,192,405370,1,0,0:0:0:0:
448,192,405438,1,0,0:0:0:0:
320,192,405506,1,0,0:0:0:0:
448,192,405574,1,0,0:0:0:0:
320,192,405642,1,0,0:0:0:0:
448,192,405710,1,0,0:0:0:0:
320,192,405779,1,0,0:0:0:0:
192,192,405847,1,0,0:0:0:0:
64,192,405847,1,0,0:0:0:0:
320,192,405915,1,0,0:0:0:0:
448,192,405915,1,0,0:0:0:0:
192,192,405983,1,0,0:0:0:0:
64,192,405983,1,0,0:0:0:0:
320,192,406120,1,0,0:0:0:0:
448,192,406120,1,0,0:0:0:0:
192,192,406256,1,0,0:0:0:0:
64,192,406392,1,0,0:0:0:0:
320,192,406392,1,0,0:0:0:0:
448,192,406392,1,0,0:0:0:0:
192,192,406529,1,0,0:0:0:0:
320,192,406529,1,0,0:0:0:0:
64,192,406665,1,0,0:0:0:0:
192,192,406665,1,0,0:0:0:0:
320,192,406665,1,0,0:0:0:0:
192,192,406801,1,0,0:0:0:0:
320,192,406801,1,0,0:0:0:0:
448,192,406801,1,0,0:0:0:0:
64,192,406938,1,0,0:0:0:0:
192,192,406938,1,0,0:0:0:0:
320,192,407006,1,0,0:0:0:0:
448,192,407006,1,0,0:0:0:0:
64,192,407074,1,0,0:0:0:0:
192,192,407074,1,0,0:0:0:0:
320,192,407142,1,0,0:0:0:0:
448,192,407142,1,0,0:0:0:0:
64,192,407210,1,0,0:0:0:0:
192,192,407210,1,0,0:0:0:0:
320,192,407279,1,0,0:0:0:0:
448,192,407279,1,0,0:0:0:0:
64,192,407347,1,0,0:0:0:0:
192,192,407347,1,0,0:0:0:0:
320,192,407415,1,0,0:0:0:0:
448,192,407415,1,0,0:0:0:0:
64,192,407483,1,0,0:0:0:0:
192,192,407483,1,0,0:0:0:0:
320,192,407551,1,0,0:0:0:0:
448,192,407551,1,0,0:0:0:0:
64,192,407620,1,0,0:0:0:0:
192,192,407620,1,0,0:0:0:0:
320,192,407688,1,0,0:0:0:0:
448,192,407688,1,0,0:0:0:0:
64,192,407756,1,0,0:0:0:0:
192,192,407756,1,0,0:0:0:0:
320,192,407824,1,0,0:0:0:0:
448,192,407824,1,0,0:0:0:0:
64,192,407892,1,0,0:0:0:0:
192,192,407892,1,0,0:0:0:0:
320,192,407960,1,0,0:0:0:0:
448,192,407960,1,0,0:0:0:0:
64,192,408029,1,0,0:0:0:0:
192,192,408029,1,0,0:0:0:0:
320,192,408097,1,0,0:0:0:0:
448,192,408165,1,0,0:0:0:0:
64,192,408165,1,0,0:0:0:0:
192,192,408233,1,0,0:0:0:0:
320,192,408301,1,0,0:0:0:0:
448,192,408301,1,0,0:0:0:0:
192,192,408370,1,0,0:0:0:0:
64,192,408438,1,0,0:0:0:0:
320,192,408438,1,0,0:0:0:0:
448,192,408506,1,0,0:0:0:0:
320,192,408574,1,0,0:0:0:0:
192,192,408574,1,0,0:0:0:0:
64,192,408642,1,0,0:0:0:0:
448,192,408710,1,0,0:0:0:0:
320,192,408710,1,0,0:0:0:0:
192,192,408779,1,0,0:0:0:0:
64,192,408847,1,0,0:0:0:0:
448,192,408847,1,0,0:0:0:0:
320,192,408915,1,0,0:0:0:0:
192,192,408983,1,0,0:0:0:0:
64,192,408983,1,0,0:0:0:0:
320,192,409051,1,0,0:0:0:0:
448,192,409120,1,0,0:0:0:0:
64,192,409120,1,0,0:0:0:0:
192,192,409188,1,0,0:0:0:0:
320,192,409188,1,0,0:0:0:0:
64,192,409256,1,0,0:0:0:0:
448,192,409256,1,0,0:0:0:0:
320,192,409324,1,0,0:0:0:0:
192,192,409324,1,0,0:0:0:0:
64,192,409392,1,0,0:0:0:0:
448,192,409392,1,0,0:0:0:0:
320,192,409460,1,0,0:0:0:0:
192,192,409460,1,0,0:0:0:0:
64,192,409529,1,0,0:0:0:0:
448,192,409529,1,0,0:0:0:0:
320,192,409597,1,0,0:0:0:0:
192,192,409597,1,0,0:0:0:0:
64,192,409665,1,0,0:0:0:0:
448,192,409665,1,0,0:0:0:0:
320,192,409733,1,0,0:0:0:0:
192,192,409733,1,0,0:0:0:0:
64,192,409801,1,0,0:0:0:0:
448,192,409801,1,0,0:0:0:0:
320,192,409870,1,0,0:0:0:0:
192,192,409870,1,0,0:0:0:0:
64,192,409938,1,0,0:0:0:0:
448,192,409938,1,0,0:0:0:0:
320,192,410006,1,0,0:0:0:0:
192,192,410006,1,0,0:0:0:0:
64,192,410074,1,0,0:0:0:0:
448,192,410074,1,0,0:0:0:0:
320,192,410142,1,0,0:0:0:0:
192,192,410142,1,0,0:0:0:0:
64,192,410210,1,0,0:0:0:0:
448,192,410210,1,0,0:0:0:0:
320,192,410279,1,0,0:0:0:0:
192,192,410347,1,0,0:0:0:0:
64,192,410347,1,0,0:0:0:0:
320,192,410415,1,0,0:0:0:0:
448,192,410483,1,0,0:0:0:0:
192,192,410483,1,0,0:0:0:0:
64,192,410551,1,0,0:0:0:0:
192,192,410620,1,0,0:0:0:0:
320,192,410620,1,0,0:0:0:0:
448,192,410688,1,0,0:0:0:0:
64,192,410756,1,0,0:0:0:0:
192,192,410756,1,0,0:0:0:0:
320,192,410824,1,0,0:0:0:0:
448,192,410892,1,0,0:0:0:0:
64,192,410892,1,0,0:0:0:0:
192,192,410960,1,0,0:0:0:0:
320,192,411029,1,0,0:0:0:0:
448,192,411029,1,0,0:0:0:0:
192,192,411097,1,0,0:0:0:0:
64,192,411165,1,0,0:0:0:0:
320,192,411165,1,0,0:0:0:0:
448,192,411233,1,0,0:0:0:0:
192,192,411301,1,0,0:0:0:0:
64,192,411301,1,0,0:0:0:0:
320,192,411370,1,0,0:0:0:0:
448,192,411370,1,0,0:0:0:0:
192,192,411438,1,0,0:0:0:0:
64,192,411438,1,0,0:0:0:0:
448,192,411506,1,0,0:0:0:0:
320,192,411506,1,0,0:0:0:0:
192,192,411574,1,0,0:0:0:0:
64,192,411574,1,0,0:0:0:0:
320,192,411642,1,0,0:0:0:0:
448,192,411642,1,0,0:0:0:0:
192,192,411710,1,0,0:0:0:0:
64,192,411710,1,0,0:0:0:0:
320,192,411779,1,0,0:0:0:0:
448,192,411779,1,0,0:0:0:0:
192,192,411847,1,0,0:0:0:0:
64,192,411847,1,0,0:0:0:0:
320,192,411915,1,0,0:0:0:0:
448,192,411915,1,0,0:0:0:0:
192,192,411983,1,0,0:0:0:0:
64,192,411983,1,0,0:0:0:0:
320,192,412051,1,0,0:0:0:0:
448,192,412051,1,0,0:0:0:0:
192,192,412120,1,0,0:0:0:0:
64,192,412120,1,0,0:0:0:0:
320,192,412188,1,0,0:0:0:0:
448,192,412188,1,0,0:0:0:0:
192,192,412256,1,0,0:0:0:0:
64,192,412256,1,0,0:0:0:0:
320,192,412324,1,0,0:0:0:0:
448,192,412324,1,0,0:0:0:0:
64,192,412392,1,0,0:0:0:0:
192,192,412392,1,0,0:0:0:0:
320,192,412460,1,0,0:0:0:0:
448,192,412529,1,0,0:0:0:0:
64,192,412529,1,0,0:0:0:0:
192,192,412597,1,0,0:0:0:0:
320,192,412665,1,0,0:0:0:0:
448,192,412665,1,0,0:0:0:0:
192,192,412733,1,0,0:0:0:0:
64,192,412801,1,0,0:0:0:0:
320,192,412801,1,0,0:0:0:0:
448,192,412870,1,0,0:0:0:0:
320,192,412938,1,0,0:0:0:0:
192,192,412938,1,0,0:0:0:0:
64,192,413006,1,0,0:0:0:0:
192,192,413074,1,0,0:0:0:0:
448,192,413074,1,0,0:0:0:0:
320,192,413142,1,0,0:0:0:0:
448,192,413210,1,0,0:0:0:0:
64,192,413210,1,0,0:0:0:0:
192,192,413279,1,0,0:0:0:0:
320,192,413347,1,0,0:0:0:0:
448,192,413347,1,0,0:0:0:0:
192,192,413415,1,0,0:0:0:0:
64,192,413483,1,0,0:0:0:0:
448,192,413483,1,0,0:0:0:0:
320,192,413551,1,0,0:0:0:0:
192,192,413551,1,0,0:0:0:0:
64,192,413620,1,0,0:0:0:0:
448,192,413620,1,0,0:0:0:0:
320,192,413688,1,0,0:0:0:0:
192,192,413688,1,0,0:0:0:0:
64,192,413756,1,0,0:0:0:0:
448,192,413756,1,0,0:0:0:0:
320,192,413824,1,0,0:0:0:0:
192,192,413824,1,0,0:0:0:0:
64,192,413892,1,0,0:0:0:0:
448,192,413892,1,0,0:0:0:0:
320,192,413960,1,0,0:0:0:0:
192,192,413960,1,0,0:0:0:0:
64,192,414029,1,0,0:0:0:0:
448,192,414029,1,0,0:0:0:0:
320,192,414097,1,0,0:0:0:0:
192,192,414097,1,0,0:0:0:0:
64,192,414165,1,0,0:0:0:0:
448,192,414165,1,0,0:0:0:0:
320,192,414233,1,0,0:0:0:0:
192,192,414233,1,0,0:0:0:0:
64,192,414301,1,0,0:0:0:0:
448,192,414301,1,0,0:0:0:0:
320,192,414370,1,0,0:0:0:0:
192,192,414370,1,0,0:0:0:0:
64,192,414438,1,0,0:0:0:0:
448,192,414438,1,0,0:0:0:0:
320,192,414506,1,0,0:0:0:0:
192,192,414506,1,0,0:0:0:0:
64,192,414574,1,0,0:0:0:0:
448,192,414574,1,0,0:0:0:0:
320,192,414642,1,0,0:0:0:0:
192,192,414710,1,0,0:0:0:0:
64,192,414710,1,0,0:0:0:0:
320,192,414779,1,0,0:0:0:0:
448,192,414847,1,0,0:0:0:0:
192,192,414847,1,0,0:0:0:0:
64,192,414915,1,0,0:0:0:0:
192,192,414983,1,0,0:0:0:0:
320,192,414983,1,0,0:0:0:0:
448,192,415051,1,0,0:0:0:0:
64,192,415120,1,0,0:0:0:0:
320,192,415120,1,0,0:0:0:0:
192,192,415188,1,0,0:0:0:0:
320,192,415256,1,0,0:0:0:0:
448,192,415256,1,0,0:0:0:0:
64,192,415324,1,0,0:0:0:0:
192,192,415392,1,0,0:0:0:0:
320,192,415392,1,0,0:0:0:0:
448,192,415460,1,0,0:0:0:0:
320,192,415529,1,0,0:0:0:0:
192,192,415597,1,0,0:0:0:0:
64,192,415665,1,0,0:0:0:0:
320,192,415665,1,0,0:0:0:0:
448,192,415733,1,0,0:0:0:0:
64,192,415801,1,0,0:0:0:0:
448,192,415870,1,0,0:0:0:0:
64,192,415938,1,0,0:0:0:0:
448,192,416006,1,0,0:0:0:0:
64,192,416074,1,0,0:0:0:0:
448,192,416142,1,0,0:0:0:0:
64,192,416210,1,0,0:0:0:0:
320,192,416210,1,0,0:0:0:0:
448,192,416279,1,0,0:0:0:0:
64,192,416347,1,0,0:0:0:0:
448,192,416415,1,0,0:0:0:0:
64,192,416483,1,0,0:0:0:0:
448,192,416551,1,0,0:0:0:0:
64,192,416620,1,0,0:0:0:0:
448,192,416688,1,0,0:0:0:0:
64,192,416756,1,0,0:0:0:0:
192,192,416756,1,0,0:0:0:0:
320,192,416824,1,0,0:0:0:0:
64,192,416892,1,0,0:0:0:0:
320,192,416960,1,0,0:0:0:0:
64,192,417029,1,0,0:0:0:0:
320,192,417097,1,0,0:0:0:0:
64,192,417165,1,0,0:0:0:0:
320,192,417233,1,0,0:0:0:0:
64,192,417301,1,0,0:0:0:0:
192,192,417301,1,0,0:0:0:0:
320,192,417370,1,0,0:0:0:0:
64,192,417438,1,0,0:0:0:0:
320,192,417506,1,0,0:0:0:0:
64,192,417574,1,0,0:0:0:0:
320,192,417642,1,0,0:0:0:0:
64,192,417710,1,0,0:0:0:0:
320,192,417779,1,0,0:0:0:0:
192,192,417847,1,0,0:0:0:0:
64,192,417847,1,0,0:0:0:0:
448,192,417915,1,0,0:0:0:0:
192,192,417983,1,0,0:0:0:0:
448,192,418051,1,0,0:0:0:0:
192,192,418120,1,0,0:0:0:0:
448,192,418188,1,0,0:0:0:0:
192,192,418256,1,0,0:0:0:0:
448,192,418324,1,0,0:0:0:0:
192,192,418392,1,0,0:0:0:0:
64,192,418392,1,0,0:0:0:0:
448,192,418460,1,0,0:0:0:0:
192,192,418529,1,0,0:0:0:0:
448,192,418597,1,0,0:0:0:0:
192,192,418665,1,0,0:0:0:0:
448,192,418733,1,0,0:0:0:0:
192,192,418801,1,0,0:0:0:0:
448,192,418870,1,0,0:0:0:0:
64,192,418938,1,0,0:0:0:0:
320,192,418938,1,0,0:0:0:0:
448,192,419006,1,0,0:0:0:0:
64,192,419074,1,0,0:0:0:0:
448,192,419142,1,0,0:0:0:0:
64,192,419210,1,0,0:0:0:0:
448,192,419279,1,0,0:0:0:0:
64,192,419347,1,0,0:0:0:0:
448,192,419415,1,0,0:0:0:0:
64,192,419483,1,0,0:0:0:0:
320,192,419483,1,0,0:0:0:0:
448,192,419551,1,0,0:0:0:0:
64,192,419620,1,0,0:0:0:0:
448,192,419688,1,0,0:0:0:0:
64,192,419756,1,0,0:0:0:0:
448,192,419824,1,0,0:0:0:0:
64,192,419892,1,0,0:0:0:0:
448,192,419960,1,0,0:0:0:0:
192,192,420029,1,0,0:0:0:0:
320,192,420029,1,0,0:0:0:0:
448,192,420097,1,0,0:0:0:0:
192,192,420165,1,0,0:0:0:0:
448,192,420233,1,0,0:0:0:0:
192,192,420301,1,0,0:0:0:0:
448,192,420370,1,0,0:0:0:0:
192,192,420438,1,0,0:0:0:0:
448,192,420506,1,0,0:0:0:0:
192,192,420574,1,0,0:0:0:0:
320,192,420574,1,0,0:0:0:0:
448,192,420642,1,0,0:0:0:0:
192,192,420710,1,0,0:0:0:0:
448,192,420779,1,0,0:0:0:0:
192,192,420847,1,0,0:0:0:0:
448,192,420915,1,0,0:0:0:0:
192,192,420983,1,0,0:0:0:0:
448,192,421051,1,0,0:0:0:0:
192,192,421120,1,0,0:0:0:0:
64,192,421120,1,0,0:0:0:0:
320,192,421188,1,0,0:0:0:0:
192,192,421256,1,0,0:0:0:0:
320,192,421324,1,0,0:0:0:0:
192,192,421392,1,0,0:0:0:0:
320,192,421460,1,0,0:0:0:0:
192,192,421529,1,0,0:0:0:0:
320,192,421597,1,0,0:0:0:0:
192,192,421665,1,0,0:0:0:0:
64,192,421665,1,0,0:0:0:0:
320,192,421733,1,0,0:0:0:0:
192,192,421801,1,0,0:0:0:0:
320,192,421870,1,0,0:0:0:0:
192,192,421938,1,0,0:0:0:0:
320,192,422006,1,0,0:0:0:0:
192,192,422074,1,0,0:0:0:0:
320,192,422142,1,0,0:0:0:0:
64,192,422210,1,0,0:0:0:0:
448,192,422210,1,0,0:0:0:0:
320,192,422279,1,0,0:0:0:0:
64,192,422347,1,0,0:0:0:0:
320,192,422415,1,0,0:0:0:0:
64,192,422483,1,0,0:0:0:0:
320,192,422551,1,0,0:0:0:0:
64,192,422620,1,0,0:0:0:0:
320,192,422688,1,0,0:0:0:0:
64,192,422756,1,0,0:0:0:0:
448,192,422756,1,0,0:0:0:0:
320,192,422824,1,0,0:0:0:0:
64,192,422892,1,0,0:0:0:0:
320,192,422960,1,0,0:0:0:0:
64,192,423029,1,0,0:0:0:0:
320,192,423097,1,0,0:0:0:0:
64,192,423165,1,0,0:0:0:0:
320,192,423233,1,0,0:0:0:0:
192,192,423301,1,0,0:0:0:0:
64,192,423301,1,0,0:0:0:0:
448,192,423370,1,0,0:0:0:0:
192,192,423438,1,0,0:0:0:0:
448,192,423506,1,0,0:0:0:0:
192,192,423574,1,0,0:0:0:0:
448,192,423642,1,0,0:0:0:0:
192,192,423710,1,0,0:0:0:0:
448,192,423779,1,0,0:0:0:0:
192,192,423847,1,0,0:0:0:0:
64,192,423847,1,0,0:0:0:0:
448,192,423915,1,0,0:0:0:0:
192,192,423983,1,0,0:0:0:0:
448,192,424051,1,0,0:0:0:0:
192,192,424120,1,0,0:0:0:0:
448,192,424188,1,0,0:0:0:0:
192,192,424256,1,0,0:0:0:0:
448,192,424324,1,0,0:0:0:0:
192,192,424392,1,0,0:0:0:0:
64,192,424392,1,0,0:0:0:0:
192,192,424665,1,0,0:0:0:0:
448,192,424665,1,0,0:0:0:0:
320,192,424801,1,0,0:0:0:0:
64,192,424801,1,0,0:0:0:0:
64,192,424938,1,0,0:0:0:0:
192,192,424938,1,0,0:0:0:0:
320,192,425074,1,0,0:0:0:0:
448,192,425074,1,0,0:0:0:0:
448,192,425210,1,0,0:0:0:0:
192,192,425210,1,0,0:0:0:0:
320,192,425347,1,0,0:0:0:0:
64,192,425347,1,0,0:0:0:0:
192,192,425483,1,0,0:0:0:0:
320,192,425483,1,0,0:0:0:0:
448,192,425483,1,0,0:0:0:0:
64,192,425756,1,0,0:0:0:0:
320,192,425756,1,0,0:0:0:0:
192,192,425892,1,0,0:0:0:0:
320,192,425892,1,0,0:0:0:0:
448,192,426029,1,0,0:0:0:0:
64,192,426029,1,0,0:0:0:0:
448,192,426165,1,0,0:0:0:0:
192,192,426165,1,0,0:0:0:0:
320,192,426301,1,0,0:0:0:0:
192,192,426301,1,0,0:0:0:0:
64,192,426438,1,0,0:0:0:0:
448,192,426438,1,0,0:0:0:0:
64,192,426574,1,0,0:0:0:0:
192,192,426574,1,0,0:0:0:0:
320,192,426574,1,0,0:0:0:0:
192,192,426847,1,0,0:0:0:0:
320,192,426847,1,0,0:0:0:0:
448,192,426983,1,0,0:0:0:0:
64,192,426983,1,0,0:0:0:0:
64,192,427120,1,0,0:0:0:0:
320,192,427120,1,0,0:0:0:0:
192,192,427256,1,0,0:0:0:0:
448,192,427256,1,0,0:0:0:0:
448,192,427392,1,0,0:0:0:0:
320,192,427392,1,0,0:0:0:0:
64,192,427529,1,0,0:0:0:0:
320,192,427529,1,0,0:0:0:0:
64,192,427665,1,0,0:0:0:0:
192,192,427665,1,0,0:0:0:0:
320,192,427665,1,0,0:0:0:0:
448,192,427733,1,0,0:0:0:0:
64,192,427801,1,0,0:0:0:0:
192,192,427870,1,0,0:0:0:0:
320,192,427938,1,0,0:0:0:0:
448,192,427938,1,0,0:0:0:0:
192,192,428074,1,0,0:0:0:0:
64,192,428210,1,0,0:0:0:0:
320,192,428210,1,0,0:0:0:0:
448,192,428347,1,0,0:0:0:0:
320,192,428483,1,0,0:0:0:0:
192,192,428620,1,0,0:0:0:0:
64,192,428756,1,0,0:0:0:0:
320,192,428756,1,0,0:0:0:0:
448,192,428756,1,0,0:0:0:0:
448,192,458347,132,0,463597:0:0:0:0:
192,192,463597,1,0,0:0:0:0:
64,192,463597,1,0,0:0:0:0:
320,192,463665,1,0,0:0:0:0:
448,192,463733,1,0,0:0:0:0:
64,192,463733,1,0,0:0:0:0:
192,192,463801,1,0,0:0:0:0:
320,192,463869,1,0,0:0:0:0:
448,192,463869,1,0,0:0:0:0:
192,192,463937,1,0,0:0:0:0:
64,192,464006,1,0,0:0:0:0:
320,192,464006,1,0,0:0:0:0:
448,192,464074,1,0,0:0:0:0:
320,192,464142,1,0,0:0:0:0:
192,192,464142,1,0,0:0:0:0:
64,192,464210,1,0,0:0:0:0:
448,192,464278,1,0,0:0:0:0:
192,192,464278,1,0,0:0:0:0:
320,192,464347,1,0,0:0:0:0:
448,192,464415,1,0,0:0:0:0:
64,192,464415,1,0,0:0:0:0:
192,192,464483,1,0,0:0:0:0:
320,192,464551,1,0,0:0:0:0:
448,192,464551,1,0,0:0:0:0:
192,192,464619,1,0,0:0:0:0:
64,192,464687,1,0,0:0:0:0:
320,192,464687,1,0,0:0:0:0:
448,192,464756,1,0,0:0:0:0:
320,192,464824,1,0,0:0:0:0:
192,192,464824,1,0,0:0:0:0:
64,192,464892,1,0,0:0:0:0:
192,192,464960,1,0,0:0:0:0:
320,192,464960,1,0,0:0:0:0:
448,192,465028,1,0,0:0:0:0:
64,192,465097,1,0,0:0:0:0:
320,192,465097,1,0,0:0:0:0:
192,192,465165,1,0,0:0:0:0:
64,192,465233,1,0,0:0:0:0:
320,192,465233,1,0,0:0:0:0:
448,192,465301,1,0,0:0:0:0:
320,192,465369,1,0,0:0:0:0:
192,192,465369,1,0,0:0:0:0:
64,192,465437,1,0,0:0:0:0:
192,192,465506,1,0,0:0:0:0:
448,192,465506,1,0,0:0:0:0:
320,192,465574,1,0,0:0:0:0:
448,192,465642,1,0,0:0:0:0:
64,192,465642,1,0,0:0:0:0:
192,192,465710,1,0,0:0:0:0:
320,192,465778,1,0,0:0:0:0:
448,192,465778,1,0,0:0:0:0:
192,192,465847,1,0,0:0:0:0:
64,192,465915,1,0,0:0:0:0:
320,192,465915,1,0,0:0:0:0:
448,192,465983,1,0,0:0:0:0:
320,192,466051,1,0,0:0:0:0:
192,192,466051,1,0,0:0:0:0:
64,192,466119,1,0,0:0:0:0:
448,192,466187,1,0,0:0:0:0:
192,192,466187,1,0,0:0:0:0:
320,192,466256,1,0,0:0:0:0:
192,192,466324,1,0,0:0:0:0:
64,192,466324,1,0,0:0:0:0:
320,192,466392,1,0,0:0:0:0:
448,192,466460,1,0,0:0:0:0:
192,192,466460,1,0,0:0:0:0:
64,192,466528,1,0,0:0:0:0:
320,192,466597,1,0,0:0:0:0:
192,192,466597,1,0,0:0:0:0:
64,192,466665,1,0,0:0:0:0:
448,192,466733,1,0,0:0:0:0:
192,192,466733,1,0,0:0:0:0:
320,192,466801,1,0,0:0:0:0:
448,192,466869,1,0,0:0:0:0:
64,192,466869,1,0,0:0:0:0:
192,192,466937,1,0,0:0:0:0:
320,192,467006,1,0,0:0:0:0:
448,192,467006,1,0,0:0:0:0:
192,192,467074,1,0,0:0:0:0:
64,192,467142,1,0,0:0:0:0:
320,192,467142,1,0,0:0:0:0:
448,192,467210,1,0,0:0:0:0:
320,192,467278,1,0,0:0:0:0:
192,192,467278,1,0,0:0:0:0:
64,192,467347,1,0,0:0:0:0:
192,192,467415,1,0,0:0:0:0:
320,192,467415,1,0,0:0:0:0:
448,192,467483,1,0,0:0:0:0:
64,192,467551,1,0,0:0:0:0:
320,192,467551,1,0,0:0:0:0:
192,192,467619,1,0,0:0:0:0:
320,192,467687,1,0,0:0:0:0:
448,192,467687,1,0,0:0:0:0:
192,192,467756,1,0,0:0:0:0:
64,192,467824,1,0,0:0:0:0:
320,192,467824,1,0,0:0:0:0:
192,192,467892,1,0,0:0:0:0:
448,192,467960,1,0,0:0:0:0:
320,192,467960,1,0,0:0:0:0:
192,192,468028,1,0,0:0:0:0:
64,192,468097,1,0,0:0:0:0:
448,192,468097,1,0,0:0:0:0:
320,192,468165,1,0,0:0:0:0:
192,192,468233,1,0,0:0:0:0:
64,192,468233,1,0,0:0:0:0:
320,192,468301,1,0,0:0:0:0:
448,192,468369,1,0,0:0:0:0:
192,192,468369,1,0,0:0:0:0:
320,192,468437,1,0,0:0:0:0:
192,192,468506,1,0,0:0:0:0:
64,192,468506,1,0,0:0:0:0:
320,192,468574,1,0,0:0:0:0:
448,192,468642,1,0,0:0:0:0:
64,192,468642,1,0,0:0:0:0:
192,192,468710,1,0,0:0:0:0:
320,192,468778,1,0,0:0:0:0:
448,192,468778,1,0,0:0:0:0:
192,192,468847,1,0,0:0:0:0:
320,192,468915,1,0,0:0:0:0:
64,192,468915,1,0,0:0:0:0:
448,192,468983,1,0,0:0:0:0:
320,192,469051,1,0,0:0:0:0:
192,192,469051,1,0,0:0:0:0:
64,192,469119,1,0,0:0:0:0:
192,192,469187,1,0,0:0:0:0:
448,192,469187,1,0,0:0:0:0:
320,192,469256,1,0,0:0:0:0:
448,192,469324,1,0,0:0:0:0:
192,192,469324,1,0,0:0:0:0:
64,192,469392,1,0,0:0:0:0:
320,192,469460,1,0,0:0:0:0:
192,192,469460,1,0,0:0:0:0:
448,192,469528,1,0,0:0:0:0:
320,192,469597,1,0,0:0:0:0:
64,192,469597,1,0,0:0:0:0:
192,192,469665,1,0,0:0:0:0:
448,192,469733,1,0,0:0:0:0:
64,192,469733,1,0,0:0:0:0:
320,192,469801,1,0,0:0:0:0:
192,192,469869,1,0,0:0:0:0:
448,192,469869,1,0,0:0:0:0:
64,192,469937,1,0,0:0:0:0:
192,192,470006,1,0,0:0:0:0:
320,192,470006,1,0,0:0:0:0:
448,192,470074,1,0,0:0:0:0:
64,192,470142,1,0,0:0:0:0:
192,192,470142,1,0,0:0:0:0:
320,192,470210,1,0,0:0:0:0:
448,192,470278,1,0,0:0:0:0:
192,192,470278,1,0,0:0:0:0:
64,192,470347,1,0,0:0:0:0:
192,192,470415,1,0,0:0:0:0:
320,192,470415,1,0,0:0:0:0:
448,192,470483,1,0,0:0:0:0:
320,192,470551,1,0,0:0:0:0:
64,192,470551,1,0,0:0:0:0:
192,192,470619,1,0,0:0:0:0:
64,192,470687,1,0,0:0:0:0:
448,192,470687,1,0,0:0:0:0:
320,192,470756,1,0,0:0:0:0:
192,192,470824,1,0,0:0:0:0:
448,192,470824,1,0,0:0:0:0:
64,192,470892,1,0,0:0:0:0:
192,192,470960,1,0,0:0:0:0:
320,192,470960,1,0,0:0:0:0:
448,192,471028,1,0,0:0:0:0:
320,192,471097,1,0,0:0:0:0:
192,192,471097,1,0,0:0:0:0:
64,192,471165,1,0,0:0:0:0:
448,192,471233,1,0,0:0:0:0:
192,192,471233,1,0,0:0:0:0:
320,192,471301,1,0,0:0:0:0:
64,192,471369,1,0,0:0:0:0:
448,192,471369,1,0,0:0:0:0:
320,192,471437,1,0,0:0:0:0:
192,192,471506,1,0,0:0:0:0:
64,192,471506,1,0,0:0:0:0:
320,192,471574,1,0,0:0:0:0:
448,192,471642,1,0,0:0:0:0:
192,192,471642,1,0,0:0:0:0:
64,192,471710,1,0,0:0:0:0:
192,192,471778,1,0,0:0:0:0:
320,192,471778,1,0,0:0:0:0:
448,192,471847,1,0,0:0:0:0:
192,192,471915,1,0,0:0:0:0:
320,192,471915,1,0,0:0:0:0:
64,192,471915,1,0,0:0:0:0:
192,192,472187,1,0,0:0:0:0:
448,192,472187,1,0,0:0:0:0:
64,192,472324,1,0,0:0:0:0:
192,192,472358,1,0,0:0:0:0:
320,192,472392,1,0,0:0:0:0:
448,192,472426,1,0,0:0:0:0:
64,192,472460,1,0,0:0:0:0:
192,192,472494,1,0,0:0:0:0:
448,192,472528,1,0,0:0:0:0:
320,192,472562,1,0,0:0:0:0:
192,192,472597,1,0,0:0:0:0:
64,192,472631,1,0,0:0:0:0:
448,192,472665,1,0,0:0:0:0:
320,192,472699,1,0,0:0:0:0:
64,192,472733,1,0,0:0:0:0:
192,192,472767,1,0,0:0:0:0:
320,192,472801,1,0,0:0:0:0:
448,192,472835,1,0,0:0:0:0:
64,192,472869,1,0,0:0:0:0:
192,192,472903,1,0,0:0:0:0:
448,192,472937,1,0,0:0:0:0:
320,192,472972,1,0,0:0:0:0:
192,192,473006,1,0,0:0:0:0:
64,192,473040,1,0,0:0:0:0:
448,192,473074,1,0,0:0:0:0:
320,192,473108,1,0,0:0:0:0:
64,192,473142,1,0,0:0:0:0:
192,192,473176,1,0,0:0:0:0:
320,192,473210,1,0,0:0:0:0:
448,192,473244,1,0,0:0:0:0:
64,192,473278,1,0,0:0:0:0:
192,192,473312,1,0,0:0:0:0:
448,192,473347,1,0,0:0:0:0:
320,192,473381,1,0,0:0:0:0:
192,192,473415,1,0,0:0:0:0:
64,192,473415,1,0,0:0:0:0:
320,192,473483,1,0,0:0:0:0:
448,192,473483,1,0,0:0:0:0:
64,192,473551,1,0,0:0:0:0:
192,192,473551,1,0,0:0:0:0:
320,192,473619,1,0,0:0:0:0:
448,192,473619,1,0,0:0:0:0:
64,192,473687,1,0,0:0:0:0:
192,192,473687,1,0,0:0:0:0:
320,192,473756,1,0,0:0:0:0:
448,192,473756,1,0,0:0:0:0:
64,192,473824,1,0,0:0:0:0:
192,192,473824,1,0,0:0:0:0:
320,192,473892,1,0,0:0:0:0:
448,192,473892,1,0,0:0:0:0:
64,192,473960,1,0,0:0:0:0:
192,192,473960,1,0,0:0:0:0:
320,192,474028,1,0,0:0:0:0:
448,192,474028,1,0,0:0:0:0:
64,192,474097,1,0,0:0:0:0:
192,192,474097,1,0,0:0:0:0:
320,192,474165,1,0,0:0:0:0:
448,192,474165,1,0,0:0:0:0:
64,192,474233,1,0,0:0:0:0:
192,192,474233,1,0,0:0:0:0:
320,192,474301,1,0,0:0:0:0:
448,192,474301,1,0,0:0:0:0:
64,192,474369,1,0,0:0:0:0:
192,192,474369,1,0,0:0:0:0:
320,192,474437,1,0,0:0:0:0:
448,192,474437,1,0,0:0:0:0:
64,192,474506,1,0,0:0:0:0:
192,192,474540,1,0,0:0:0:0:
448,192,474574,1,0,0:0:0:0:
320,192,474608,1,0,0:0:0:0:
64,192,474642,1,0,0:0:0:0:
192,192,474676,1,0,0:0:0:0:
448,192,474710,1,0,0:0:0:0:
320,192,474744,1,0,0:0:0:0:
64,192,474778,1,0,0:0:0:0:
192,192,474812,1,0,0:0:0:0:
448,192,474847,1,0,0:0:0:0:
320,192,474881,1,0,0:0:0:0:
64,192,474915,1,0,0:0:0:0:
192,192,474949,1,0,0:0:0:0:
448,192,474983,1,0,0:0:0:0:
320,192,475017,1,0,0:0:0:0:
64,192,475051,1,0,0:0:0:0:
192,192,475085,1,0,0:0:0:0:
448,192,475119,1,0,0:0:0:0:
320,192,475153,1,0,0:0:0:0:
64,192,475187,1,0,0:0:0:0:
192,192,475222,1,0,0:0:0:0:
448,192,475256,1,0,0:0:0:0:
320,192,475290,1,0,0:0:0:0:
64,192,475324,1,0,0:0:0:0:
192,192,475358,1,0,0:0:0:0:
448,192,475392,1,0,0:0:0:0:
320,192,475426,1,0,0:0:0:0:
64,192,475460,1,0,0:0:0:0:
192,192,475494,1,0,0:0:0:0:
448,192,475528,1,0,0:0:0:0:
320,192,475562,1,0,0:0:0:0:
64,192,475597,1,0,0:0:0:0:
192,192,475597,1,0,0:0:0:0:
320,192,475665,1,0,0:0:0:0:
448,192,475665,1,0,0:0:0:0:
64,192,475733,1,0,0:0:0:0:
192,192,475733,1,0,0:0:0:0:
320,192,475801,1,0,0:0:0:0:
448,192,475801,1,0,0:0:0:0:
64,192,475869,1,0,0:0:0:0:
192,192,475869,1,0,0:0:0:0:
320,192,475937,1,0,0:0:0:0:
448,192,475937,1,0,0:0:0:0:
64,192,476006,1,0,0:0:0:0:
192,192,476006,1,0,0:0:0:0:
320,192,476074,1,0,0:0:0:0:
448,192,476074,1,0,0:0:0:0:
64,192,476142,1,0,0:0:0:0:
192,192,476142,1,0,0:0:0:0:
320,192,476210,1,0,0:0:0:0:
448,192,476210,1,0,0:0:0:0:
64,192,476278,1,0,0:0:0:0:
192,192,476278,1,0,0:0:0:0:
320,192,476347,1,0,0:0:0:0:
448,192,476347,1,0,0:0:0:0:
64,192,476415,1,0,0:0:0:0:
192,192,476415,1,0,0:0:0:0:
320,192,476483,1,0,0:0:0:0:
448,192,476483,1,0,0:0:0:0:
192,192,476551,1,0,0:0:0:0:
64,192,476551,1,0,0:0:0:0:
320,192,476619,1,0,0:0:0:0:
448,192,476619,1,0,0:0:0:0:
64,192,476687,1,0,0:0:0:0:
192,192,476687,1,0,0:0:0:0:
448,192,476687,1,0,0:0:0:0:
192,192,477233,1,0,0:0:0:0:
320,192,477506,1,0,0:0:0:0:
448,192,477778,1,0,0:0:0:0:
320,192,477778,1,0,0:0:0:0:
192,192,477778,1,0,0:0:0:0:
320,192,478324,1,0,0:0:0:0:
192,192,478597,1,0,0:0:0:0:
64,192,478665,1,0,0:0:0:0:
448,192,478733,1,0,0:0:0:0:
320,192,478801,1,0,0:0:0:0:
192,192,478869,1,0,0:0:0:0:
64,192,478869,1,0,0:0:0:0:
448,192,478869,1,0,0:0:0:0:
320,192,478937,1,0,0:0:0:0:
64,192,479006,1,0,0:0:0:0:
192,192,479074,1,0,0:0:0:0:
320,192,479142,1,0,0:0:0:0:
448,192,479210,1,0,0:0:0:0:
64,192,479278,1,0,0:0:0:0:
192,192,479347,1,0,0:0:0:0:
320,192,479415,1,0,0:0:0:0:
448,192,479483,1,0,0:0:0:0:
320,192,479551,1,0,0:0:0:0:
192,192,479619,1,0,0:0:0:0:
64,192,479687,1,0,0:0:0:0:
448,192,479756,1,0,0:0:0:0:
320,192,479824,1,0,0:0:0:0:
192,192,479892,1,0,0:0:0:0:
64,192,479960,1,0,0:0:0:0:
320,192,479960,1,0,0:0:0:0:
448,192,479960,1,0,0:0:0:0:
64,192,480233,1,0,0:0:0:0:
192,192,480233,1,0,0:0:0:0:
448,192,480233,1,0,0:0:0:0:
448,192,480506,1,0,0:0:0:0:
320,192,480506,1,0,0:0:0:0:
64,192,480506,1,0,0:0:0:0:
64,192,480778,1,0,0:0:0:0:
192,192,480778,1,0,0:0:0:0:
448,192,480778,1,0,0:0:0:0:
64,192,481051,1,0,0:0:0:0:
448,192,481051,1,0,0:0:0:0:
320,192,481460,1,0,0:0:0:0:
192,192,481528,1,0,0:0:0:0:
64,192,481597,1,0,0:0:0:0:
448,192,481665,1,0,0:0:0:0:
320,192,481733,1,0,0:0:0:0:
448,192,481801,1,0,0:0:0:0:
64,192,481869,1,0,0:0:0:0:
192,192,481937,1,0,0:0:0:0:
320,192,482006,1,0,0:0:0:0:
448,192,482074,1,0,0:0:0:0:
192,192,482142,1,0,0:0:0:0:
320,192,482142,1,0,0:0:0:0:
64,192,482142,1,0,0:0:0:0:
64,192,482210,1,0,0:0:0:0:
192,192,482278,1,0,0:0:0:0:
320,192,482347,1,0,0:0:0:0:
448,192,482415,1,0,0:0:0:0:
320,192,482483,1,0,0:0:0:0:
192,192,482551,1,0,0:0:0:0:
64,192,482619,1,0,0:0:0:0:
192,192,482687,1,0,0:0:0:0:
320,192,482687,1,0,0:0:0:0:
448,192,482687,1,0,0:0:0:0:
64,192,482756,1,0,0:0:0:0:
192,192,482824,1,0,0:0:0:0:
320,192,482892,1,0,0:0:0:0:
448,192,482960,1,0,0:0:0:0:
192,192,483028,1,0,0:0:0:0:
320,192,483097,1,0,0:0:0:0:
448,192,483165,1,0,0:0:0:0:
192,192,483233,1,0,0:0:0:0:
64,192,483233,1,0,0:0:0:0:
320,192,483369,1,0,0:0:0:0:
448,192,483506,1,0,0:0:0:0:
192,192,483642,1,0,0:0:0:0:
64,192,483778,1,0,0:0:0:0:
192,192,483778,1,0,0:0:0:0:
448,192,483915,1,0,0:0:0:0:
320,192,484051,1,0,0:0:0:0:
192,192,484187,1,0,0:0:0:0:
320,192,484324,1,0,0:0:0:0:
448,192,484324,1,0,0:0:0:0:
64,192,484324,1,0,0:0:0:0:
192,192,484460,1,0,0:0:0:0:
320,192,484597,1,0,0:0:0:0:
448,192,484733,1,0,0:0:0:0:
192,192,484869,1,0,0:0:0:0:
320,192,485006,1,0,0:0:0:0:
64,192,485142,1,0,0:0:0:0:
192,192,485142,1,0,0:0:0:0:
192,192,485278,1,0,0:0:0:0:
320,192,485278,1,0,0:0:0:0:
448,192,485278,1,0,0:0:0:0:
64,192,485415,128,0,491960:0:0:0:0:
448,192,485415,128,0,487528:0:0:0:0:
448,192,487597,128,0,489710:0:0:0:0:
448,192,489778,128,0,491892:0:0:0:0:
448,192,491960,128,0,494074:0:0:0:0:
448,192,494142,128,0,496324:0:0:0:0:
