osu file format v14

[General]
AudioFilename: audio.ogg
AudioLeadIn: 0
PreviewTime: 292392
Countdown: 0
SampleSet: Soft
StackLeniency: 0.7
Mode: 3
LetterboxInBreaks: 0
SpecialStyle: 0
WidescreenStoryboard: 0

[Editor]
DistanceSpacing: 2.2
BeatDivisor: 4
GridSize: 4
TimelineZoom: 1.699999

[Metadata]
Title:Yomi yori Kikoyu, Koukoku no Tou to Honoo no Shoujo.
TitleUnicode:黄泉より聴こゆ、皇国の燈と焔の少女。
Artist:Imperial Circus Dead Decadence
ArtistUnicode:Imperial Circus Dead Decadence
Creator:Emperor of Time
Version:GODLIKE
Source:
Tags:featured artist japanese black metal j-metal symphonic melodic death deathmetal rock j-rock icdd fa リブユウキ rib:y(uhki) ribyuhki リブユウキ c87 comiket87 comic market 87 コミックマーケット87 コミケ87 hull 西泰彦 yasuhiko nishi lgcd-012 kim kimi doujin dojin jumpstream js stamina marathon
BeatmapID:1458918
BeatmapSetID:689155

[Difficulty]
HPDrainRate:8.2
CircleSize:4
OverallDifficulty:8.2
ApproachRate:5
SliderMultiplier:1.7
SliderTickRate:2

[Events]
//Background and Video events
0,0,"BG.jpg",0,0
//Break Periods
//Storyboard Layer 0 (Background)
//Storyboard Layer 1 (Fail)
//Storyboard Layer 2 (Pass)
//Storyboard Layer 3 (Foreground)
//Storyboard Layer 4 (Overlay)
//Storyboard Sound Samples

[TimingPoints]
1077,272.727272727273,4,2,1,35,1,0
75531,-100,4,2,1,35,0,1
92713,-100,4,2,1,35,0,0
165804,-100,4,2,1,35,0,1
183258,-100,4,2,1,35,0,0
309804,-100,4,2,1,35,0,1
334895,-100,4,2,1,35,0,0
389440,-100,4,2,1,35,0,1
424349,-100,4,2,1,35,0,0
457146,300,4,2,1,35,1,0
457146,-90.9090909090909,4,2,1,35,0,0
458271,329.67032967033,4,2,1,35,1,0
458271,-82.6446280991736,4,2,1,35,0,0
463545,272.727272727273,4,2,1,35,1,0
463545,-100,4,2,1,35,0,1
471863,-100,4,2,1,35,0,0

[HitObjects]
64,192,1077,5,0,0:0:0:0:
192,192,1077,1,0,0:0:0:0:
448,192,1077,1,0,0:0:0:0:
320,192,1145,1,0,0:0:0:0:
64,192,1213,1,0,0:0:0:0:
192,192,1281,1,0,0:0:0:0:
320,192,1349,1,0,0:0:0:0:
64,192,1417,1,0,0:0:0:0:
192,192,1486,1,0,0:0:0:0:
64,192,1554,1,0,0:0:0:0:
448,192,1622,1,0,0:0:0:0:
320,192,1690,1,0,0:0:0:0:
192,192,1758,1,0,0:0:0:0:
64,192,1827,1,0,0:0:0:0:
448,192,1895,1,0,0:0:0:0:
320,192,1963,1,0,0:0:0:0:
64,192,2031,1,0,0:0:0:0:
192,192,2099,1,0,0:0:0:0:
320,192,2167,1,0,0:0:0:0:
448,192,2167,1,0,0:0:0:0:
64,192,2167,1,0,0:0:0:0:
192,192,2236,1,0,0:0:0:0:
320,192,2304,1,0,0:0:0:0:
448,192,2372,1,0,0:0:0:0:
64,192,2440,1,0,0:0:0:0:
192,192,2508,1,0,0:0:0:0:
448,192,2577,1,0,0:0:0:0:
320,192,2645,1,0,0:0:0:0:
192,192,2713,1,0,0:0:0:0:
64,192,2713,1,0,0:0:0:0:
448,192,2713,1,0,0:0:0:0:
320,192,2781,1,0,0:0:0:0:
448,192,2849,1,0,0:0:0:0:
64,192,2917,1,0,0:0:0:0:
192,192,2986,1,0,0:0:0:0:
448,192,3054,1,0,0:0:0:0:
320,192,3122,1,0,0:0:0:0:
64,192,3190,1,0,0:0:0:0:
448,192,3258,1,0,0:0:0:0:
192,192,3258,1,0,0:0:0:0:
320,192,3258,1,0,0:0:0:0:
64,192,3327,1,0,0:0:0:0:
192,192,3395,1,0,0:0:0:0:
320,192,3463,1,0,0:0:0:0:
448,192,3531,1,0,0:0:0:0:
64,192,3599,1,0,0:0:0:0:
192,192,3667,1,0,0:0:0:0:
320,192,3736,1,0,0:0:0:0:
448,192,3804,1,0,0:0:0:0:
192,192,3872,1,0,0:0:0:0:
448,192,3940,1,0,0:0:0:0:
320,192,4008,1,0,0:0:0:0:
64,192,4077,1,0,0:0:0:0:
448,192,4145,1,0,0:0:0:0:
320,192,4213,1,0,0:0:0:0:
192,192,4281,1,0,0:0:0:0:
64,192,4349,1,0,0:0:0:0:
448,192,4349,128,0,4622:0:0:0:0:
320,192,4349,1,0,0:0:0:0:
192,192,4622,1,0,0:0:0:0:
64,192,4622,128,0,4895:0:0:0:0:
320,192,4622,1,0,0:0:0:0:
320,192,4895,1,0,0:0:0:0:
448,192,4895,128,0,5167:0:0:0:0:
192,192,4895,1,0,0:0:0:0:
64,192,5167,1,0,0:0:0:0:
192,192,5167,128,0,5440:0:0:0:0:
320,192,5167,1,0,0:0:0:0:
448,192,5440,1,0,0:0:0:0:
320,192,5440,1,0,0:0:0:0:
64,192,5440,1,0,0:0:0:0:
192,192,5508,1,0,0:0:0:0:
320,192,5577,1,0,0:0:0:0:
448,192,5645,1,0,0:0:0:0:
192,192,5713,1,0,0:0:0:0:
64,192,5781,1,0,0:0:0:0:
448,192,5849,1,0,0:0:0:0:
320,192,5917,1,0,0:0:0:0:
64,192,5986,1,0,0:0:0:0:
192,192,6054,1,0,0:0:0:0:
448,192,6122,1,0,0:0:0:0:
320,192,6190,1,0,0:0:0:0:
448,192,6258,1,0,0:0:0:0:
64,192,6258,1,0,0:0:0:0:
192,192,6327,1,0,0:0:0:0:
320,192,6395,1,0,0:0:0:0:
192,192,6463,1,0,0:0:0:0:
448,192,6531,1,0,0:0:0:0:
320,192,6531,1,0,0:0:0:0:
64,192,6531,1,0,0:0:0:0:
192,192,6599,1,0,0:0:0:0:
448,192,6667,1,0,0:0:0:0:
320,192,6736,1,0,0:0:0:0:
192,192,6804,1,0,0:0:0:0:
320,192,6872,1,0,0:0:0:0:
64,192,6940,1,0,0:0:0:0:
192,192,7008,1,0,0:0:0:0:
64,192,7077,1,0,0:0:0:0:
320,192,7077,1,0,0:0:0:0:
448,192,7077,1,0,0:0:0:0:
192,192,7145,1,0,0:0:0:0:
320,192,7213,1,0,0:0:0:0:
448,192,7281,1,0,0:0:0:0:
320,192,7349,1,0,0:0:0:0:
192,192,7417,1,0,0:0:0:0:
64,192,7486,1,0,0:0:0:0:
448,192,7554,1,0,0:0:0:0:
320,192,7622,1,0,0:0:0:0:
64,192,7622,1,0,0:0:0:0:
192,192,7622,1,0,0:0:0:0:
448,192,7690,1,0,0:0:0:0:
192,192,7758,1,0,0:0:0:0:
64,192,7758,1,0,0:0:0:0:
320,192,7827,1,0,0:0:0:0:
448,192,7895,1,0,0:0:0:0:
192,192,7963,1,0,0:0:0:0:
320,192,8031,1,0,0:0:0:0:
192,192,8099,1,0,0:0:0:0:
64,192,8167,1,0,0:0:0:0:
320,192,8236,1,0,0:0:0:0:
448,192,8304,1,0,0:0:0:0:
192,192,8372,1,0,0:0:0:0:
64,192,8440,1,0,0:0:0:0:
320,192,8508,1,0,0:0:0:0:
192,192,8577,1,0,0:0:0:0:
320,192,8645,1,0,0:0:0:0:
448,192,8713,1,0,0:0:0:0:
64,192,8781,1,0,0:0:0:0:
192,192,8849,1,0,0:0:0:0:
320,192,8917,1,0,0:0:0:0:
448,192,8986,1,0,0:0:0:0:
320,192,9054,1,0,0:0:0:0:
192,192,9122,1,0,0:0:0:0:
448,192,9190,1,0,0:0:0:0:
64,192,9258,1,0,0:0:0:0:
320,192,9327,1,0,0:0:0:0:
192,192,9395,1,0,0:0:0:0:
320,192,9463,1,0,0:0:0:0:
64,192,9531,128,0,9667:0:0:0:0:
448,192,9531,1,0,0:0:0:0:
192,192,9531,1,0,0:0:0:0:
320,192,9667,1,0,0:0:0:0:
320,192,9804,128,0,10077:0:0:0:0:
64,192,9804,1,0,0:0:0:0:
448,192,9804,1,0,0:0:0:0:
448,192,10077,1,0,0:0:0:0:
64,192,10077,1,0,0:0:0:0:
192,192,10145,1,0,0:0:0:0:
320,192,10213,1,0,0:0:0:0:
448,192,10213,1,0,0:0:0:0:
64,192,10281,1,0,0:0:0:0:
192,192,10349,1,0,0:0:0:0:
320,192,10349,1,0,0:0:0:0:
448,192,10417,1,0,0:0:0:0:
64,192,10486,1,0,0:0:0:0:
192,192,10486,1,0,0:0:0:0:
320,192,10554,1,0,0:0:0:0:
448,192,10622,1,0,0:0:0:0:
64,192,10622,1,0,0:0:0:0:
192,192,10690,1,0,0:0:0:0:
320,192,10758,1,0,0:0:0:0:
448,192,10758,1,0,0:0:0:0:
192,192,10827,1,0,0:0:0:0:
448,192,10895,1,0,0:0:0:0:
320,192,10895,1,0,0:0:0:0:
64,192,10963,1,0,0:0:0:0:
320,192,11031,1,0,0:0:0:0:
192,192,11031,1,0,0:0:0:0:
448,192,11099,1,0,0:0:0:0:
192,192,11167,1,0,0:0:0:0:
64,192,11167,1,0,0:0:0:0:
448,192,11236,1,0,0:0:0:0:
320,192,11304,1,0,0:0:0:0:
64,192,11304,1,0,0:0:0:0:
192,192,11372,1,0,0:0:0:0:
320,192,11440,1,0,0:0:0:0:
448,192,11440,1,0,0:0:0:0:
64,192,11508,1,0,0:0:0:0:
192,192,11577,1,0,0:0:0:0:
320,192,11577,1,0,0:0:0:0:
448,192,11645,1,0,0:0:0:0:
64,192,11713,1,0,0:0:0:0:
192,192,11713,1,0,0:0:0:0:
320,192,11781,1,0,0:0:0:0:
448,192,11849,1,0,0:0:0:0:
192,192,11849,1,0,0:0:0:0:
64,192,11917,1,0,0:0:0:0:
320,192,11986,1,0,0:0:0:0:
448,192,11986,1,0,0:0:0:0:
192,192,12054,1,0,0:0:0:0:
64,192,12122,1,0,0:0:0:0:
448,192,12122,1,0,0:0:0:0:
320,192,12190,1,0,0:0:0:0:
192,192,12258,1,0,0:0:0:0:
64,192,12327,1,0,0:0:0:0:
448,192,12395,1,0,0:0:0:0:
320,192,12395,1,0,0:0:0:0:
192,192,12463,1,0,0:0:0:0:
320,192,12531,1,0,0:0:0:0:
448,192,12531,1,0,0:0:0:0:
192,192,12599,1,0,0:0:0:0:
64,192,12667,1,0,0:0:0:0:
448,192,12667,1,0,0:0:0:0:
320,192,12736,1,0,0:0:0:0:
192,192,12804,1,0,0:0:0:0:
64,192,12804,1,0,0:0:0:0:
448,192,12872,1,0,0:0:0:0:
320,192,12940,1,0,0:0:0:0:
192,192,12940,1,0,0:0:0:0:
64,192,13008,1,0,0:0:0:0:
320,192,13077,1,0,0:0:0:0:
448,192,13077,1,0,0:0:0:0:
192,192,13145,1,0,0:0:0:0:
64,192,13213,1,0,0:0:0:0:
448,192,13213,1,0,0:0:0:0:
192,192,13281,1,0,0:0:0:0:
320,192,13349,1,0,0:0:0:0:
448,192,13417,1,0,0:0:0:0:
192,192,13486,1,0,0:0:0:0:
64,192,13486,1,0,0:0:0:0:
320,192,13554,1,0,0:0:0:0:
64,192,13622,1,0,0:0:0:0:
448,192,13622,1,0,0:0:0:0:
192,192,13690,1,0,0:0:0:0:
448,192,13758,1,0,0:0:0:0:
320,192,13758,1,0,0:0:0:0:
64,192,13827,1,0,0:0:0:0:
320,192,13895,1,0,0:0:0:0:
192,192,13895,1,0,0:0:0:0:
448,192,13963,1,0,0:0:0:0:
192,192,14031,1,0,0:0:0:0:
64,192,14031,1,0,0:0:0:0:
320,192,14099,1,0,0:0:0:0:
64,192,14167,1,0,0:0:0:0:
448,192,14167,1,0,0:0:0:0:
192,192,14167,1,0,0:0:0:0:
320,192,14236,1,0,0:0:0:0:
448,192,14304,1,0,0:0:0:0:
192,192,14304,1,0,0:0:0:0:
64,192,14372,1,0,0:0:0:0:
448,192,14440,1,0,0:0:0:0:
320,192,14440,1,0,0:0:0:0:
192,192,14508,1,0,0:0:0:0:
64,192,14577,1,0,0:0:0:0:
320,192,14577,1,0,0:0:0:0:
448,192,14645,1,0,0:0:0:0:
320,192,14713,1,0,0:0:0:0:
64,192,14713,1,0,0:0:0:0:
192,192,14781,1,0,0:0:0:0:
320,192,14849,1,0,0:0:0:0:
448,192,14849,1,0,0:0:0:0:
64,192,14917,1,0,0:0:0:0:
192,192,14986,1,0,0:0:0:0:
448,192,14986,1,0,0:0:0:0:
320,192,15054,1,0,0:0:0:0:
64,192,15122,1,0,0:0:0:0:
192,192,15122,1,0,0:0:0:0:
320,192,15190,1,0,0:0:0:0:
448,192,15258,1,0,0:0:0:0:
192,192,15258,1,0,0:0:0:0:
64,192,15327,1,0,0:0:0:0:
320,192,15395,1,0,0:0:0:0:
448,192,15395,1,0,0:0:0:0:
192,192,15463,1,0,0:0:0:0:
64,192,15531,1,0,0:0:0:0:
448,192,15531,1,0,0:0:0:0:
320,192,15599,1,0,0:0:0:0:
192,192,15667,1,0,0:0:0:0:
64,192,15667,1,0,0:0:0:0:
320,192,15736,1,0,0:0:0:0:
448,192,15804,1,0,0:0:0:0:
64,192,15804,1,0,0:0:0:0:
192,192,15872,1,0,0:0:0:0:
320,192,15940,1,0,0:0:0:0:
448,192,15940,1,0,0:0:0:0:
192,192,16008,1,0,0:0:0:0:
64,192,16077,1,0,0:0:0:0:
448,192,16077,1,0,0:0:0:0:
320,192,16145,1,0,0:0:0:0:
192,192,16213,1,0,0:0:0:0:
64,192,16213,1,0,0:0:0:0:
448,192,16281,1,0,0:0:0:0:
320,192,16349,1,0,0:0:0:0:
192,192,16349,1,0,0:0:0:0:
64,192,16349,1,0,0:0:0:0:
448,192,16417,1,0,0:0:0:0:
320,192,16486,1,0,0:0:0:0:
192,192,16486,1,0,0:0:0:0:
64,192,16554,1,0,0:0:0:0:
448,192,16622,1,0,0:0:0:0:
320,192,16622,1,0,0:0:0:0:
192,192,16690,1,0,0:0:0:0:
448,192,16758,1,0,0:0:0:0:
64,192,16758,1,0,0:0:0:0:
192,192,16827,1,0,0:0:0:0:
448,192,16895,1,0,0:0:0:0:
64,192,16895,1,0,0:0:0:0:
320,192,16963,1,0,0:0:0:0:
192,192,17031,1,0,0:0:0:0:
448,192,17099,1,0,0:0:0:0:
64,192,17167,1,0,0:0:0:0:
448,192,17236,1,0,0:0:0:0:
320,192,17304,1,0,0:0:0:0:
192,192,17372,1,0,0:0:0:0:
320,192,17440,1,0,0:0:0:0:
448,192,17440,1,0,0:0:0:0:
64,192,17508,1,0,0:0:0:0:
192,192,17508,1,0,0:0:0:0:
320,192,17577,1,0,0:0:0:0:
448,192,17645,1,0,0:0:0:0:
64,192,17713,1,0,0:0:0:0:
192,192,17781,1,0,0:0:0:0:
320,192,17849,1,0,0:0:0:0:
448,192,17917,1,0,0:0:0:0:
64,192,17986,1,0,0:0:0:0:
192,192,17986,1,0,0:0:0:0:
320,192,18054,1,0,0:0:0:0:
448,192,18122,1,0,0:0:0:0:
64,192,18122,1,0,0:0:0:0:
320,192,18190,1,0,0:0:0:0:
192,192,18258,1,0,0:0:0:0:
64,192,18327,1,0,0:0:0:0:
448,192,18395,1,0,0:0:0:0:
320,192,18463,1,0,0:0:0:0:
192,192,18531,1,0,0:0:0:0:
64,192,18531,1,0,0:0:0:0:
448,192,18531,1,0,0:0:0:0:
320,192,18599,1,0,0:0:0:0:
192,192,18667,1,0,0:0:0:0:
64,192,18736,1,0,0:0:0:0:
320,192,18804,1,0,0:0:0:0:
448,192,18804,1,0,0:0:0:0:
192,192,18872,1,0,0:0:0:0:
64,192,18940,1,0,0:0:0:0:
448,192,18940,1,0,0:0:0:0:
320,192,19008,1,0,0:0:0:0:
192,192,19077,1,0,0:0:0:0:
64,192,19077,1,0,0:0:0:0:
448,192,19145,1,0,0:0:0:0:
320,192,19213,1,0,0:0:0:0:
192,192,19213,1,0,0:0:0:0:
64,192,19281,1,0,0:0:0:0:
448,192,19349,1,0,0:0:0:0:
320,192,19349,1,0,0:0:0:0:
192,192,19417,1,0,0:0:0:0:
64,192,19486,1,0,0:0:0:0:
448,192,19486,1,0,0:0:0:0:
320,192,19554,1,0,0:0:0:0:
192,192,19622,1,0,0:0:0:0:
448,192,19622,1,0,0:0:0:0:
64,192,19690,1,0,0:0:0:0:
320,192,19758,1,0,0:0:0:0:
192,192,19758,1,0,0:0:0:0:
448,192,19827,1,0,0:0:0:0:
64,192,19895,1,0,0:0:0:0:
192,192,19895,1,0,0:0:0:0:
320,192,19963,1,0,0:0:0:0:
448,192,20031,1,0,0:0:0:0:
64,192,20031,1,0,0:0:0:0:
192,192,20099,1,0,0:0:0:0:
320,192,20167,1,0,0:0:0:0:
448,192,20167,1,0,0:0:0:0:
64,192,20236,1,0,0:0:0:0:
192,192,20304,1,0,0:0:0:0:
320,192,20304,1,0,0:0:0:0:
64,192,20372,1,0,0:0:0:0:
192,192,20440,1,0,0:0:0:0:
448,192,20440,1,0,0:0:0:0:
320,192,20508,1,0,0:0:0:0:
192,192,20577,1,0,0:0:0:0:
64,192,20577,1,0,0:0:0:0:
448,192,20645,1,0,0:0:0:0:
320,192,20713,1,0,0:0:0:0:
64,192,20713,1,0,0:0:0:0:
448,192,20781,1,0,0:0:0:0:
64,192,20849,1,0,0:0:0:0:
192,192,20849,1,0,0:0:0:0:
448,192,20917,1,0,0:0:0:0:
320,192,20986,1,0,0:0:0:0:
192,192,21054,1,0,0:0:0:0:
64,192,21122,1,0,0:0:0:0:
448,192,21122,1,0,0:0:0:0:
320,192,21190,1,0,0:0:0:0:
192,192,21258,1,0,0:0:0:0:
448,192,21258,1,0,0:0:0:0:
64,192,21327,1,0,0:0:0:0:
320,192,21395,1,0,0:0:0:0:
448,192,21395,1,0,0:0:0:0:
192,192,21463,1,0,0:0:0:0:
64,192,21531,1,0,0:0:0:0:
320,192,21531,1,0,0:0:0:0:
448,192,21599,1,0,0:0:0:0:
64,192,21667,1,0,0:0:0:0:
192,192,21667,1,0,0:0:0:0:
320,192,21736,1,0,0:0:0:0:
448,192,21804,1,0,0:0:0:0:
64,192,21804,1,0,0:0:0:0:
192,192,21872,1,0,0:0:0:0:
320,192,21940,1,0,0:0:0:0:
448,192,21940,1,0,0:0:0:0:
64,192,22008,1,0,0:0:0:0:
192,192,22077,1,0,0:0:0:0:
320,192,22145,1,0,0:0:0:0:
64,192,22213,1,0,0:0:0:0:
448,192,22213,1,0,0:0:0:0:
192,192,22281,1,0,0:0:0:0:
320,192,22349,1,0,0:0:0:0:
448,192,22349,1,0,0:0:0:0:
64,192,22417,1,0,0:0:0:0:
192,192,22486,1,0,0:0:0:0:
320,192,22486,1,0,0:0:0:0:
448,192,22554,1,0,0:0:0:0:
64,192,22622,1,0,0:0:0:0:
192,192,22622,1,0,0:0:0:0:
320,192,22690,1,0,0:0:0:0:
448,192,22758,1,0,0:0:0:0:
192,192,22827,1,0,0:0:0:0:
64,192,22895,1,0,0:0:0:0:
320,192,22895,1,0,0:0:0:0:
448,192,22895,1,0,0:0:0:0:
192,192,22963,1,0,0:0:0:0:
448,192,23031,1,0,0:0:0:0:
320,192,23031,1,0,0:0:0:0:
64,192,23099,1,0,0:0:0:0:
192,192,23167,1,0,0:0:0:0:
320,192,23167,1,0,0:0:0:0:
64,192,23236,1,0,0:0:0:0:
448,192,23304,1,0,0:0:0:0:
192,192,23304,1,0,0:0:0:0:
320,192,23372,1,0,0:0:0:0:
64,192,23440,1,0,0:0:0:0:
448,192,23440,1,0,0:0:0:0:
320,192,23508,1,0,0:0:0:0:
192,192,23577,1,0,0:0:0:0:
64,192,23577,1,0,0:0:0:0:
448,192,23645,1,0,0:0:0:0:
320,192,23713,1,0,0:0:0:0:
192,192,23713,1,0,0:0:0:0:
64,192,23781,1,0,0:0:0:0:
448,192,23849,1,0,0:0:0:0:
320,192,23849,1,0,0:0:0:0:
192,192,23917,1,0,0:0:0:0:
64,192,23986,1,0,0:0:0:0:
448,192,23986,1,0,0:0:0:0:
320,192,24054,1,0,0:0:0:0:
192,192,24122,1,0,0:0:0:0:
64,192,24122,1,0,0:0:0:0:
448,192,24190,1,0,0:0:0:0:
320,192,24258,1,0,0:0:0:0:
64,192,24258,1,0,0:0:0:0:
192,192,24327,1,0,0:0:0:0:
448,192,24395,1,0,0:0:0:0:
320,192,24395,1,0,0:0:0:0:
192,192,24463,1,0,0:0:0:0:
448,192,24531,1,0,0:0:0:0:
64,192,24531,1,0,0:0:0:0:
320,192,24599,1,0,0:0:0:0:
192,192,24667,1,0,0:0:0:0:
448,192,24667,1,0,0:0:0:0:
320,192,24736,1,0,0:0:0:0:
64,192,24804,1,0,0:0:0:0:
192,192,24804,1,0,0:0:0:0:
448,192,24872,1,0,0:0:0:0:
320,192,24940,1,0,0:0:0:0:
64,192,24940,1,0,0:0:0:0:
192,192,25008,1,0,0:0:0:0:
320,192,25077,128,0,25213:0:0:0:0:
448,192,25077,128,0,25213:0:0:0:0:
64,192,25077,1,0,0:0:0:0:
64,192,25213,1,0,0:0:0:0:
192,192,25281,1,0,0:0:0:0:
448,192,25349,1,0,0:0:0:0:
320,192,25417,1,0,0:0:0:0:
448,192,25486,1,0,0:0:0:0:
192,192,25486,1,0,0:0:0:0:
64,192,25486,1,0,0:0:0:0:
320,192,25554,1,0,0:0:0:0:
192,192,25622,1,0,0:0:0:0:
448,192,25690,1,0,0:0:0:0:
64,192,25758,1,0,0:0:0:0:
192,192,25758,1,0,0:0:0:0:
320,192,25827,1,0,0:0:0:0:
448,192,25895,1,0,0:0:0:0:
192,192,25963,1,0,0:0:0:0:
64,192,26031,1,0,0:0:0:0:
448,192,26031,1,0,0:0:0:0:
320,192,26099,1,0,0:0:0:0:
192,192,26167,1,0,0:0:0:0:
320,192,26236,1,0,0:0:0:0:
448,192,26304,1,0,0:0:0:0:
64,192,26372,1,0,0:0:0:0:
192,192,26440,1,0,0:0:0:0:
320,192,26508,1,0,0:0:0:0:
192,192,26577,1,0,0:0:0:0:
64,192,26645,1,0,0:0:0:0:
448,192,26713,1,0,0:0:0:0:
320,192,26781,1,0,0:0:0:0:
64,192,26849,1,0,0:0:0:0:
192,192,26849,1,0,0:0:0:0:
192,192,26986,1,0,0:0:0:0:
64,192,26986,1,0,0:0:0:0:
448,192,27122,1,0,0:0:0:0:
320,192,27122,1,0,0:0:0:0:
448,192,27258,1,0,0:0:0:0:
64,192,27258,1,0,0:0:0:0:
192,192,27258,1,0,0:0:0:0:
192,192,27395,1,0,0:0:0:0:
320,192,27395,1,0,0:0:0:0:
64,192,27531,1,0,0:0:0:0:
320,192,27531,1,0,0:0:0:0:
64,192,27667,1,0,0:0:0:0:
448,192,27667,1,0,0:0:0:0:
192,192,27804,1,0,0:0:0:0:
448,192,27804,1,0,0:0:0:0:
192,192,27940,1,0,0:0:0:0:
320,192,27940,1,0,0:0:0:0:
64,192,28077,1,0,0:0:0:0:
320,192,28077,1,0,0:0:0:0:
64,192,28213,1,0,0:0:0:0:
192,192,28213,1,0,0:0:0:0:
192,192,28349,1,0,0:0:0:0:
320,192,28349,1,0,0:0:0:0:
320,192,28486,1,0,0:0:0:0:
448,192,28486,1,0,0:0:0:0:
192,192,28622,1,0,0:0:0:0:
448,192,28622,1,0,0:0:0:0:
64,192,28758,1,0,0:0:0:0:
320,192,28758,1,0,0:0:0:0:
192,192,28895,1,0,0:0:0:0:
320,192,28895,1,0,0:0:0:0:
64,192,29031,1,0,0:0:0:0:
192,192,29031,1,0,0:0:0:0:
64,192,29167,1,0,0:0:0:0:
320,192,29167,1,0,0:0:0:0:
448,192,29304,1,0,0:0:0:0:
320,192,29304,1,0,0:0:0:0:
64,192,29440,1,0,0:0:0:0:
192,192,29440,1,0,0:0:0:0:
448,192,29440,1,0,0:0:0:0:
192,192,29577,1,0,0:0:0:0:
320,192,29577,1,0,0:0:0:0:
64,192,29713,1,0,0:0:0:0:
448,192,29713,1,0,0:0:0:0:
192,192,29849,1,0,0:0:0:0:
448,192,29849,1,0,0:0:0:0:
320,192,29986,1,0,0:0:0:0:
192,192,29986,1,0,0:0:0:0:
64,192,30122,1,0,0:0:0:0:
320,192,30122,1,0,0:0:0:0:
192,192,30258,1,0,0:0:0:0:
448,192,30258,1,0,0:0:0:0:
320,192,30395,1,0,0:0:0:0:
448,192,30395,1,0,0:0:0:0:
192,192,30531,1,0,0:0:0:0:
320,192,30531,1,0,0:0:0:0:
64,192,30667,1,0,0:0:0:0:
192,192,30667,1,0,0:0:0:0:
64,192,30804,1,0,0:0:0:0:
448,192,30804,1,0,0:0:0:0:
192,192,30940,1,0,0:0:0:0:
448,192,30940,1,0,0:0:0:0:
320,192,31077,1,0,0:0:0:0:
192,192,31077,1,0,0:0:0:0:
64,192,31213,1,0,0:0:0:0:
320,192,31213,1,0,0:0:0:0:
192,192,31349,1,0,0:0:0:0:
448,192,31349,1,0,0:0:0:0:
64,192,31486,1,0,0:0:0:0:
192,192,31486,1,0,0:0:0:0:
64,192,31622,1,0,0:0:0:0:
320,192,31622,1,0,0:0:0:0:
448,192,31622,1,0,0:0:0:0:
192,192,31758,1,0,0:0:0:0:
320,192,31758,1,0,0:0:0:0:
192,192,31895,1,0,0:0:0:0:
448,192,31895,1,0,0:0:0:0:
64,192,32031,1,0,0:0:0:0:
320,192,32031,1,0,0:0:0:0:
192,192,32167,1,0,0:0:0:0:
448,192,32167,1,0,0:0:0:0:
320,192,32304,1,0,0:0:0:0:
448,192,32304,1,0,0:0:0:0:
64,192,32440,1,0,0:0:0:0:
192,192,32440,1,0,0:0:0:0:
64,192,32577,1,0,0:0:0:0:
320,192,32577,1,0,0:0:0:0:
192,192,32713,1,0,0:0:0:0:
448,192,32713,1,0,0:0:0:0:
64,192,32849,1,0,0:0:0:0:
192,192,32849,1,0,0:0:0:0:
64,192,32986,1,0,0:0:0:0:
320,192,32986,1,0,0:0:0:0:
192,192,33122,1,0,0:0:0:0:
448,192,33122,1,0,0:0:0:0:
320,192,33258,1,0,0:0:0:0:
192,192,33258,1,0,0:0:0:0:
64,192,33395,1,0,0:0:0:0:
448,192,33395,1,0,0:0:0:0:
64,192,33531,1,0,0:0:0:0:
192,192,33531,1,0,0:0:0:0:
192,192,33667,1,0,0:0:0:0:
448,192,33667,1,0,0:0:0:0:
64,192,33804,5,0,0:0:0:0:
320,192,33804,1,0,0:0:0:0:
448,192,33804,1,0,0:0:0:0:
192,192,33940,1,0,0:0:0:0:
320,192,33940,1,0,0:0:0:0:
192,192,34077,1,0,0:0:0:0:
64,192,34077,1,0,0:0:0:0:
64,192,34213,1,0,0:0:0:0:
320,192,34213,1,0,0:0:0:0:
192,192,34349,1,0,0:0:0:0:
448,192,34349,1,0,0:0:0:0:
320,192,34486,1,0,0:0:0:0:
448,192,34486,1,0,0:0:0:0:
192,192,34622,1,0,0:0:0:0:
64,192,34622,1,0,0:0:0:0:
64,192,34758,1,0,0:0:0:0:
320,192,34758,1,0,0:0:0:0:
320,192,34895,128,0,35031:0:0:0:0:
448,192,34895,1,0,0:0:0:0:
64,192,35031,128,0,35167:0:0:0:0:
192,192,35031,1,0,0:0:0:0:
448,192,35167,1,0,0:0:0:0:
320,192,35236,1,0,0:0:0:0:
192,192,35304,1,0,0:0:0:0:
64,192,35372,1,0,0:0:0:0:
448,192,35440,128,0,35577:0:0:0:0:
64,192,35577,1,0,0:0:0:0:
192,192,35577,128,0,35849:0:0:0:0:
320,192,35577,1,0,0:0:0:0:
448,192,35849,1,0,0:0:0:0:
64,192,35849,1,0,0:0:0:0:
320,192,35917,1,0,0:0:0:0:
448,192,35986,1,0,0:0:0:0:
192,192,35986,1,0,0:0:0:0:
64,192,35986,1,0,0:0:0:0:
320,192,36054,1,0,0:0:0:0:
192,192,36122,1,0,0:0:0:0:
64,192,36190,1,0,0:0:0:0:
192,192,36258,1,0,0:0:0:0:
320,192,36258,1,0,0:0:0:0:
448,192,36327,1,0,0:0:0:0:
64,192,36395,1,0,0:0:0:0:
320,192,36463,1,0,0:0:0:0:
192,192,36531,1,0,0:0:0:0:
448,192,36531,1,0,0:0:0:0:
64,192,36599,1,0,0:0:0:0:
320,192,36667,1,0,0:0:0:0:
192,192,36736,1,0,0:0:0:0:
320,192,36804,1,0,0:0:0:0:
448,192,36804,1,0,0:0:0:0:
192,192,36872,1,0,0:0:0:0:
64,192,36940,1,0,0:0:0:0:
448,192,37008,1,0,0:0:0:0:
320,192,37077,1,0,0:0:0:0:
192,192,37077,1,0,0:0:0:0:
64,192,37145,1,0,0:0:0:0:
448,192,37213,1,0,0:0:0:0:
320,192,37281,1,0,0:0:0:0:
192,192,37349,1,0,0:0:0:0:
64,192,37349,1,0,0:0:0:0:
320,192,37417,1,0,0:0:0:0:
448,192,37486,1,0,0:0:0:0:
64,192,37554,1,0,0:0:0:0:
192,192,37622,1,0,0:0:0:0:
448,192,37622,1,0,0:0:0:0:
320,192,37690,1,0,0:0:0:0:
192,192,37758,1,0,0:0:0:0:
64,192,37827,1,0,0:0:0:0:
320,192,37895,1,0,0:0:0:0:
448,192,37895,1,0,0:0:0:0:
192,192,37963,1,0,0:0:0:0:
64,192,38031,1,0,0:0:0:0:
448,192,38099,1,0,0:0:0:0:
320,192,38167,1,0,0:0:0:0:
192,192,38167,1,0,0:0:0:0:
64,192,38236,1,0,0:0:0:0:
448,192,38304,1,0,0:0:0:0:
192,192,38372,1,0,0:0:0:0:
320,192,38440,1,0,0:0:0:0:
64,192,38440,1,0,0:0:0:0:
448,192,38508,1,0,0:0:0:0:
64,192,38577,1,0,0:0:0:0:
192,192,38645,1,0,0:0:0:0:
320,192,38713,1,0,0:0:0:0:
448,192,38713,1,0,0:0:0:0:
192,192,38781,1,0,0:0:0:0:
64,192,38849,1,0,0:0:0:0:
448,192,38917,1,0,0:0:0:0:
320,192,38986,1,0,0:0:0:0:
192,192,38986,1,0,0:0:0:0:
64,192,39054,1,0,0:0:0:0:
448,192,39122,1,0,0:0:0:0:
320,192,39190,1,0,0:0:0:0:
192,192,39258,1,0,0:0:0:0:
64,192,39258,1,0,0:0:0:0:
448,192,39327,1,0,0:0:0:0:
320,192,39395,1,0,0:0:0:0:
192,192,39463,1,0,0:0:0:0:
320,192,39531,1,0,0:0:0:0:
448,192,39531,1,0,0:0:0:0:
192,192,39599,1,0,0:0:0:0:
64,192,39667,1,0,0:0:0:0:
320,192,39736,1,0,0:0:0:0:
448,192,39804,1,0,0:0:0:0:
192,192,39804,1,0,0:0:0:0:
64,192,39872,1,0,0:0:0:0:
320,192,39940,1,0,0:0:0:0:
192,192,40008,1,0,0:0:0:0:
320,192,40077,1,0,0:0:0:0:
448,192,40077,1,0,0:0:0:0:
64,192,40145,1,0,0:0:0:0:
192,192,40213,1,0,0:0:0:0:
320,192,40281,1,0,0:0:0:0:
448,192,40349,128,0,40895:0:0:0:0:
64,192,40349,1,0,0:0:0:0:
192,192,40622,1,0,0:0:0:0:
64,192,40895,1,0,0:0:0:0:
320,192,40895,128,0,41167:0:0:0:0:
192,192,41167,1,0,0:0:0:0:
64,192,41167,1,0,0:0:0:0:
320,192,41304,1,0,0:0:0:0:
448,192,41304,1,0,0:0:0:0:
192,192,41440,128,0,42327:0:0:0:0:
64,192,41440,1,0,0:0:0:0:
448,192,41986,128,0,42327:0:0:0:0:
64,192,42327,1,0,0:0:0:0:
320,192,42395,1,0,0:0:0:0:
192,192,42463,1,0,0:0:0:0:
64,192,42531,1,0,0:0:0:0:
448,192,42531,1,0,0:0:0:0:
320,192,42531,1,0,0:0:0:0:
448,192,42667,1,0,0:0:0:0:
320,192,42736,1,0,0:0:0:0:
192,192,42804,1,0,0:0:0:0:
448,192,42940,1,0,0:0:0:0:
320,192,42940,1,0,0:0:0:0:
64,192,43077,1,0,0:0:0:0:
192,192,43145,1,0,0:0:0:0:
448,192,43213,1,0,0:0:0:0:
320,192,43213,1,0,0:0:0:0:
64,192,43349,1,0,0:0:0:0:
192,192,43417,1,0,0:0:0:0:
64,192,43486,1,0,0:0:0:0:
320,192,43486,1,0,0:0:0:0:
448,192,43622,128,0,43895:0:0:0:0:
192,192,43690,1,0,0:0:0:0:
320,192,43690,1,0,0:0:0:0:
64,192,43827,1,0,0:0:0:0:
320,192,43895,128,0,44167:0:0:0:0:
192,192,43895,1,0,0:0:0:0:
448,192,43963,1,0,0:0:0:0:
64,192,44031,1,0,0:0:0:0:
448,192,44099,1,0,0:0:0:0:
192,192,44167,1,0,0:0:0:0:
64,192,44167,128,0,44440:0:0:0:0:
320,192,44304,1,0,0:0:0:0:
192,192,44372,1,0,0:0:0:0:
320,192,44440,1,0,0:0:0:0:
448,192,44440,128,0,44713:0:0:0:0:
192,192,44577,1,0,0:0:0:0:
64,192,44713,128,0,45327:0:0:0:0:
320,192,44713,1,0,0:0:0:0:
192,192,44713,1,0,0:0:0:0:
448,192,44781,1,0,0:0:0:0:
192,192,44895,1,0,0:0:0:0:
320,192,44940,1,0,0:0:0:0:
448,192,44986,1,0,0:0:0:0:
192,192,45167,1,0,0:0:0:0:
320,192,45213,1,0,0:0:0:0:
448,192,45258,1,0,0:0:0:0:
320,192,45327,1,0,0:0:0:0:
192,192,45327,128,0,45531:0:0:0:0:
320,192,45531,1,0,0:0:0:0:
448,192,45599,1,0,0:0:0:0:
64,192,45667,1,0,0:0:0:0:
192,192,45736,1,0,0:0:0:0:
320,192,45804,1,0,0:0:0:0:
448,192,45804,1,0,0:0:0:0:
64,192,45872,1,0,0:0:0:0:
192,192,45872,1,0,0:0:0:0:
448,192,45940,1,0,0:0:0:0:
320,192,45940,1,0,0:0:0:0:
64,192,46008,1,0,0:0:0:0:
192,192,46008,1,0,0:0:0:0:
320,192,46077,1,0,0:0:0:0:
448,192,46145,1,0,0:0:0:0:
64,192,46213,1,0,0:0:0:0:
192,192,46281,1,0,0:0:0:0:
448,192,46349,1,0,0:0:0:0:
320,192,46349,1,0,0:0:0:0:
192,192,46417,1,0,0:0:0:0:
64,192,46417,1,0,0:0:0:0:
320,192,46486,1,0,0:0:0:0:
448,192,46486,1,0,0:0:0:0:
192,192,46554,1,0,0:0:0:0:
64,192,46554,1,0,0:0:0:0:
448,192,46622,1,0,0:0:0:0:
320,192,46690,1,0,0:0:0:0:
192,192,46758,1,0,0:0:0:0:
64,192,46827,1,0,0:0:0:0:
448,192,46895,1,0,0:0:0:0:
192,192,46895,1,0,0:0:0:0:
320,192,46895,1,0,0:0:0:0:
64,192,46963,1,0,0:0:0:0:
192,192,47031,1,0,0:0:0:0:
448,192,47031,1,0,0:0:0:0:
320,192,47099,1,0,0:0:0:0:
448,192,47167,1,0,0:0:0:0:
64,192,47236,1,0,0:0:0:0:
192,192,47304,1,0,0:0:0:0:
64,192,47372,1,0,0:0:0:0:
192,192,47440,1,0,0:0:0:0:
448,192,47440,1,0,0:0:0:0:
320,192,47508,1,0,0:0:0:0:
448,192,47577,1,0,0:0:0:0:
320,192,47645,1,0,0:0:0:0:
192,192,47713,1,0,0:0:0:0:
320,192,47781,1,0,0:0:0:0:
448,192,47849,1,0,0:0:0:0:
192,192,47917,1,0,0:0:0:0:
64,192,47986,1,0,0:0:0:0:
448,192,47986,1,0,0:0:0:0:
192,192,48054,1,0,0:0:0:0:
320,192,48122,1,0,0:0:0:0:
192,192,48190,1,0,0:0:0:0:
320,192,48258,1,0,0:0:0:0:
64,192,48327,1,0,0:0:0:0:
192,192,48395,1,0,0:0:0:0:
64,192,48463,1,0,0:0:0:0:
192,192,48531,1,0,0:0:0:0:
448,192,48599,1,0,0:0:0:0:
320,192,48667,1,0,0:0:0:0:
192,192,48736,1,0,0:0:0:0:
64,192,48804,1,0,0:0:0:0:
320,192,48804,1,0,0:0:0:0:
192,192,48872,1,0,0:0:0:0:
320,192,48940,1,0,0:0:0:0:
192,192,49008,1,0,0:0:0:0:
64,192,49077,128,0,51122:0:0:0:0:
448,192,49077,128,0,51122:0:0:0:0:
320,192,51122,1,0,0:0:0:0:
192,192,51190,1,0,0:0:0:0:
448,192,51258,1,0,0:0:0:0:
64,192,51258,1,0,0:0:0:0:
192,192,51327,1,0,0:0:0:0:
64,192,51395,1,0,0:0:0:0:
448,192,51463,1,0,0:0:0:0:
320,192,51531,1,0,0:0:0:0:
192,192,51599,1,0,0:0:0:0:
320,192,51667,1,0,0:0:0:0:
448,192,51736,1,0,0:0:0:0:
64,192,51804,1,0,0:0:0:0:
192,192,51872,1,0,0:0:0:0:
320,192,51940,1,0,0:0:0:0:
192,192,52008,1,0,0:0:0:0:
64,192,52077,1,0,0:0:0:0:
320,192,52145,1,0,0:0:0:0:
192,192,52213,1,0,0:0:0:0:
320,192,52281,1,0,0:0:0:0:
448,192,52349,1,0,0:0:0:0:
64,192,52417,1,0,0:0:0:0:
192,192,52486,1,0,0:0:0:0:
320,192,52554,1,0,0:0:0:0:
192,192,52622,1,0,0:0:0:0:
320,192,52690,1,0,0:0:0:0:
448,192,52758,1,0,0:0:0:0:
320,192,52827,1,0,0:0:0:0:
192,192,52895,1,0,0:0:0:0:
64,192,52963,1,0,0:0:0:0:
448,192,53031,1,0,0:0:0:0:
320,192,53099,1,0,0:0:0:0:
448,192,53167,1,0,0:0:0:0:
192,192,53167,1,0,0:0:0:0:
64,192,53440,1,0,0:0:0:0:
192,192,53440,1,0,0:0:0:0:
320,192,53440,1,0,0:0:0:0:
448,192,53440,1,0,0:0:0:0:
320,192,53577,128,0,53713:0:0:0:0:
64,192,53713,128,0,53986:0:0:0:0:
192,192,53986,128,0,54122:0:0:0:0:
448,192,54122,128,0,54395:0:0:0:0:
320,192,54395,128,0,54531:0:0:0:0:
192,192,54531,128,0,54804:0:0:0:0:
64,192,54804,128,0,55213:0:0:0:0:
448,192,54940,128,0,55213:0:0:0:0:
192,192,55213,128,0,55349:0:0:0:0:
320,192,55349,128,0,55622:0:0:0:0:
64,192,55349,1,0,0:0:0:0:
448,192,55622,1,0,0:0:0:0:
192,192,55622,1,0,0:0:0:0:
64,192,55758,128,0,56304:0:0:0:0:
320,192,55895,1,0,0:0:0:0:
448,192,56167,128,0,56304:0:0:0:0:
192,192,56304,128,0,56440:0:0:0:0:
320,192,56440,128,0,56577:0:0:0:0:
448,192,56577,1,0,0:0:0:0:
64,192,56713,1,0,0:0:0:0:
192,192,56713,1,0,0:0:0:0:
320,192,56781,1,0,0:0:0:0:
448,192,56781,1,0,0:0:0:0:
192,192,56849,1,0,0:0:0:0:
64,192,56917,1,0,0:0:0:0:
448,192,56986,1,0,0:0:0:0:
320,192,57054,1,0,0:0:0:0:
64,192,57122,1,0,0:0:0:0:
192,192,57190,1,0,0:0:0:0:
320,192,57258,1,0,0:0:0:0:
448,192,57327,1,0,0:0:0:0:
192,192,57395,1,0,0:0:0:0:
320,192,57463,1,0,0:0:0:0:
192,192,57531,1,0,0:0:0:0:
64,192,57531,1,0,0:0:0:0:
448,192,57531,1,0,0:0:0:0:
320,192,57804,1,0,0:0:0:0:
64,192,57804,1,0,0:0:0:0:
448,192,57804,1,0,0:0:0:0:
192,192,57940,1,0,0:0:0:0:
448,192,57940,1,0,0:0:0:0:
64,192,58077,1,0,0:0:0:0:
320,192,58213,1,0,0:0:0:0:
448,192,58213,1,0,0:0:0:0:
64,192,58213,1,0,0:0:0:0:
192,192,58349,1,0,0:0:0:0:
64,192,58486,1,0,0:0:0:0:
320,192,58486,1,0,0:0:0:0:
448,192,58486,1,0,0:0:0:0:
448,192,58622,1,0,0:0:0:0:
64,192,58758,1,0,0:0:0:0:
320,192,58758,1,0,0:0:0:0:
320,192,58895,1,0,0:0:0:0:
192,192,59031,1,0,0:0:0:0:
448,192,59031,1,0,0:0:0:0:
64,192,59031,1,0,0:0:0:0:
64,192,59167,1,0,0:0:0:0:
320,192,59304,1,0,0:0:0:0:
448,192,59304,1,0,0:0:0:0:
192,192,59304,1,0,0:0:0:0:
192,192,59440,1,0,0:0:0:0:
64,192,59577,1,0,0:0:0:0:
448,192,59577,1,0,0:0:0:0:
320,192,59577,1,0,0:0:0:0:
320,192,59713,1,0,0:0:0:0:
192,192,59849,1,0,0:0:0:0:
64,192,59849,1,0,0:0:0:0:
448,192,59849,1,0,0:0:0:0:
448,192,59986,1,0,0:0:0:0:
320,192,60122,1,0,0:0:0:0:
64,192,60122,1,0,0:0:0:0:
192,192,60122,1,0,0:0:0:0:
192,192,60258,128,0,60531:0:0:0:0:
320,192,60395,1,0,0:0:0:0:
448,192,60395,1,0,0:0:0:0:
64,192,60395,1,0,0:0:0:0:
448,192,60531,128,0,60804:0:0:0:0:
64,192,60667,1,0,0:0:0:0:
320,192,60667,1,0,0:0:0:0:
192,192,60667,1,0,0:0:0:0:
192,192,60804,128,0,61077:0:0:0:0:
448,192,60940,1,0,0:0:0:0:
64,192,60940,1,0,0:0:0:0:
320,192,60940,1,0,0:0:0:0:
320,192,61077,128,0,61349:0:0:0:0:
448,192,61213,1,0,0:0:0:0:
64,192,61213,1,0,0:0:0:0:
192,192,61213,1,0,0:0:0:0:
192,192,61349,128,0,61622:0:0:0:0:
320,192,61486,1,0,0:0:0:0:
448,192,61486,1,0,0:0:0:0:
64,192,61486,1,0,0:0:0:0:
64,192,61622,128,0,61895:0:0:0:0:
192,192,61758,1,0,0:0:0:0:
448,192,61758,1,0,0:0:0:0:
320,192,61758,1,0,0:0:0:0:
320,192,61895,128,0,62167:0:0:0:0:
192,192,62031,1,0,0:0:0:0:
64,192,62031,1,0,0:0:0:0:
448,192,62031,1,0,0:0:0:0:
64,192,62167,1,0,0:0:0:0:
192,192,62236,1,0,0:0:0:0:
320,192,62304,1,0,0:0:0:0:
64,192,62440,1,0,0:0:0:0:
448,192,62440,1,0,0:0:0:0:
192,192,62440,1,0,0:0:0:0:
64,192,62713,1,0,0:0:0:0:
192,192,62781,1,0,0:0:0:0:
64,192,62849,1,0,0:0:0:0:
448,192,62849,1,0,0:0:0:0:
320,192,62849,1,0,0:0:0:0:
192,192,62986,1,0,0:0:0:0:
320,192,63054,1,0,0:0:0:0:
448,192,63122,1,0,0:0:0:0:
64,192,63258,1,0,0:0:0:0:
192,192,63258,1,0,0:0:0:0:
320,192,63258,1,0,0:0:0:0:
192,192,63531,1,0,0:0:0:0:
320,192,63667,1,0,0:0:0:0:
448,192,63667,1,0,0:0:0:0:
64,192,63667,1,0,0:0:0:0:
192,192,63804,1,0,0:0:0:0:
64,192,63940,1,0,0:0:0:0:
192,192,64008,1,0,0:0:0:0:
448,192,64077,1,0,0:0:0:0:
320,192,64077,1,0,0:0:0:0:
64,192,64077,1,0,0:0:0:0:
192,192,64213,1,0,0:0:0:0:
320,192,64349,1,0,0:0:0:0:
64,192,64417,1,0,0:0:0:0:
448,192,64486,1,0,0:0:0:0:
320,192,64554,1,0,0:0:0:0:
192,192,64622,1,0,0:0:0:0:
64,192,64690,1,0,0:0:0:0:
192,192,64758,1,0,0:0:0:0:
64,192,64827,1,0,0:0:0:0:
192,192,64895,1,0,0:0:0:0:
320,192,64963,1,0,0:0:0:0:
448,192,65031,1,0,0:0:0:0:
320,192,65099,1,0,0:0:0:0:
448,192,65167,1,0,0:0:0:0:
320,192,65236,1,0,0:0:0:0:
64,192,65304,1,0,0:0:0:0:
192,192,65372,1,0,0:0:0:0:
64,192,65440,1,0,0:0:0:0:
320,192,65440,1,0,0:0:0:0:
448,192,65440,1,0,0:0:0:0:
448,192,65577,1,0,0:0:0:0:
320,192,65645,1,0,0:0:0:0:
192,192,65713,1,0,0:0:0:0:
64,192,65713,1,0,0:0:0:0:
448,192,65713,1,0,0:0:0:0:
320,192,65849,1,0,0:0:0:0:
448,192,65917,1,0,0:0:0:0:
64,192,65986,1,0,0:0:0:0:
192,192,66054,1,0,0:0:0:0:
320,192,66122,1,0,0:0:0:0:
192,192,66190,1,0,0:0:0:0:
64,192,66258,1,0,0:0:0:0:
448,192,66258,128,0,66531:0:0:0:0:
320,192,66258,1,0,0:0:0:0:
64,192,66531,1,0,0:0:0:0:
192,192,66667,1,0,0:0:0:0:
448,192,66667,1,0,0:0:0:0:
320,192,66667,1,0,0:0:0:0:
192,192,66804,1,0,0:0:0:0:
64,192,66940,1,0,0:0:0:0:
448,192,66940,1,0,0:0:0:0:
320,192,66940,1,0,0:0:0:0:
320,192,67077,1,0,0:0:0:0:
448,192,67213,1,0,0:0:0:0:
192,192,67213,1,0,0:0:0:0:
64,192,67213,1,0,0:0:0:0:
64,192,67349,1,0,0:0:0:0:
320,192,67486,1,0,0:0:0:0:
448,192,67486,1,0,0:0:0:0:
192,192,67486,1,0,0:0:0:0:
192,192,67622,1,0,0:0:0:0:
64,192,67758,1,0,0:0:0:0:
320,192,67758,1,0,0:0:0:0:
448,192,67758,1,0,0:0:0:0:
448,192,67895,1,0,0:0:0:0:
192,192,68031,1,0,0:0:0:0:
64,192,68031,1,0,0:0:0:0:
320,192,68031,1,0,0:0:0:0:
320,192,68167,1,0,0:0:0:0:
448,192,68304,1,0,0:0:0:0:
192,192,68304,1,0,0:0:0:0:
64,192,68304,1,0,0:0:0:0:
64,192,68440,1,0,0:0:0:0:
320,192,68577,1,0,0:0:0:0:
448,192,68577,1,0,0:0:0:0:
192,192,68577,1,0,0:0:0:0:
192,192,68713,1,0,0:0:0:0:
64,192,68849,1,0,0:0:0:0:
448,192,68849,1,0,0:0:0:0:
320,192,68849,1,0,0:0:0:0:
320,192,68986,1,0,0:0:0:0:
192,192,69122,1,0,0:0:0:0:
448,192,69122,1,0,0:0:0:0:
64,192,69122,1,0,0:0:0:0:
64,192,69258,1,0,0:0:0:0:
320,192,69395,1,0,0:0:0:0:
192,192,69395,1,0,0:0:0:0:
448,192,69395,1,0,0:0:0:0:
448,192,69531,1,0,0:0:0:0:
64,192,69667,1,0,0:0:0:0:
320,192,69667,1,0,0:0:0:0:
192,192,69667,1,0,0:0:0:0:
192,192,69804,1,0,0:0:0:0:
320,192,69940,1,0,0:0:0:0:
448,192,69940,1,0,0:0:0:0:
64,192,69940,1,0,0:0:0:0:
64,192,70077,1,0,0:0:0:0:
192,192,70213,1,0,0:0:0:0:
448,192,70213,1,0,0:0:0:0:
320,192,70213,1,0,0:0:0:0:
320,192,70349,1,0,0:0:0:0:
192,192,70486,1,0,0:0:0:0:
64,192,70486,1,0,0:0:0:0:
448,192,70486,1,0,0:0:0:0:
448,192,70622,1,0,0:0:0:0:
320,192,70758,1,0,0:0:0:0:
192,192,70758,1,0,0:0:0:0:
64,192,70758,1,0,0:0:0:0:
64,192,70895,1,0,0:0:0:0:
448,192,70895,1,0,0:0:0:0:
448,192,71031,1,0,0:0:0:0:
320,192,71031,1,0,0:0:0:0:
192,192,71031,1,0,0:0:0:0:
64,192,71167,1,0,0:0:0:0:
64,192,71304,1,0,0:0:0:0:
320,192,71304,1,0,0:0:0:0:
448,192,71304,1,0,0:0:0:0:
448,192,71440,1,0,0:0:0:0:
320,192,71577,1,0,0:0:0:0:
192,192,71577,1,0,0:0:0:0:
64,192,71577,1,0,0:0:0:0:
64,192,71713,1,0,0:0:0:0:
192,192,71849,1,0,0:0:0:0:
448,192,71849,1,0,0:0:0:0:
320,192,71849,1,0,0:0:0:0:
320,192,71986,1,0,0:0:0:0:
192,192,72122,1,0,0:0:0:0:
448,192,72122,1,0,0:0:0:0:
64,192,72122,1,0,0:0:0:0:
192,192,72258,1,0,0:0:0:0:
320,192,72395,1,0,0:0:0:0:
448,192,72395,1,0,0:0:0:0:
64,192,72395,1,0,0:0:0:0:
192,192,72531,1,0,0:0:0:0:
64,192,72667,1,0,0:0:0:0:
320,192,72667,1,0,0:0:0:0:
448,192,72667,1,0,0:0:0:0:
320,192,72804,1,0,0:0:0:0:
64,192,72940,1,0,0:0:0:0:
192,192,72940,1,0,0:0:0:0:
448,192,72940,1,0,0:0:0:0:
320,192,73077,1,0,0:0:0:0:
448,192,73213,1,0,0:0:0:0:
192,192,73213,1,0,0:0:0:0:
64,192,73213,1,0,0:0:0:0:
64,192,73349,1,0,0:0:0:0:
320,192,73486,1,0,0:0:0:0:
448,192,73486,1,0,0:0:0:0:
192,192,73486,1,0,0:0:0:0:
64,192,73622,1,0,0:0:0:0:
192,192,73758,1,0,0:0:0:0:
320,192,73758,1,0,0:0:0:0:
64,192,73758,1,0,0:0:0:0:
320,192,73895,1,0,0:0:0:0:
192,192,74031,1,0,0:0:0:0:
64,192,74031,1,0,0:0:0:0:
448,192,74031,1,0,0:0:0:0:
320,192,74167,1,0,0:0:0:0:
64,192,74167,1,0,0:0:0:0:
448,192,74236,1,0,0:0:0:0:
64,192,74304,1,0,0:0:0:0:
192,192,74372,5,0,0:0:0:0:
320,192,74440,1,0,0:0:0:0:
192,192,74508,1,0,0:0:0:0:
320,192,74577,1,0,0:0:0:0:
448,192,74645,1,0,0:0:0:0:
64,192,74713,1,0,0:0:0:0:
192,192,74781,1,0,0:0:0:0:
320,192,74849,1,0,0:0:0:0:
192,192,74917,1,0,0:0:0:0:
64,192,74986,5,0,0:0:0:0:
448,192,74986,1,0,0:0:0:0:
320,192,75054,1,0,0:0:0:0:
192,192,75122,1,0,0:0:0:0:
320,192,75190,1,0,0:0:0:0:
448,192,75258,1,0,0:0:0:0:
192,192,75258,1,0,0:0:0:0:
64,192,75258,1,0,0:0:0:0:
192,192,75531,5,0,0:0:0:0:
64,192,75531,1,0,0:0:0:0:
448,192,75531,1,0,0:0:0:0:
320,192,75599,1,0,0:0:0:0:
192,192,75667,1,0,0:0:0:0:
448,192,75667,1,0,0:0:0:0:
64,192,75736,1,0,0:0:0:0:
448,192,75804,1,0,0:0:0:0:
320,192,75804,1,0,0:0:0:0:
192,192,75872,1,0,0:0:0:0:
320,192,75940,1,0,0:0:0:0:
64,192,75940,1,0,0:0:0:0:
448,192,76008,1,0,0:0:0:0:
320,192,76077,1,0,0:0:0:0:
192,192,76077,1,0,0:0:0:0:
64,192,76145,1,0,0:0:0:0:
448,192,76213,1,0,0:0:0:0:
320,192,76213,1,0,0:0:0:0:
192,192,76281,1,0,0:0:0:0:
448,192,76349,1,0,0:0:0:0:
64,192,76349,1,0,0:0:0:0:
320,192,76417,1,0,0:0:0:0:
64,192,76486,1,0,0:0:0:0:
192,192,76486,1,0,0:0:0:0:
320,192,76554,1,0,0:0:0:0:
192,192,76622,1,0,0:0:0:0:
448,192,76622,1,0,0:0:0:0:
64,192,76690,1,0,0:0:0:0:
448,192,76758,1,0,0:0:0:0:
320,192,76758,1,0,0:0:0:0:
192,192,76827,1,0,0:0:0:0:
320,192,76895,1,0,0:0:0:0:
64,192,76895,1,0,0:0:0:0:
448,192,76963,1,0,0:0:0:0:
192,192,77031,1,0,0:0:0:0:
64,192,77031,1,0,0:0:0:0:
320,192,77099,1,0,0:0:0:0:
64,192,77167,1,0,0:0:0:0:
448,192,77167,1,0,0:0:0:0:
192,192,77236,1,0,0:0:0:0:
448,192,77304,1,0,0:0:0:0:
320,192,77304,1,0,0:0:0:0:
64,192,77372,1,0,0:0:0:0:
320,192,77440,1,0,0:0:0:0:
192,192,77440,1,0,0:0:0:0:
448,192,77508,1,0,0:0:0:0:
192,192,77577,1,0,0:0:0:0:
64,192,77577,1,0,0:0:0:0:
320,192,77645,1,0,0:0:0:0:
448,192,77713,1,0,0:0:0:0:
64,192,77781,1,0,0:0:0:0:
448,192,77849,1,0,0:0:0:0:
320,192,77849,1,0,0:0:0:0:
192,192,77917,1,0,0:0:0:0:
64,192,77986,1,0,0:0:0:0:
448,192,77986,1,0,0:0:0:0:
320,192,78054,1,0,0:0:0:0:
64,192,78122,1,0,0:0:0:0:
192,192,78122,1,0,0:0:0:0:
448,192,78190,1,0,0:0:0:0:
192,192,78258,1,0,0:0:0:0:
320,192,78258,1,0,0:0:0:0:
64,192,78327,1,0,0:0:0:0:
448,192,78395,1,0,0:0:0:0:
320,192,78395,1,0,0:0:0:0:
192,192,78463,1,0,0:0:0:0:
64,192,78531,1,0,0:0:0:0:
448,192,78531,1,0,0:0:0:0:
320,192,78599,1,0,0:0:0:0:
192,192,78667,1,0,0:0:0:0:
64,192,78667,1,0,0:0:0:0:
448,192,78736,1,0,0:0:0:0:
320,192,78804,1,0,0:0:0:0:
192,192,78804,1,0,0:0:0:0:
64,192,78872,1,0,0:0:0:0:
320,192,78940,1,0,0:0:0:0:
448,192,78940,1,0,0:0:0:0:
192,192,79008,1,0,0:0:0:0:
64,192,79077,1,0,0:0:0:0:
448,192,79077,1,0,0:0:0:0:
192,192,79145,1,0,0:0:0:0:
320,192,79213,1,0,0:0:0:0:
64,192,79213,1,0,0:0:0:0:
192,192,79281,1,0,0:0:0:0:
320,192,79349,1,0,0:0:0:0:
448,192,79349,1,0,0:0:0:0:
64,192,79417,1,0,0:0:0:0:
192,192,79486,1,0,0:0:0:0:
448,192,79554,1,0,0:0:0:0:
64,192,79622,1,0,0:0:0:0:
320,192,79622,1,0,0:0:0:0:
192,192,79622,1,0,0:0:0:0:
448,192,79690,1,0,0:0:0:0:
320,192,79758,1,0,0:0:0:0:
448,192,79827,1,0,0:0:0:0:
192,192,79895,1,0,0:0:0:0:
64,192,79895,1,0,0:0:0:0:
320,192,79963,1,0,0:0:0:0:
448,192,80031,1,0,0:0:0:0:
192,192,80031,1,0,0:0:0:0:
64,192,80099,1,0,0:0:0:0:
320,192,80167,1,0,0:0:0:0:
448,192,80167,1,0,0:0:0:0:
192,192,80236,1,0,0:0:0:0:
64,192,80304,1,0,0:0:0:0:
320,192,80304,1,0,0:0:0:0:
448,192,80372,1,0,0:0:0:0:
64,192,80440,1,0,0:0:0:0:
192,192,80440,1,0,0:0:0:0:
320,192,80508,1,0,0:0:0:0:
448,192,80577,1,0,0:0:0:0:
64,192,80577,1,0,0:0:0:0:
192,192,80645,1,0,0:0:0:0:
320,192,80713,1,0,0:0:0:0:
448,192,80713,1,0,0:0:0:0:
64,192,80781,1,0,0:0:0:0:
192,192,80849,1,0,0:0:0:0:
320,192,80849,1,0,0:0:0:0:
448,192,80917,1,0,0:0:0:0:
64,192,80986,1,0,0:0:0:0:
192,192,80986,1,0,0:0:0:0:
320,192,81054,1,0,0:0:0:0:
64,192,81122,1,0,0:0:0:0:
448,192,81122,1,0,0:0:0:0:
192,192,81190,1,0,0:0:0:0:
320,192,81258,1,0,0:0:0:0:
448,192,81258,1,0,0:0:0:0:
64,192,81327,1,0,0:0:0:0:
192,192,81395,1,0,0:0:0:0:
320,192,81395,1,0,0:0:0:0:
448,192,81463,1,0,0:0:0:0:
192,192,81531,1,0,0:0:0:0:
64,192,81531,1,0,0:0:0:0:
320,192,81599,1,0,0:0:0:0:
64,192,81667,1,0,0:0:0:0:
448,192,81667,1,0,0:0:0:0:
320,192,81736,1,0,0:0:0:0:
64,192,81804,1,0,0:0:0:0:
192,192,81804,1,0,0:0:0:0:
448,192,81872,1,0,0:0:0:0:
192,192,81940,1,0,0:0:0:0:
320,192,81940,1,0,0:0:0:0:
64,192,82008,1,0,0:0:0:0:
448,192,82077,1,0,0:0:0:0:
320,192,82077,1,0,0:0:0:0:
192,192,82145,1,0,0:0:0:0:
448,192,82213,1,0,0:0:0:0:
64,192,82213,1,0,0:0:0:0:
320,192,82281,1,0,0:0:0:0:
64,192,82349,1,0,0:0:0:0:
192,192,82349,1,0,0:0:0:0:
448,192,82417,1,0,0:0:0:0:
320,192,82486,1,0,0:0:0:0:
192,192,82486,1,0,0:0:0:0:
64,192,82554,1,0,0:0:0:0:
448,192,82622,1,0,0:0:0:0:
320,192,82622,1,0,0:0:0:0:
192,192,82690,1,0,0:0:0:0:
64,192,82758,1,0,0:0:0:0:
448,192,82758,1,0,0:0:0:0:
320,192,82827,1,0,0:0:0:0:
192,192,82895,1,0,0:0:0:0:
64,192,82895,1,0,0:0:0:0:
320,192,82963,1,0,0:0:0:0:
448,192,82963,1,0,0:0:0:0:
192,192,83031,1,0,0:0:0:0:
64,192,83099,1,0,0:0:0:0:
320,192,83167,1,0,0:0:0:0:
192,192,83236,1,0,0:0:0:0:
320,192,83304,1,0,0:0:0:0:
448,192,83372,1,0,0:0:0:0:
192,192,83440,1,0,0:0:0:0:
64,192,83440,1,0,0:0:0:0:
320,192,83508,1,0,0:0:0:0:
448,192,83508,1,0,0:0:0:0:
192,192,83577,1,0,0:0:0:0:
64,192,83577,1,0,0:0:0:0:
320,192,83645,1,0,0:0:0:0:
448,192,83645,1,0,0:0:0:0:
64,192,83713,1,0,0:0:0:0:
320,192,83781,1,0,0:0:0:0:
192,192,83849,1,0,0:0:0:0:
320,192,83917,1,0,0:0:0:0:
64,192,83986,1,0,0:0:0:0:
192,192,83986,1,0,0:0:0:0:
448,192,83986,1,0,0:0:0:0:
320,192,84054,1,0,0:0:0:0:
448,192,84122,1,0,0:0:0:0:
64,192,84122,1,0,0:0:0:0:
192,192,84190,1,0,0:0:0:0:
448,192,84258,1,0,0:0:0:0:
320,192,84258,1,0,0:0:0:0:
192,192,84327,1,0,0:0:0:0:
64,192,84395,1,0,0:0:0:0:
448,192,84395,1,0,0:0:0:0:
320,192,84463,1,0,0:0:0:0:
192,192,84531,1,0,0:0:0:0:
64,192,84531,1,0,0:0:0:0:
448,192,84599,1,0,0:0:0:0:
320,192,84667,1,0,0:0:0:0:
192,192,84667,1,0,0:0:0:0:
64,192,84736,1,0,0:0:0:0:
320,192,84804,1,0,0:0:0:0:
448,192,84804,1,0,0:0:0:0:
64,192,84872,1,0,0:0:0:0:
192,192,84940,1,0,0:0:0:0:
320,192,84940,1,0,0:0:0:0:
448,192,85008,1,0,0:0:0:0:
64,192,85077,1,0,0:0:0:0:
192,192,85077,1,0,0:0:0:0:
448,192,85145,1,0,0:0:0:0:
320,192,85213,1,0,0:0:0:0:
64,192,85213,1,0,0:0:0:0:
192,192,85281,1,0,0:0:0:0:
320,192,85349,1,0,0:0:0:0:
448,192,85349,1,0,0:0:0:0:
64,192,85417,1,0,0:0:0:0:
192,192,85486,1,0,0:0:0:0:
448,192,85486,1,0,0:0:0:0:
320,192,85554,1,0,0:0:0:0:
192,192,85622,1,0,0:0:0:0:
64,192,85622,1,0,0:0:0:0:
320,192,85690,1,0,0:0:0:0:
448,192,85758,1,0,0:0:0:0:
64,192,85758,1,0,0:0:0:0:
192,192,85827,1,0,0:0:0:0:
320,192,85895,1,0,0:0:0:0:
448,192,85895,1,0,0:0:0:0:
64,192,85963,1,0,0:0:0:0:
192,192,86031,1,0,0:0:0:0:
320,192,86031,1,0,0:0:0:0:
64,192,86099,1,0,0:0:0:0:
192,192,86167,1,0,0:0:0:0:
448,192,86167,1,0,0:0:0:0:
320,192,86236,1,0,0:0:0:0:
64,192,86304,1,0,0:0:0:0:
192,192,86304,1,0,0:0:0:0:
448,192,86372,1,0,0:0:0:0:
320,192,86440,1,0,0:0:0:0:
64,192,86440,1,0,0:0:0:0:
192,192,86508,1,0,0:0:0:0:
64,192,86577,1,0,0:0:0:0:
448,192,86577,1,0,0:0:0:0:
320,192,86645,1,0,0:0:0:0:
192,192,86713,1,0,0:0:0:0:
448,192,86713,1,0,0:0:0:0:
64,192,86781,1,0,0:0:0:0:
320,192,86849,1,0,0:0:0:0:
448,192,86849,1,0,0:0:0:0:
192,192,86917,1,0,0:0:0:0:
64,192,86986,1,0,0:0:0:0:
320,192,86986,1,0,0:0:0:0:
448,192,87054,1,0,0:0:0:0:
64,192,87122,1,0,0:0:0:0:
192,192,87122,1,0,0:0:0:0:
320,192,87190,1,0,0:0:0:0:
448,192,87258,1,0,0:0:0:0:
64,192,87258,1,0,0:0:0:0:
192,192,87327,1,0,0:0:0:0:
320,192,87395,1,0,0:0:0:0:
448,192,87395,1,0,0:0:0:0:
64,192,87463,1,0,0:0:0:0:
192,192,87531,1,0,0:0:0:0:
448,192,87531,1,0,0:0:0:0:
320,192,87599,1,0,0:0:0:0:
64,192,87667,1,0,0:0:0:0:
192,192,87667,1,0,0:0:0:0:
448,192,87736,1,0,0:0:0:0:
320,192,87804,1,0,0:0:0:0:
192,192,87804,1,0,0:0:0:0:
64,192,87872,1,0,0:0:0:0:
320,192,87940,1,0,0:0:0:0:
448,192,87940,1,0,0:0:0:0:
192,192,88008,1,0,0:0:0:0:
64,192,88077,1,0,0:0:0:0:
448,192,88077,1,0,0:0:0:0:
320,192,88145,1,0,0:0:0:0:
192,192,88213,1,0,0:0:0:0:
64,192,88281,1,0,0:0:0:0:
320,192,88349,1,0,0:0:0:0:
192,192,88349,1,0,0:0:0:0:
448,192,88349,1,0,0:0:0:0:
64,192,88417,1,0,0:0:0:0:
192,192,88486,1,0,0:0:0:0:
320,192,88486,1,0,0:0:0:0:
448,192,88554,1,0,0:0:0:0:
64,192,88622,1,0,0:0:0:0:
320,192,88622,1,0,0:0:0:0:
192,192,88690,1,0,0:0:0:0:
448,192,88758,1,0,0:0:0:0:
64,192,88758,1,0,0:0:0:0:
320,192,88827,1,0,0:0:0:0:
192,192,88895,1,0,0:0:0:0:
64,192,88895,1,0,0:0:0:0:
448,192,88963,1,0,0:0:0:0:
192,192,89031,1,0,0:0:0:0:
320,192,89031,1,0,0:0:0:0:
448,192,89099,1,0,0:0:0:0:
320,192,89167,1,0,0:0:0:0:
64,192,89167,1,0,0:0:0:0:
192,192,89236,1,0,0:0:0:0:
320,192,89304,1,0,0:0:0:0:
448,192,89304,1,0,0:0:0:0:
192,192,89372,5,0,0:0:0:0:
64,192,89440,1,0,0:0:0:0:
448,192,89440,1,0,0:0:0:0:
320,192,89508,1,0,0:0:0:0:
192,192,89577,1,0,0:0:0:0:
64,192,89577,1,0,0:0:0:0:
448,192,89645,1,0,0:0:0:0:
320,192,89713,1,0,0:0:0:0:
64,192,89713,1,0,0:0:0:0:
192,192,89781,1,0,0:0:0:0:
320,192,89849,1,0,0:0:0:0:
448,192,89849,1,0,0:0:0:0:
192,192,89917,1,0,0:0:0:0:
64,192,89986,1,0,0:0:0:0:
448,192,89986,1,0,0:0:0:0:
320,192,90054,1,0,0:0:0:0:
192,192,90122,1,0,0:0:0:0:
64,192,90122,1,0,0:0:0:0:
448,192,90190,1,0,0:0:0:0:
64,192,90258,1,0,0:0:0:0:
320,192,90258,1,0,0:0:0:0:
192,192,90327,1,0,0:0:0:0:
320,192,90395,1,0,0:0:0:0:
448,192,90395,1,0,0:0:0:0:
192,192,90463,1,0,0:0:0:0:
64,192,90531,5,0,0:0:0:0:
448,192,90531,1,0,0:0:0:0:
320,192,90599,1,0,0:0:0:0:
192,192,90667,1,0,0:0:0:0:
64,192,90736,1,0,0:0:0:0:
448,192,90804,1,0,0:0:0:0:
320,192,90872,1,0,0:0:0:0:
192,192,90940,1,0,0:0:0:0:
64,192,90940,1,0,0:0:0:0:
320,192,91008,1,0,0:0:0:0:
448,192,91077,1,0,0:0:0:0:
64,192,91145,1,0,0:0:0:0:
192,192,91213,1,0,0:0:0:0:
448,192,91213,1,0,0:0:0:0:
320,192,91281,1,0,0:0:0:0:
448,192,91349,1,0,0:0:0:0:
320,192,91417,1,0,0:0:0:0:
192,192,91486,1,0,0:0:0:0:
64,192,91486,1,0,0:0:0:0:
320,192,91554,1,0,0:0:0:0:
64,192,91622,128,0,91895:0:0:0:0:
192,192,91622,1,0,0:0:0:0:
448,192,91622,1,0,0:0:0:0:
320,192,91895,128,0,92167:0:0:0:0:
448,192,91895,1,0,0:0:0:0:
448,192,92167,128,0,92440:0:0:0:0:
64,192,92167,1,0,0:0:0:0:
192,192,92440,128,0,92713:0:0:0:0:
320,192,92440,1,0,0:0:0:0:
448,192,92713,1,0,0:0:0:0:
192,192,92849,1,0,0:0:0:0:
320,192,92849,1,0,0:0:0:0:
64,192,92849,1,0,0:0:0:0:
64,192,92986,1,0,0:0:0:0:
320,192,93122,1,0,0:0:0:0:
448,192,93122,1,0,0:0:0:0:
192,192,93122,1,0,0:0:0:0:
192,192,93258,1,0,0:0:0:0:
64,192,93395,1,0,0:0:0:0:
320,192,93395,1,0,0:0:0:0:
448,192,93395,1,0,0:0:0:0:
448,192,93531,1,0,0:0:0:0:
64,192,93667,1,0,0:0:0:0:
192,192,93667,1,0,0:0:0:0:
320,192,93667,1,0,0:0:0:0:
320,192,93804,1,0,0:0:0:0:
192,192,93940,1,0,0:0:0:0:
448,192,93940,1,0,0:0:0:0:
64,192,93940,1,0,0:0:0:0:
64,192,94077,1,0,0:0:0:0:
320,192,94213,1,0,0:0:0:0:
448,192,94213,1,0,0:0:0:0:
192,192,94213,1,0,0:0:0:0:
192,192,94349,1,0,0:0:0:0:
64,192,94486,1,0,0:0:0:0:
448,192,94486,1,0,0:0:0:0:
320,192,94486,1,0,0:0:0:0:
448,192,94622,1,0,0:0:0:0:
192,192,94758,1,0,0:0:0:0:
64,192,94758,1,0,0:0:0:0:
320,192,94758,1,0,0:0:0:0:
192,192,94895,1,0,0:0:0:0:
320,192,95031,1,0,0:0:0:0:
64,192,95031,1,0,0:0:0:0:
448,192,95031,1,0,0:0:0:0:
64,192,95167,128,0,95440:0:0:0:0:
320,192,95304,1,0,0:0:0:0:
448,192,95304,1,0,0:0:0:0:
192,192,95304,1,0,0:0:0:0:
192,192,95440,128,0,95713:0:0:0:0:
64,192,95577,1,0,0:0:0:0:
320,192,95577,1,0,0:0:0:0:
448,192,95577,1,0,0:0:0:0:
448,192,95713,128,0,95986:0:0:0:0:
64,192,95849,1,0,0:0:0:0:
192,192,95849,1,0,0:0:0:0:
320,192,95849,1,0,0:0:0:0:
320,192,95986,128,0,96258:0:0:0:0:
448,192,96122,1,0,0:0:0:0:
64,192,96122,1,0,0:0:0:0:
192,192,96122,1,0,0:0:0:0:
192,192,96258,128,0,96531:0:0:0:0:
320,192,96395,1,0,0:0:0:0:
448,192,96395,1,0,0:0:0:0:
64,192,96395,1,0,0:0:0:0:
64,192,96531,128,0,96804:0:0:0:0:
192,192,96667,1,0,0:0:0:0:
448,192,96667,1,0,0:0:0:0:
320,192,96667,1,0,0:0:0:0:
320,192,96804,128,0,97077:0:0:0:0:
192,192,96940,1,0,0:0:0:0:
64,192,96940,1,0,0:0:0:0:
448,192,96940,1,0,0:0:0:0:
192,192,97077,1,0,0:0:0:0:
448,192,97213,1,0,0:0:0:0:
64,192,97213,1,0,0:0:0:0:
320,192,97213,1,0,0:0:0:0:
64,192,97349,1,0,0:0:0:0:
320,192,97486,1,0,0:0:0:0:
448,192,97486,1,0,0:0:0:0:
192,192,97486,1,0,0:0:0:0:
192,192,97622,1,0,0:0:0:0:
64,192,97758,1,0,0:0:0:0:
448,192,97758,1,0,0:0:0:0:
320,192,97758,1,0,0:0:0:0:
320,192,97895,1,0,0:0:0:0:
64,192,98031,1,0,0:0:0:0:
192,192,98031,1,0,0:0:0:0:
448,192,98031,1,0,0:0:0:0:
448,192,98167,1,0,0:0:0:0:
320,192,98304,1,0,0:0:0:0:
64,192,98304,1,0,0:0:0:0:
192,192,98304,1,0,0:0:0:0:
192,192,98440,1,0,0:0:0:0:
320,192,98577,1,0,0:0:0:0:
448,192,98577,1,0,0:0:0:0:
64,192,98577,1,0,0:0:0:0:
192,192,98713,1,0,0:0:0:0:
64,192,98849,1,0,0:0:0:0:
448,192,98849,1,0,0:0:0:0:
320,192,98849,1,0,0:0:0:0:
448,192,98986,1,0,0:0:0:0:
64,192,99122,1,0,0:0:0:0:
320,192,99122,1,0,0:0:0:0:
192,192,99122,1,0,0:0:0:0:
192,192,99258,1,0,0:0:0:0:
320,192,99395,1,0,0:0:0:0:
448,192,99395,1,0,0:0:0:0:
192,192,99395,1,0,0:0:0:0:
64,192,99531,1,0,0:0:0:0:
192,192,99667,1,0,0:0:0:0:
320,192,99667,1,0,0:0:0:0:
64,192,99667,1,0,0:0:0:0:
448,192,99804,1,0,0:0:0:0:
64,192,99940,1,0,0:0:0:0:
192,192,99940,1,0,0:0:0:0:
320,192,99940,1,0,0:0:0:0:
320,192,100077,1,0,0:0:0:0:
448,192,100213,1,0,0:0:0:0:
64,192,100213,1,0,0:0:0:0:
192,192,100213,1,0,0:0:0:0:
192,192,100349,1,0,0:0:0:0:
448,192,100486,1,0,0:0:0:0:
320,192,100486,1,0,0:0:0:0:
64,192,100486,1,0,0:0:0:0:
192,192,100622,1,0,0:0:0:0:
320,192,100758,1,0,0:0:0:0:
448,192,100758,1,0,0:0:0:0:
192,192,100758,1,0,0:0:0:0:
64,192,100895,1,0,0:0:0:0:
192,192,100963,1,0,0:0:0:0:
320,192,101031,1,0,0:0:0:0:
448,192,101099,1,0,0:0:0:0:
192,192,101167,1,0,0:0:0:0:
64,192,101167,1,0,0:0:0:0:
320,192,101304,1,0,0:0:0:0:
192,192,101440,1,0,0:0:0:0:
64,192,101440,1,0,0:0:0:0:
448,192,101440,1,0,0:0:0:0:
320,192,101577,1,0,0:0:0:0:
64,192,101577,1,0,0:0:0:0:
448,192,101713,1,0,0:0:0:0:
192,192,101849,1,0,0:0:0:0:
64,192,101849,1,0,0:0:0:0:
448,192,101849,1,0,0:0:0:0:
320,192,101986,1,0,0:0:0:0:
448,192,102122,1,0,0:0:0:0:
192,192,102122,1,0,0:0:0:0:
320,192,102122,1,0,0:0:0:0:
64,192,102258,1,0,0:0:0:0:
320,192,102395,1,0,0:0:0:0:
448,192,102395,1,0,0:0:0:0:
64,192,102395,1,0,0:0:0:0:
192,192,102531,1,0,0:0:0:0:
64,192,102667,1,0,0:0:0:0:
320,192,102667,1,0,0:0:0:0:
448,192,102667,1,0,0:0:0:0:
320,192,102804,1,0,0:0:0:0:
192,192,102940,1,0,0:0:0:0:
64,192,102940,1,0,0:0:0:0:
448,192,102940,1,0,0:0:0:0:
320,192,103077,1,0,0:0:0:0:
448,192,103213,1,0,0:0:0:0:
192,192,103213,1,0,0:0:0:0:
320,192,103213,1,0,0:0:0:0:
64,192,103349,1,0,0:0:0:0:
320,192,103486,1,0,0:0:0:0:
448,192,103486,1,0,0:0:0:0:
64,192,103486,1,0,0:0:0:0:
192,192,103622,1,0,0:0:0:0:
64,192,103758,1,0,0:0:0:0:
448,192,103758,1,0,0:0:0:0:
192,192,103758,1,0,0:0:0:0:
320,192,103895,1,0,0:0:0:0:
192,192,104031,1,0,0:0:0:0:
448,192,104031,1,0,0:0:0:0:
320,192,104031,1,0,0:0:0:0:
64,192,104167,1,0,0:0:0:0:
320,192,104304,1,0,0:0:0:0:
192,192,104304,1,0,0:0:0:0:
64,192,104304,1,0,0:0:0:0:
448,192,104440,1,0,0:0:0:0:
64,192,104577,1,0,0:0:0:0:
320,192,104577,1,0,0:0:0:0:
448,192,104577,1,0,0:0:0:0:
192,192,104713,1,0,0:0:0:0:
320,192,104849,1,0,0:0:0:0:
448,192,104849,1,0,0:0:0:0:
192,192,104849,1,0,0:0:0:0:
64,192,104986,1,0,0:0:0:0:
192,192,105122,1,0,0:0:0:0:
448,192,105122,1,0,0:0:0:0:
64,192,105122,1,0,0:0:0:0:
320,192,105258,1,0,0:0:0:0:
192,192,105395,1,0,0:0:0:0:
64,192,105395,1,0,0:0:0:0:
320,192,105395,1,0,0:0:0:0:
64,192,105531,1,0,0:0:0:0:
320,192,105667,1,0,0:0:0:0:
192,192,105667,1,0,0:0:0:0:
448,192,105667,1,0,0:0:0:0:
320,192,105804,1,0,0:0:0:0:
192,192,105804,1,0,0:0:0:0:
448,192,105940,1,0,0:0:0:0:
320,192,105940,1,0,0:0:0:0:
64,192,105940,1,0,0:0:0:0:
192,192,106077,1,0,0:0:0:0:
64,192,106213,1,0,0:0:0:0:
320,192,106213,1,0,0:0:0:0:
192,192,106213,1,0,0:0:0:0:
448,192,106349,1,0,0:0:0:0:
320,192,106486,1,0,0:0:0:0:
192,192,106486,1,0,0:0:0:0:
448,192,106486,1,0,0:0:0:0:
64,192,106622,1,0,0:0:0:0:
192,192,106758,1,0,0:0:0:0:
448,192,106758,1,0,0:0:0:0:
64,192,106758,1,0,0:0:0:0:
320,192,106895,1,0,0:0:0:0:
192,192,107031,1,0,0:0:0:0:
448,192,107031,1,0,0:0:0:0:
320,192,107031,1,0,0:0:0:0:
64,192,107167,1,0,0:0:0:0:
320,192,107304,1,0,0:0:0:0:
448,192,107304,1,0,0:0:0:0:
64,192,107304,1,0,0:0:0:0:
192,192,107440,1,0,0:0:0:0:
64,192,107577,1,0,0:0:0:0:
320,192,107577,1,0,0:0:0:0:
192,192,107577,1,0,0:0:0:0:
448,192,107713,1,0,0:0:0:0:
320,192,107849,1,0,0:0:0:0:
64,192,107849,1,0,0:0:0:0:
448,192,107849,1,0,0:0:0:0:
192,192,107986,1,0,0:0:0:0:
320,192,108122,1,0,0:0:0:0:
192,192,108190,5,0,0:0:0:0:
64,192,108258,1,0,0:0:0:0:
192,192,108327,1,0,0:0:0:0:
448,192,108395,1,0,0:0:0:0:
320,192,108463,1,0,0:0:0:0:
192,192,108531,1,0,0:0:0:0:
320,192,108599,1,0,0:0:0:0:
448,192,108667,1,0,0:0:0:0:
64,192,108667,1,0,0:0:0:0:
320,192,108736,1,0,0:0:0:0:
192,192,108804,1,0,0:0:0:0:
64,192,108872,1,0,0:0:0:0:
448,192,108940,1,0,0:0:0:0:
320,192,109008,1,0,0:0:0:0:
64,192,109077,1,0,0:0:0:0:
192,192,109077,1,0,0:0:0:0:
448,192,109077,128,0,109554:0:0:0:0:
320,192,109554,128,0,109895:0:0:0:0:
192,192,109895,128,0,110167:0:0:0:0:
64,192,110167,1,0,0:0:0:0:
448,192,110167,1,0,0:0:0:0:
320,192,110236,1,0,0:0:0:0:
192,192,110236,1,0,0:0:0:0:
64,192,110304,1,0,0:0:0:0:
320,192,110372,1,0,0:0:0:0:
448,192,110372,1,0,0:0:0:0:
192,192,110440,1,0,0:0:0:0:
448,192,110508,1,0,0:0:0:0:
64,192,110508,1,0,0:0:0:0:
320,192,110577,1,0,0:0:0:0:
64,192,110645,1,0,0:0:0:0:
192,192,110645,1,0,0:0:0:0:
320,192,110713,1,0,0:0:0:0:
448,192,110713,1,0,0:0:0:0:
64,192,110781,1,0,0:0:0:0:
192,192,110781,1,0,0:0:0:0:
448,192,110849,1,0,0:0:0:0:
192,192,110917,1,0,0:0:0:0:
320,192,110917,1,0,0:0:0:0:
64,192,110986,1,0,0:0:0:0:
320,192,111054,1,0,0:0:0:0:
448,192,111054,1,0,0:0:0:0:
64,192,111122,1,0,0:0:0:0:
448,192,111190,1,0,0:0:0:0:
192,192,111190,1,0,0:0:0:0:
320,192,111258,1,0,0:0:0:0:
64,192,111327,1,0,0:0:0:0:
192,192,111327,1,0,0:0:0:0:
448,192,111395,1,0,0:0:0:0:
64,192,111463,1,0,0:0:0:0:
192,192,111463,1,0,0:0:0:0:
320,192,111531,1,0,0:0:0:0:
448,192,111599,1,0,0:0:0:0:
64,192,111599,1,0,0:0:0:0:
192,192,111667,1,0,0:0:0:0:
320,192,111736,1,0,0:0:0:0:
448,192,111736,1,0,0:0:0:0:
64,192,111804,1,0,0:0:0:0:
192,192,111872,1,0,0:0:0:0:
320,192,111872,1,0,0:0:0:0:
448,192,111940,1,0,0:0:0:0:
64,192,112008,1,0,0:0:0:0:
192,192,112008,1,0,0:0:0:0:
448,192,112077,1,0,0:0:0:0:
320,192,112145,1,0,0:0:0:0:
64,192,112145,1,0,0:0:0:0:
192,192,112213,1,0,0:0:0:0:
448,192,112281,1,0,0:0:0:0:
320,192,112281,1,0,0:0:0:0:
64,192,112349,1,0,0:0:0:0:
192,192,112417,1,0,0:0:0:0:
448,192,112417,1,0,0:0:0:0:
320,192,112486,1,0,0:0:0:0:
64,192,112554,1,0,0:0:0:0:
448,192,112554,1,0,0:0:0:0:
320,192,112622,1,0,0:0:0:0:
192,192,112690,1,0,0:0:0:0:
64,192,112690,1,0,0:0:0:0:
448,192,112758,1,0,0:0:0:0:
320,192,112827,1,0,0:0:0:0:
192,192,112827,1,0,0:0:0:0:
64,192,112895,1,0,0:0:0:0:
448,192,112963,1,0,0:0:0:0:
320,192,112963,1,0,0:0:0:0:
192,192,113031,1,0,0:0:0:0:
64,192,113099,1,0,0:0:0:0:
448,192,113099,1,0,0:0:0:0:
320,192,113167,1,0,0:0:0:0:
192,192,113236,1,0,0:0:0:0:
64,192,113236,1,0,0:0:0:0:
320,192,113304,1,0,0:0:0:0:
448,192,113372,1,0,0:0:0:0:
192,192,113372,1,0,0:0:0:0:
64,192,113440,1,0,0:0:0:0:
320,192,113508,1,0,0:0:0:0:
448,192,113508,1,0,0:0:0:0:
192,192,113577,1,0,0:0:0:0:
64,192,113645,1,0,0:0:0:0:
320,192,113645,1,0,0:0:0:0:
448,192,113713,1,0,0:0:0:0:
64,192,113781,1,0,0:0:0:0:
192,192,113781,1,0,0:0:0:0:
320,192,113849,1,0,0:0:0:0:
448,192,113917,1,0,0:0:0:0:
64,192,113917,1,0,0:0:0:0:
192,192,113986,1,0,0:0:0:0:
320,192,114054,1,0,0:0:0:0:
448,192,114054,1,0,0:0:0:0:
64,192,114122,1,0,0:0:0:0:
192,192,114190,1,0,0:0:0:0:
320,192,114190,1,0,0:0:0:0:
448,192,114258,1,0,0:0:0:0:
64,192,114327,1,0,0:0:0:0:
192,192,114327,1,0,0:0:0:0:
320,192,114395,1,0,0:0:0:0:
64,192,114463,1,0,0:0:0:0:
192,192,114531,1,0,0:0:0:0:
448,192,114531,1,0,0:0:0:0:
320,192,114599,1,0,0:0:0:0:
448,192,114667,1,0,0:0:0:0:
192,192,114736,1,0,0:0:0:0:
64,192,114804,1,0,0:0:0:0:
320,192,114872,1,0,0:0:0:0:
64,192,114940,1,0,0:0:0:0:
192,192,114940,1,0,0:0:0:0:
320,192,115008,1,0,0:0:0:0:
448,192,115008,1,0,0:0:0:0:
192,192,115077,128,0,115213:0:0:0:0:
64,192,115077,128,0,115213:0:0:0:0:
320,192,115213,1,0,0:0:0:0:
448,192,115213,1,0,0:0:0:0:
64,192,115349,1,0,0:0:0:0:
192,192,115417,1,0,0:0:0:0:
320,192,115486,1,0,0:0:0:0:
448,192,115554,1,0,0:0:0:0:
192,192,115622,1,0,0:0:0:0:
64,192,115622,1,0,0:0:0:0:
320,192,115690,1,0,0:0:0:0:
448,192,115690,1,0,0:0:0:0:
192,192,115758,1,0,0:0:0:0:
64,192,115827,1,0,0:0:0:0:
448,192,115895,1,0,0:0:0:0:
320,192,115963,1,0,0:0:0:0:
192,192,116031,1,0,0:0:0:0:
320,192,116099,1,0,0:0:0:0:
448,192,116167,1,0,0:0:0:0:
64,192,116236,1,0,0:0:0:0:
192,192,116304,1,0,0:0:0:0:
320,192,116372,1,0,0:0:0:0:
448,192,116440,1,0,0:0:0:0:
192,192,116508,1,0,0:0:0:0:
64,192,116577,1,0,0:0:0:0:
320,192,116577,1,0,0:0:0:0:
448,192,116645,1,0,0:0:0:0:
64,192,116713,1,0,0:0:0:0:
320,192,116781,1,0,0:0:0:0:
192,192,116849,1,0,0:0:0:0:
64,192,116917,1,0,0:0:0:0:
320,192,116986,1,0,0:0:0:0:
448,192,116986,128,0,117190:0:0:0:0:
64,192,117190,1,0,0:0:0:0:
192,192,117258,1,0,0:0:0:0:
320,192,117395,1,0,0:0:0:0:
64,192,117531,1,0,0:0:0:0:
192,192,117531,1,0,0:0:0:0:
448,192,117531,1,0,0:0:0:0:
192,192,117667,1,0,0:0:0:0:
320,192,117667,1,0,0:0:0:0:
448,192,117667,128,0,117940:0:0:0:0:
64,192,117804,1,0,0:0:0:0:
192,192,117872,1,0,0:0:0:0:
320,192,117940,1,0,0:0:0:0:
448,192,118077,1,0,0:0:0:0:
320,192,118145,1,0,0:0:0:0:
64,192,118213,1,0,0:0:0:0:
192,192,118281,1,0,0:0:0:0:
320,192,118349,1,0,0:0:0:0:
192,192,118417,1,0,0:0:0:0:
320,192,118486,1,0,0:0:0:0:
448,192,118554,1,0,0:0:0:0:
64,192,118622,128,0,118895:0:0:0:0:
192,192,118622,1,0,0:0:0:0:
448,192,118895,128,0,119031:0:0:0:0:
192,192,118895,1,0,0:0:0:0:
320,192,118895,1,0,0:0:0:0:
192,192,119031,128,0,119304:0:0:0:0:
320,192,119031,1,0,0:0:0:0:
64,192,119031,1,0,0:0:0:0:
64,192,119304,128,0,119577:0:0:0:0:
320,192,119577,128,0,119713:0:0:0:0:
448,192,119713,128,0,119849:0:0:0:0:
64,192,119849,128,0,120258:0:0:0:0:
320,192,120258,128,0,120531:0:0:0:0:
448,192,120531,1,0,0:0:0:0:
320,192,120599,1,0,0:0:0:0:
192,192,120667,1,0,0:0:0:0:
64,192,120804,1,0,0:0:0:0:
320,192,120804,1,0,0:0:0:0:
448,192,120804,1,0,0:0:0:0:
320,192,121077,1,0,0:0:0:0:
448,192,121077,1,0,0:0:0:0:
64,192,121077,1,0,0:0:0:0:
448,192,121213,1,0,0:0:0:0:
64,192,121213,1,0,0:0:0:0:
192,192,121213,128,0,121486:0:0:0:0:
320,192,121213,1,0,0:0:0:0:
64,192,121486,128,0,121622:0:0:0:0:
320,192,121758,128,0,121895:0:0:0:0:
448,192,121895,128,0,122031:0:0:0:0:
64,192,122031,128,0,122304:0:0:0:0:
192,192,122440,128,0,122645:0:0:0:0:
448,192,122713,128,0,122781:0:0:0:0:
320,192,122781,128,0,122849:0:0:0:0:
64,192,122849,128,0,122986:0:0:0:0:
448,192,122986,128,0,123122:0:0:0:0:
320,192,123122,128,0,123258:0:0:0:0:
64,192,123258,128,0,123395:0:0:0:0:
192,192,123258,1,0,0:0:0:0:
448,192,123258,1,0,0:0:0:0:
320,192,123395,128,0,123531:0:0:0:0:
448,192,123395,1,0,0:0:0:0:
192,192,123395,1,0,0:0:0:0:
64,192,123667,128,0,123804:0:0:0:0:
192,192,123940,128,0,124077:0:0:0:0:
320,192,124077,128,0,124213:0:0:0:0:
448,192,124213,128,0,124486:0:0:0:0:
320,192,124486,1,0,0:0:0:0:
192,192,124554,1,0,0:0:0:0:
64,192,124622,128,0,124758:0:0:0:0:
448,192,124895,1,0,0:0:0:0:
320,192,124963,1,0,0:0:0:0:
192,192,125031,128,0,125167:0:0:0:0:
64,192,125167,1,0,0:0:0:0:
64,192,125440,1,0,0:0:0:0:
192,192,125440,1,0,0:0:0:0:
320,192,125577,1,0,0:0:0:0:
448,192,125577,1,0,0:0:0:0:
192,192,125645,1,0,0:0:0:0:
64,192,125645,1,0,0:0:0:0:
320,192,125713,1,0,0:0:0:0:
448,192,125713,128,0,125986:0:0:0:0:
320,192,125986,1,0,0:0:0:0:
192,192,125986,128,0,126258:0:0:0:0:
64,192,126258,1,0,0:0:0:0:
192,192,126395,1,0,0:0:0:0:
448,192,126531,1,0,0:0:0:0:
64,192,126531,1,0,0:0:0:0:
320,192,126531,128,0,126804:0:0:0:0:
192,192,126531,1,0,0:0:0:0:
64,192,126804,1,0,0:0:0:0:
192,192,126804,128,0,127077:0:0:0:0:
448,192,126804,1,0,0:0:0:0:
448,192,127077,128,0,127281:0:0:0:0:
64,192,127077,128,0,127281:0:0:0:0:
320,192,127077,1,0,0:0:0:0:
192,192,127622,1,0,0:0:0:0:
448,192,127622,1,0,0:0:0:0:
320,192,127622,1,0,0:0:0:0:
320,192,127758,1,0,0:0:0:0:
448,192,127895,1,0,0:0:0:0:
64,192,127895,1,0,0:0:0:0:
192,192,127895,1,0,0:0:0:0:
320,192,128031,1,0,0:0:0:0:
64,192,128167,1,0,0:0:0:0:
192,192,128167,1,0,0:0:0:0:
448,192,128167,1,0,0:0:0:0:
64,192,128304,1,0,0:0:0:0:
192,192,128440,1,0,0:0:0:0:
448,192,128440,1,0,0:0:0:0:
320,192,128440,1,0,0:0:0:0:
192,192,128577,1,0,0:0:0:0:
448,192,128713,1,0,0:0:0:0:
320,192,128713,1,0,0:0:0:0:
64,192,128713,1,0,0:0:0:0:
448,192,128849,1,0,0:0:0:0:
320,192,128986,1,0,0:0:0:0:
64,192,128986,1,0,0:0:0:0:
192,192,128986,1,0,0:0:0:0:
320,192,129122,1,0,0:0:0:0:
64,192,129258,1,0,0:0:0:0:
192,192,129258,1,0,0:0:0:0:
448,192,129258,1,0,0:0:0:0:
64,192,129395,1,0,0:0:0:0:
192,192,129531,1,0,0:0:0:0:
448,192,129531,1,0,0:0:0:0:
320,192,129531,1,0,0:0:0:0:
192,192,129667,1,0,0:0:0:0:
320,192,129804,1,0,0:0:0:0:
448,192,129804,1,0,0:0:0:0:
64,192,129804,1,0,0:0:0:0:
320,192,129940,1,0,0:0:0:0:
64,192,130077,1,0,0:0:0:0:
448,192,130077,1,0,0:0:0:0:
192,192,130077,1,0,0:0:0:0:
64,192,130213,1,0,0:0:0:0:
448,192,130349,1,0,0:0:0:0:
192,192,130349,1,0,0:0:0:0:
320,192,130349,1,0,0:0:0:0:
448,192,130486,1,0,0:0:0:0:
192,192,130622,1,0,0:0:0:0:
320,192,130622,1,0,0:0:0:0:
64,192,130622,1,0,0:0:0:0:
192,192,130758,1,0,0:0:0:0:
64,192,130895,1,0,0:0:0:0:
448,192,130895,1,0,0:0:0:0:
320,192,130895,1,0,0:0:0:0:
64,192,131031,1,0,0:0:0:0:
320,192,131167,1,0,0:0:0:0:
448,192,131167,1,0,0:0:0:0:
192,192,131167,1,0,0:0:0:0:
320,192,131304,1,0,0:0:0:0:
448,192,131440,1,0,0:0:0:0:
64,192,131440,1,0,0:0:0:0:
192,192,131440,1,0,0:0:0:0:
448,192,131577,1,0,0:0:0:0:
64,192,131713,1,0,0:0:0:0:
192,192,131713,1,0,0:0:0:0:
320,192,131713,1,0,0:0:0:0:
64,192,131849,1,0,0:0:0:0:
448,192,131986,128,0,132258:0:0:0:0:
320,192,131986,128,0,132258:0:0:0:0:
192,192,131986,1,0,0:0:0:0:
192,192,132258,1,0,0:0:0:0:
64,192,132258,1,0,0:0:0:0:
320,192,132395,1,0,0:0:0:0:
192,192,132667,1,0,0:0:0:0:
64,192,132804,1,0,0:0:0:0:
320,192,132804,1,0,0:0:0:0:
448,192,132804,1,0,0:0:0:0:
192,192,132940,1,0,0:0:0:0:
448,192,133213,1,0,0:0:0:0:
448,192,133349,1,0,0:0:0:0:
320,192,133349,1,0,0:0:0:0:
64,192,133349,1,0,0:0:0:0:
192,192,133622,1,0,0:0:0:0:
320,192,133758,1,0,0:0:0:0:
448,192,133895,1,0,0:0:0:0:
192,192,133895,1,0,0:0:0:0:
64,192,133895,1,0,0:0:0:0:
64,192,134167,1,0,0:0:0:0:
320,192,134167,1,0,0:0:0:0:
448,192,134167,1,0,0:0:0:0:
448,192,134440,1,0,0:0:0:0:
192,192,134440,1,0,0:0:0:0:
320,192,134440,1,0,0:0:0:0:
192,192,134577,1,0,0:0:0:0:
64,192,134577,1,0,0:0:0:0:
448,192,134577,1,0,0:0:0:0:
320,192,134849,1,0,0:0:0:0:
320,192,134986,1,0,0:0:0:0:
448,192,134986,1,0,0:0:0:0:
64,192,134986,1,0,0:0:0:0:
192,192,135122,1,0,0:0:0:0:
64,192,135122,1,0,0:0:0:0:
448,192,135122,1,0,0:0:0:0:
64,192,135395,1,0,0:0:0:0:
192,192,135463,1,0,0:0:0:0:
320,192,135531,1,0,0:0:0:0:
192,192,135599,1,0,0:0:0:0:
448,192,135667,1,0,0:0:0:0:
320,192,135736,1,0,0:0:0:0:
192,192,135804,1,0,0:0:0:0:
64,192,135872,1,0,0:0:0:0:
192,192,135940,1,0,0:0:0:0:
448,192,136008,1,0,0:0:0:0:
64,192,136077,1,0,0:0:0:0:
320,192,136077,1,0,0:0:0:0:
192,192,136213,1,0,0:0:0:0:
320,192,136349,1,0,0:0:0:0:
448,192,136349,1,0,0:0:0:0:
64,192,136349,1,0,0:0:0:0:
320,192,136486,1,0,0:0:0:0:
192,192,136622,1,0,0:0:0:0:
64,192,136622,1,0,0:0:0:0:
448,192,136622,1,0,0:0:0:0:
320,192,136758,1,0,0:0:0:0:
448,192,136895,1,0,0:0:0:0:
192,192,136895,1,0,0:0:0:0:
64,192,136895,1,0,0:0:0:0:
64,192,137031,1,0,0:0:0:0:
320,192,137167,1,0,0:0:0:0:
448,192,137167,1,0,0:0:0:0:
192,192,137167,1,0,0:0:0:0:
192,192,137304,1,0,0:0:0:0:
64,192,137440,1,0,0:0:0:0:
320,192,137440,1,0,0:0:0:0:
448,192,137440,1,0,0:0:0:0:
448,192,137577,1,0,0:0:0:0:
192,192,137713,1,0,0:0:0:0:
64,192,137713,1,0,0:0:0:0:
320,192,137713,1,0,0:0:0:0:
320,192,137849,1,0,0:0:0:0:
448,192,137986,1,0,0:0:0:0:
192,192,137986,1,0,0:0:0:0:
64,192,137986,1,0,0:0:0:0:
64,192,138122,1,0,0:0:0:0:
320,192,138258,1,0,0:0:0:0:
448,192,138258,1,0,0:0:0:0:
192,192,138258,1,0,0:0:0:0:
192,192,138395,1,0,0:0:0:0:
64,192,138531,1,0,0:0:0:0:
448,192,138531,1,0,0:0:0:0:
320,192,138531,1,0,0:0:0:0:
320,192,138667,1,0,0:0:0:0:
192,192,138804,1,0,0:0:0:0:
448,192,138804,1,0,0:0:0:0:
64,192,138804,1,0,0:0:0:0:
64,192,138940,1,0,0:0:0:0:
320,192,139077,1,0,0:0:0:0:
192,192,139077,1,0,0:0:0:0:
448,192,139077,1,0,0:0:0:0:
448,192,139213,1,0,0:0:0:0:
64,192,139349,1,0,0:0:0:0:
320,192,139349,1,0,0:0:0:0:
192,192,139349,1,0,0:0:0:0:
192,192,139486,1,0,0:0:0:0:
320,192,139622,1,0,0:0:0:0:
448,192,139622,1,0,0:0:0:0:
64,192,139622,1,0,0:0:0:0:
64,192,139758,1,0,0:0:0:0:
192,192,139895,1,0,0:0:0:0:
448,192,139895,1,0,0:0:0:0:
320,192,139895,1,0,0:0:0:0:
320,192,140031,1,0,0:0:0:0:
192,192,140167,1,0,0:0:0:0:
64,192,140167,1,0,0:0:0:0:
448,192,140167,1,0,0:0:0:0:
448,192,140304,1,0,0:0:0:0:
320,192,140440,1,0,0:0:0:0:
192,192,140440,1,0,0:0:0:0:
64,192,140440,1,0,0:0:0:0:
192,192,140577,1,0,0:0:0:0:
320,192,140713,1,0,0:0:0:0:
448,192,140713,1,0,0:0:0:0:
64,192,140713,1,0,0:0:0:0:
64,192,140986,1,0,0:0:0:0:
320,192,140986,1,0,0:0:0:0:
448,192,140986,1,0,0:0:0:0:
192,192,141122,1,0,0:0:0:0:
448,192,141395,1,0,0:0:0:0:
64,192,141531,1,0,0:0:0:0:
192,192,141531,1,0,0:0:0:0:
320,192,141531,1,0,0:0:0:0:
64,192,141667,1,0,0:0:0:0:
448,192,141940,1,0,0:0:0:0:
448,192,142077,1,0,0:0:0:0:
320,192,142077,1,0,0:0:0:0:
64,192,142077,1,0,0:0:0:0:
192,192,142349,1,0,0:0:0:0:
320,192,142486,1,0,0:0:0:0:
448,192,142622,1,0,0:0:0:0:
192,192,142622,1,0,0:0:0:0:
64,192,142622,1,0,0:0:0:0:
320,192,142895,1,0,0:0:0:0:
448,192,142895,1,0,0:0:0:0:
64,192,142895,128,0,143031:0:0:0:0:
192,192,143031,128,0,143167:0:0:0:0:
320,192,143167,1,0,0:0:0:0:
448,192,143167,128,0,143304:0:0:0:0:
64,192,143304,128,0,143577:0:0:0:0:
192,192,143304,1,0,0:0:0:0:
320,192,143304,1,0,0:0:0:0:
320,192,143577,128,0,143713:0:0:0:0:
192,192,143713,1,0,0:0:0:0:
448,192,143713,128,0,143849:0:0:0:0:
64,192,143849,1,0,0:0:0:0:
320,192,143849,128,0,144122:0:0:0:0:
64,192,144122,1,0,0:0:0:0:
192,192,144190,1,0,0:0:0:0:
320,192,144258,1,0,0:0:0:0:
192,192,144327,1,0,0:0:0:0:
448,192,144395,1,0,0:0:0:0:
320,192,144463,1,0,0:0:0:0:
192,192,144531,1,0,0:0:0:0:
64,192,144599,1,0,0:0:0:0:
192,192,144667,1,0,0:0:0:0:
448,192,144736,1,0,0:0:0:0:
320,192,144804,1,0,0:0:0:0:
64,192,144804,1,0,0:0:0:0:
192,192,144940,1,0,0:0:0:0:
448,192,145077,1,0,0:0:0:0:
320,192,145077,1,0,0:0:0:0:
64,192,145213,1,0,0:0:0:0:
192,192,145213,1,0,0:0:0:0:
448,192,145213,1,0,0:0:0:0:
320,192,145349,1,0,0:0:0:0:
192,192,145486,1,0,0:0:0:0:
320,192,145486,1,0,0:0:0:0:
448,192,145486,1,0,0:0:0:0:
64,192,145622,1,0,0:0:0:0:
320,192,145758,1,0,0:0:0:0:
448,192,145758,1,0,0:0:0:0:
64,192,145758,1,0,0:0:0:0:
192,192,145895,1,0,0:0:0:0:
64,192,146031,1,0,0:0:0:0:
320,192,146031,1,0,0:0:0:0:
448,192,146031,1,0,0:0:0:0:
448,192,146167,1,0,0:0:0:0:
64,192,146304,1,0,0:0:0:0:
192,192,146304,1,0,0:0:0:0:
320,192,146304,1,0,0:0:0:0:
320,192,146440,1,0,0:0:0:0:
192,192,146577,1,0,0:0:0:0:
448,192,146577,1,0,0:0:0:0:
64,192,146577,1,0,0:0:0:0:
64,192,146713,1,0,0:0:0:0:
320,192,146849,1,0,0:0:0:0:
448,192,146849,1,0,0:0:0:0:
192,192,146849,1,0,0:0:0:0:
192,192,146986,1,0,0:0:0:0:
64,192,147122,1,0,0:0:0:0:
448,192,147122,1,0,0:0:0:0:
320,192,147122,1,0,0:0:0:0:
320,192,147258,1,0,0:0:0:0:
192,192,147395,1,0,0:0:0:0:
64,192,147395,1,0,0:0:0:0:
448,192,147395,1,0,0:0:0:0:
448,192,147531,1,0,0:0:0:0:
320,192,147667,1,0,0:0:0:0:
64,192,147667,1,0,0:0:0:0:
192,192,147667,1,0,0:0:0:0:
192,192,147804,1,0,0:0:0:0:
320,192,147940,1,0,0:0:0:0:
448,192,147940,1,0,0:0:0:0:
64,192,147940,1,0,0:0:0:0:
192,192,148077,1,0,0:0:0:0:
64,192,148213,1,0,0:0:0:0:
320,192,148213,1,0,0:0:0:0:
192,192,148213,1,0,0:0:0:0:
448,192,148349,1,0,0:0:0:0:
64,192,148486,1,0,0:0:0:0:
192,192,148486,1,0,0:0:0:0:
320,192,148486,1,0,0:0:0:0:
320,192,148622,1,0,0:0:0:0:
448,192,148758,1,0,0:0:0:0:
64,192,148758,1,0,0:0:0:0:
192,192,148758,1,0,0:0:0:0:
192,192,148895,1,0,0:0:0:0:
320,192,149031,1,0,0:0:0:0:
448,192,149031,1,0,0:0:0:0:
64,192,149031,1,0,0:0:0:0:
64,192,149167,1,0,0:0:0:0:
192,192,149304,1,0,0:0:0:0:
448,192,149304,1,0,0:0:0:0:
320,192,149304,1,0,0:0:0:0:
320,192,149440,1,0,0:0:0:0:
192,192,149577,1,0,0:0:0:0:
64,192,149577,1,0,0:0:0:0:
448,192,149577,1,0,0:0:0:0:
320,192,149713,1,0,0:0:0:0:
448,192,149849,1,0,0:0:0:0:
320,192,149849,1,0,0:0:0:0:
192,192,149849,1,0,0:0:0:0:
64,192,149986,1,0,0:0:0:0:
64,192,150122,1,0,0:0:0:0:
448,192,150122,1,0,0:0:0:0:
320,192,150122,1,0,0:0:0:0:
192,192,150258,1,0,0:0:0:0:
448,192,150395,1,0,0:0:0:0:
320,192,150395,1,0,0:0:0:0:
64,192,150395,1,0,0:0:0:0:
448,192,150531,1,0,0:0:0:0:
320,192,150667,1,0,0:0:0:0:
192,192,150667,1,0,0:0:0:0:
64,192,150667,1,0,0:0:0:0:
320,192,150804,1,0,0:0:0:0:
64,192,150940,1,0,0:0:0:0:
448,192,150940,1,0,0:0:0:0:
192,192,150940,1,0,0:0:0:0:
64,192,151077,1,0,0:0:0:0:
192,192,151213,1,0,0:0:0:0:
448,192,151213,1,0,0:0:0:0:
320,192,151213,1,0,0:0:0:0:
192,192,151349,1,0,0:0:0:0:
320,192,151486,1,0,0:0:0:0:
448,192,151486,1,0,0:0:0:0:
64,192,151486,1,0,0:0:0:0:
320,192,151622,1,0,0:0:0:0:
448,192,151758,1,0,0:0:0:0:
64,192,151758,1,0,0:0:0:0:
192,192,151758,1,0,0:0:0:0:
448,192,151895,1,0,0:0:0:0:
192,192,152031,1,0,0:0:0:0:
64,192,152031,1,0,0:0:0:0:
320,192,152031,1,0,0:0:0:0:
192,192,152167,1,0,0:0:0:0:
448,192,152304,1,0,0:0:0:0:
320,192,152372,1,0,0:0:0:0:
192,192,152440,1,0,0:0:0:0:
320,192,152508,1,0,0:0:0:0:
64,192,152577,1,0,0:0:0:0:
192,192,152645,1,0,0:0:0:0:
448,192,152713,1,0,0:0:0:0:
320,192,152781,1,0,0:0:0:0:
64,192,152849,1,0,0:0:0:0:
192,192,152917,1,0,0:0:0:0:
448,192,152986,1,0,0:0:0:0:
320,192,153054,1,0,0:0:0:0:
192,192,153122,1,0,0:0:0:0:
64,192,153190,1,0,0:0:0:0:
448,192,153258,1,0,0:0:0:0:
320,192,153327,1,0,0:0:0:0:
64,192,153395,1,0,0:0:0:0:
192,192,153395,1,0,0:0:0:0:
448,192,153395,1,0,0:0:0:0:
320,192,153531,1,0,0:0:0:0:
192,192,153599,1,0,0:0:0:0:
64,192,153667,1,0,0:0:0:0:
448,192,153736,1,0,0:0:0:0:
320,192,153804,1,0,0:0:0:0:
192,192,153804,128,0,154077:0:0:0:0:
64,192,154077,1,0,0:0:0:0:
448,192,154077,1,0,0:0:0:0:
64,192,154213,128,0,154486:0:0:0:0:
320,192,154486,1,0,0:0:0:0:
192,192,154622,1,0,0:0:0:0:
448,192,154622,128,0,154895:0:0:0:0:
64,192,154622,1,0,0:0:0:0:
64,192,154895,1,0,0:0:0:0:
320,192,154895,128,0,155167:0:0:0:0:
192,192,155167,1,0,0:0:0:0:
448,192,155167,1,0,0:0:0:0:
448,192,155304,128,0,155577:0:0:0:0:
320,192,155577,1,0,0:0:0:0:
192,192,155713,1,0,0:0:0:0:
448,192,155713,1,0,0:0:0:0:
64,192,155713,128,0,155986:0:0:0:0:
192,192,155986,128,0,156258:0:0:0:0:
64,192,156258,1,0,0:0:0:0:
448,192,156258,1,0,0:0:0:0:
64,192,156395,128,0,156667:0:0:0:0:
448,192,156667,1,0,0:0:0:0:
192,192,156804,128,0,157077:0:0:0:0:
64,192,156804,1,0,0:0:0:0:
320,192,156804,1,0,0:0:0:0:
448,192,156940,1,0,0:0:0:0:
320,192,157077,128,0,157349:0:0:0:0:
64,192,157213,1,0,0:0:0:0:
192,192,157349,1,0,0:0:0:0:
448,192,157349,1,0,0:0:0:0:
448,192,157622,1,0,0:0:0:0:
192,192,157758,1,0,0:0:0:0:
448,192,157895,1,0,0:0:0:0:
320,192,157895,1,0,0:0:0:0:
64,192,157895,128,0,158167:0:0:0:0:
192,192,158167,1,0,0:0:0:0:
448,192,158167,1,0,0:0:0:0:
320,192,158167,128,0,158440:0:0:0:0:
64,192,158440,1,0,0:0:0:0:
448,192,158440,1,0,0:0:0:0:
448,192,158577,128,0,158986:0:0:0:0:
320,192,158713,1,0,0:0:0:0:
192,192,158849,1,0,0:0:0:0:
320,192,158986,1,0,0:0:0:0:
64,192,158986,128,0,159258:0:0:0:0:
320,192,159258,128,0,159531:0:0:0:0:
448,192,159531,1,0,0:0:0:0:
64,192,159531,1,0,0:0:0:0:
192,192,159667,128,0,159940:0:0:0:0:
448,192,159940,1,0,0:0:0:0:
64,192,160077,1,0,0:0:0:0:
448,192,160077,1,0,0:0:0:0:
320,192,160077,128,0,160349:0:0:0:0:
192,192,160213,1,0,0:0:0:0:
192,192,160349,1,0,0:0:0:0:
64,192,160349,1,0,0:0:0:0:
448,192,160349,1,0,0:0:0:0:
320,192,160486,1,0,0:0:0:0:
448,192,160622,1,0,0:0:0:0:
320,192,160622,1,0,0:0:0:0:
192,192,160622,1,0,0:0:0:0:
64,192,160758,1,0,0:0:0:0:
448,192,160895,1,0,0:0:0:0:
64,192,160895,1,0,0:0:0:0:
192,192,160895,1,0,0:0:0:0:
320,192,161031,1,0,0:0:0:0:
448,192,161167,1,0,0:0:0:0:
320,192,161167,1,0,0:0:0:0:
64,192,161167,1,0,0:0:0:0:
192,192,161304,1,0,0:0:0:0:
320,192,161440,1,0,0:0:0:0:
64,192,161440,1,0,0:0:0:0:
448,192,161440,1,0,0:0:0:0:
192,192,161577,1,0,0:0:0:0:
320,192,161713,1,0,0:0:0:0:
448,192,161713,1,0,0:0:0:0:
64,192,161713,1,0,0:0:0:0:
192,192,161849,1,0,0:0:0:0:
320,192,161986,1,0,0:0:0:0:
448,192,161986,1,0,0:0:0:0:
64,192,161986,1,0,0:0:0:0:
192,192,162054,1,0,0:0:0:0:
448,192,162122,1,0,0:0:0:0:
320,192,162190,1,0,0:0:0:0:
192,192,162258,1,0,0:0:0:0:
320,192,162327,1,0,0:0:0:0:
448,192,162395,1,0,0:0:0:0:
64,192,162395,1,0,0:0:0:0:
320,192,162531,128,0,163622:0:0:0:0:
64,192,164713,128,0,165258:0:0:0:0:
192,192,165258,128,0,165804:0:0:0:0:
448,192,165804,1,0,0:0:0:0:
64,192,165804,1,0,0:0:0:0:
320,192,165895,1,0,0:0:0:0:
192,192,165895,1,0,0:0:0:0:
320,192,165986,1,0,0:0:0:0:
64,192,166077,1,0,0:0:0:0:
448,192,166077,1,0,0:0:0:0:
192,192,166167,1,0,0:0:0:0:
320,192,166258,1,0,0:0:0:0:
448,192,166258,1,0,0:0:0:0:
192,192,166349,1,0,0:0:0:0:
64,192,166349,1,0,0:0:0:0:
192,192,166440,1,0,0:0:0:0:
448,192,166531,1,0,0:0:0:0:
320,192,166622,1,0,0:0:0:0:
192,192,166622,1,0,0:0:0:0:
64,192,166713,1,0,0:0:0:0:
192,192,166804,1,0,0:0:0:0:
320,192,166804,1,0,0:0:0:0:
448,192,166895,1,0,0:0:0:0:
192,192,166986,1,0,0:0:0:0:
64,192,166986,1,0,0:0:0:0:
320,192,167077,1,0,0:0:0:0:
320,192,167167,1,0,0:0:0:0:
192,192,167167,1,0,0:0:0:0:
448,192,167258,1,0,0:0:0:0:
64,192,167349,1,0,0:0:0:0:
192,192,167349,1,0,0:0:0:0:
448,192,167440,1,0,0:0:0:0:
448,192,167531,1,0,0:0:0:0:
64,192,167531,1,0,0:0:0:0:
192,192,167622,1,0,0:0:0:0:
320,192,167713,1,0,0:0:0:0:
448,192,167713,1,0,0:0:0:0:
64,192,167804,1,0,0:0:0:0:
192,192,167895,1,0,0:0:0:0:
320,192,167895,1,0,0:0:0:0:
448,192,167986,1,0,0:0:0:0:
64,192,167986,1,0,0:0:0:0:
320,192,168077,1,0,0:0:0:0:
448,192,168077,1,0,0:0:0:0:
192,192,168167,1,0,0:0:0:0:
320,192,168258,1,0,0:0:0:0:
448,192,168258,1,0,0:0:0:0:
192,192,168349,1,0,0:0:0:0:
64,192,168440,1,0,0:0:0:0:
320,192,168440,1,0,0:0:0:0:
448,192,168531,1,0,0:0:0:0:
320,192,168622,1,0,0:0:0:0:
192,192,168622,1,0,0:0:0:0:
64,192,168713,1,0,0:0:0:0:
448,192,168804,1,0,0:0:0:0:
320,192,168804,1,0,0:0:0:0:
192,192,168895,1,0,0:0:0:0:
448,192,168986,5,0,0:0:0:0:
64,192,168986,1,0,0:0:0:0:
320,192,169077,1,0,0:0:0:0:
64,192,169167,1,0,0:0:0:0:
192,192,169167,1,0,0:0:0:0:
448,192,169258,1,0,0:0:0:0:
64,192,169349,1,0,0:0:0:0:
320,192,169349,1,0,0:0:0:0:
192,192,169440,1,0,0:0:0:0:
64,192,169531,1,0,0:0:0:0:
448,192,169531,1,0,0:0:0:0:
448,192,169622,1,0,0:0:0:0:
64,192,169713,1,0,0:0:0:0:
320,192,169713,1,0,0:0:0:0:
192,192,169804,1,0,0:0:0:0:
64,192,169895,1,0,0:0:0:0:
320,192,169895,1,0,0:0:0:0:
448,192,169986,1,0,0:0:0:0:
64,192,170077,1,0,0:0:0:0:
192,192,170077,1,0,0:0:0:0:
448,192,170167,1,0,0:0:0:0:
64,192,170167,1,0,0:0:0:0:
192,192,170258,1,0,0:0:0:0:
320,192,170258,1,0,0:0:0:0:
448,192,170349,1,0,0:0:0:0:
192,192,170440,1,0,0:0:0:0:
64,192,170440,1,0,0:0:0:0:
448,192,170531,1,0,0:0:0:0:
192,192,170622,1,0,0:0:0:0:
64,192,170622,1,0,0:0:0:0:
320,192,170713,1,0,0:0:0:0:
64,192,170804,1,0,0:0:0:0:
448,192,170804,1,0,0:0:0:0:
192,192,170895,1,0,0:0:0:0:
320,192,170986,1,0,0:0:0:0:
448,192,170986,1,0,0:0:0:0:
64,192,171077,1,0,0:0:0:0:
192,192,171167,1,0,0:0:0:0:
320,192,171167,1,0,0:0:0:0:
448,192,171258,1,0,0:0:0:0:
192,192,171349,1,0,0:0:0:0:
64,192,171349,1,0,0:0:0:0:
320,192,171440,1,0,0:0:0:0:
64,192,171531,1,0,0:0:0:0:
320,192,171531,1,0,0:0:0:0:
192,192,171622,1,0,0:0:0:0:
448,192,171713,1,0,0:0:0:0:
64,192,171713,1,0,0:0:0:0:
320,192,171804,1,0,0:0:0:0:
192,192,171895,1,0,0:0:0:0:
448,192,171895,1,0,0:0:0:0:
64,192,171986,1,0,0:0:0:0:
192,192,172077,1,0,0:0:0:0:
320,192,172077,1,0,0:0:0:0:
448,192,172167,1,0,0:0:0:0:
192,192,172258,1,0,0:0:0:0:
320,192,172258,1,0,0:0:0:0:
448,192,172349,1,0,0:0:0:0:
64,192,172349,1,0,0:0:0:0:
320,192,172440,1,0,0:0:0:0:
448,192,172440,1,0,0:0:0:0:
192,192,172531,1,0,0:0:0:0:
448,192,172622,1,0,0:0:0:0:
64,192,172622,1,0,0:0:0:0:
320,192,172713,1,0,0:0:0:0:
192,192,172804,1,0,0:0:0:0:
448,192,172804,1,0,0:0:0:0:
64,192,172895,1,0,0:0:0:0:
192,192,172986,1,0,0:0:0:0:
320,192,172986,1,0,0:0:0:0:
448,192,173077,1,0,0:0:0:0:
64,192,173167,1,0,0:0:0:0:
192,192,173167,1,0,0:0:0:0:
320,192,173258,1,0,0:0:0:0:
192,192,173349,1,0,0:0:0:0:
448,192,173349,1,0,0:0:0:0:
64,192,173440,1,0,0:0:0:0:
448,192,173531,1,0,0:0:0:0:
320,192,173531,1,0,0:0:0:0:
192,192,173622,1,0,0:0:0:0:
192,192,173713,1,0,0:0:0:0:
320,192,173713,1,0,0:0:0:0:
192,192,173895,1,0,0:0:0:0:
448,192,173895,1,0,0:0:0:0:
64,192,173986,1,0,0:0:0:0:
192,192,174077,1,0,0:0:0:0:
448,192,174167,1,0,0:0:0:0:
320,192,174258,1,0,0:0:0:0:
64,192,174327,128,0,174531:0:0:0:0:
448,192,174531,128,0,174804:0:0:0:0:
320,192,174531,128,0,174804:0:0:0:0:
64,192,174622,1,0,0:0:0:0:
192,192,174622,1,0,0:0:0:0:
64,192,174804,1,0,0:0:0:0:
192,192,174804,1,0,0:0:0:0:
320,192,174895,1,0,0:0:0:0:
448,192,174895,1,0,0:0:0:0:
64,192,174986,1,0,0:0:0:0:
192,192,174986,1,0,0:0:0:0:
192,192,175077,128,0,175258:0:0:0:0:
64,192,175077,128,0,175258:0:0:0:0:
320,192,175167,1,0,0:0:0:0:
448,192,175167,1,0,0:0:0:0:
320,192,175258,1,0,0:0:0:0:
448,192,175258,1,0,0:0:0:0:
192,192,175349,1,0,0:0:0:0:
64,192,175349,1,0,0:0:0:0:
192,192,175440,1,0,0:0:0:0:
320,192,175440,1,0,0:0:0:0:
448,192,175531,1,0,0:0:0:0:
64,192,175531,1,0,0:0:0:0:
192,192,175622,128,0,175713:0:0:0:0:
320,192,175622,128,0,175713:0:0:0:0:
64,192,175713,1,0,0:0:0:0:
448,192,175713,1,0,0:0:0:0:
192,192,175804,1,0,0:0:0:0:
320,192,175804,1,0,0:0:0:0:
64,192,175895,1,0,0:0:0:0:
192,192,175986,1,0,0:0:0:0:
320,192,176077,1,0,0:0:0:0:
64,192,176167,128,0,176258:0:0:0:0:
192,192,176167,128,0,176258:0:0:0:0:
320,192,176258,1,0,0:0:0:0:
448,192,176258,1,0,0:0:0:0:
448,192,176349,1,0,0:0:0:0:
64,192,176440,1,0,0:0:0:0:
192,192,176440,1,0,0:0:0:0:
320,192,176531,1,0,0:0:0:0:
448,192,176531,1,0,0:0:0:0:
320,192,176622,1,0,0:0:0:0:
448,192,176622,1,0,0:0:0:0:
64,192,176713,128,0,176986:0:0:0:0:
192,192,176713,128,0,176986:0:0:0:0:
320,192,176804,1,0,0:0:0:0:
448,192,176804,1,0,0:0:0:0:
320,192,176986,1,0,0:0:0:0:
448,192,176986,1,0,0:0:0:0:
64,192,177077,1,0,0:0:0:0:
192,192,177077,1,0,0:0:0:0:
320,192,177167,1,0,0:0:0:0:
448,192,177167,1,0,0:0:0:0:
64,192,177258,1,0,0:0:0:0:
320,192,177258,128,0,177440:0:0:0:0:
448,192,177258,128,0,177440:0:0:0:0:
64,192,177440,1,0,0:0:0:0:
192,192,177440,1,0,0:0:0:0:
320,192,177531,1,0,0:0:0:0:
448,192,177531,1,0,0:0:0:0:
448,192,177622,1,0,0:0:0:0:
320,192,177622,1,0,0:0:0:0:
192,192,177713,1,0,0:0:0:0:
64,192,177713,1,0,0:0:0:0:
320,192,177804,128,0,177986:0:0:0:0:
448,192,177804,128,0,177986:0:0:0:0:
192,192,177895,1,0,0:0:0:0:
64,192,177895,1,0,0:0:0:0:
192,192,177986,1,0,0:0:0:0:
64,192,177986,1,0,0:0:0:0:
448,192,178077,1,0,0:0:0:0:
320,192,178167,1,0,0:0:0:0:
192,192,178258,1,0,0:0:0:0:
64,192,178349,128,0,178531:0:0:0:0:
192,192,178349,128,0,178531:0:0:0:0:
320,192,178440,1,0,0:0:0:0:
448,192,178440,1,0,0:0:0:0:
448,192,178531,1,0,0:0:0:0:
320,192,178622,1,0,0:0:0:0:
64,192,178713,1,0,0:0:0:0:
192,192,178804,1,0,0:0:0:0:
448,192,178895,128,0,178986:0:0:0:0:
64,192,178895,128,0,178986:0:0:0:0:
192,192,178986,1,0,0:0:0:0:
320,192,178986,1,0,0:0:0:0:
64,192,179077,1,0,0:0:0:0:
448,192,179167,1,0,0:0:0:0:
320,192,179167,1,0,0:0:0:0:
64,192,179258,1,0,0:0:0:0:
192,192,179258,1,0,0:0:0:0:
320,192,179349,1,0,0:0:0:0:
448,192,179349,1,0,0:0:0:0:
192,192,179440,1,0,0:0:0:0:
448,192,179440,128,0,179531:0:0:0:0:
64,192,179440,128,0,179531:0:0:0:0:
320,192,179531,1,0,0:0:0:0:
448,192,179622,1,0,0:0:0:0:
192,192,179622,1,0,0:0:0:0:
64,192,179713,1,0,0:0:0:0:
192,192,179713,1,0,0:0:0:0:
448,192,179804,1,0,0:0:0:0:
320,192,179804,1,0,0:0:0:0:
64,192,179895,1,0,0:0:0:0:
192,192,179895,1,0,0:0:0:0:
448,192,179986,1,0,0:0:0:0:
64,192,179986,128,0,180167:0:0:0:0:
192,192,179986,128,0,180167:0:0:0:0:
320,192,180077,1,0,0:0:0:0:
448,192,180167,1,0,0:0:0:0:
192,192,180258,1,0,0:0:0:0:
64,192,180349,1,0,0:0:0:0:
320,192,180440,1,0,0:0:0:0:
448,192,180440,1,0,0:0:0:0:
192,192,180531,128,0,180713:0:0:0:0:
64,192,180531,128,0,180713:0:0:0:0:
320,192,180622,1,0,0:0:0:0:
448,192,180622,1,0,0:0:0:0:
192,192,180804,1,0,0:0:0:0:
64,192,180804,1,0,0:0:0:0:
448,192,180895,1,0,0:0:0:0:
320,192,180986,1,0,0:0:0:0:
64,192,181077,128,0,181349:0:0:0:0:
448,192,181077,128,0,181349:0:0:0:0:
192,192,181167,1,0,0:0:0:0:
320,192,181258,1,0,0:0:0:0:
192,192,181349,1,0,0:0:0:0:
448,192,181440,1,0,0:0:0:0:
320,192,181531,1,0,0:0:0:0:
64,192,181622,128,0,181804:0:0:0:0:
192,192,181622,128,0,181804:0:0:0:0:
320,192,181804,1,0,0:0:0:0:
448,192,181804,1,0,0:0:0:0:
192,192,181895,1,0,0:0:0:0:
64,192,181895,1,0,0:0:0:0:
448,192,181986,1,0,0:0:0:0:
320,192,182077,5,0,0:0:0:0:
192,192,182167,1,0,0:0:0:0:
64,192,182167,1,0,0:0:0:0:
448,192,182167,128,0,182713:0:0:0:0:
320,192,182258,1,0,0:0:0:0:
64,192,182258,1,0,0:0:0:0:
192,192,182349,1,0,0:0:0:0:
320,192,182440,1,0,0:0:0:0:
64,192,182531,1,0,0:0:0:0:
192,192,182622,1,0,0:0:0:0:
320,192,182713,1,0,0:0:0:0:
64,192,182713,128,0,183258:0:0:0:0:
448,192,182804,1,0,0:0:0:0:
192,192,182804,1,0,0:0:0:0:
448,192,182895,1,0,0:0:0:0:
192,192,182986,1,0,0:0:0:0:
320,192,183077,1,0,0:0:0:0:
448,192,183167,1,0,0:0:0:0:
192,192,183167,1,0,0:0:0:0:
320,192,183258,1,0,0:0:0:0:
448,192,183258,128,0,184349:0:0:0:0:
64,192,183531,1,0,0:0:0:0:
320,192,183667,1,0,0:0:0:0:
192,192,183804,1,0,0:0:0:0:
64,192,183804,1,0,0:0:0:0:
64,192,183940,1,0,0:0:0:0:
192,192,183940,1,0,0:0:0:0:
192,192,184077,1,0,0:0:0:0:
320,192,184077,1,0,0:0:0:0:
320,192,184213,1,0,0:0:0:0:
64,192,184213,1,0,0:0:0:0:
64,192,184349,128,0,184895:0:0:0:0:
192,192,184349,1,0,0:0:0:0:
448,192,184486,1,0,0:0:0:0:
320,192,184622,1,0,0:0:0:0:
192,192,184758,1,0,0:0:0:0:
320,192,184895,1,0,0:0:0:0:
448,192,184895,128,0,185440:0:0:0:0:
192,192,185031,1,0,0:0:0:0:
64,192,185031,1,0,0:0:0:0:
192,192,185167,1,0,0:0:0:0:
64,192,185167,1,0,0:0:0:0:
320,192,185304,1,0,0:0:0:0:
64,192,185304,1,0,0:0:0:0:
192,192,185440,128,0,185986:0:0:0:0:
320,192,185440,1,0,0:0:0:0:
448,192,185577,1,0,0:0:0:0:
64,192,185713,1,0,0:0:0:0:
320,192,185849,1,0,0:0:0:0:
64,192,185986,1,0,0:0:0:0:
448,192,185986,128,0,186531:0:0:0:0:
320,192,186122,1,0,0:0:0:0:
64,192,186122,1,0,0:0:0:0:
192,192,186258,1,0,0:0:0:0:
64,192,186258,1,0,0:0:0:0:
192,192,186395,1,0,0:0:0:0:
320,192,186395,1,0,0:0:0:0:
320,192,186531,1,0,0:0:0:0:
64,192,186531,128,0,187077:0:0:0:0:
192,192,186622,1,0,0:0:0:0:
448,192,186713,1,0,0:0:0:0:
320,192,186804,1,0,0:0:0:0:
192,192,186895,1,0,0:0:0:0:
448,192,187077,1,0,0:0:0:0:
320,192,187077,128,0,187622:0:0:0:0:
64,192,187258,1,0,0:0:0:0:
192,192,187440,1,0,0:0:0:0:
448,192,187622,128,0,189804:0:0:0:0:
64,192,187622,128,0,187895:0:0:0:0:
192,192,187895,128,0,188167:0:0:0:0:
320,192,188167,128,0,188440:0:0:0:0:
64,192,188440,128,0,188713:0:0:0:0:
192,192,188713,128,0,188986:0:0:0:0:
64,192,188986,128,0,189258:0:0:0:0:
320,192,189258,128,0,189531:0:0:0:0:
192,192,189531,128,0,189804:0:0:0:0:
320,192,189804,128,0,191986:0:0:0:0:
64,192,189804,128,0,190077:0:0:0:0:
192,192,190077,128,0,190349:0:0:0:0:
448,192,190349,128,0,190622:0:0:0:0:
64,192,190622,128,0,190895:0:0:0:0:
448,192,190895,128,0,191167:0:0:0:0:
192,192,191167,128,0,191440:0:0:0:0:
448,192,191440,128,0,191713:0:0:0:0:
64,192,191713,128,0,191986:0:0:0:0:
192,192,191986,128,0,194167:0:0:0:0:
448,192,191986,128,0,192258:0:0:0:0:
64,192,192258,128,0,192531:0:0:0:0:
320,192,192531,128,0,192804:0:0:0:0:
448,192,192804,128,0,193077:0:0:0:0:
64,192,193077,128,0,193349:0:0:0:0:
320,192,193349,128,0,193622:0:0:0:0:
448,192,193622,128,0,193895:0:0:0:0:
320,192,193895,128,0,194167:0:0:0:0:
64,192,194167,128,0,196349:0:0:0:0:
448,192,194167,128,0,194440:0:0:0:0:
320,192,194440,128,0,194713:0:0:0:0:
192,192,194713,128,0,194986:0:0:0:0:
320,192,194986,128,0,195258:0:0:0:0:
448,192,195258,128,0,195531:0:0:0:0:
192,192,195531,128,0,195804:0:0:0:0:
320,192,195804,128,0,196077:0:0:0:0:
448,192,196077,128,0,196349:0:0:0:0:
192,192,196349,128,0,196622:0:0:0:0:
320,192,196349,128,0,198531:0:0:0:0:
448,192,196622,128,0,196895:0:0:0:0:
192,192,196895,128,0,197167:0:0:0:0:
64,192,197167,128,0,197440:0:0:0:0:
448,192,197440,128,0,197713:0:0:0:0:
192,192,197713,128,0,197986:0:0:0:0:
64,192,197986,128,0,198258:0:0:0:0:
192,192,198258,128,0,198531:0:0:0:0:
448,192,198531,128,0,200713:0:0:0:0:
64,192,198531,128,0,198804:0:0:0:0:
320,192,198804,128,0,199077:0:0:0:0:
192,192,199077,128,0,199349:0:0:0:0:
64,192,199349,128,0,199622:0:0:0:0:
320,192,199622,128,0,199895:0:0:0:0:
192,192,199895,128,0,200167:0:0:0:0:
320,192,200167,128,0,200440:0:0:0:0:
64,192,200440,128,0,200713:0:0:0:0:
192,192,200713,128,0,202895:0:0:0:0:
320,192,200713,128,0,200986:0:0:0:0:
64,192,200986,128,0,201258:0:0:0:0:
320,192,201258,128,0,201531:0:0:0:0:
448,192,201531,128,0,201804:0:0:0:0:
64,192,201804,128,0,202077:0:0:0:0:
448,192,202077,128,0,202349:0:0:0:0:
64,192,202349,128,0,202622:0:0:0:0:
320,192,202622,128,0,202895:0:0:0:0:
64,192,202895,128,0,205077:0:0:0:0:
448,192,202895,128,0,203167:0:0:0:0:
320,192,203167,128,0,203440:0:0:0:0:
192,192,203440,128,0,203713:0:0:0:0:
448,192,203713,128,0,203986:0:0:0:0:
320,192,203986,128,0,204258:0:0:0:0:
448,192,204258,128,0,204531:0:0:0:0:
320,192,204531,128,0,204804:0:0:0:0:
192,192,204804,128,0,205077:0:0:0:0:
320,192,205077,128,0,207258:0:0:0:0:
448,192,205077,128,0,205349:0:0:0:0:
192,192,205349,128,0,205622:0:0:0:0:
64,192,205622,128,0,205895:0:0:0:0:
448,192,205895,128,0,206167:0:0:0:0:
192,192,206167,128,0,206440:0:0:0:0:
448,192,206440,128,0,206713:0:0:0:0:
192,192,206713,128,0,206986:0:0:0:0:
64,192,206986,128,0,207258:0:0:0:0:
192,192,207258,128,0,208349:0:0:0:0:
448,192,207258,128,0,207531:0:0:0:0:
320,192,207531,128,0,207804:0:0:0:0:
64,192,207804,128,0,208077:0:0:0:0:
320,192,208077,128,0,208349:0:0:0:0:
448,192,208349,128,0,209167:0:0:0:0:
64,192,208349,128,0,208895:0:0:0:0:
192,192,208622,128,0,208895:0:0:0:0:
320,192,208895,128,0,209440:0:0:0:0:
192,192,209167,128,0,209440:0:0:0:0:
64,192,209440,128,0,210531:0:0:0:0:
448,192,209440,1,0,0:0:0:0:
320,192,210258,128,0,210531:0:0:0:0:
192,192,210531,128,0,211077:0:0:0:0:
448,192,210531,1,0,0:0:0:0:
320,192,211077,128,0,211622:0:0:0:0:
448,192,211622,128,0,212440:0:0:0:0:
64,192,211622,1,0,0:0:0:0:
192,192,211622,1,0,0:0:0:0:
192,192,211895,1,0,0:0:0:0:
64,192,211895,1,0,0:0:0:0:
64,192,212440,128,0,213258:0:0:0:0:
192,192,212713,1,0,0:0:0:0:
320,192,212713,1,0,0:0:0:0:
192,192,213258,128,0,213531:0:0:0:0:
448,192,213531,128,0,213804:0:0:0:0:
320,192,213804,128,0,214622:0:0:0:0:
64,192,213804,1,0,0:0:0:0:
64,192,214622,128,0,215167:0:0:0:0:
192,192,214895,1,0,0:0:0:0:
448,192,214895,1,0,0:0:0:0:
192,192,215167,128,0,215440:0:0:0:0:
320,192,215440,128,0,215713:0:0:0:0:
448,192,215713,128,0,215986:0:0:0:0:
192,192,215986,128,0,216258:0:0:0:0:
64,192,215986,1,0,0:0:0:0:
320,192,216258,128,0,216531:0:0:0:0:
448,192,216258,1,0,0:0:0:0:
64,192,216531,128,0,216804:0:0:0:0:
448,192,216804,128,0,217077:0:0:0:0:
192,192,216804,1,0,0:0:0:0:
64,192,217077,1,0,0:0:0:0:
320,192,217077,128,0,217349:0:0:0:0:
64,192,217349,128,0,217622:0:0:0:0:
192,192,217349,1,0,0:0:0:0:
192,192,217622,128,0,217895:0:0:0:0:
448,192,217622,1,0,0:0:0:0:
448,192,217895,128,0,218167:0:0:0:0:
320,192,217895,1,0,0:0:0:0:
64,192,218167,1,0,0:0:0:0:
192,192,218167,1,0,0:0:0:0:
320,192,218167,128,0,218986:0:0:0:0:
64,192,218986,128,0,219258:0:0:0:0:
192,192,218986,1,0,0:0:0:0:
448,192,219258,1,0,0:0:0:0:
192,192,219258,128,0,219804:0:0:0:0:
448,192,219804,128,0,220349:0:0:0:0:
64,192,219804,1,0,0:0:0:0:
320,192,220349,128,0,221167:0:0:0:0:
64,192,220349,1,0,0:0:0:0:
192,192,220622,1,0,0:0:0:0:
64,192,220622,1,0,0:0:0:0:
64,192,221167,128,0,221986:0:0:0:0:
448,192,221167,1,0,0:0:0:0:
192,192,221440,1,0,0:0:0:0:
320,192,221440,1,0,0:0:0:0:
448,192,221849,1,0,0:0:0:0:
192,192,221986,128,0,222258:0:0:0:0:
320,192,221986,1,0,0:0:0:0:
320,192,222258,128,0,222531:0:0:0:0:
64,192,222531,1,0,0:0:0:0:
448,192,222531,128,0,223349:0:0:0:0:
192,192,222804,1,0,0:0:0:0:
64,192,222804,1,0,0:0:0:0:
64,192,223349,128,0,223895:0:0:0:0:
320,192,223622,1,0,0:0:0:0:
192,192,223622,1,0,0:0:0:0:
192,192,223895,128,0,224167:0:0:0:0:
448,192,223895,1,0,0:0:0:0:
320,192,224031,1,0,0:0:0:0:
448,192,224167,128,0,224440:0:0:0:0:
64,192,224304,1,0,0:0:0:0:
320,192,224440,128,0,224713:0:0:0:0:
192,192,224440,1,0,0:0:0:0:
64,192,224713,1,0,0:0:0:0:
192,192,224713,128,0,224986:0:0:0:0:
448,192,224986,128,0,225077:0:0:0:0:
320,192,225077,128,0,225167:0:0:0:0:
64,192,225167,128,0,225258:0:0:0:0:
448,192,225258,128,0,225531:0:0:0:0:
320,192,225531,128,0,225804:0:0:0:0:
64,192,225667,1,0,0:0:0:0:
192,192,225736,1,0,0:0:0:0:
448,192,225804,128,0,226077:0:0:0:0:
64,192,225804,1,0,0:0:0:0:
64,192,226077,128,0,226349:0:0:0:0:
192,192,226349,128,0,226622:0:0:0:0:
320,192,226622,128,0,226895:0:0:0:0:
448,192,226895,1,0,0:0:0:0:
64,192,226895,1,0,0:0:0:0:
192,192,226895,1,0,0:0:0:0:
320,192,227031,1,0,0:0:0:0:
448,192,227167,1,0,0:0:0:0:
320,192,227167,1,0,0:0:0:0:
192,192,227167,1,0,0:0:0:0:
64,192,227304,1,0,0:0:0:0:
64,192,227440,1,0,0:0:0:0:
448,192,227440,1,0,0:0:0:0:
320,192,227440,1,0,0:0:0:0:
192,192,227577,1,0,0:0:0:0:
448,192,227713,1,0,0:0:0:0:
320,192,227713,1,0,0:0:0:0:
64,192,227713,1,0,0:0:0:0:
448,192,227849,1,0,0:0:0:0:
320,192,227986,1,0,0:0:0:0:
192,192,227986,1,0,0:0:0:0:
64,192,227986,1,0,0:0:0:0:
320,192,228122,1,0,0:0:0:0:
64,192,228258,1,0,0:0:0:0:
448,192,228258,1,0,0:0:0:0:
192,192,228258,1,0,0:0:0:0:
64,192,228395,1,0,0:0:0:0:
192,192,228531,1,0,0:0:0:0:
448,192,228531,1,0,0:0:0:0:
320,192,228531,1,0,0:0:0:0:
192,192,228667,1,0,0:0:0:0:
320,192,228804,1,0,0:0:0:0:
448,192,228804,1,0,0:0:0:0:
64,192,228804,1,0,0:0:0:0:
320,192,228940,1,0,0:0:0:0:
448,192,229077,1,0,0:0:0:0:
64,192,229077,1,0,0:0:0:0:
192,192,229077,1,0,0:0:0:0:
448,192,229213,1,0,0:0:0:0:
192,192,229349,1,0,0:0:0:0:
64,192,229349,1,0,0:0:0:0:
320,192,229349,1,0,0:0:0:0:
192,192,229486,1,0,0:0:0:0:
64,192,229622,1,0,0:0:0:0:
448,192,229622,1,0,0:0:0:0:
320,192,229622,1,0,0:0:0:0:
448,192,229758,1,0,0:0:0:0:
192,192,229895,1,0,0:0:0:0:
320,192,229895,1,0,0:0:0:0:
64,192,229895,1,0,0:0:0:0:
64,192,230031,1,0,0:0:0:0:
320,192,230167,1,0,0:0:0:0:
192,192,230167,1,0,0:0:0:0:
448,192,230167,1,0,0:0:0:0:
320,192,230304,1,0,0:0:0:0:
192,192,230440,1,0,0:0:0:0:
64,192,230440,1,0,0:0:0:0:
448,192,230440,1,0,0:0:0:0:
192,192,230577,1,0,0:0:0:0:
64,192,230713,1,0,0:0:0:0:
448,192,230713,1,0,0:0:0:0:
320,192,230713,1,0,0:0:0:0:
64,192,230849,1,0,0:0:0:0:
320,192,230986,1,0,0:0:0:0:
448,192,230986,1,0,0:0:0:0:
192,192,230986,1,0,0:0:0:0:
320,192,231122,1,0,0:0:0:0:
448,192,231258,1,0,0:0:0:0:
64,192,231258,1,0,0:0:0:0:
192,192,231258,1,0,0:0:0:0:
64,192,231395,1,0,0:0:0:0:
192,192,231531,1,0,0:0:0:0:
320,192,231531,1,0,0:0:0:0:
448,192,231531,1,0,0:0:0:0:
320,192,231667,1,0,0:0:0:0:
192,192,231804,1,0,0:0:0:0:
448,192,231804,1,0,0:0:0:0:
320,192,231940,1,0,0:0:0:0:
448,192,232077,1,0,0:0:0:0:
192,192,232077,1,0,0:0:0:0:
64,192,232077,1,0,0:0:0:0:
320,192,232213,1,0,0:0:0:0:
192,192,232349,1,0,0:0:0:0:
64,192,232349,1,0,0:0:0:0:
448,192,232486,1,0,0:0:0:0:
320,192,232622,1,0,0:0:0:0:
192,192,232622,1,0,0:0:0:0:
64,192,232622,1,0,0:0:0:0:
448,192,232758,1,0,0:0:0:0:
64,192,232895,1,0,0:0:0:0:
192,192,232895,1,0,0:0:0:0:
320,192,233031,1,0,0:0:0:0:
448,192,233167,1,0,0:0:0:0:
192,192,233167,1,0,0:0:0:0:
64,192,233167,1,0,0:0:0:0:
320,192,233304,1,0,0:0:0:0:
64,192,233440,1,0,0:0:0:0:
192,192,233508,1,0,0:0:0:0:
320,192,233577,1,0,0:0:0:0:
448,192,233577,1,0,0:0:0:0:
64,192,233713,1,0,0:0:0:0:
320,192,233849,1,0,0:0:0:0:
448,192,233849,1,0,0:0:0:0:
192,192,233917,1,0,0:0:0:0:
448,192,233986,1,0,0:0:0:0:
64,192,233986,1,0,0:0:0:0:
320,192,234054,1,0,0:0:0:0:
192,192,234122,1,0,0:0:0:0:
448,192,234258,1,0,0:0:0:0:
192,192,234395,1,0,0:0:0:0:
64,192,234531,5,0,0:0:0:0:
320,192,234599,1,0,0:0:0:0:
64,192,234667,1,0,0:0:0:0:
320,192,234736,1,0,0:0:0:0:
192,192,234804,1,0,0:0:0:0:
448,192,234872,1,0,0:0:0:0:
192,192,234940,1,0,0:0:0:0:
448,192,235008,1,0,0:0:0:0:
64,192,235077,1,0,0:0:0:0:
320,192,235077,1,0,0:0:0:0:
192,192,235145,1,0,0:0:0:0:
320,192,235213,1,0,0:0:0:0:
448,192,235281,1,0,0:0:0:0:
64,192,235349,1,0,0:0:0:0:
192,192,235349,1,0,0:0:0:0:
448,192,235417,1,0,0:0:0:0:
64,192,235486,1,0,0:0:0:0:
192,192,235486,1,0,0:0:0:0:
320,192,235554,1,0,0:0:0:0:
448,192,235554,1,0,0:0:0:0:
192,192,235622,5,0,0:0:0:0:
64,192,235622,1,0,0:0:0:0:
320,192,235690,1,0,0:0:0:0:
192,192,235758,1,0,0:0:0:0:
64,192,235827,1,0,0:0:0:0:
448,192,235895,1,0,0:0:0:0:
320,192,235895,1,0,0:0:0:0:
192,192,235963,1,0,0:0:0:0:
64,192,236031,1,0,0:0:0:0:
320,192,236031,1,0,0:0:0:0:
448,192,236099,1,0,0:0:0:0:
320,192,236167,1,0,0:0:0:0:
192,192,236167,1,0,0:0:0:0:
64,192,236236,1,0,0:0:0:0:
448,192,236304,1,0,0:0:0:0:
192,192,236304,1,0,0:0:0:0:
320,192,236372,1,0,0:0:0:0:
64,192,236440,1,0,0:0:0:0:
448,192,236440,1,0,0:0:0:0:
320,192,236508,1,0,0:0:0:0:
192,192,236577,1,0,0:0:0:0:
64,192,236577,1,0,0:0:0:0:
320,192,236645,1,0,0:0:0:0:
192,192,236713,1,0,0:0:0:0:
448,192,236713,1,0,0:0:0:0:
64,192,236781,1,0,0:0:0:0:
320,192,236849,1,0,0:0:0:0:
448,192,236849,1,0,0:0:0:0:
192,192,236917,1,0,0:0:0:0:
320,192,236986,1,0,0:0:0:0:
64,192,236986,1,0,0:0:0:0:
448,192,237054,1,0,0:0:0:0:
192,192,237122,1,0,0:0:0:0:
64,192,237122,1,0,0:0:0:0:
320,192,237190,1,0,0:0:0:0:
64,192,237258,1,0,0:0:0:0:
448,192,237258,1,0,0:0:0:0:
192,192,237327,1,0,0:0:0:0:
448,192,237395,1,0,0:0:0:0:
320,192,237395,1,0,0:0:0:0:
64,192,237463,1,0,0:0:0:0:
320,192,237531,1,0,0:0:0:0:
192,192,237531,1,0,0:0:0:0:
448,192,237599,1,0,0:0:0:0:
320,192,237667,1,0,0:0:0:0:
64,192,237667,1,0,0:0:0:0:
192,192,237736,1,0,0:0:0:0:
448,192,237804,1,0,0:0:0:0:
320,192,237804,1,0,0:0:0:0:
192,192,237872,1,0,0:0:0:0:
448,192,237940,1,0,0:0:0:0:
64,192,237940,1,0,0:0:0:0:
320,192,238008,1,0,0:0:0:0:
64,192,238077,1,0,0:0:0:0:
192,192,238077,1,0,0:0:0:0:
448,192,238145,1,0,0:0:0:0:
64,192,238213,1,0,0:0:0:0:
320,192,238213,1,0,0:0:0:0:
192,192,238281,1,0,0:0:0:0:
448,192,238349,1,0,0:0:0:0:
320,192,238349,1,0,0:0:0:0:
192,192,238417,1,0,0:0:0:0:
448,192,238486,1,0,0:0:0:0:
64,192,238486,1,0,0:0:0:0:
320,192,238554,1,0,0:0:0:0:
64,192,238622,1,0,0:0:0:0:
192,192,238622,1,0,0:0:0:0:
448,192,238690,1,0,0:0:0:0:
192,192,238758,1,0,0:0:0:0:
320,192,238758,1,0,0:0:0:0:
64,192,238827,1,0,0:0:0:0:
320,192,238895,1,0,0:0:0:0:
448,192,238895,1,0,0:0:0:0:
192,192,238963,1,0,0:0:0:0:
64,192,239031,1,0,0:0:0:0:
448,192,239031,1,0,0:0:0:0:
320,192,239099,1,0,0:0:0:0:
64,192,239167,1,0,0:0:0:0:
192,192,239167,1,0,0:0:0:0:
448,192,239236,1,0,0:0:0:0:
192,192,239304,1,0,0:0:0:0:
320,192,239304,1,0,0:0:0:0:
448,192,239372,1,0,0:0:0:0:
64,192,239440,1,0,0:0:0:0:
192,192,239440,1,0,0:0:0:0:
320,192,239508,1,0,0:0:0:0:
192,192,239577,1,0,0:0:0:0:
448,192,239577,1,0,0:0:0:0:
64,192,239645,1,0,0:0:0:0:
320,192,239713,1,0,0:0:0:0:
448,192,239713,1,0,0:0:0:0:
192,192,239781,1,0,0:0:0:0:
64,192,239849,1,0,0:0:0:0:
448,192,239849,1,0,0:0:0:0:
320,192,239917,1,0,0:0:0:0:
192,192,239986,1,0,0:0:0:0:
64,192,239986,1,0,0:0:0:0:
320,192,240054,1,0,0:0:0:0:
448,192,240122,1,0,0:0:0:0:
192,192,240122,1,0,0:0:0:0:
64,192,240190,1,0,0:0:0:0:
320,192,240258,1,0,0:0:0:0:
448,192,240258,1,0,0:0:0:0:
192,192,240327,1,0,0:0:0:0:
64,192,240395,1,0,0:0:0:0:
320,192,240395,1,0,0:0:0:0:
448,192,240463,1,0,0:0:0:0:
64,192,240531,1,0,0:0:0:0:
192,192,240531,1,0,0:0:0:0:
320,192,240599,1,0,0:0:0:0:
448,192,240667,1,0,0:0:0:0:
64,192,240667,1,0,0:0:0:0:
192,192,240736,1,0,0:0:0:0:
320,192,240804,1,0,0:0:0:0:
448,192,240804,1,0,0:0:0:0:
64,192,240872,1,0,0:0:0:0:
192,192,240940,1,0,0:0:0:0:
320,192,240940,1,0,0:0:0:0:
448,192,241008,1,0,0:0:0:0:
64,192,241077,1,0,0:0:0:0:
320,192,241077,1,0,0:0:0:0:
192,192,241145,1,0,0:0:0:0:
320,192,241213,1,0,0:0:0:0:
448,192,241213,1,0,0:0:0:0:
192,192,241281,1,0,0:0:0:0:
64,192,241349,1,0,0:0:0:0:
448,192,241349,1,0,0:0:0:0:
320,192,241417,1,0,0:0:0:0:
192,192,241486,1,0,0:0:0:0:
64,192,241486,1,0,0:0:0:0:
448,192,241554,1,0,0:0:0:0:
320,192,241622,1,0,0:0:0:0:
64,192,241622,1,0,0:0:0:0:
192,192,241690,1,0,0:0:0:0:
320,192,241758,1,0,0:0:0:0:
448,192,241758,1,0,0:0:0:0:
192,192,241827,1,0,0:0:0:0:
64,192,241895,1,0,0:0:0:0:
448,192,241895,1,0,0:0:0:0:
320,192,241963,1,0,0:0:0:0:
192,192,242031,1,0,0:0:0:0:
64,192,242031,1,0,0:0:0:0:
320,192,242099,1,0,0:0:0:0:
448,192,242167,1,0,0:0:0:0:
192,192,242167,1,0,0:0:0:0:
64,192,242236,1,0,0:0:0:0:
448,192,242304,1,0,0:0:0:0:
320,192,242304,1,0,0:0:0:0:
192,192,242372,1,0,0:0:0:0:
448,192,242440,1,0,0:0:0:0:
320,192,242440,1,0,0:0:0:0:
64,192,242508,1,0,0:0:0:0:
320,192,242577,1,0,0:0:0:0:
192,192,242577,1,0,0:0:0:0:
448,192,242645,1,0,0:0:0:0:
192,192,242713,1,0,0:0:0:0:
64,192,242713,1,0,0:0:0:0:
320,192,242781,1,0,0:0:0:0:
192,192,242849,1,0,0:0:0:0:
448,192,242849,1,0,0:0:0:0:
64,192,242917,1,0,0:0:0:0:
448,192,242986,1,0,0:0:0:0:
320,192,242986,1,0,0:0:0:0:
192,192,243054,1,0,0:0:0:0:
320,192,243122,1,0,0:0:0:0:
64,192,243122,1,0,0:0:0:0:
448,192,243190,1,0,0:0:0:0:
320,192,243258,1,0,0:0:0:0:
192,192,243258,1,0,0:0:0:0:
64,192,243327,1,0,0:0:0:0:
448,192,243395,1,0,0:0:0:0:
320,192,243395,1,0,0:0:0:0:
192,192,243463,1,0,0:0:0:0:
448,192,243531,1,0,0:0:0:0:
64,192,243531,1,0,0:0:0:0:
320,192,243599,1,0,0:0:0:0:
64,192,243667,1,0,0:0:0:0:
192,192,243667,1,0,0:0:0:0:
320,192,243736,1,0,0:0:0:0:
192,192,243804,1,0,0:0:0:0:
448,192,243804,1,0,0:0:0:0:
64,192,243872,1,0,0:0:0:0:
448,192,243940,1,0,0:0:0:0:
320,192,243940,1,0,0:0:0:0:
192,192,244008,1,0,0:0:0:0:
64,192,244077,1,0,0:0:0:0:
448,192,244077,1,0,0:0:0:0:
320,192,244145,1,0,0:0:0:0:
192,192,244145,1,0,0:0:0:0:
64,192,244213,1,0,0:0:0:0:
448,192,244213,1,0,0:0:0:0:
192,192,244281,1,0,0:0:0:0:
320,192,244281,1,0,0:0:0:0:
64,192,244349,1,0,0:0:0:0:
320,192,244417,1,0,0:0:0:0:
448,192,244417,1,0,0:0:0:0:
192,192,244486,1,0,0:0:0:0:
64,192,244486,1,0,0:0:0:0:
448,192,244554,1,0,0:0:0:0:
320,192,244554,1,0,0:0:0:0:
192,192,244622,1,0,0:0:0:0:
64,192,244690,1,0,0:0:0:0:
448,192,244758,1,0,0:0:0:0:
320,192,244827,1,0,0:0:0:0:
192,192,244895,1,0,0:0:0:0:
448,192,244963,1,0,0:0:0:0:
64,192,245031,1,0,0:0:0:0:
192,192,245099,1,0,0:0:0:0:
64,192,245167,1,0,0:0:0:0:
320,192,245167,1,0,0:0:0:0:
448,192,245167,1,0,0:0:0:0:
192,192,245236,1,0,0:0:0:0:
448,192,245304,1,0,0:0:0:0:
320,192,245372,1,0,0:0:0:0:
192,192,245440,1,0,0:0:0:0:
64,192,245508,1,0,0:0:0:0:
320,192,245577,1,0,0:0:0:0:
448,192,245577,1,0,0:0:0:0:
192,192,245645,1,0,0:0:0:0:
64,192,245645,1,0,0:0:0:0:
320,192,245713,1,0,0:0:0:0:
448,192,245713,1,0,0:0:0:0:
192,192,245781,1,0,0:0:0:0:
64,192,245781,1,0,0:0:0:0:
320,192,245849,1,0,0:0:0:0:
192,192,245917,1,0,0:0:0:0:
64,192,245986,1,0,0:0:0:0:
320,192,246054,1,0,0:0:0:0:
192,192,246122,1,0,0:0:0:0:
448,192,246190,1,0,0:0:0:0:
320,192,246258,1,0,0:0:0:0:
192,192,246327,1,0,0:0:0:0:
64,192,246395,1,0,0:0:0:0:
448,192,246395,1,0,0:0:0:0:
320,192,246463,1,0,0:0:0:0:
192,192,246463,1,0,0:0:0:0:
448,192,246531,1,0,0:0:0:0:
64,192,246531,1,0,0:0:0:0:
320,192,246599,1,0,0:0:0:0:
192,192,246667,1,0,0:0:0:0:
64,192,246736,1,0,0:0:0:0:
320,192,246804,1,0,0:0:0:0:
448,192,246804,1,0,0:0:0:0:
192,192,246872,1,0,0:0:0:0:
64,192,246872,1,0,0:0:0:0:
320,192,246940,1,0,0:0:0:0:
448,192,246940,1,0,0:0:0:0:
192,192,247008,1,0,0:0:0:0:
64,192,247008,1,0,0:0:0:0:
320,192,247077,1,0,0:0:0:0:
448,192,247077,1,0,0:0:0:0:
192,192,247145,1,0,0:0:0:0:
64,192,247145,1,0,0:0:0:0:
320,192,247213,1,0,0:0:0:0:
448,192,247213,1,0,0:0:0:0:
64,192,247281,1,0,0:0:0:0:
192,192,247281,1,0,0:0:0:0:
320,192,247349,128,0,247622:0:0:0:0:
448,192,247622,1,0,0:0:0:0:
192,192,247690,1,0,0:0:0:0:
64,192,247758,1,0,0:0:0:0:
448,192,247827,1,0,0:0:0:0:
192,192,247895,1,0,0:0:0:0:
320,192,247963,1,0,0:0:0:0:
64,192,248031,1,0,0:0:0:0:
192,192,248099,1,0,0:0:0:0:
64,192,248167,1,0,0:0:0:0:
320,192,248167,1,0,0:0:0:0:
448,192,248167,1,0,0:0:0:0:
192,192,248236,1,0,0:0:0:0:
320,192,248304,1,0,0:0:0:0:
64,192,248304,1,0,0:0:0:0:
448,192,248372,1,0,0:0:0:0:
192,192,248440,1,0,0:0:0:0:
320,192,248440,1,0,0:0:0:0:
64,192,248508,1,0,0:0:0:0:
192,192,248577,1,0,0:0:0:0:
448,192,248577,1,0,0:0:0:0:
320,192,248645,1,0,0:0:0:0:
64,192,248713,1,0,0:0:0:0:
192,192,248713,1,0,0:0:0:0:
448,192,248713,1,0,0:0:0:0:
320,192,248781,1,0,0:0:0:0:
64,192,248849,1,0,0:0:0:0:
448,192,248849,1,0,0:0:0:0:
320,192,248917,1,0,0:0:0:0:
192,192,248917,1,0,0:0:0:0:
64,192,248986,1,0,0:0:0:0:
448,192,249054,1,0,0:0:0:0:
320,192,249122,1,0,0:0:0:0:
192,192,249190,1,0,0:0:0:0:
64,192,249258,1,0,0:0:0:0:
320,192,249327,1,0,0:0:0:0:
192,192,249395,1,0,0:0:0:0:
64,192,249463,1,0,0:0:0:0:
192,192,249531,1,0,0:0:0:0:
320,192,249531,1,0,0:0:0:0:
448,192,249531,1,0,0:0:0:0:
64,192,249599,1,0,0:0:0:0:
192,192,249667,1,0,0:0:0:0:
448,192,249736,1,0,0:0:0:0:
320,192,249804,1,0,0:0:0:0:
192,192,249872,1,0,0:0:0:0:
64,192,249940,1,0,0:0:0:0:
448,192,249940,1,0,0:0:0:0:
320,192,250008,1,0,0:0:0:0:
192,192,250077,1,0,0:0:0:0:
64,192,250077,1,0,0:0:0:0:
448,192,250145,1,0,0:0:0:0:
320,192,250213,1,0,0:0:0:0:
64,192,250281,1,0,0:0:0:0:
192,192,250349,1,0,0:0:0:0:
320,192,250417,1,0,0:0:0:0:
448,192,250486,1,0,0:0:0:0:
64,192,250554,1,0,0:0:0:0:
320,192,250622,1,0,0:0:0:0:
192,192,250622,1,0,0:0:0:0:
448,192,250690,1,0,0:0:0:0:
192,192,250758,1,0,0:0:0:0:
64,192,250758,1,0,0:0:0:0:
320,192,250827,1,0,0:0:0:0:
192,192,250895,1,0,0:0:0:0:
448,192,250895,1,0,0:0:0:0:
64,192,250895,1,0,0:0:0:0:
320,192,250963,1,0,0:0:0:0:
448,192,251031,1,0,0:0:0:0:
192,192,251099,1,0,0:0:0:0:
320,192,251167,1,0,0:0:0:0:
64,192,251167,1,0,0:0:0:0:
192,192,251236,1,0,0:0:0:0:
448,192,251304,1,0,0:0:0:0:
64,192,251372,1,0,0:0:0:0:
192,192,251440,1,0,0:0:0:0:
320,192,251508,1,0,0:0:0:0:
64,192,251577,1,0,0:0:0:0:
192,192,251577,1,0,0:0:0:0:
448,192,251645,1,0,0:0:0:0:
320,192,251713,1,0,0:0:0:0:
192,192,251781,1,0,0:0:0:0:
320,192,251849,1,0,0:0:0:0:
64,192,251917,1,0,0:0:0:0:
192,192,251986,1,0,0:0:0:0:
320,192,251986,1,0,0:0:0:0:
448,192,252054,1,0,0:0:0:0:
320,192,252122,1,0,0:0:0:0:
448,192,252190,1,0,0:0:0:0:
192,192,252258,1,0,0:0:0:0:
64,192,252327,1,0,0:0:0:0:
320,192,252395,1,0,0:0:0:0:
448,192,252463,1,0,0:0:0:0:
192,192,252531,1,0,0:0:0:0:
64,192,252531,1,0,0:0:0:0:
320,192,252599,1,0,0:0:0:0:
448,192,252667,1,0,0:0:0:0:
64,192,252667,1,0,0:0:0:0:
192,192,252736,1,0,0:0:0:0:
64,192,252804,1,0,0:0:0:0:
320,192,252804,1,0,0:0:0:0:
192,192,252872,1,0,0:0:0:0:
320,192,252940,1,0,0:0:0:0:
448,192,252940,1,0,0:0:0:0:
192,192,253008,1,0,0:0:0:0:
64,192,253008,1,0,0:0:0:0:
320,192,253077,1,0,0:0:0:0:
448,192,253077,1,0,0:0:0:0:
448,192,253213,1,0,0:0:0:0:
64,192,253213,1,0,0:0:0:0:
64,192,253349,1,0,0:0:0:0:
320,192,253486,1,0,0:0:0:0:
192,192,253486,1,0,0:0:0:0:
64,192,253486,1,0,0:0:0:0:
448,192,253622,1,0,0:0:0:0:
192,192,253758,1,0,0:0:0:0:
320,192,253758,1,0,0:0:0:0:
448,192,253758,1,0,0:0:0:0:
64,192,253895,1,0,0:0:0:0:
64,192,254031,1,0,0:0:0:0:
192,192,254031,1,0,0:0:0:0:
320,192,254031,1,0,0:0:0:0:
448,192,254167,1,0,0:0:0:0:
448,192,254304,1,0,0:0:0:0:
192,192,254304,1,0,0:0:0:0:
64,192,254304,1,0,0:0:0:0:
320,192,254440,1,0,0:0:0:0:
192,192,254577,1,0,0:0:0:0:
320,192,254577,1,0,0:0:0:0:
64,192,254577,1,0,0:0:0:0:
448,192,254713,1,0,0:0:0:0:
448,192,254849,1,0,0:0:0:0:
320,192,254849,1,0,0:0:0:0:
64,192,254849,1,0,0:0:0:0:
192,192,254986,1,0,0:0:0:0:
448,192,255122,1,0,0:0:0:0:
320,192,255122,1,0,0:0:0:0:
192,192,255122,1,0,0:0:0:0:
64,192,255258,1,0,0:0:0:0:
64,192,255395,1,0,0:0:0:0:
320,192,255395,1,0,0:0:0:0:
448,192,255395,1,0,0:0:0:0:
192,192,255531,1,0,0:0:0:0:
64,192,255667,1,0,0:0:0:0:
192,192,255667,1,0,0:0:0:0:
320,192,255667,1,0,0:0:0:0:
448,192,255804,1,0,0:0:0:0:
448,192,255940,1,0,0:0:0:0:
192,192,255940,1,0,0:0:0:0:
64,192,255940,1,0,0:0:0:0:
320,192,256077,1,0,0:0:0:0:
192,192,256213,1,0,0:0:0:0:
320,192,256213,1,0,0:0:0:0:
448,192,256213,1,0,0:0:0:0:
64,192,256349,1,0,0:0:0:0:
192,192,256486,1,0,0:0:0:0:
320,192,256486,1,0,0:0:0:0:
64,192,256486,1,0,0:0:0:0:
448,192,256622,1,0,0:0:0:0:
448,192,256758,1,0,0:0:0:0:
64,192,256758,1,0,0:0:0:0:
320,192,256758,1,0,0:0:0:0:
192,192,256895,1,0,0:0:0:0:
64,192,257031,1,0,0:0:0:0:
320,192,257031,1,0,0:0:0:0:
192,192,257031,1,0,0:0:0:0:
448,192,257167,1,0,0:0:0:0:
320,192,257304,1,0,0:0:0:0:
192,192,257440,1,0,0:0:0:0:
64,192,257440,1,0,0:0:0:0:
448,192,257440,1,0,0:0:0:0:
320,192,257508,1,0,0:0:0:0:
192,192,257577,1,0,0:0:0:0:
64,192,257713,1,0,0:0:0:0:
192,192,257781,1,0,0:0:0:0:
448,192,257849,1,0,0:0:0:0:
320,192,257986,1,0,0:0:0:0:
64,192,258054,1,0,0:0:0:0:
192,192,258122,1,0,0:0:0:0:
64,192,258258,1,0,0:0:0:0:
448,192,258258,1,0,0:0:0:0:
320,192,258258,1,0,0:0:0:0:
192,192,258327,1,0,0:0:0:0:
320,192,258395,1,0,0:0:0:0:
448,192,258531,1,0,0:0:0:0:
64,192,258531,1,0,0:0:0:0:
320,192,258599,1,0,0:0:0:0:
192,192,258667,1,0,0:0:0:0:
64,192,258736,1,0,0:0:0:0:
320,192,258804,1,0,0:0:0:0:
448,192,258804,1,0,0:0:0:0:
64,192,258872,1,0,0:0:0:0:
192,192,259008,1,0,0:0:0:0:
320,192,259077,1,0,0:0:0:0:
448,192,259145,1,0,0:0:0:0:
64,192,259281,1,0,0:0:0:0:
192,192,259349,1,0,0:0:0:0:
320,192,259417,1,0,0:0:0:0:
448,192,259486,1,0,0:0:0:0:
320,192,259554,1,0,0:0:0:0:
64,192,259622,1,0,0:0:0:0:
192,192,259622,1,0,0:0:0:0:
448,192,259690,1,0,0:0:0:0:
64,192,259758,1,0,0:0:0:0:
320,192,259827,1,0,0:0:0:0:
448,192,259895,1,0,0:0:0:0:
192,192,259895,1,0,0:0:0:0:
64,192,259963,1,0,0:0:0:0:
448,192,260031,1,0,0:0:0:0:
320,192,260099,1,0,0:0:0:0:
192,192,260167,1,0,0:0:0:0:
64,192,260304,1,0,0:0:0:0:
192,192,260372,1,0,0:0:0:0:
448,192,260440,1,0,0:0:0:0:
320,192,260508,1,0,0:0:0:0:
192,192,260577,1,0,0:0:0:0:
448,192,260645,1,0,0:0:0:0:
64,192,260713,1,0,0:0:0:0:
192,192,260781,1,0,0:0:0:0:
320,192,260849,1,0,0:0:0:0:
448,192,260917,1,0,0:0:0:0:
192,192,260986,1,0,0:0:0:0:
64,192,260986,1,0,0:0:0:0:
320,192,261054,1,0,0:0:0:0:
448,192,261122,1,0,0:0:0:0:
192,192,261122,1,0,0:0:0:0:
64,192,261190,1,0,0:0:0:0:
448,192,261258,1,0,0:0:0:0:
320,192,261327,1,0,0:0:0:0:
192,192,261395,1,0,0:0:0:0:
64,192,261463,1,0,0:0:0:0:
448,192,261531,1,0,0:0:0:0:
320,192,261599,1,0,0:0:0:0:
64,192,261667,1,0,0:0:0:0:
192,192,261736,1,0,0:0:0:0:
64,192,261804,1,0,0:0:0:0:
448,192,261804,128,0,263986:0:0:0:0:
320,192,261804,1,0,0:0:0:0:
192,192,262077,1,0,0:0:0:0:
320,192,262349,1,0,0:0:0:0:
64,192,262622,1,0,0:0:0:0:
192,192,262895,1,0,0:0:0:0:
64,192,263167,1,0,0:0:0:0:
320,192,263440,1,0,0:0:0:0:
192,192,263713,1,0,0:0:0:0:
64,192,263986,1,0,0:0:0:0:
320,192,263986,128,0,266167:0:0:0:0:
192,192,264258,1,0,0:0:0:0:
448,192,264531,1,0,0:0:0:0:
64,192,264804,1,0,0:0:0:0:
448,192,265077,5,0,0:0:0:0:
192,192,265349,1,0,0:0:0:0:
448,192,265622,1,0,0:0:0:0:
64,192,265895,1,0,0:0:0:0:
192,192,266167,1,0,0:0:0:0:
64,192,266167,1,0,0:0:0:0:
448,192,266167,1,0,0:0:0:0:
448,192,266440,1,0,0:0:0:0:
192,192,266508,1,0,0:0:0:0:
448,192,266577,1,0,0:0:0:0:
192,192,266645,1,0,0:0:0:0:
448,192,266713,1,0,0:0:0:0:
192,192,266781,1,0,0:0:0:0:
448,192,266849,1,0,0:0:0:0:
192,192,266917,1,0,0:0:0:0:
448,192,266986,1,0,0:0:0:0:
192,192,267054,1,0,0:0:0:0:
448,192,267122,1,0,0:0:0:0:
192,192,267190,1,0,0:0:0:0:
320,192,267258,1,0,0:0:0:0:
448,192,267258,1,0,0:0:0:0:
64,192,267258,1,0,0:0:0:0:
64,192,267531,1,0,0:0:0:0:
192,192,267599,1,0,0:0:0:0:
320,192,267667,1,0,0:0:0:0:
448,192,267667,1,0,0:0:0:0:
192,192,267736,1,0,0:0:0:0:
64,192,267804,1,0,0:0:0:0:
192,192,267872,1,0,0:0:0:0:
64,192,267940,1,0,0:0:0:0:
192,192,268008,1,0,0:0:0:0:
320,192,268077,1,0,0:0:0:0:
448,192,268077,1,0,0:0:0:0:
192,192,268145,1,0,0:0:0:0:
64,192,268213,1,0,0:0:0:0:
192,192,268281,1,0,0:0:0:0:
320,192,268349,1,0,0:0:0:0:
448,192,268349,1,0,0:0:0:0:
448,192,268622,1,0,0:0:0:0:
64,192,268690,1,0,0:0:0:0:
448,192,268758,1,0,0:0:0:0:
64,192,268827,1,0,0:0:0:0:
448,192,268895,1,0,0:0:0:0:
64,192,268963,1,0,0:0:0:0:
448,192,269031,1,0,0:0:0:0:
64,192,269099,1,0,0:0:0:0:
448,192,269167,1,0,0:0:0:0:
64,192,269236,1,0,0:0:0:0:
448,192,269304,1,0,0:0:0:0:
64,192,269372,1,0,0:0:0:0:
448,192,269440,1,0,0:0:0:0:
320,192,269440,1,0,0:0:0:0:
192,192,269440,1,0,0:0:0:0:
448,192,269713,1,0,0:0:0:0:
320,192,269781,1,0,0:0:0:0:
64,192,269849,1,0,0:0:0:0:
192,192,269849,1,0,0:0:0:0:
320,192,269917,1,0,0:0:0:0:
192,192,269986,1,0,0:0:0:0:
320,192,270054,1,0,0:0:0:0:
192,192,270122,1,0,0:0:0:0:
320,192,270190,1,0,0:0:0:0:
64,192,270258,1,0,0:0:0:0:
448,192,270258,1,0,0:0:0:0:
320,192,270327,1,0,0:0:0:0:
192,192,270395,1,0,0:0:0:0:
320,192,270463,1,0,0:0:0:0:
64,192,270531,1,0,0:0:0:0:
448,192,270531,1,0,0:0:0:0:
320,192,270804,1,0,0:0:0:0:
64,192,270872,1,0,0:0:0:0:
320,192,270940,1,0,0:0:0:0:
64,192,271008,1,0,0:0:0:0:
320,192,271077,1,0,0:0:0:0:
64,192,271145,1,0,0:0:0:0:
320,192,271213,1,0,0:0:0:0:
64,192,271281,1,0,0:0:0:0:
320,192,271349,1,0,0:0:0:0:
64,192,271417,1,0,0:0:0:0:
320,192,271486,1,0,0:0:0:0:
64,192,271554,1,0,0:0:0:0:
192,192,271622,1,0,0:0:0:0:
448,192,271622,1,0,0:0:0:0:
320,192,271622,1,0,0:0:0:0:
192,192,271895,1,0,0:0:0:0:
320,192,271963,1,0,0:0:0:0:
64,192,272031,1,0,0:0:0:0:
448,192,272031,1,0,0:0:0:0:
192,192,272099,1,0,0:0:0:0:
64,192,272167,1,0,0:0:0:0:
448,192,272236,1,0,0:0:0:0:
192,192,272304,1,0,0:0:0:0:
320,192,272372,1,0,0:0:0:0:
64,192,272440,1,0,0:0:0:0:
448,192,272440,1,0,0:0:0:0:
320,192,272508,1,0,0:0:0:0:
448,192,272577,1,0,0:0:0:0:
64,192,272645,1,0,0:0:0:0:
320,192,272713,1,0,0:0:0:0:
448,192,272713,1,0,0:0:0:0:
64,192,272849,1,0,0:0:0:0:
192,192,272849,1,0,0:0:0:0:
320,192,272986,1,0,0:0:0:0:
192,192,273054,1,0,0:0:0:0:
64,192,273122,1,0,0:0:0:0:
320,192,273190,1,0,0:0:0:0:
448,192,273190,1,0,0:0:0:0:
64,192,273327,1,0,0:0:0:0:
192,192,273395,1,0,0:0:0:0:
320,192,273463,1,0,0:0:0:0:
64,192,273531,1,0,0:0:0:0:
320,192,273599,1,0,0:0:0:0:
192,192,273667,1,0,0:0:0:0:
64,192,273667,1,0,0:0:0:0:
448,192,273667,1,0,0:0:0:0:
320,192,273736,1,0,0:0:0:0:
448,192,273804,1,0,0:0:0:0:
192,192,273872,1,0,0:0:0:0:
320,192,273940,1,0,0:0:0:0:
64,192,274008,1,0,0:0:0:0:
192,192,274077,1,0,0:0:0:0:
320,192,274145,1,0,0:0:0:0:
448,192,274213,1,0,0:0:0:0:
320,192,274281,1,0,0:0:0:0:
64,192,274349,1,0,0:0:0:0:
192,192,274417,1,0,0:0:0:0:
448,192,274486,1,0,0:0:0:0:
320,192,274554,1,0,0:0:0:0:
448,192,274622,1,0,0:0:0:0:
192,192,274622,128,0,274758:0:0:0:0:
64,192,274622,1,0,0:0:0:0:
320,192,274758,128,0,274895:0:0:0:0:
192,192,274895,128,0,275031:0:0:0:0:
448,192,274895,128,0,275031:0:0:0:0:
64,192,275031,1,0,0:0:0:0:
320,192,275099,1,0,0:0:0:0:
192,192,275167,1,0,0:0:0:0:
448,192,275167,1,0,0:0:0:0:
64,192,275236,1,0,0:0:0:0:
320,192,275304,1,0,0:0:0:0:
448,192,275304,1,0,0:0:0:0:
192,192,275372,1,0,0:0:0:0:
64,192,275440,1,0,0:0:0:0:
320,192,275440,1,0,0:0:0:0:
448,192,275508,1,0,0:0:0:0:
64,192,275577,1,0,0:0:0:0:
192,192,275577,1,0,0:0:0:0:
320,192,275645,1,0,0:0:0:0:
448,192,275713,1,0,0:0:0:0:
192,192,275713,1,0,0:0:0:0:
64,192,275781,1,0,0:0:0:0:
320,192,275849,1,0,0:0:0:0:
448,192,275849,1,0,0:0:0:0:
192,192,275917,1,0,0:0:0:0:
64,192,275986,1,0,0:0:0:0:
448,192,275986,1,0,0:0:0:0:
320,192,276054,1,0,0:0:0:0:
192,192,276122,1,0,0:0:0:0:
64,192,276122,1,0,0:0:0:0:
448,192,276190,1,0,0:0:0:0:
320,192,276258,1,0,0:0:0:0:
192,192,276258,1,0,0:0:0:0:
64,192,276327,1,0,0:0:0:0:
448,192,276395,1,0,0:0:0:0:
320,192,276395,1,0,0:0:0:0:
192,192,276463,1,0,0:0:0:0:
64,192,276531,1,0,0:0:0:0:
448,192,276531,1,0,0:0:0:0:
320,192,276599,1,0,0:0:0:0:
192,192,276667,1,0,0:0:0:0:
64,192,276667,1,0,0:0:0:0:
320,192,276736,1,0,0:0:0:0:
448,192,276804,1,0,0:0:0:0:
192,192,276804,1,0,0:0:0:0:
64,192,276872,1,0,0:0:0:0:
320,192,276940,1,0,0:0:0:0:
448,192,276940,1,0,0:0:0:0:
64,192,277008,1,0,0:0:0:0:
192,192,277077,1,0,0:0:0:0:
320,192,277077,1,0,0:0:0:0:
448,192,277145,1,0,0:0:0:0:
64,192,277213,1,0,0:0:0:0:
192,192,277213,1,0,0:0:0:0:
320,192,277281,1,0,0:0:0:0:
448,192,277349,1,0,0:0:0:0:
192,192,277349,1,0,0:0:0:0:
320,192,277417,1,0,0:0:0:0:
64,192,277486,1,0,0:0:0:0:
448,192,277486,1,0,0:0:0:0:
192,192,277554,1,0,0:0:0:0:
320,192,277622,1,0,0:0:0:0:
448,192,277622,1,0,0:0:0:0:
64,192,277690,1,0,0:0:0:0:
192,192,277758,1,0,0:0:0:0:
320,192,277758,1,0,0:0:0:0:
448,192,277827,1,0,0:0:0:0:
64,192,277895,1,0,0:0:0:0:
192,192,277895,1,0,0:0:0:0:
320,192,277963,1,0,0:0:0:0:
448,192,278031,1,0,0:0:0:0:
64,192,278031,1,0,0:0:0:0:
192,192,278099,1,0,0:0:0:0:
320,192,278167,1,0,0:0:0:0:
448,192,278167,1,0,0:0:0:0:
192,192,278236,1,0,0:0:0:0:
64,192,278304,1,0,0:0:0:0:
448,192,278304,1,0,0:0:0:0:
320,192,278372,1,0,0:0:0:0:
192,192,278440,1,0,0:0:0:0:
64,192,278440,1,0,0:0:0:0:
320,192,278508,1,0,0:0:0:0:
448,192,278577,1,0,0:0:0:0:
64,192,278577,1,0,0:0:0:0:
192,192,278645,1,0,0:0:0:0:
320,192,278713,1,0,0:0:0:0:
448,192,278713,1,0,0:0:0:0:
64,192,278781,1,0,0:0:0:0:
192,192,278849,1,0,0:0:0:0:
320,192,278849,1,0,0:0:0:0:
64,192,278917,1,0,0:0:0:0:
448,192,278986,1,0,0:0:0:0:
192,192,278986,1,0,0:0:0:0:
320,192,279054,1,0,0:0:0:0:
64,192,279122,1,0,0:0:0:0:
448,192,279122,1,0,0:0:0:0:
192,192,279190,1,0,0:0:0:0:
320,192,279258,1,0,0:0:0:0:
448,192,279258,1,0,0:0:0:0:
192,192,279327,1,0,0:0:0:0:
64,192,279395,1,0,0:0:0:0:
320,192,279395,1,0,0:0:0:0:
448,192,279463,1,0,0:0:0:0:
64,192,279531,1,0,0:0:0:0:
192,192,279531,1,0,0:0:0:0:
320,192,279599,1,0,0:0:0:0:
448,192,279667,1,0,0:0:0:0:
192,192,279667,1,0,0:0:0:0:
64,192,279736,1,0,0:0:0:0:
320,192,279804,1,0,0:0:0:0:
448,192,279804,1,0,0:0:0:0:
192,192,279872,1,0,0:0:0:0:
64,192,279940,1,0,0:0:0:0:
320,192,279940,1,0,0:0:0:0:
192,192,280008,1,0,0:0:0:0:
448,192,280077,1,0,0:0:0:0:
64,192,280077,1,0,0:0:0:0:
320,192,280145,1,0,0:0:0:0:
192,192,280213,1,0,0:0:0:0:
64,192,280213,1,0,0:0:0:0:
320,192,280281,1,0,0:0:0:0:
448,192,280349,1,0,0:0:0:0:
192,192,280349,1,0,0:0:0:0:
64,192,280417,1,0,0:0:0:0:
320,192,280486,1,0,0:0:0:0:
448,192,280486,1,0,0:0:0:0:
192,192,280554,1,0,0:0:0:0:
320,192,280622,1,0,0:0:0:0:
448,192,280622,1,0,0:0:0:0:
64,192,280690,1,0,0:0:0:0:
192,192,280758,5,0,0:0:0:0:
320,192,280758,1,0,0:0:0:0:
448,192,280827,1,0,0:0:0:0:
64,192,280895,1,0,0:0:0:0:
192,192,280895,1,0,0:0:0:0:
320,192,280963,1,0,0:0:0:0:
448,192,281031,1,0,0:0:0:0:
64,192,281031,1,0,0:0:0:0:
192,192,281099,1,0,0:0:0:0:
320,192,281167,1,0,0:0:0:0:
448,192,281167,1,0,0:0:0:0:
64,192,281236,1,0,0:0:0:0:
192,192,281304,1,0,0:0:0:0:
320,192,281304,1,0,0:0:0:0:
448,192,281372,1,0,0:0:0:0:
64,192,281440,1,0,0:0:0:0:
192,192,281440,1,0,0:0:0:0:
320,192,281508,1,0,0:0:0:0:
448,192,281577,1,0,0:0:0:0:
64,192,281577,1,0,0:0:0:0:
192,192,281645,1,0,0:0:0:0:
448,192,281713,1,0,0:0:0:0:
64,192,281713,1,0,0:0:0:0:
320,192,281781,1,0,0:0:0:0:
192,192,281849,1,0,0:0:0:0:
448,192,281849,1,0,0:0:0:0:
64,192,281917,1,0,0:0:0:0:
320,192,281986,1,0,0:0:0:0:
192,192,281986,1,0,0:0:0:0:
448,192,282054,1,0,0:0:0:0:
64,192,282122,1,0,0:0:0:0:
192,192,282122,1,0,0:0:0:0:
320,192,282190,1,0,0:0:0:0:
448,192,282258,1,0,0:0:0:0:
64,192,282258,1,0,0:0:0:0:
192,192,282327,1,0,0:0:0:0:
320,192,282395,1,0,0:0:0:0:
448,192,282395,1,0,0:0:0:0:
64,192,282463,1,0,0:0:0:0:
192,192,282531,1,0,0:0:0:0:
320,192,282531,1,0,0:0:0:0:
448,192,282599,1,0,0:0:0:0:
64,192,282667,1,0,0:0:0:0:
192,192,282667,1,0,0:0:0:0:
320,192,282736,1,0,0:0:0:0:
448,192,282804,1,0,0:0:0:0:
192,192,282804,1,0,0:0:0:0:
64,192,282872,1,0,0:0:0:0:
448,192,282940,1,0,0:0:0:0:
320,192,283008,1,0,0:0:0:0:
192,192,283077,1,0,0:0:0:0:
64,192,283077,1,0,0:0:0:0:
448,192,283145,1,0,0:0:0:0:
320,192,283145,1,0,0:0:0:0:
192,192,283213,1,0,0:0:0:0:
64,192,283213,1,0,0:0:0:0:
320,192,283281,1,0,0:0:0:0:
448,192,283281,1,0,0:0:0:0:
192,192,283349,1,0,0:0:0:0:
64,192,283349,1,0,0:0:0:0:
320,192,283417,1,0,0:0:0:0:
448,192,283417,1,0,0:0:0:0:
192,192,283486,1,0,0:0:0:0:
64,192,283486,1,0,0:0:0:0:
320,192,283554,1,0,0:0:0:0:
448,192,283622,1,0,0:0:0:0:
192,192,283622,1,0,0:0:0:0:
64,192,283622,1,0,0:0:0:0:
320,192,283690,1,0,0:0:0:0:
448,192,283758,1,0,0:0:0:0:
64,192,283827,1,0,0:0:0:0:
192,192,283827,1,0,0:0:0:0:
448,192,283895,1,0,0:0:0:0:
320,192,283963,1,0,0:0:0:0:
192,192,283963,1,0,0:0:0:0:
64,192,284031,1,0,0:0:0:0:
320,192,284099,1,0,0:0:0:0:
448,192,284099,1,0,0:0:0:0:
64,192,284167,1,0,0:0:0:0:
192,192,284236,1,0,0:0:0:0:
448,192,284236,1,0,0:0:0:0:
320,192,284304,1,0,0:0:0:0:
192,192,284372,1,0,0:0:0:0:
64,192,284372,1,0,0:0:0:0:
448,192,284440,1,0,0:0:0:0:
320,192,284508,1,0,0:0:0:0:
64,192,284508,1,0,0:0:0:0:
192,192,284577,1,0,0:0:0:0:
320,192,284645,1,0,0:0:0:0:
448,192,284645,1,0,0:0:0:0:
64,192,284713,1,0,0:0:0:0:
192,192,284713,1,0,0:0:0:0:
448,192,284781,1,0,0:0:0:0:
320,192,284849,1,0,0:0:0:0:
64,192,284849,1,0,0:0:0:0:
192,192,284917,1,0,0:0:0:0:
320,192,284986,1,0,0:0:0:0:
448,192,284986,1,0,0:0:0:0:
64,192,285054,1,0,0:0:0:0:
192,192,285122,1,0,0:0:0:0:
320,192,285122,1,0,0:0:0:0:
448,192,285190,1,0,0:0:0:0:
64,192,285258,1,0,0:0:0:0:
192,192,285258,1,0,0:0:0:0:
320,192,285327,1,0,0:0:0:0:
448,192,285395,1,0,0:0:0:0:
64,192,285395,1,0,0:0:0:0:
192,192,285463,1,0,0:0:0:0:
320,192,285531,1,0,0:0:0:0:
448,192,285531,1,0,0:0:0:0:
192,192,285599,1,0,0:0:0:0:
64,192,285667,1,0,0:0:0:0:
448,192,285667,1,0,0:0:0:0:
320,192,285736,1,0,0:0:0:0:
192,192,285804,1,0,0:0:0:0:
64,192,285804,1,0,0:0:0:0:
320,192,285872,1,0,0:0:0:0:
448,192,285940,1,0,0:0:0:0:
192,192,285940,1,0,0:0:0:0:
64,192,286008,1,0,0:0:0:0:
320,192,286077,1,0,0:0:0:0:
448,192,286077,1,0,0:0:0:0:
192,192,286145,1,0,0:0:0:0:
64,192,286213,1,0,0:0:0:0:
448,192,286213,1,0,0:0:0:0:
320,192,286281,1,0,0:0:0:0:
192,192,286349,1,0,0:0:0:0:
64,192,286349,1,0,0:0:0:0:
448,192,286417,1,0,0:0:0:0:
320,192,286486,1,0,0:0:0:0:
192,192,286486,1,0,0:0:0:0:
64,192,286554,1,0,0:0:0:0:
448,192,286622,1,0,0:0:0:0:
320,192,286622,1,0,0:0:0:0:
192,192,286690,1,0,0:0:0:0:
64,192,286758,1,0,0:0:0:0:
448,192,286758,1,0,0:0:0:0:
320,192,286827,1,0,0:0:0:0:
192,192,286895,1,0,0:0:0:0:
64,192,286895,1,0,0:0:0:0:
320,192,286963,1,0,0:0:0:0:
448,192,287031,1,0,0:0:0:0:
192,192,287031,1,0,0:0:0:0:
64,192,287099,1,0,0:0:0:0:
320,192,287167,1,0,0:0:0:0:
448,192,287167,1,0,0:0:0:0:
64,192,287236,1,0,0:0:0:0:
192,192,287304,1,0,0:0:0:0:
320,192,287304,1,0,0:0:0:0:
448,192,287372,1,0,0:0:0:0:
64,192,287440,1,0,0:0:0:0:
192,192,287440,1,0,0:0:0:0:
320,192,287508,1,0,0:0:0:0:
448,192,287577,1,0,0:0:0:0:
192,192,287577,1,0,0:0:0:0:
320,192,287645,1,0,0:0:0:0:
64,192,287713,1,0,0:0:0:0:
448,192,287713,1,0,0:0:0:0:
192,192,287781,1,0,0:0:0:0:
320,192,287849,1,0,0:0:0:0:
448,192,287849,1,0,0:0:0:0:
64,192,287917,1,0,0:0:0:0:
192,192,287986,1,0,0:0:0:0:
320,192,287986,1,0,0:0:0:0:
448,192,288054,1,0,0:0:0:0:
64,192,288122,1,0,0:0:0:0:
192,192,288122,1,0,0:0:0:0:
320,192,288190,1,0,0:0:0:0:
448,192,288258,1,0,0:0:0:0:
64,192,288258,1,0,0:0:0:0:
192,192,288327,1,0,0:0:0:0:
320,192,288395,1,0,0:0:0:0:
448,192,288395,1,0,0:0:0:0:
192,192,288463,1,0,0:0:0:0:
64,192,288531,1,0,0:0:0:0:
448,192,288531,1,0,0:0:0:0:
320,192,288599,1,0,0:0:0:0:
192,192,288667,1,0,0:0:0:0:
64,192,288667,1,0,0:0:0:0:
320,192,288736,1,0,0:0:0:0:
448,192,288804,1,0,0:0:0:0:
64,192,288804,1,0,0:0:0:0:
192,192,288872,1,0,0:0:0:0:
320,192,288940,1,0,0:0:0:0:
448,192,288940,1,0,0:0:0:0:
64,192,289008,5,0,0:0:0:0:
192,192,289077,1,0,0:0:0:0:
320,192,289077,1,0,0:0:0:0:
64,192,289145,1,0,0:0:0:0:
448,192,289213,1,0,0:0:0:0:
192,192,289213,1,0,0:0:0:0:
320,192,289281,1,0,0:0:0:0:
64,192,289349,1,0,0:0:0:0:
448,192,289349,1,0,0:0:0:0:
192,192,289417,1,0,0:0:0:0:
320,192,289486,1,0,0:0:0:0:
448,192,289486,1,0,0:0:0:0:
192,192,289554,1,0,0:0:0:0:
64,192,289622,1,0,0:0:0:0:
320,192,289622,1,0,0:0:0:0:
448,192,289690,1,0,0:0:0:0:
64,192,289758,1,0,0:0:0:0:
192,192,289758,1,0,0:0:0:0:
320,192,289827,1,0,0:0:0:0:
448,192,289895,1,0,0:0:0:0:
64,192,289895,1,0,0:0:0:0:
192,192,289963,1,0,0:0:0:0:
320,192,290031,1,0,0:0:0:0:
448,192,290031,1,0,0:0:0:0:
192,192,290099,1,0,0:0:0:0:
448,192,290167,1,0,0:0:0:0:
320,192,290167,128,0,290713:0:0:0:0:
64,192,290167,1,0,0:0:0:0:
448,192,290440,128,0,290713:0:0:0:0:
64,192,290713,1,0,0:0:0:0:
192,192,290713,128,0,291258:0:0:0:0:
320,192,290986,128,0,291258:0:0:0:0:
448,192,291258,5,0,0:0:0:0:
64,192,291258,128,0,291531:0:0:0:0:
448,192,291531,128,0,291804:0:0:0:0:
320,192,291531,1,0,0:0:0:0:
64,192,291804,1,0,0:0:0:0:
192,192,291804,1,0,0:0:0:0:
64,192,292349,128,0,293440:0:0:0:0:
320,192,292349,1,0,0:0:0:0:
192,192,292349,1,0,0:0:0:0:
448,192,292349,1,0,0:0:0:0:
320,192,293167,128,0,293440:0:0:0:0:
192,192,293440,128,0,294395:0:0:0:0:
448,192,293440,1,0,0:0:0:0:
448,192,294258,128,0,294395:0:0:0:0:
64,192,294395,128,0,294531:0:0:0:0:
320,192,294531,128,0,295077:0:0:0:0:
192,192,294531,1,0,0:0:0:0:
448,192,294531,1,0,0:0:0:0:
192,192,295077,128,0,295622:0:0:0:0:
64,192,295077,1,0,0:0:0:0:
448,192,295622,1,0,0:0:0:0:
320,192,295622,1,0,0:0:0:0:
64,192,295758,1,0,0:0:0:0:
448,192,295758,1,0,0:0:0:0:
192,192,295827,1,0,0:0:0:0:
320,192,295895,1,0,0:0:0:0:
64,192,295895,1,0,0:0:0:0:
448,192,296031,1,0,0:0:0:0:
320,192,296167,1,0,0:0:0:0:
64,192,296167,1,0,0:0:0:0:
192,192,296304,1,0,0:0:0:0:
64,192,296304,1,0,0:0:0:0:
320,192,296440,1,0,0:0:0:0:
448,192,296440,1,0,0:0:0:0:
192,192,296577,1,0,0:0:0:0:
64,192,296577,1,0,0:0:0:0:
448,192,296713,1,0,0:0:0:0:
64,192,296713,1,0,0:0:0:0:
320,192,296713,128,0,296986:0:0:0:0:
192,192,296713,1,0,0:0:0:0:
192,192,296986,1,0,0:0:0:0:
64,192,296986,1,0,0:0:0:0:
320,192,297122,128,0,297395:0:0:0:0:
448,192,297122,1,0,0:0:0:0:
192,192,297395,1,0,0:0:0:0:
448,192,297395,1,0,0:0:0:0:
64,192,297531,128,0,297804:0:0:0:0:
192,192,297531,1,0,0:0:0:0:
448,192,297804,128,0,298077:0:0:0:0:
320,192,297804,1,0,0:0:0:0:
192,192,298077,128,0,298349:0:0:0:0:
64,192,298077,1,0,0:0:0:0:
64,192,298349,128,0,298622:0:0:0:0:
448,192,298349,1,0,0:0:0:0:
320,192,298486,1,0,0:0:0:0:
448,192,298486,1,0,0:0:0:0:
192,192,298622,1,0,0:0:0:0:
448,192,298622,128,0,298895:0:0:0:0:
320,192,298895,1,0,0:0:0:0:
64,192,298895,128,0,299167:0:0:0:0:
192,192,298895,1,0,0:0:0:0:
448,192,299167,1,0,0:0:0:0:
320,192,299167,1,0,0:0:0:0:
320,192,299304,128,0,299577:0:0:0:0:
64,192,299304,1,0,0:0:0:0:
64,192,299577,1,0,0:0:0:0:
448,192,299577,1,0,0:0:0:0:
448,192,299713,128,0,299986:0:0:0:0:
192,192,299713,1,0,0:0:0:0:
64,192,299849,1,0,0:0:0:0:
320,192,299986,128,0,300258:0:0:0:0:
192,192,299986,1,0,0:0:0:0:
448,192,300258,1,0,0:0:0:0:
64,192,300258,1,0,0:0:0:0:
448,192,300531,128,0,300804:0:0:0:0:
64,192,300531,1,0,0:0:0:0:
192,192,300667,1,0,0:0:0:0:
320,192,300667,1,0,0:0:0:0:
320,192,300804,1,0,0:0:0:0:
64,192,300804,1,0,0:0:0:0:
448,192,300940,1,0,0:0:0:0:
192,192,300940,1,0,0:0:0:0:
64,192,301077,1,0,0:0:0:0:
192,192,301077,1,0,0:0:0:0:
320,192,301077,1,0,0:0:0:0:
320,192,301213,1,0,0:0:0:0:
448,192,301213,1,0,0:0:0:0:
192,192,301349,1,0,0:0:0:0:
320,192,301349,1,0,0:0:0:0:
64,192,301486,1,0,0:0:0:0:
192,192,301486,1,0,0:0:0:0:
64,192,301622,1,0,0:0:0:0:
320,192,301622,1,0,0:0:0:0:
192,192,301758,1,0,0:0:0:0:
448,192,301758,1,0,0:0:0:0:
192,192,301895,1,0,0:0:0:0:
320,192,301895,1,0,0:0:0:0:
64,192,302031,1,0,0:0:0:0:
448,192,302031,1,0,0:0:0:0:
64,192,302167,1,0,0:0:0:0:
192,192,302167,1,0,0:0:0:0:
448,192,302304,1,0,0:0:0:0:
320,192,302304,1,0,0:0:0:0:
192,192,302440,1,0,0:0:0:0:
448,192,302440,1,0,0:0:0:0:
64,192,302577,1,0,0:0:0:0:
320,192,302577,1,0,0:0:0:0:
64,192,302713,1,0,0:0:0:0:
192,192,302713,1,0,0:0:0:0:
192,192,302849,1,0,0:0:0:0:
448,192,302849,1,0,0:0:0:0:
64,192,302986,1,0,0:0:0:0:
448,192,302986,1,0,0:0:0:0:
64,192,303122,1,0,0:0:0:0:
320,192,303122,1,0,0:0:0:0:
192,192,303258,1,0,0:0:0:0:
320,192,303258,1,0,0:0:0:0:
192,192,303395,1,0,0:0:0:0:
448,192,303395,1,0,0:0:0:0:
64,192,303531,1,0,0:0:0:0:
448,192,303531,1,0,0:0:0:0:
64,192,303667,1,0,0:0:0:0:
320,192,303667,1,0,0:0:0:0:
192,192,303804,1,0,0:0:0:0:
320,192,303804,1,0,0:0:0:0:
192,192,303940,1,0,0:0:0:0:
448,192,303940,1,0,0:0:0:0:
64,192,304077,1,0,0:0:0:0:
448,192,304077,1,0,0:0:0:0:
64,192,304213,1,0,0:0:0:0:
192,192,304213,1,0,0:0:0:0:
192,192,304349,1,0,0:0:0:0:
320,192,304349,1,0,0:0:0:0:
320,192,304486,1,0,0:0:0:0:
448,192,304486,1,0,0:0:0:0:
64,192,304622,1,0,0:0:0:0:
448,192,304622,1,0,0:0:0:0:
64,192,304758,1,0,0:0:0:0:
192,192,304758,1,0,0:0:0:0:
192,192,304895,1,0,0:0:0:0:
320,192,304895,1,0,0:0:0:0:
64,192,305031,1,0,0:0:0:0:
448,192,305031,1,0,0:0:0:0:
64,192,305167,1,0,0:0:0:0:
448,192,305167,1,0,0:0:0:0:
192,192,305167,1,0,0:0:0:0:
192,192,305304,1,0,0:0:0:0:
320,192,305304,1,0,0:0:0:0:
320,192,305440,1,0,0:0:0:0:
64,192,305440,1,0,0:0:0:0:
448,192,305440,1,0,0:0:0:0:
64,192,305577,1,0,0:0:0:0:
192,192,305577,1,0,0:0:0:0:
320,192,305645,1,0,0:0:0:0:
448,192,305645,1,0,0:0:0:0:
192,192,305713,1,0,0:0:0:0:
64,192,305781,1,0,0:0:0:0:
320,192,305849,1,0,0:0:0:0:
448,192,305917,1,0,0:0:0:0:
192,192,305986,1,0,0:0:0:0:
320,192,306054,1,0,0:0:0:0:
64,192,306122,1,0,0:0:0:0:
192,192,306190,1,0,0:0:0:0:
320,192,306258,1,0,0:0:0:0:
192,192,306327,1,0,0:0:0:0:
320,192,306395,1,0,0:0:0:0:
448,192,306463,1,0,0:0:0:0:
64,192,306531,1,0,0:0:0:0:
192,192,306599,1,0,0:0:0:0:
448,192,306667,1,0,0:0:0:0:
320,192,306667,1,0,0:0:0:0:
64,192,306736,1,0,0:0:0:0:
192,192,306736,1,0,0:0:0:0:
448,192,306804,1,0,0:0:0:0:
320,192,306804,1,0,0:0:0:0:
192,192,306872,1,0,0:0:0:0:
64,192,306872,1,0,0:0:0:0:
448,192,306940,1,0,0:0:0:0:
320,192,307008,1,0,0:0:0:0:
192,192,307077,1,0,0:0:0:0:
64,192,307145,1,0,0:0:0:0:
192,192,307213,1,0,0:0:0:0:
320,192,307281,1,0,0:0:0:0:
448,192,307349,1,0,0:0:0:0:
320,192,307417,1,0,0:0:0:0:
192,192,307486,1,0,0:0:0:0:
64,192,307486,1,0,0:0:0:0:
320,192,307554,1,0,0:0:0:0:
448,192,307554,1,0,0:0:0:0:
192,192,307622,128,0,307895:0:0:0:0:
64,192,307622,1,0,0:0:0:0:
64,192,308167,128,0,308713:0:0:0:0:
192,192,308713,128,0,309258:0:0:0:0:
448,192,309258,128,0,309804:0:0:0:0:
320,192,309804,128,0,310895:0:0:0:0:
192,192,309804,1,0,0:0:0:0:
64,192,309940,1,0,0:0:0:0:
192,192,309940,1,0,0:0:0:0:
448,192,310077,1,0,0:0:0:0:
64,192,310213,1,0,0:0:0:0:
192,192,310213,1,0,0:0:0:0:
64,192,310349,1,0,0:0:0:0:
192,192,310486,1,0,0:0:0:0:
448,192,310486,1,0,0:0:0:0:
64,192,310622,1,0,0:0:0:0:
192,192,310758,1,0,0:0:0:0:
448,192,310758,1,0,0:0:0:0:
192,192,310895,1,0,0:0:0:0:
64,192,310895,128,0,311986:0:0:0:0:
448,192,311031,1,0,0:0:0:0:
320,192,311031,1,0,0:0:0:0:
448,192,311167,1,0,0:0:0:0:
192,192,311304,1,0,0:0:0:0:
320,192,311304,1,0,0:0:0:0:
192,192,311440,1,0,0:0:0:0:
320,192,311577,1,0,0:0:0:0:
448,192,311577,1,0,0:0:0:0:
320,192,311713,1,0,0:0:0:0:
192,192,311849,1,0,0:0:0:0:
448,192,311849,1,0,0:0:0:0:
192,192,311986,128,0,313077:0:0:0:0:
448,192,311986,1,0,0:0:0:0:
320,192,312122,1,0,0:0:0:0:
64,192,312122,1,0,0:0:0:0:
320,192,312258,1,0,0:0:0:0:
64,192,312395,1,0,0:0:0:0:
448,192,312395,1,0,0:0:0:0:
320,192,312531,1,0,0:0:0:0:
64,192,312667,1,0,0:0:0:0:
320,192,312667,1,0,0:0:0:0:
448,192,312804,1,0,0:0:0:0:
448,192,312940,1,0,0:0:0:0:
64,192,312940,1,0,0:0:0:0:
320,192,313077,128,0,313622:0:0:0:0:
64,192,313077,1,0,0:0:0:0:
448,192,313213,1,0,0:0:0:0:
192,192,313213,1,0,0:0:0:0:
192,192,313349,1,0,0:0:0:0:
64,192,313486,1,0,0:0:0:0:
448,192,313486,1,0,0:0:0:0:
448,192,313622,1,0,0:0:0:0:
192,192,313622,128,0,314167:0:0:0:0:
64,192,313758,1,0,0:0:0:0:
320,192,313758,1,0,0:0:0:0:
320,192,313895,1,0,0:0:0:0:
448,192,314031,1,0,0:0:0:0:
64,192,314031,1,0,0:0:0:0:
448,192,314167,1,0,0:0:0:0:
64,192,314167,128,0,315258:0:0:0:0:
320,192,314304,1,0,0:0:0:0:
192,192,314304,1,0,0:0:0:0:
192,192,314440,1,0,0:0:0:0:
320,192,314577,1,0,0:0:0:0:
448,192,314577,1,0,0:0:0:0:
320,192,314713,1,0,0:0:0:0:
192,192,314849,1,0,0:0:0:0:
448,192,314849,1,0,0:0:0:0:
448,192,314986,1,0,0:0:0:0:
192,192,315122,1,0,0:0:0:0:
320,192,315122,1,0,0:0:0:0:
192,192,315258,1,0,0:0:0:0:
320,192,315258,128,0,316349:0:0:0:0:
64,192,315395,1,0,0:0:0:0:
448,192,315395,1,0,0:0:0:0:
64,192,315531,1,0,0:0:0:0:
192,192,315667,1,0,0:0:0:0:
448,192,315667,1,0,0:0:0:0:
448,192,315804,1,0,0:0:0:0:
64,192,315940,1,0,0:0:0:0:
192,192,315940,1,0,0:0:0:0:
448,192,316077,1,0,0:0:0:0:
64,192,316213,1,0,0:0:0:0:
192,192,316213,1,0,0:0:0:0:
448,192,316349,128,0,317440:0:0:0:0:
192,192,316349,1,0,0:0:0:0:
192,192,316486,1,0,0:0:0:0:
64,192,316486,1,0,0:0:0:0:
192,192,316622,1,0,0:0:0:0:
320,192,316758,1,0,0:0:0:0:
64,192,316758,1,0,0:0:0:0:
64,192,316895,1,0,0:0:0:0:
192,192,317031,1,0,0:0:0:0:
320,192,317031,1,0,0:0:0:0:
320,192,317167,1,0,0:0:0:0:
192,192,317304,1,0,0:0:0:0:
64,192,317304,1,0,0:0:0:0:
192,192,317440,128,0,318531:0:0:0:0:
320,192,317440,1,0,0:0:0:0:
64,192,317577,1,0,0:0:0:0:
448,192,317577,1,0,0:0:0:0:
64,192,317713,1,0,0:0:0:0:
448,192,317849,1,0,0:0:0:0:
320,192,317849,1,0,0:0:0:0:
448,192,317986,1,0,0:0:0:0:
320,192,318054,1,0,0:0:0:0:
64,192,318122,1,0,0:0:0:0:
64,192,318258,1,0,0:0:0:0:
320,192,318258,1,0,0:0:0:0:
448,192,318395,1,0,0:0:0:0:
448,192,318531,128,0,319622:0:0:0:0:
64,192,318531,1,0,0:0:0:0:
320,192,318599,1,0,0:0:0:0:
64,192,318667,1,0,0:0:0:0:
192,192,318667,1,0,0:0:0:0:
320,192,318804,1,0,0:0:0:0:
192,192,318872,1,0,0:0:0:0:
64,192,318940,1,0,0:0:0:0:
320,192,318940,1,0,0:0:0:0:
192,192,319077,1,0,0:0:0:0:
320,192,319145,1,0,0:0:0:0:
192,192,319213,1,0,0:0:0:0:
64,192,319213,1,0,0:0:0:0:
320,192,319349,1,0,0:0:0:0:
192,192,319417,1,0,0:0:0:0:
320,192,319486,1,0,0:0:0:0:
64,192,319486,1,0,0:0:0:0:
192,192,319622,1,0,0:0:0:0:
64,192,319622,128,0,320713:0:0:0:0:
320,192,319690,1,0,0:0:0:0:
192,192,319758,1,0,0:0:0:0:
448,192,319758,1,0,0:0:0:0:
320,192,319895,1,0,0:0:0:0:
448,192,319963,1,0,0:0:0:0:
320,192,320031,1,0,0:0:0:0:
192,192,320031,1,0,0:0:0:0:
448,192,320167,1,0,0:0:0:0:
320,192,320236,1,0,0:0:0:0:
192,192,320304,1,0,0:0:0:0:
448,192,320304,1,0,0:0:0:0:
320,192,320440,1,0,0:0:0:0:
192,192,320508,1,0,0:0:0:0:
320,192,320577,1,0,0:0:0:0:
448,192,320577,1,0,0:0:0:0:
320,192,320713,128,0,321804:0:0:0:0:
448,192,320713,1,0,0:0:0:0:
192,192,320781,1,0,0:0:0:0:
64,192,320849,1,0,0:0:0:0:
448,192,320849,1,0,0:0:0:0:
192,192,320986,1,0,0:0:0:0:
448,192,321054,1,0,0:0:0:0:
64,192,321122,1,0,0:0:0:0:
192,192,321122,1,0,0:0:0:0:
64,192,321258,1,0,0:0:0:0:
192,192,321327,1,0,0:0:0:0:
448,192,321395,1,0,0:0:0:0:
64,192,321395,1,0,0:0:0:0:
192,192,321531,1,0,0:0:0:0:
448,192,321599,1,0,0:0:0:0:
64,192,321667,1,0,0:0:0:0:
192,192,321667,1,0,0:0:0:0:
192,192,321804,128,0,322349:0:0:0:0:
64,192,321804,1,0,0:0:0:0:
448,192,321872,1,0,0:0:0:0:
320,192,321940,1,0,0:0:0:0:
64,192,321940,1,0,0:0:0:0:
448,192,322077,1,0,0:0:0:0:
320,192,322145,1,0,0:0:0:0:
64,192,322213,1,0,0:0:0:0:
448,192,322213,1,0,0:0:0:0:
320,192,322349,128,0,322895:0:0:0:0:
448,192,322349,1,0,0:0:0:0:
64,192,322417,1,0,0:0:0:0:
192,192,322486,1,0,0:0:0:0:
448,192,322486,1,0,0:0:0:0:
64,192,322622,1,0,0:0:0:0:
192,192,322690,1,0,0:0:0:0:
448,192,322758,1,0,0:0:0:0:
64,192,322758,1,0,0:0:0:0:
192,192,322895,128,0,323440:0:0:0:0:
64,192,322895,1,0,0:0:0:0:
448,192,323031,1,0,0:0:0:0:
320,192,323031,1,0,0:0:0:0:
64,192,323167,1,0,0:0:0:0:
320,192,323304,1,0,0:0:0:0:
448,192,323304,1,0,0:0:0:0:
64,192,323440,128,0,323577:0:0:0:0:
320,192,323440,1,0,0:0:0:0:
320,192,323577,128,0,323713:0:0:0:0:
448,192,323577,1,0,0:0:0:0:
192,192,323713,128,0,323849:0:0:0:0:
64,192,323713,1,0,0:0:0:0:
448,192,323849,128,0,323986:0:0:0:0:
320,192,323986,128,0,324122:0:0:0:0:
64,192,324122,1,0,0:0:0:0:
192,192,324122,1,0,0:0:0:0:
192,192,324258,128,0,324395:0:0:0:0:
448,192,324395,128,0,324531:0:0:0:0:
64,192,324395,1,0,0:0:0:0:
64,192,324531,128,0,324667:0:0:0:0:
192,192,324667,1,0,0:0:0:0:
448,192,324667,128,0,324804:0:0:0:0:
192,192,324804,128,0,324940:0:0:0:0:
320,192,324940,1,0,0:0:0:0:
448,192,324940,1,0,0:0:0:0:
64,192,325077,128,0,326167:0:0:0:0:
448,192,325213,1,0,0:0:0:0:
320,192,325281,1,0,0:0:0:0:
192,192,325349,1,0,0:0:0:0:
448,192,325417,1,0,0:0:0:0:
320,192,325554,1,0,0:0:0:0:
192,192,325622,1,0,0:0:0:0:
320,192,325758,1,0,0:0:0:0:
448,192,325758,1,0,0:0:0:0:
192,192,325895,1,0,0:0:0:0:
320,192,325963,1,0,0:0:0:0:
448,192,326031,1,0,0:0:0:0:
448,192,326167,128,0,327258:0:0:0:0:
192,192,326167,1,0,0:0:0:0:
320,192,326167,1,0,0:0:0:0:
64,192,326304,1,0,0:0:0:0:
192,192,326372,1,0,0:0:0:0:
320,192,326440,1,0,0:0:0:0:
64,192,326508,1,0,0:0:0:0:
192,192,326577,1,0,0:0:0:0:
64,192,326645,1,0,0:0:0:0:
320,192,326713,1,0,0:0:0:0:
192,192,326781,1,0,0:0:0:0:
64,192,326849,1,0,0:0:0:0:
320,192,326917,1,0,0:0:0:0:
192,192,326986,1,0,0:0:0:0:
64,192,327054,1,0,0:0:0:0:
192,192,327122,1,0,0:0:0:0:
320,192,327190,1,0,0:0:0:0:
192,192,327258,1,0,0:0:0:0:
64,192,327258,128,0,327804:0:0:0:0:
320,192,327395,1,0,0:0:0:0:
448,192,327395,1,0,0:0:0:0:
192,192,327531,1,0,0:0:0:0:
448,192,327667,1,0,0:0:0:0:
320,192,327667,1,0,0:0:0:0:
192,192,327804,128,0,328077:0:0:0:0:
320,192,327940,1,0,0:0:0:0:
64,192,327940,1,0,0:0:0:0:
448,192,328077,128,0,328349:0:0:0:0:
192,192,328213,128,0,328349:0:0:0:0:
320,192,328349,128,0,328622:0:0:0:0:
64,192,328349,1,0,0:0:0:0:
192,192,328486,1,0,0:0:0:0:
448,192,328486,1,0,0:0:0:0:
64,192,328622,128,0,328895:0:0:0:0:
192,192,328758,1,0,0:0:0:0:
448,192,328758,1,0,0:0:0:0:
192,192,328895,128,0,329167:0:0:0:0:
320,192,329031,1,0,0:0:0:0:
448,192,329031,1,0,0:0:0:0:
448,192,329167,128,0,329440:0:0:0:0:
320,192,329304,1,0,0:0:0:0:
64,192,329304,1,0,0:0:0:0:
320,192,329440,128,0,329713:0:0:0:0:
192,192,329440,1,0,0:0:0:0:
64,192,329577,1,0,0:0:0:0:
448,192,329577,1,0,0:0:0:0:
64,192,329713,128,0,329986:0:0:0:0:
320,192,329849,1,0,0:0:0:0:
448,192,329849,1,0,0:0:0:0:
192,192,329986,128,0,330190:0:0:0:0:
64,192,330122,1,0,0:0:0:0:
448,192,330190,128,0,330531:0:0:0:0:
320,192,330258,1,0,0:0:0:0:
64,192,330395,128,0,330531:0:0:0:0:
192,192,330531,128,0,330804:0:0:0:0:
320,192,330531,1,0,0:0:0:0:
448,192,330667,1,0,0:0:0:0:
64,192,330667,1,0,0:0:0:0:
320,192,330804,128,0,330940:0:0:0:0:
448,192,330940,128,0,331077:0:0:0:0:
64,192,330940,1,0,0:0:0:0:
192,192,331077,128,0,331213:0:0:0:0:
320,192,331145,1,0,0:0:0:0:
64,192,331213,128,0,331349:0:0:0:0:
448,192,331213,1,0,0:0:0:0:
320,192,331349,128,0,331486:0:0:0:0:
448,192,331486,128,0,331622:0:0:0:0:
192,192,331486,1,0,0:0:0:0:
64,192,331622,128,0,332031:0:0:0:0:
192,192,331758,1,0,0:0:0:0:
448,192,331758,1,0,0:0:0:0:
320,192,331895,1,0,0:0:0:0:
192,192,332031,1,0,0:0:0:0:
448,192,332031,128,0,332167:0:0:0:0:
192,192,332167,128,0,332440:0:0:0:0:
320,192,332167,1,0,0:0:0:0:
64,192,332304,1,0,0:0:0:0:
448,192,332304,1,0,0:0:0:0:
320,192,332440,128,0,332577:0:0:0:0:
192,192,332577,128,0,332713:0:0:0:0:
64,192,332577,1,0,0:0:0:0:
448,192,332577,1,0,0:0:0:0:
448,192,332713,128,0,332986:0:0:0:0:
64,192,332713,1,0,0:0:0:0:
320,192,332849,1,0,0:0:0:0:
192,192,332849,1,0,0:0:0:0:
64,192,332986,128,0,333258:0:0:0:0:
192,192,332986,1,0,0:0:0:0:
320,192,333122,1,0,0:0:0:0:
448,192,333122,1,0,0:0:0:0:
192,192,333258,128,0,333531:0:0:0:0:
448,192,333395,1,0,0:0:0:0:
64,192,333395,1,0,0:0:0:0:
320,192,333531,128,0,333804:0:0:0:0:
64,192,333667,1,0,0:0:0:0:
192,192,333667,1,0,0:0:0:0:
448,192,333804,128,0,334077:0:0:0:0:
64,192,333804,1,0,0:0:0:0:
192,192,333940,1,0,0:0:0:0:
320,192,333940,1,0,0:0:0:0:
64,192,334077,128,0,334349:0:0:0:0:
448,192,334213,1,0,0:0:0:0:
192,192,334213,1,0,0:0:0:0:
192,192,334349,128,0,334486:0:0:0:0:
320,192,334349,1,0,0:0:0:0:
448,192,334417,1,0,0:0:0:0:
320,192,334486,128,0,334690:0:0:0:0:
64,192,334486,1,0,0:0:0:0:
64,192,334690,128,0,334895:0:0:0:0:
448,192,334895,128,0,335167:0:0:0:0:
192,192,334895,1,0,0:0:0:0:
64,192,335167,128,0,335304:0:0:0:0:
192,192,335440,128,0,335577:0:0:0:0:
320,192,335713,128,0,335849:0:0:0:0:
64,192,335986,128,0,336122:0:0:0:0:
192,192,336258,128,0,336395:0:0:0:0:
448,192,336531,128,0,336667:0:0:0:0:
320,192,336667,128,0,336804:0:0:0:0:
64,192,336804,1,0,0:0:0:0:
192,192,336804,1,0,0:0:0:0:
192,192,337077,1,0,0:0:0:0:
64,192,337077,1,0,0:0:0:0:
320,192,337213,128,0,337349:0:0:0:0:
448,192,337213,1,0,0:0:0:0:
64,192,337349,128,0,337486:0:0:0:0:
192,192,337622,128,0,337758:0:0:0:0:
320,192,337895,128,0,338031:0:0:0:0:
64,192,338167,128,0,338304:0:0:0:0:
320,192,338440,128,0,338577:0:0:0:0:
448,192,338713,128,0,338849:0:0:0:0:
320,192,338849,128,0,338986:0:0:0:0:
192,192,338986,128,0,339122:0:0:0:0:
64,192,339122,128,0,339258:0:0:0:0:
320,192,339258,1,0,0:0:0:0:
448,192,339258,1,0,0:0:0:0:
192,192,339395,1,0,0:0:0:0:
320,192,339531,1,0,0:0:0:0:
448,192,339531,1,0,0:0:0:0:
192,192,339531,1,0,0:0:0:0:
64,192,339667,1,0,0:0:0:0:
64,192,339804,1,0,0:0:0:0:
192,192,339804,1,0,0:0:0:0:
320,192,339804,1,0,0:0:0:0:
320,192,339940,1,0,0:0:0:0:
192,192,340077,1,0,0:0:0:0:
64,192,340077,1,0,0:0:0:0:
448,192,340077,1,0,0:0:0:0:
448,192,340213,1,0,0:0:0:0:
64,192,340349,1,0,0:0:0:0:
192,192,340349,1,0,0:0:0:0:
320,192,340349,1,0,0:0:0:0:
192,192,340486,1,0,0:0:0:0:
64,192,340622,1,0,0:0:0:0:
320,192,340622,1,0,0:0:0:0:
448,192,340622,1,0,0:0:0:0:
64,192,340758,1,0,0:0:0:0:
192,192,340895,1,0,0:0:0:0:
320,192,340895,1,0,0:0:0:0:
448,192,340895,1,0,0:0:0:0:
192,192,341031,1,0,0:0:0:0:
64,192,341167,1,0,0:0:0:0:
320,192,341167,1,0,0:0:0:0:
448,192,341167,1,0,0:0:0:0:
320,192,341304,1,0,0:0:0:0:
448,192,341440,1,0,0:0:0:0:
64,192,341440,1,0,0:0:0:0:
192,192,341440,128,0,342258:0:0:0:0:
320,192,342258,1,0,0:0:0:0:
448,192,342258,1,0,0:0:0:0:
64,192,342395,1,0,0:0:0:0:
192,192,342395,1,0,0:0:0:0:
320,192,342531,1,0,0:0:0:0:
448,192,342531,1,0,0:0:0:0:
320,192,342667,1,0,0:0:0:0:
448,192,342667,1,0,0:0:0:0:
448,192,343077,1,0,0:0:0:0:
64,192,343077,1,0,0:0:0:0:
320,192,343213,1,0,0:0:0:0:
192,192,343213,1,0,0:0:0:0:
192,192,343622,5,0,0:0:0:0:
448,192,343622,1,0,0:0:0:0:
64,192,343622,1,0,0:0:0:0:
320,192,343690,1,0,0:0:0:0:
448,192,343758,1,0,0:0:0:0:
192,192,343758,1,0,0:0:0:0:
64,192,343827,1,0,0:0:0:0:
320,192,343895,1,0,0:0:0:0:
448,192,343895,1,0,0:0:0:0:
192,192,343963,1,0,0:0:0:0:
64,192,344031,1,0,0:0:0:0:
320,192,344031,1,0,0:0:0:0:
448,192,344099,1,0,0:0:0:0:
192,192,344167,1,0,0:0:0:0:
320,192,344167,1,0,0:0:0:0:
64,192,344236,1,0,0:0:0:0:
320,192,344304,1,0,0:0:0:0:
448,192,344304,1,0,0:0:0:0:
192,192,344372,1,0,0:0:0:0:
64,192,344440,1,0,0:0:0:0:
448,192,344440,1,0,0:0:0:0:
320,192,344508,1,0,0:0:0:0:
192,192,344577,1,0,0:0:0:0:
64,192,344577,1,0,0:0:0:0:
320,192,344645,1,0,0:0:0:0:
448,192,344713,1,0,0:0:0:0:
192,192,344713,1,0,0:0:0:0:
64,192,344781,1,0,0:0:0:0:
320,192,344849,1,0,0:0:0:0:
448,192,344849,1,0,0:0:0:0:
192,192,344917,1,0,0:0:0:0:
64,192,344986,1,0,0:0:0:0:
320,192,344986,1,0,0:0:0:0:
448,192,345054,1,0,0:0:0:0:
64,192,345122,1,0,0:0:0:0:
192,192,345122,1,0,0:0:0:0:
320,192,345190,1,0,0:0:0:0:
448,192,345258,1,0,0:0:0:0:
64,192,345258,1,0,0:0:0:0:
192,192,345327,1,0,0:0:0:0:
320,192,345395,1,0,0:0:0:0:
448,192,345395,1,0,0:0:0:0:
64,192,345463,1,0,0:0:0:0:
192,192,345531,1,0,0:0:0:0:
320,192,345531,1,0,0:0:0:0:
448,192,345599,1,0,0:0:0:0:
64,192,345667,1,0,0:0:0:0:
320,192,345667,1,0,0:0:0:0:
192,192,345736,1,0,0:0:0:0:
320,192,345804,1,0,0:0:0:0:
448,192,345804,1,0,0:0:0:0:
192,192,345872,1,0,0:0:0:0:
64,192,345940,1,0,0:0:0:0:
448,192,345940,1,0,0:0:0:0:
320,192,346008,1,0,0:0:0:0:
192,192,346077,1,0,0:0:0:0:
64,192,346077,1,0,0:0:0:0:
448,192,346145,1,0,0:0:0:0:
320,192,346213,1,0,0:0:0:0:
64,192,346213,1,0,0:0:0:0:
192,192,346281,1,0,0:0:0:0:
320,192,346349,1,0,0:0:0:0:
448,192,346349,1,0,0:0:0:0:
192,192,346417,1,0,0:0:0:0:
64,192,346486,1,0,0:0:0:0:
448,192,346486,1,0,0:0:0:0:
320,192,346554,1,0,0:0:0:0:
192,192,346622,1,0,0:0:0:0:
64,192,346622,1,0,0:0:0:0:
320,192,346690,1,0,0:0:0:0:
448,192,346758,1,0,0:0:0:0:
192,192,346758,1,0,0:0:0:0:
64,192,346827,1,0,0:0:0:0:
448,192,346895,1,0,0:0:0:0:
192,192,346895,1,0,0:0:0:0:
320,192,346963,1,0,0:0:0:0:
192,192,347031,1,0,0:0:0:0:
64,192,347031,1,0,0:0:0:0:
320,192,347099,1,0,0:0:0:0:
64,192,347167,1,0,0:0:0:0:
448,192,347167,1,0,0:0:0:0:
192,192,347236,1,0,0:0:0:0:
448,192,347304,1,0,0:0:0:0:
320,192,347304,1,0,0:0:0:0:
192,192,347372,1,0,0:0:0:0:
320,192,347440,1,0,0:0:0:0:
64,192,347440,1,0,0:0:0:0:
448,192,347508,1,0,0:0:0:0:
320,192,347577,1,0,0:0:0:0:
192,192,347577,1,0,0:0:0:0:
64,192,347645,1,0,0:0:0:0:
448,192,347713,1,0,0:0:0:0:
320,192,347713,1,0,0:0:0:0:
192,192,347781,1,0,0:0:0:0:
448,192,347849,1,0,0:0:0:0:
64,192,347849,1,0,0:0:0:0:
320,192,347917,1,0,0:0:0:0:
64,192,347986,1,0,0:0:0:0:
192,192,347986,1,0,0:0:0:0:
320,192,348054,1,0,0:0:0:0:
448,192,348122,1,0,0:0:0:0:
64,192,348190,1,0,0:0:0:0:
192,192,348258,1,0,0:0:0:0:
320,192,348327,1,0,0:0:0:0:
448,192,348327,1,0,0:0:0:0:
192,192,348395,1,0,0:0:0:0:
64,192,348395,1,0,0:0:0:0:
320,192,348463,1,0,0:0:0:0:
448,192,348463,1,0,0:0:0:0:
64,192,348531,1,0,0:0:0:0:
192,192,348667,1,0,0:0:0:0:
320,192,348667,1,0,0:0:0:0:
448,192,348804,1,0,0:0:0:0:
192,192,348940,1,0,0:0:0:0:
320,192,349008,1,0,0:0:0:0:
64,192,349077,1,0,0:0:0:0:
448,192,349077,1,0,0:0:0:0:
320,192,349145,1,0,0:0:0:0:
192,192,349145,1,0,0:0:0:0:
448,192,349213,1,0,0:0:0:0:
192,192,349349,1,0,0:0:0:0:
320,192,349417,1,0,0:0:0:0:
448,192,349486,1,0,0:0:0:0:
64,192,349486,1,0,0:0:0:0:
320,192,349554,1,0,0:0:0:0:
192,192,349622,1,0,0:0:0:0:
64,192,349690,1,0,0:0:0:0:
320,192,349758,1,0,0:0:0:0:
192,192,349827,1,0,0:0:0:0:
320,192,349895,1,0,0:0:0:0:
448,192,349963,1,0,0:0:0:0:
64,192,350031,1,0,0:0:0:0:
192,192,350099,1,0,0:0:0:0:
320,192,350167,1,0,0:0:0:0:
192,192,350236,1,0,0:0:0:0:
448,192,350304,1,0,0:0:0:0:
320,192,350372,1,0,0:0:0:0:
192,192,350440,1,0,0:0:0:0:
448,192,350440,1,0,0:0:0:0:
64,192,350440,1,0,0:0:0:0:
64,192,350645,1,0,0:0:0:0:
320,192,350713,1,0,0:0:0:0:
192,192,350849,1,0,0:0:0:0:
448,192,350986,1,0,0:0:0:0:
320,192,350986,1,0,0:0:0:0:
64,192,350986,1,0,0:0:0:0:
192,192,351122,1,0,0:0:0:0:
320,192,351122,1,0,0:0:0:0:
448,192,351258,1,0,0:0:0:0:
320,192,351327,1,0,0:0:0:0:
192,192,351395,1,0,0:0:0:0:
64,192,351395,1,0,0:0:0:0:
320,192,351463,1,0,0:0:0:0:
448,192,351531,1,0,0:0:0:0:
64,192,351599,1,0,0:0:0:0:
320,192,351667,1,0,0:0:0:0:
192,192,351667,1,0,0:0:0:0:
448,192,351736,1,0,0:0:0:0:
64,192,351804,1,0,0:0:0:0:
192,192,351872,1,0,0:0:0:0:
320,192,351940,1,0,0:0:0:0:
448,192,351940,1,0,0:0:0:0:
192,192,352008,1,0,0:0:0:0:
64,192,352077,1,0,0:0:0:0:
320,192,352077,1,0,0:0:0:0:
448,192,352077,1,0,0:0:0:0:
64,192,352349,1,0,0:0:0:0:
192,192,352349,1,0,0:0:0:0:
448,192,352349,1,0,0:0:0:0:
320,192,352486,1,0,0:0:0:0:
192,192,352622,1,0,0:0:0:0:
64,192,352622,1,0,0:0:0:0:
448,192,352622,1,0,0:0:0:0:
320,192,352758,1,0,0:0:0:0:
448,192,352895,1,0,0:0:0:0:
192,192,352895,1,0,0:0:0:0:
64,192,352895,1,0,0:0:0:0:
64,192,353031,1,0,0:0:0:0:
320,192,353167,1,0,0:0:0:0:
448,192,353167,1,0,0:0:0:0:
192,192,353167,1,0,0:0:0:0:
192,192,353304,1,0,0:0:0:0:
64,192,353440,1,0,0:0:0:0:
320,192,353440,1,0,0:0:0:0:
448,192,353440,1,0,0:0:0:0:
448,192,353577,1,0,0:0:0:0:
192,192,353713,1,0,0:0:0:0:
64,192,353713,1,0,0:0:0:0:
320,192,353713,1,0,0:0:0:0:
320,192,353849,1,0,0:0:0:0:
448,192,353986,1,0,0:0:0:0:
192,192,353986,1,0,0:0:0:0:
64,192,353986,1,0,0:0:0:0:
64,192,354122,1,0,0:0:0:0:
320,192,354258,1,0,0:0:0:0:
448,192,354258,1,0,0:0:0:0:
192,192,354258,1,0,0:0:0:0:
192,192,354395,1,0,0:0:0:0:
64,192,354531,1,0,0:0:0:0:
448,192,354531,1,0,0:0:0:0:
320,192,354531,1,0,0:0:0:0:
320,192,354667,1,0,0:0:0:0:
192,192,354804,1,0,0:0:0:0:
448,192,354804,1,0,0:0:0:0:
64,192,354804,1,0,0:0:0:0:
64,192,354940,1,0,0:0:0:0:
320,192,355077,1,0,0:0:0:0:
192,192,355077,1,0,0:0:0:0:
448,192,355077,1,0,0:0:0:0:
448,192,355213,1,0,0:0:0:0:
64,192,355349,1,0,0:0:0:0:
320,192,355349,1,0,0:0:0:0:
192,192,355349,1,0,0:0:0:0:
192,192,355486,1,0,0:0:0:0:
320,192,355622,1,0,0:0:0:0:
448,192,355622,1,0,0:0:0:0:
64,192,355622,1,0,0:0:0:0:
64,192,355758,1,0,0:0:0:0:
192,192,355895,1,0,0:0:0:0:
448,192,355895,1,0,0:0:0:0:
320,192,355895,1,0,0:0:0:0:
320,192,356031,1,0,0:0:0:0:
192,192,356167,1,0,0:0:0:0:
64,192,356167,1,0,0:0:0:0:
448,192,356167,1,0,0:0:0:0:
448,192,356304,1,0,0:0:0:0:
320,192,356440,1,0,0:0:0:0:
192,192,356440,1,0,0:0:0:0:
64,192,356440,1,0,0:0:0:0:
64,192,356577,1,0,0:0:0:0:
192,192,356713,1,0,0:0:0:0:
448,192,356713,128,0,356986:0:0:0:0:
320,192,356713,1,0,0:0:0:0:
64,192,356986,1,0,0:0:0:0:
192,192,356986,128,0,357122:0:0:0:0:
320,192,357122,128,0,357395:0:0:0:0:
448,192,357395,128,0,357531:0:0:0:0:
64,192,357531,1,0,0:0:0:0:
320,192,357531,128,0,357940:0:0:0:0:
192,192,357667,1,0,0:0:0:0:
64,192,357667,1,0,0:0:0:0:
192,192,357940,1,0,0:0:0:0:
320,192,358077,1,0,0:0:0:0:
448,192,358077,1,0,0:0:0:0:
64,192,358077,128,0,358349:0:0:0:0:
192,192,358349,128,0,358486:0:0:0:0:
320,192,358486,128,0,358895:0:0:0:0:
64,192,358622,1,0,0:0:0:0:
192,192,358622,1,0,0:0:0:0:
64,192,358895,1,0,0:0:0:0:
448,192,358895,1,0,0:0:0:0:
192,192,358895,128,0,359031:0:0:0:0:
64,192,359031,128,0,359167:0:0:0:0:
448,192,359167,1,0,0:0:0:0:
320,192,359167,128,0,359304:0:0:0:0:
192,192,359304,128,0,359577:0:0:0:0:
64,192,359304,1,0,0:0:0:0:
448,192,359304,1,0,0:0:0:0:
320,192,359577,1,0,0:0:0:0:
320,192,359713,1,0,0:0:0:0:
64,192,359713,1,0,0:0:0:0:
448,192,359713,128,0,359849:0:0:0:0:
192,192,359849,128,0,360122:0:0:0:0:
64,192,360122,1,0,0:0:0:0:
448,192,360190,1,0,0:0:0:0:
320,192,360258,1,0,0:0:0:0:
192,192,360327,1,0,0:0:0:0:
448,192,360395,1,0,0:0:0:0:
320,192,360463,1,0,0:0:0:0:
192,192,360531,1,0,0:0:0:0:
64,192,360599,1,0,0:0:0:0:
192,192,360667,1,0,0:0:0:0:
448,192,360736,1,0,0:0:0:0:
320,192,360804,1,0,0:0:0:0:
64,192,360804,1,0,0:0:0:0:
192,192,360940,1,0,0:0:0:0:
320,192,361077,1,0,0:0:0:0:
448,192,361077,1,0,0:0:0:0:
64,192,361077,1,0,0:0:0:0:
448,192,361213,1,0,0:0:0:0:
64,192,361213,1,0,0:0:0:0:
192,192,361213,1,0,0:0:0:0:
320,192,361349,1,0,0:0:0:0:
64,192,361486,1,0,0:0:0:0:
192,192,361486,1,0,0:0:0:0:
448,192,361486,1,0,0:0:0:0:
64,192,361622,1,0,0:0:0:0:
192,192,361758,1,0,0:0:0:0:
448,192,361758,1,0,0:0:0:0:
320,192,361758,1,0,0:0:0:0:
192,192,361895,1,0,0:0:0:0:
448,192,362031,1,0,0:0:0:0:
320,192,362031,1,0,0:0:0:0:
64,192,362031,1,0,0:0:0:0:
448,192,362167,1,0,0:0:0:0:
320,192,362304,1,0,0:0:0:0:
64,192,362304,1,0,0:0:0:0:
192,192,362304,1,0,0:0:0:0:
320,192,362440,1,0,0:0:0:0:
64,192,362577,1,0,0:0:0:0:
192,192,362577,1,0,0:0:0:0:
448,192,362577,1,0,0:0:0:0:
64,192,362713,1,0,0:0:0:0:
192,192,362849,1,0,0:0:0:0:
448,192,362849,1,0,0:0:0:0:
320,192,362849,1,0,0:0:0:0:
192,192,362986,1,0,0:0:0:0:
320,192,363122,1,0,0:0:0:0:
448,192,363122,1,0,0:0:0:0:
64,192,363122,1,0,0:0:0:0:
320,192,363258,1,0,0:0:0:0:
64,192,363395,1,0,0:0:0:0:
448,192,363395,1,0,0:0:0:0:
192,192,363395,1,0,0:0:0:0:
64,192,363531,1,0,0:0:0:0:
448,192,363667,1,0,0:0:0:0:
192,192,363667,1,0,0:0:0:0:
320,192,363667,1,0,0:0:0:0:
448,192,363804,1,0,0:0:0:0:
192,192,363940,1,0,0:0:0:0:
320,192,363940,1,0,0:0:0:0:
64,192,363940,1,0,0:0:0:0:
192,192,364077,1,0,0:0:0:0:
64,192,364213,1,0,0:0:0:0:
448,192,364213,1,0,0:0:0:0:
320,192,364213,1,0,0:0:0:0:
64,192,364349,1,0,0:0:0:0:
320,192,364486,1,0,0:0:0:0:
448,192,364486,1,0,0:0:0:0:
192,192,364486,1,0,0:0:0:0:
320,192,364622,1,0,0:0:0:0:
448,192,364758,1,0,0:0:0:0:
64,192,364758,1,0,0:0:0:0:
192,192,364758,1,0,0:0:0:0:
448,192,364895,1,0,0:0:0:0:
320,192,364895,1,0,0:0:0:0:
320,192,365031,1,0,0:0:0:0:
64,192,365031,1,0,0:0:0:0:
192,192,365167,1,0,0:0:0:0:
64,192,365167,1,0,0:0:0:0:
448,192,365167,1,0,0:0:0:0:
320,192,365304,1,0,0:0:0:0:
192,192,365304,1,0,0:0:0:0:
448,192,365440,1,0,0:0:0:0:
320,192,365440,1,0,0:0:0:0:
64,192,365440,128,0,365713:0:0:0:0:
448,192,365713,128,0,365849:0:0:0:0:
192,192,365713,1,0,0:0:0:0:
64,192,365849,128,0,366122:0:0:0:0:
448,192,366122,128,0,366258:0:0:0:0:
192,192,366258,1,0,0:0:0:0:
320,192,366258,128,0,366395:0:0:0:0:
64,192,366395,128,0,366667:0:0:0:0:
192,192,366667,1,0,0:0:0:0:
64,192,366804,1,0,0:0:0:0:
448,192,366804,1,0,0:0:0:0:
320,192,366804,128,0,367077:0:0:0:0:
192,192,367077,128,0,367349:0:0:0:0:
320,192,367213,1,0,0:0:0:0:
448,192,367213,1,0,0:0:0:0:
64,192,367349,1,0,0:0:0:0:
320,192,367349,128,0,367622:0:0:0:0:
448,192,367622,1,0,0:0:0:0:
192,192,367622,1,0,0:0:0:0:
64,192,367622,128,0,367758:0:0:0:0:
192,192,367758,128,0,367895:0:0:0:0:
320,192,367895,128,0,368031:0:0:0:0:
64,192,367895,1,0,0:0:0:0:
64,192,368031,128,0,368304:0:0:0:0:
192,192,368031,1,0,0:0:0:0:
448,192,368031,1,0,0:0:0:0:
320,192,368304,128,0,368440:0:0:0:0:
448,192,368440,128,0,368577:0:0:0:0:
64,192,368440,1,0,0:0:0:0:
64,192,368577,128,0,368849:0:0:0:0:
320,192,368577,1,0,0:0:0:0:
192,192,368577,1,0,0:0:0:0:
448,192,368849,1,0,0:0:0:0:
192,192,368917,1,0,0:0:0:0:
320,192,368986,1,0,0:0:0:0:
192,192,369054,1,0,0:0:0:0:
448,192,369122,1,0,0:0:0:0:
320,192,369190,1,0,0:0:0:0:
192,192,369258,1,0,0:0:0:0:
64,192,369327,1,0,0:0:0:0:
192,192,369395,1,0,0:0:0:0:
320,192,369463,1,0,0:0:0:0:
64,192,369531,1,0,0:0:0:0:
448,192,369531,1,0,0:0:0:0:
192,192,369531,1,0,0:0:0:0:
192,192,369667,1,0,0:0:0:0:
320,192,369667,1,0,0:0:0:0:
448,192,369804,128,0,370213:0:0:0:0:
320,192,370213,128,0,370622:0:0:0:0:
64,192,370622,128,0,370895:0:0:0:0:
192,192,370895,128,0,371713:0:0:0:0:
320,192,371713,128,0,371986:0:0:0:0:
448,192,371986,128,0,372395:0:0:0:0:
192,192,372395,128,0,372804:0:0:0:0:
64,192,372804,128,0,373077:0:0:0:0:
320,192,373077,128,0,373895:0:0:0:0:
448,192,373895,128,0,374167:0:0:0:0:
192,192,374167,128,0,374577:0:0:0:0:
64,192,374577,128,0,374986:0:0:0:0:
320,192,374986,128,0,375258:0:0:0:0:
192,192,375258,128,0,375667:0:0:0:0:
448,192,375667,128,0,376077:0:0:0:0:
64,192,376077,128,0,376349:0:0:0:0:
320,192,376349,128,0,377167:0:0:0:0:
64,192,377167,128,0,377440:0:0:0:0:
192,192,377440,128,0,378258:0:0:0:0:
64,192,378258,128,0,378531:0:0:0:0:
448,192,378531,128,0,378940:0:0:0:0:
192,192,378940,128,0,379349:0:0:0:0:
320,192,379349,128,0,379622:0:0:0:0:
448,192,379622,128,0,380031:0:0:0:0:
64,192,380031,128,0,380440:0:0:0:0:
192,192,380440,128,0,380781:0:0:0:0:
320,192,380781,128,0,381122:0:0:0:0:
448,192,381122,128,0,381531:0:0:0:0:
64,192,381531,128,0,381804:0:0:0:0:
192,192,381804,128,0,382622:0:0:0:0:
320,192,382622,128,0,382895:0:0:0:0:
448,192,382895,128,0,383304:0:0:0:0:
64,192,383304,128,0,383713:0:0:0:0:
192,192,383713,128,0,383986:0:0:0:0:
320,192,383986,128,0,384395:0:0:0:0:
448,192,384395,128,0,384804:0:0:0:0:
64,192,384804,128,0,385077:0:0:0:0:
320,192,385077,128,0,386713:0:0:0:0:
64,192,388349,128,0,388895:0:0:0:0:
320,192,388895,128,0,389440:0:0:0:0:
64,192,389440,1,0,0:0:0:0:
448,192,389440,1,0,0:0:0:0:
320,192,389531,1,0,0:0:0:0:
192,192,389531,1,0,0:0:0:0:
192,192,389622,1,0,0:0:0:0:
64,192,389713,1,0,0:0:0:0:
448,192,389713,1,0,0:0:0:0:
320,192,389804,1,0,0:0:0:0:
192,192,389895,1,0,0:0:0:0:
64,192,389895,1,0,0:0:0:0:
448,192,389986,1,0,0:0:0:0:
320,192,389986,1,0,0:0:0:0:
320,192,390077,1,0,0:0:0:0:
64,192,390167,1,0,0:0:0:0:
192,192,390258,1,0,0:0:0:0:
448,192,390258,1,0,0:0:0:0:
448,192,390349,1,0,0:0:0:0:
192,192,390440,1,0,0:0:0:0:
320,192,390440,1,0,0:0:0:0:
64,192,390531,1,0,0:0:0:0:
448,192,390622,1,0,0:0:0:0:
320,192,390622,1,0,0:0:0:0:
192,192,390713,1,0,0:0:0:0:
192,192,390804,1,0,0:0:0:0:
320,192,390804,1,0,0:0:0:0:
64,192,390895,1,0,0:0:0:0:
320,192,390986,1,0,0:0:0:0:
448,192,390986,1,0,0:0:0:0:
64,192,391077,1,0,0:0:0:0:
448,192,391167,1,0,0:0:0:0:
192,192,391167,1,0,0:0:0:0:
320,192,391258,1,0,0:0:0:0:
64,192,391349,1,0,0:0:0:0:
192,192,391349,1,0,0:0:0:0:
448,192,391440,1,0,0:0:0:0:
192,192,391531,1,0,0:0:0:0:
320,192,391531,1,0,0:0:0:0:
64,192,391622,1,0,0:0:0:0:
448,192,391622,1,0,0:0:0:0:
64,192,391713,1,0,0:0:0:0:
192,192,391713,1,0,0:0:0:0:
320,192,391804,1,0,0:0:0:0:
64,192,391895,1,0,0:0:0:0:
192,192,391895,1,0,0:0:0:0:
320,192,391986,1,0,0:0:0:0:
192,192,392077,1,0,0:0:0:0:
448,192,392077,1,0,0:0:0:0:
64,192,392167,1,0,0:0:0:0:
320,192,392258,1,0,0:0:0:0:
192,192,392258,1,0,0:0:0:0:
448,192,392349,1,0,0:0:0:0:
192,192,392440,1,0,0:0:0:0:
64,192,392440,1,0,0:0:0:0:
320,192,392531,1,0,0:0:0:0:
64,192,392622,5,0,0:0:0:0:
448,192,392622,1,0,0:0:0:0:
192,192,392713,1,0,0:0:0:0:
320,192,392804,1,0,0:0:0:0:
448,192,392804,1,0,0:0:0:0:
64,192,392895,1,0,0:0:0:0:
192,192,392986,1,0,0:0:0:0:
448,192,392986,1,0,0:0:0:0:
320,192,393077,1,0,0:0:0:0:
320,192,393167,1,0,0:0:0:0:
448,192,393167,1,0,0:0:0:0:
64,192,393258,1,0,0:0:0:0:
448,192,393349,1,0,0:0:0:0:
64,192,393349,1,0,0:0:0:0:
320,192,393440,1,0,0:0:0:0:
448,192,393531,1,0,0:0:0:0:
192,192,393531,1,0,0:0:0:0:
64,192,393622,1,0,0:0:0:0:
320,192,393713,1,0,0:0:0:0:
448,192,393713,1,0,0:0:0:0:
64,192,393804,1,0,0:0:0:0:
448,192,393804,1,0,0:0:0:0:
192,192,393895,1,0,0:0:0:0:
320,192,393895,1,0,0:0:0:0:
64,192,393986,1,0,0:0:0:0:
448,192,394077,1,0,0:0:0:0:
192,192,394077,1,0,0:0:0:0:
192,192,394167,1,0,0:0:0:0:
448,192,394258,1,0,0:0:0:0:
320,192,394258,1,0,0:0:0:0:
64,192,394349,1,0,0:0:0:0:
64,192,394440,1,0,0:0:0:0:
448,192,394440,1,0,0:0:0:0:
320,192,394531,1,0,0:0:0:0:
64,192,394622,1,0,0:0:0:0:
192,192,394622,1,0,0:0:0:0:
448,192,394713,1,0,0:0:0:0:
192,192,394804,1,0,0:0:0:0:
320,192,394804,1,0,0:0:0:0:
64,192,394895,1,0,0:0:0:0:
448,192,394986,1,0,0:0:0:0:
320,192,394986,1,0,0:0:0:0:
192,192,395077,1,0,0:0:0:0:
192,192,395167,1,0,0:0:0:0:
448,192,395167,1,0,0:0:0:0:
448,192,395258,1,0,0:0:0:0:
64,192,395349,1,0,0:0:0:0:
320,192,395349,1,0,0:0:0:0:
192,192,395440,1,0,0:0:0:0:
64,192,395531,1,0,0:0:0:0:
320,192,395531,1,0,0:0:0:0:
448,192,395622,1,0,0:0:0:0:
192,192,395713,1,0,0:0:0:0:
320,192,395713,1,0,0:0:0:0:
64,192,395804,1,0,0:0:0:0:
192,192,395895,1,0,0:0:0:0:
320,192,395895,1,0,0:0:0:0:
64,192,395986,1,0,0:0:0:0:
448,192,395986,1,0,0:0:0:0:
64,192,396077,1,0,0:0:0:0:
192,192,396077,1,0,0:0:0:0:
320,192,396167,1,0,0:0:0:0:
448,192,396258,1,0,0:0:0:0:
64,192,396258,1,0,0:0:0:0:
192,192,396349,1,0,0:0:0:0:
64,192,396440,1,0,0:0:0:0:
320,192,396440,1,0,0:0:0:0:
448,192,396531,1,0,0:0:0:0:
192,192,396622,1,0,0:0:0:0:
320,192,396622,1,0,0:0:0:0:
64,192,396713,1,0,0:0:0:0:
320,192,396804,1,0,0:0:0:0:
448,192,396804,1,0,0:0:0:0:
192,192,396895,1,0,0:0:0:0:
64,192,396986,1,0,0:0:0:0:
320,192,396986,1,0,0:0:0:0:
448,192,397077,1,0,0:0:0:0:
192,192,397167,1,0,0:0:0:0:
64,192,397167,1,0,0:0:0:0:
448,192,397258,1,0,0:0:0:0:
448,192,397349,1,0,0:0:0:0:
320,192,397349,1,0,0:0:0:0:
64,192,397440,1,0,0:0:0:0:
192,192,397531,1,0,0:0:0:0:
320,192,397531,1,0,0:0:0:0:
448,192,397622,1,0,0:0:0:0:
320,192,397713,1,0,0:0:0:0:
64,192,397804,1,0,0:0:0:0:
192,192,397895,1,0,0:0:0:0:
448,192,397986,128,0,398167:0:0:0:0:
192,192,398167,128,0,398440:0:0:0:0:
64,192,398167,128,0,398440:0:0:0:0:
320,192,398258,1,0,0:0:0:0:
448,192,398258,1,0,0:0:0:0:
320,192,398440,1,0,0:0:0:0:
448,192,398440,1,0,0:0:0:0:
64,192,398531,1,0,0:0:0:0:
192,192,398531,1,0,0:0:0:0:
320,192,398622,1,0,0:0:0:0:
448,192,398622,1,0,0:0:0:0:
448,192,398713,128,0,398895:0:0:0:0:
320,192,398713,128,0,398895:0:0:0:0:
64,192,398804,1,0,0:0:0:0:
192,192,398804,1,0,0:0:0:0:
64,192,398895,1,0,0:0:0:0:
192,192,398895,1,0,0:0:0:0:
448,192,398986,1,0,0:0:0:0:
320,192,398986,1,0,0:0:0:0:
192,192,399077,1,0,0:0:0:0:
320,192,399077,1,0,0:0:0:0:
448,192,399167,1,0,0:0:0:0:
64,192,399167,1,0,0:0:0:0:
192,192,399258,128,0,399349:0:0:0:0:
320,192,399258,128,0,399349:0:0:0:0:
64,192,399349,1,0,0:0:0:0:
448,192,399349,1,0,0:0:0:0:
192,192,399440,1,0,0:0:0:0:
320,192,399440,1,0,0:0:0:0:
448,192,399531,1,0,0:0:0:0:
320,192,399622,1,0,0:0:0:0:
192,192,399713,1,0,0:0:0:0:
64,192,399804,128,0,399895:0:0:0:0:
448,192,399804,128,0,399895:0:0:0:0:
192,192,399895,1,0,0:0:0:0:
320,192,399895,1,0,0:0:0:0:
64,192,399986,1,0,0:0:0:0:
320,192,400077,1,0,0:0:0:0:
448,192,400077,1,0,0:0:0:0:
64,192,400167,1,0,0:0:0:0:
192,192,400167,1,0,0:0:0:0:
64,192,400258,1,0,0:0:0:0:
192,192,400258,1,0,0:0:0:0:
320,192,400349,128,0,400622:0:0:0:0:
448,192,400349,128,0,400622:0:0:0:0:
64,192,400440,1,0,0:0:0:0:
192,192,400440,1,0,0:0:0:0:
64,192,400622,1,0,0:0:0:0:
192,192,400622,1,0,0:0:0:0:
320,192,400713,1,0,0:0:0:0:
448,192,400713,1,0,0:0:0:0:
64,192,400804,1,0,0:0:0:0:
192,192,400804,1,0,0:0:0:0:
64,192,400895,128,0,401099:0:0:0:0:
448,192,400895,1,0,0:0:0:0:
192,192,400895,128,0,401099:0:0:0:0:
320,192,401099,1,0,0:0:0:0:
448,192,401099,1,0,0:0:0:0:
64,192,401167,1,0,0:0:0:0:
192,192,401167,1,0,0:0:0:0:
192,192,401258,1,0,0:0:0:0:
64,192,401258,1,0,0:0:0:0:
448,192,401349,1,0,0:0:0:0:
320,192,401349,1,0,0:0:0:0:
64,192,401440,128,0,401622:0:0:0:0:
192,192,401440,128,0,401622:0:0:0:0:
448,192,401531,1,0,0:0:0:0:
320,192,401531,1,0,0:0:0:0:
448,192,401622,1,0,0:0:0:0:
320,192,401622,1,0,0:0:0:0:
64,192,401713,1,0,0:0:0:0:
192,192,401804,1,0,0:0:0:0:
320,192,401895,1,0,0:0:0:0:
320,192,401986,128,0,402167:0:0:0:0:
448,192,401986,128,0,402167:0:0:0:0:
64,192,402077,1,0,0:0:0:0:
192,192,402077,1,0,0:0:0:0:
64,192,402167,1,0,0:0:0:0:
192,192,402258,1,0,0:0:0:0:
448,192,402349,1,0,0:0:0:0:
320,192,402440,1,0,0:0:0:0:
448,192,402531,128,0,402622:0:0:0:0:
64,192,402531,128,0,402622:0:0:0:0:
192,192,402622,1,0,0:0:0:0:
320,192,402622,1,0,0:0:0:0:
448,192,402713,1,0,0:0:0:0:
192,192,402804,1,0,0:0:0:0:
64,192,402804,1,0,0:0:0:0:
320,192,402895,1,0,0:0:0:0:
448,192,402895,1,0,0:0:0:0:
64,192,402986,1,0,0:0:0:0:
192,192,402986,1,0,0:0:0:0:
448,192,403077,128,0,403167:0:0:0:0:
64,192,403077,128,0,403167:0:0:0:0:
320,192,403077,1,0,0:0:0:0:
192,192,403167,1,0,0:0:0:0:
320,192,403258,1,0,0:0:0:0:
64,192,403258,1,0,0:0:0:0:
320,192,403349,1,0,0:0:0:0:
448,192,403349,1,0,0:0:0:0:
192,192,403440,1,0,0:0:0:0:
64,192,403440,1,0,0:0:0:0:
320,192,403531,1,0,0:0:0:0:
448,192,403531,1,0,0:0:0:0:
320,192,403622,128,0,403804:0:0:0:0:
448,192,403622,128,0,403804:0:0:0:0:
64,192,403622,1,0,0:0:0:0:
192,192,403713,1,0,0:0:0:0:
64,192,403804,1,0,0:0:0:0:
320,192,403895,1,0,0:0:0:0:
448,192,403986,1,0,0:0:0:0:
64,192,404077,1,0,0:0:0:0:
192,192,404077,1,0,0:0:0:0:
448,192,404167,128,0,404349:0:0:0:0:
320,192,404167,128,0,404349:0:0:0:0:
64,192,404258,1,0,0:0:0:0:
192,192,404258,1,0,0:0:0:0:
448,192,404440,1,0,0:0:0:0:
320,192,404440,1,0,0:0:0:0:
64,192,404531,1,0,0:0:0:0:
192,192,404622,1,0,0:0:0:0:
64,192,404713,128,0,404986:0:0:0:0:
448,192,404713,128,0,404986:0:0:0:0:
320,192,404804,1,0,0:0:0:0:
192,192,404895,1,0,0:0:0:0:
320,192,404986,1,0,0:0:0:0:
64,192,405077,1,0,0:0:0:0:
192,192,405167,1,0,0:0:0:0:
320,192,405258,128,0,405440:0:0:0:0:
448,192,405258,128,0,405440:0:0:0:0:
64,192,405440,1,0,0:0:0:0:
192,192,405440,1,0,0:0:0:0:
448,192,405531,1,0,0:0:0:0:
320,192,405531,1,0,0:0:0:0:
64,192,405622,1,0,0:0:0:0:
192,192,405713,5,0,0:0:0:0:
64,192,405804,128,0,406349:0:0:0:0:
448,192,405804,1,0,0:0:0:0:
320,192,405804,1,0,0:0:0:0:
448,192,405895,1,0,0:0:0:0:
192,192,405895,1,0,0:0:0:0:
320,192,405986,1,0,0:0:0:0:
192,192,406077,1,0,0:0:0:0:
448,192,406167,1,0,0:0:0:0:
320,192,406258,1,0,0:0:0:0:
448,192,406349,128,0,406895:0:0:0:0:
192,192,406349,1,0,0:0:0:0:
320,192,406440,1,0,0:0:0:0:
64,192,406440,1,0,0:0:0:0:
192,192,406531,1,0,0:0:0:0:
320,192,406622,1,0,0:0:0:0:
64,192,406713,1,0,0:0:0:0:
192,192,406804,1,0,0:0:0:0:
320,192,406895,1,0,0:0:0:0:
64,192,406895,1,0,0:0:0:0:
192,192,406895,1,0,0:0:0:0:
64,192,406986,1,0,0:0:0:0:
448,192,407077,1,0,0:0:0:0:
320,192,407077,1,0,0:0:0:0:
64,192,407167,1,0,0:0:0:0:
192,192,407258,1,0,0:0:0:0:
320,192,407258,1,0,0:0:0:0:
448,192,407349,1,0,0:0:0:0:
64,192,407440,1,0,0:0:0:0:
320,192,407440,1,0,0:0:0:0:
192,192,407440,1,0,0:0:0:0:
448,192,407531,1,0,0:0:0:0:
320,192,407622,1,0,0:0:0:0:
64,192,407622,1,0,0:0:0:0:
192,192,407713,1,0,0:0:0:0:
320,192,407804,1,0,0:0:0:0:
448,192,407804,1,0,0:0:0:0:
64,192,407895,1,0,0:0:0:0:
192,192,407986,1,0,0:0:0:0:
64,192,407986,1,0,0:0:0:0:
448,192,407986,1,0,0:0:0:0:
448,192,408077,1,0,0:0:0:0:
192,192,408167,1,0,0:0:0:0:
320,192,408167,1,0,0:0:0:0:
320,192,408258,1,0,0:0:0:0:
64,192,408349,1,0,0:0:0:0:
192,192,408349,1,0,0:0:0:0:
448,192,408440,1,0,0:0:0:0:
448,192,408531,1,0,0:0:0:0:
64,192,408531,1,0,0:0:0:0:
320,192,408531,1,0,0:0:0:0:
64,192,408622,1,0,0:0:0:0:
320,192,408713,1,0,0:0:0:0:
192,192,408713,1,0,0:0:0:0:
192,192,408804,1,0,0:0:0:0:
64,192,408895,1,0,0:0:0:0:
320,192,408895,1,0,0:0:0:0:
448,192,408986,1,0,0:0:0:0:
64,192,409077,1,0,0:0:0:0:
192,192,409077,1,0,0:0:0:0:
448,192,409077,1,0,0:0:0:0:
64,192,409167,1,0,0:0:0:0:
320,192,409258,1,0,0:0:0:0:
192,192,409258,1,0,0:0:0:0:
64,192,409349,1,0,0:0:0:0:
320,192,409440,1,0,0:0:0:0:
448,192,409440,1,0,0:0:0:0:
448,192,409531,1,0,0:0:0:0:
64,192,409622,1,0,0:0:0:0:
192,192,409622,1,0,0:0:0:0:
320,192,409622,1,0,0:0:0:0:
192,192,409713,1,0,0:0:0:0:
64,192,409804,1,0,0:0:0:0:
448,192,409804,1,0,0:0:0:0:
320,192,409895,1,0,0:0:0:0:
64,192,409986,1,0,0:0:0:0:
192,192,409986,1,0,0:0:0:0:
448,192,410077,1,0,0:0:0:0:
448,192,410167,1,0,0:0:0:0:
320,192,410167,1,0,0:0:0:0:
64,192,410167,1,0,0:0:0:0:
192,192,410258,1,0,0:0:0:0:
320,192,410349,1,0,0:0:0:0:
64,192,410349,1,0,0:0:0:0:
192,192,410440,1,0,0:0:0:0:
448,192,410531,1,0,0:0:0:0:
192,192,410531,1,0,0:0:0:0:
64,192,410622,1,0,0:0:0:0:
320,192,410713,1,0,0:0:0:0:
64,192,410713,1,0,0:0:0:0:
448,192,410713,1,0,0:0:0:0:
192,192,410804,1,0,0:0:0:0:
64,192,410895,1,0,0:0:0:0:
320,192,410895,1,0,0:0:0:0:
320,192,410986,1,0,0:0:0:0:
448,192,411077,1,0,0:0:0:0:
192,192,411077,1,0,0:0:0:0:
64,192,411167,1,0,0:0:0:0:
192,192,411258,1,0,0:0:0:0:
320,192,411349,1,0,0:0:0:0:
448,192,411349,1,0,0:0:0:0:
192,192,411440,1,0,0:0:0:0:
448,192,411531,1,0,0:0:0:0:
64,192,411531,1,0,0:0:0:0:
192,192,411622,1,0,0:0:0:0:
320,192,411713,1,0,0:0:0:0:
448,192,411713,1,0,0:0:0:0:
64,192,411804,1,0,0:0:0:0:
192,192,411895,1,0,0:0:0:0:
320,192,411895,1,0,0:0:0:0:
320,192,411986,1,0,0:0:0:0:
64,192,412077,1,0,0:0:0:0:
448,192,412077,1,0,0:0:0:0:
192,192,412167,1,0,0:0:0:0:
320,192,412258,1,0,0:0:0:0:
448,192,412258,1,0,0:0:0:0:
64,192,412349,1,0,0:0:0:0:
192,192,412440,1,0,0:0:0:0:
320,192,412440,1,0,0:0:0:0:
448,192,412531,1,0,0:0:0:0:
64,192,412622,1,0,0:0:0:0:
320,192,412622,1,0,0:0:0:0:
192,192,412713,1,0,0:0:0:0:
64,192,412804,1,0,0:0:0:0:
448,192,412804,1,0,0:0:0:0:
320,192,412895,1,0,0:0:0:0:
192,192,412986,1,0,0:0:0:0:
448,192,412986,1,0,0:0:0:0:
64,192,413077,1,0,0:0:0:0:
192,192,413167,1,0,0:0:0:0:
320,192,413167,1,0,0:0:0:0:
448,192,413258,1,0,0:0:0:0:
192,192,413349,1,0,0:0:0:0:
64,192,413349,1,0,0:0:0:0:
320,192,413440,1,0,0:0:0:0:
448,192,413440,1,0,0:0:0:0:
192,192,413531,1,0,0:0:0:0:
64,192,413531,1,0,0:0:0:0:
320,192,413622,1,0,0:0:0:0:
192,192,413713,1,0,0:0:0:0:
448,192,413713,1,0,0:0:0:0:
64,192,413804,1,0,0:0:0:0:
320,192,413895,1,0,0:0:0:0:
448,192,413895,1,0,0:0:0:0:
192,192,413986,1,0,0:0:0:0:
320,192,414077,1,0,0:0:0:0:
64,192,414077,1,0,0:0:0:0:
448,192,414167,1,0,0:0:0:0:
192,192,414258,1,0,0:0:0:0:
64,192,414258,1,0,0:0:0:0:
320,192,414349,1,0,0:0:0:0:
192,192,414440,5,0,0:0:0:0:
448,192,414440,1,0,0:0:0:0:
64,192,414531,1,0,0:0:0:0:
192,192,414622,1,0,0:0:0:0:
448,192,414622,1,0,0:0:0:0:
320,192,414713,1,0,0:0:0:0:
192,192,414804,1,0,0:0:0:0:
64,192,414804,1,0,0:0:0:0:
448,192,414940,1,0,0:0:0:0:
320,192,414986,1,0,0:0:0:0:
192,192,414986,1,0,0:0:0:0:
64,192,415077,1,0,0:0:0:0:
448,192,415167,1,0,0:0:0:0:
320,192,415258,1,0,0:0:0:0:
64,192,415349,1,0,0:0:0:0:
320,192,415440,1,0,0:0:0:0:
192,192,415531,1,0,0:0:0:0:
448,192,415622,128,0,415895:0:0:0:0:
320,192,415622,128,0,415895:0:0:0:0:
64,192,415622,1,0,0:0:0:0:
64,192,415713,1,0,0:0:0:0:
192,192,415713,1,0,0:0:0:0:
64,192,415895,1,0,0:0:0:0:
192,192,415895,1,0,0:0:0:0:
320,192,415986,1,0,0:0:0:0:
448,192,415986,1,0,0:0:0:0:
64,192,416077,1,0,0:0:0:0:
192,192,416077,1,0,0:0:0:0:
192,192,416167,128,0,416349:0:0:0:0:
64,192,416167,128,0,416349:0:0:0:0:
320,192,416258,1,0,0:0:0:0:
448,192,416258,1,0,0:0:0:0:
320,192,416349,1,0,0:0:0:0:
448,192,416349,1,0,0:0:0:0:
192,192,416440,1,0,0:0:0:0:
64,192,416440,1,0,0:0:0:0:
192,192,416531,1,0,0:0:0:0:
320,192,416531,1,0,0:0:0:0:
448,192,416622,1,0,0:0:0:0:
64,192,416622,1,0,0:0:0:0:
192,192,416713,128,0,416804:0:0:0:0:
320,192,416713,128,0,416804:0:0:0:0:
64,192,416804,1,0,0:0:0:0:
448,192,416804,1,0,0:0:0:0:
192,192,416895,1,0,0:0:0:0:
320,192,416895,1,0,0:0:0:0:
64,192,416986,1,0,0:0:0:0:
192,192,417077,1,0,0:0:0:0:
320,192,417167,1,0,0:0:0:0:
64,192,417258,128,0,417349:0:0:0:0:
448,192,417258,128,0,417349:0:0:0:0:
192,192,417349,1,0,0:0:0:0:
320,192,417349,1,0,0:0:0:0:
448,192,417440,1,0,0:0:0:0:
64,192,417531,1,0,0:0:0:0:
192,192,417531,1,0,0:0:0:0:
320,192,417622,1,0,0:0:0:0:
448,192,417622,1,0,0:0:0:0:
320,192,417713,1,0,0:0:0:0:
448,192,417713,1,0,0:0:0:0:
64,192,417804,128,0,418077:0:0:0:0:
192,192,417804,128,0,418077:0:0:0:0:
320,192,417895,1,0,0:0:0:0:
448,192,417895,1,0,0:0:0:0:
320,192,418077,1,0,0:0:0:0:
448,192,418077,1,0,0:0:0:0:
64,192,418167,1,0,0:0:0:0:
192,192,418167,1,0,0:0:0:0:
320,192,418258,5,0,0:0:0:0:
448,192,418258,1,0,0:0:0:0:
64,192,418349,1,0,0:0:0:0:
320,192,418349,128,0,418554:0:0:0:0:
448,192,418349,128,0,418554:0:0:0:0:
64,192,418554,1,0,0:0:0:0:
192,192,418554,1,0,0:0:0:0:
320,192,418622,1,0,0:0:0:0:
448,192,418622,1,0,0:0:0:0:
448,192,418713,1,0,0:0:0:0:
320,192,418713,1,0,0:0:0:0:
192,192,418804,1,0,0:0:0:0:
64,192,418804,1,0,0:0:0:0:
320,192,418895,128,0,419077:0:0:0:0:
448,192,418895,128,0,419077:0:0:0:0:
192,192,418986,1,0,0:0:0:0:
64,192,418986,1,0,0:0:0:0:
192,192,419077,1,0,0:0:0:0:
64,192,419077,1,0,0:0:0:0:
448,192,419167,1,0,0:0:0:0:
320,192,419258,1,0,0:0:0:0:
192,192,419349,1,0,0:0:0:0:
64,192,419440,128,0,419622:0:0:0:0:
192,192,419440,128,0,419622:0:0:0:0:
320,192,419531,1,0,0:0:0:0:
448,192,419531,1,0,0:0:0:0:
448,192,419622,1,0,0:0:0:0:
320,192,419713,1,0,0:0:0:0:
64,192,419804,1,0,0:0:0:0:
192,192,419895,1,0,0:0:0:0:
448,192,419986,128,0,420077:0:0:0:0:
64,192,419986,128,0,420077:0:0:0:0:
192,192,420077,1,0,0:0:0:0:
320,192,420077,1,0,0:0:0:0:
64,192,420167,1,0,0:0:0:0:
448,192,420258,1,0,0:0:0:0:
320,192,420258,1,0,0:0:0:0:
64,192,420349,1,0,0:0:0:0:
192,192,420349,1,0,0:0:0:0:
320,192,420440,1,0,0:0:0:0:
448,192,420440,1,0,0:0:0:0:
192,192,420531,1,0,0:0:0:0:
448,192,420531,128,0,420622:0:0:0:0:
64,192,420531,128,0,420622:0:0:0:0:
320,192,420622,1,0,0:0:0:0:
448,192,420713,1,0,0:0:0:0:
192,192,420713,1,0,0:0:0:0:
64,192,420804,1,0,0:0:0:0:
192,192,420804,1,0,0:0:0:0:
448,192,420895,1,0,0:0:0:0:
320,192,420895,1,0,0:0:0:0:
64,192,420986,1,0,0:0:0:0:
192,192,420986,1,0,0:0:0:0:
448,192,421077,1,0,0:0:0:0:
64,192,421077,128,0,421258:0:0:0:0:
192,192,421077,128,0,421258:0:0:0:0:
320,192,421167,1,0,0:0:0:0:
448,192,421258,1,0,0:0:0:0:
192,192,421349,1,0,0:0:0:0:
64,192,421440,1,0,0:0:0:0:
320,192,421531,1,0,0:0:0:0:
448,192,421531,1,0,0:0:0:0:
192,192,421622,128,0,421804:0:0:0:0:
64,192,421622,128,0,421804:0:0:0:0:
320,192,421713,1,0,0:0:0:0:
448,192,421713,1,0,0:0:0:0:
192,192,421895,1,0,0:0:0:0:
64,192,421895,1,0,0:0:0:0:
448,192,421986,1,0,0:0:0:0:
320,192,422077,1,0,0:0:0:0:
64,192,422167,128,0,422440:0:0:0:0:
448,192,422167,128,0,422440:0:0:0:0:
192,192,422258,1,0,0:0:0:0:
320,192,422349,1,0,0:0:0:0:
192,192,422440,1,0,0:0:0:0:
448,192,422531,1,0,0:0:0:0:
320,192,422622,1,0,0:0:0:0:
64,192,422713,128,0,422895:0:0:0:0:
192,192,422713,128,0,422895:0:0:0:0:
320,192,422895,1,0,0:0:0:0:
448,192,422895,1,0,0:0:0:0:
192,192,422986,1,0,0:0:0:0:
64,192,422986,1,0,0:0:0:0:
448,192,423077,1,0,0:0:0:0:
320,192,423167,5,0,0:0:0:0:
192,192,423258,1,0,0:0:0:0:
64,192,423258,1,0,0:0:0:0:
448,192,423258,128,0,423804:0:0:0:0:
320,192,423349,1,0,0:0:0:0:
64,192,423349,1,0,0:0:0:0:
192,192,423440,1,0,0:0:0:0:
320,192,423531,1,0,0:0:0:0:
64,192,423622,1,0,0:0:0:0:
192,192,423713,1,0,0:0:0:0:
320,192,423804,1,0,0:0:0:0:
64,192,423804,128,0,424349:0:0:0:0:
448,192,423895,1,0,0:0:0:0:
192,192,423895,1,0,0:0:0:0:
448,192,423986,1,0,0:0:0:0:
192,192,424077,1,0,0:0:0:0:
320,192,424167,1,0,0:0:0:0:
448,192,424258,1,0,0:0:0:0:
192,192,424258,1,0,0:0:0:0:
448,192,424349,1,0,0:0:0:0:
320,192,424349,1,0,0:0:0:0:
64,192,424622,1,0,0:0:0:0:
320,192,424758,1,0,0:0:0:0:
192,192,424895,1,0,0:0:0:0:
64,192,424895,1,0,0:0:0:0:
320,192,425031,1,0,0:0:0:0:
448,192,425031,1,0,0:0:0:0:
320,192,425167,1,0,0:0:0:0:
448,192,425167,1,0,0:0:0:0:
192,192,425304,1,0,0:0:0:0:
64,192,425304,1,0,0:0:0:0:
320,192,425440,1,0,0:0:0:0:
448,192,425440,1,0,0:0:0:0:
192,192,425577,1,0,0:0:0:0:
64,192,425713,1,0,0:0:0:0:
320,192,425849,1,0,0:0:0:0:
192,192,425986,1,0,0:0:0:0:
64,192,425986,1,0,0:0:0:0:
320,192,426122,1,0,0:0:0:0:
448,192,426122,1,0,0:0:0:0:
320,192,426258,1,0,0:0:0:0:
448,192,426258,1,0,0:0:0:0:
192,192,426395,1,0,0:0:0:0:
64,192,426395,1,0,0:0:0:0:
320,192,426531,1,0,0:0:0:0:
448,192,426531,1,0,0:0:0:0:
192,192,426667,1,0,0:0:0:0:
64,192,426804,1,0,0:0:0:0:
320,192,426940,1,0,0:0:0:0:
448,192,427077,1,0,0:0:0:0:
192,192,427077,1,0,0:0:0:0:
320,192,427213,1,0,0:0:0:0:
64,192,427213,1,0,0:0:0:0:
192,192,427349,1,0,0:0:0:0:
448,192,427349,1,0,0:0:0:0:
64,192,427486,1,0,0:0:0:0:
192,192,427486,1,0,0:0:0:0:
320,192,427622,1,0,0:0:0:0:
448,192,427622,1,0,0:0:0:0:
192,192,427690,1,0,0:0:0:0:
64,192,427758,1,0,0:0:0:0:
448,192,427827,1,0,0:0:0:0:
192,192,427986,1,0,0:0:0:0:
320,192,428167,1,0,0:0:0:0:
448,192,428167,1,0,0:0:0:0:
64,192,428372,1,0,0:0:0:0:
192,192,428508,1,0,0:0:0:0:
64,192,428713,1,0,0:0:0:0:
192,192,428713,1,0,0:0:0:0:
448,192,428713,1,0,0:0:0:0:
320,192,428713,128,0,430349:0:0:0:0:
64,192,429531,1,0,0:0:0:0:
192,192,429804,1,0,0:0:0:0:
448,192,429804,1,0,0:0:0:0:
64,192,430349,128,0,430895:0:0:0:0:
192,192,430895,128,0,433077:0:0:0:0:
448,192,430895,1,0,0:0:0:0:
320,192,431304,1,0,0:0:0:0:
448,192,431304,1,0,0:0:0:0:
64,192,431713,1,0,0:0:0:0:
320,192,431713,1,0,0:0:0:0:
320,192,431986,1,0,0:0:0:0:
448,192,431986,1,0,0:0:0:0:
448,192,433077,128,0,433895:0:0:0:0:
64,192,433077,1,0,0:0:0:0:
192,192,433895,128,0,434167:0:0:0:0:
320,192,434167,1,0,0:0:0:0:
64,192,434167,128,0,434849:0:0:0:0:
448,192,434167,1,0,0:0:0:0:
320,192,434849,128,0,437440:0:0:0:0:
64,192,435258,1,0,0:0:0:0:
192,192,435258,1,0,0:0:0:0:
192,192,435667,1,0,0:0:0:0:
64,192,435667,1,0,0:0:0:0:
448,192,436077,1,0,0:0:0:0:
192,192,436077,1,0,0:0:0:0:
192,192,436349,1,0,0:0:0:0:
64,192,436349,1,0,0:0:0:0:
448,192,436349,1,0,0:0:0:0:
448,192,436622,1,0,0:0:0:0:
64,192,436622,1,0,0:0:0:0:
64,192,437440,128,0,439622:0:0:0:0:
192,192,437440,1,0,0:0:0:0:
320,192,438258,1,0,0:0:0:0:
192,192,438258,1,0,0:0:0:0:
448,192,438531,1,0,0:0:0:0:
192,192,438531,1,0,0:0:0:0:
320,192,438531,1,0,0:0:0:0:
448,192,439622,128,0,441804:0:0:0:0:
320,192,439622,1,0,0:0:0:0:
192,192,440031,1,0,0:0:0:0:
64,192,440031,1,0,0:0:0:0:
64,192,440440,1,0,0:0:0:0:
192,192,440440,1,0,0:0:0:0:
192,192,440713,1,0,0:0:0:0:
320,192,440713,1,0,0:0:0:0:
64,192,440713,1,0,0:0:0:0:
64,192,441804,1,0,0:0:0:0:
192,192,441804,128,0,443986:0:0:0:0:
448,192,442622,1,0,0:0:0:0:
320,192,442622,1,0,0:0:0:0:
320,192,442895,1,0,0:0:0:0:
64,192,442895,1,0,0:0:0:0:
448,192,442895,1,0,0:0:0:0:
320,192,443986,128,0,446167:0:0:0:0:
64,192,443986,1,0,0:0:0:0:
448,192,444395,1,0,0:0:0:0:
192,192,444395,1,0,0:0:0:0:
192,192,444804,1,0,0:0:0:0:
64,192,444804,1,0,0:0:0:0:
64,192,445077,1,0,0:0:0:0:
448,192,445077,1,0,0:0:0:0:
192,192,445077,1,0,0:0:0:0:
192,192,445349,1,0,0:0:0:0:
448,192,445349,1,0,0:0:0:0:
448,192,445622,1,0,0:0:0:0:
64,192,445622,1,0,0:0:0:0:
192,192,445895,1,0,0:0:0:0:
64,192,445895,1,0,0:0:0:0:
448,192,446167,128,0,448349:0:0:0:0:
64,192,446167,1,0,0:0:0:0:
192,192,446167,1,0,0:0:0:0:
64,192,446986,1,0,0:0:0:0:
192,192,446986,1,0,0:0:0:0:
320,192,447258,1,0,0:0:0:0:
192,192,447258,1,0,0:0:0:0:
64,192,447258,1,0,0:0:0:0:
320,192,448349,1,0,0:0:0:0:
192,192,448349,128,0,450531:0:0:0:0:
64,192,449167,1,0,0:0:0:0:
320,192,449167,1,0,0:0:0:0:
448,192,449440,1,0,0:0:0:0:
320,192,449440,1,0,0:0:0:0:
64,192,449440,1,0,0:0:0:0:
64,192,449713,1,0,0:0:0:0:
448,192,449713,1,0,0:0:0:0:
320,192,450122,1,0,0:0:0:0:
64,192,450531,1,0,0:0:0:0:
448,192,450531,128,0,452167:0:0:0:0:
192,192,451349,1,0,0:0:0:0:
64,192,451349,1,0,0:0:0:0:
64,192,451622,1,0,0:0:0:0:
320,192,451622,1,0,0:0:0:0:
192,192,451622,1,0,0:0:0:0:
320,192,452167,128,0,454895:0:0:0:0:
192,192,452440,1,0,0:0:0:0:
64,192,452440,1,0,0:0:0:0:
64,192,452713,1,0,0:0:0:0:
448,192,452713,1,0,0:0:0:0:
192,192,453122,1,0,0:0:0:0:
448,192,453122,1,0,0:0:0:0:
448,192,453531,1,0,0:0:0:0:
64,192,453531,1,0,0:0:0:0:
64,192,453804,1,0,0:0:0:0:
192,192,453804,1,0,0:0:0:0:
448,192,453804,1,0,0:0:0:0:
448,192,454077,1,0,0:0:0:0:
192,192,454077,1,0,0:0:0:0:
64,192,454622,1,0,0:0:0:0:
192,192,454622,1,0,0:0:0:0:
64,192,454895,128,0,456804:0:0:0:0:
448,192,454895,1,0,0:0:0:0:
192,192,454895,1,0,0:0:0:0:
448,192,455713,1,0,0:0:0:0:
320,192,455713,1,0,0:0:0:0:
192,192,455986,1,0,0:0:0:0:
448,192,455986,1,0,0:0:0:0:
320,192,455986,1,0,0:0:0:0:
448,192,456531,128,0,456804:0:0:0:0:
320,192,456804,128,0,457077:0:0:0:0:
192,192,457077,1,0,0:0:0:0:
64,192,457077,1,0,0:0:0:0:
448,192,457077,128,0,458312:0:0:0:0:
192,192,458008,1,0,0:0:0:0:
320,192,458008,1,0,0:0:0:0:
320,192,458312,128,0,460908:0:0:0:0:
192,192,458312,1,0,0:0:0:0:
64,192,458312,1,0,0:0:0:0:
192,192,460908,128,0,463545:0:0:0:0:
64,192,463545,5,0,0:0:0:0:
448,192,463545,1,0,0:0:0:0:
320,192,463613,1,0,0:0:0:0:
192,192,463681,1,0,0:0:0:0:
64,192,463681,1,0,0:0:0:0:
448,192,463749,1,0,0:0:0:0:
320,192,463817,1,0,0:0:0:0:
64,192,463817,1,0,0:0:0:0:
192,192,463885,1,0,0:0:0:0:
448,192,463954,1,0,0:0:0:0:
64,192,463954,1,0,0:0:0:0:
192,192,464022,1,0,0:0:0:0:
320,192,464090,1,0,0:0:0:0:
448,192,464090,1,0,0:0:0:0:
64,192,464158,1,0,0:0:0:0:
192,192,464226,1,0,0:0:0:0:
320,192,464226,1,0,0:0:0:0:
448,192,464295,1,0,0:0:0:0:
64,192,464363,1,0,0:0:0:0:
192,192,464363,1,0,0:0:0:0:
448,192,464431,1,0,0:0:0:0:
320,192,464499,1,0,0:0:0:0:
192,192,464499,1,0,0:0:0:0:
64,192,464567,1,0,0:0:0:0:
448,192,464635,1,0,0:0:0:0:
320,192,464635,1,0,0:0:0:0:
64,192,464704,1,0,0:0:0:0:
192,192,464772,1,0,0:0:0:0:
448,192,464772,1,0,0:0:0:0:
320,192,464840,1,0,0:0:0:0:
64,192,464908,1,0,0:0:0:0:
192,192,464908,1,0,0:0:0:0:
448,192,464976,1,0,0:0:0:0:
320,192,465045,1,0,0:0:0:0:
64,192,465045,1,0,0:0:0:0:
192,192,465113,1,0,0:0:0:0:
320,192,465181,1,0,0:0:0:0:
448,192,465181,1,0,0:0:0:0:
64,192,465249,1,0,0:0:0:0:
192,192,465317,1,0,0:0:0:0:
320,192,465317,1,0,0:0:0:0:
448,192,465385,1,0,0:0:0:0:
64,192,465454,1,0,0:0:0:0:
192,192,465454,1,0,0:0:0:0:
320,192,465522,1,0,0:0:0:0:
448,192,465590,1,0,0:0:0:0:
64,192,465590,1,0,0:0:0:0:
192,192,465658,1,0,0:0:0:0:
320,192,465726,1,0,0:0:0:0:
448,192,465726,1,0,0:0:0:0:
64,192,465795,1,0,0:0:0:0:
192,192,465863,1,0,0:0:0:0:
320,192,465863,1,0,0:0:0:0:
64,192,465931,1,0,0:0:0:0:
448,192,465999,1,0,0:0:0:0:
320,192,465999,1,0,0:0:0:0:
192,192,466067,1,0,0:0:0:0:
448,192,466135,1,0,0:0:0:0:
64,192,466135,1,0,0:0:0:0:
320,192,466204,1,0,0:0:0:0:
448,192,466272,1,0,0:0:0:0:
64,192,466272,1,0,0:0:0:0:
192,192,466340,1,0,0:0:0:0:
320,192,466408,1,0,0:0:0:0:
64,192,466408,1,0,0:0:0:0:
192,192,466476,1,0,0:0:0:0:
448,192,466545,1,0,0:0:0:0:
320,192,466545,1,0,0:0:0:0:
64,192,466613,1,0,0:0:0:0:
320,192,466681,1,0,0:0:0:0:
192,192,466681,1,0,0:0:0:0:
64,192,466749,1,0,0:0:0:0:
320,192,466817,1,0,0:0:0:0:
448,192,466817,1,0,0:0:0:0:
192,192,466885,1,0,0:0:0:0:
320,192,466954,1,0,0:0:0:0:
64,192,466954,1,0,0:0:0:0:
448,192,467022,1,0,0:0:0:0:
64,192,467090,1,0,0:0:0:0:
320,192,467090,1,0,0:0:0:0:
192,192,467158,1,0,0:0:0:0:
64,192,467226,1,0,0:0:0:0:
448,192,467226,1,0,0:0:0:0:
320,192,467295,1,0,0:0:0:0:
192,192,467363,1,0,0:0:0:0:
64,192,467363,1,0,0:0:0:0:
448,192,467431,1,0,0:0:0:0:
192,192,467499,1,0,0:0:0:0:
320,192,467499,1,0,0:0:0:0:
64,192,467567,1,0,0:0:0:0:
448,192,467635,1,0,0:0:0:0:
320,192,467635,1,0,0:0:0:0:
64,192,467704,1,0,0:0:0:0:
192,192,467772,1,0,0:0:0:0:
448,192,467772,1,0,0:0:0:0:
320,192,467840,1,0,0:0:0:0:
64,192,467908,1,0,0:0:0:0:
192,192,467908,1,0,0:0:0:0:
448,192,467908,1,0,0:0:0:0:
320,192,467976,1,0,0:0:0:0:
64,192,468045,1,0,0:0:0:0:
192,192,468045,1,0,0:0:0:0:
320,192,468113,1,0,0:0:0:0:
448,192,468181,1,0,0:0:0:0:
64,192,468181,1,0,0:0:0:0:
192,192,468249,1,0,0:0:0:0:
320,192,468317,1,0,0:0:0:0:
448,192,468317,1,0,0:0:0:0:
64,192,468385,1,0,0:0:0:0:
192,192,468454,1,0,0:0:0:0:
320,192,468454,1,0,0:0:0:0:
64,192,468522,1,0,0:0:0:0:
448,192,468590,1,0,0:0:0:0:
192,192,468590,1,0,0:0:0:0:
320,192,468658,1,0,0:0:0:0:
64,192,468726,1,0,0:0:0:0:
448,192,468726,1,0,0:0:0:0:
192,192,468795,1,0,0:0:0:0:
320,192,468863,1,0,0:0:0:0:
448,192,468863,1,0,0:0:0:0:
64,192,468931,1,0,0:0:0:0:
192,192,468999,1,0,0:0:0:0:
320,192,468999,1,0,0:0:0:0:
448,192,469067,1,0,0:0:0:0:
64,192,469135,1,0,0:0:0:0:
192,192,469135,1,0,0:0:0:0:
448,192,469204,1,0,0:0:0:0:
320,192,469272,1,0,0:0:0:0:
64,192,469272,1,0,0:0:0:0:
192,192,469340,1,0,0:0:0:0:
448,192,469408,1,0,0:0:0:0:
320,192,469408,1,0,0:0:0:0:
64,192,469476,1,0,0:0:0:0:
192,192,469545,1,0,0:0:0:0:
320,192,469545,1,0,0:0:0:0:
448,192,469613,1,0,0:0:0:0:
64,192,469681,1,0,0:0:0:0:
192,192,469681,1,0,0:0:0:0:
320,192,469749,1,0,0:0:0:0:
64,192,469817,1,0,0:0:0:0:
448,192,469817,1,0,0:0:0:0:
192,192,469885,1,0,0:0:0:0:
448,192,469954,1,0,0:0:0:0:
320,192,469954,1,0,0:0:0:0:
192,192,470022,5,0,0:0:0:0:
64,192,470090,5,0,0:0:0:0:
320,192,470090,1,0,0:0:0:0:
448,192,470090,1,0,0:0:0:0:
192,192,470158,1,0,0:0:0:0:
64,192,470226,1,0,0:0:0:0:
320,192,470226,1,0,0:0:0:0:
448,192,470295,1,0,0:0:0:0:
192,192,470363,1,0,0:0:0:0:
320,192,470363,1,0,0:0:0:0:
64,192,470431,1,0,0:0:0:0:
448,192,470499,1,0,0:0:0:0:
320,192,470499,1,0,0:0:0:0:
192,192,470567,1,0,0:0:0:0:
64,192,470635,1,0,0:0:0:0:
448,192,470635,1,0,0:0:0:0:
320,192,470704,1,0,0:0:0:0:
192,192,470772,1,0,0:0:0:0:
64,192,470772,1,0,0:0:0:0:
448,192,470840,1,0,0:0:0:0:
320,192,470908,1,0,0:0:0:0:
192,192,470908,1,0,0:0:0:0:
64,192,470976,1,0,0:0:0:0:
448,192,471045,1,0,0:0:0:0:
192,192,471045,1,0,0:0:0:0:
64,192,471113,1,0,0:0:0:0:
320,192,471181,5,0,0:0:0:0:
448,192,471181,1,0,0:0:0:0:
64,192,471249,1,0,0:0:0:0:
448,192,471317,1,0,0:0:0:0:
320,192,471317,1,0,0:0:0:0:
192,192,471385,1,0,0:0:0:0:
64,192,471454,1,0,0:0:0:0:
448,192,471522,1,0,0:0:0:0:
64,192,471590,1,0,0:0:0:0:
192,192,471658,1,0,0:0:0:0:
320,192,471726,1,0,0:0:0:0:
192,192,471795,1,0,0:0:0:0:
448,192,471863,1,0,0:0:0:0:
320,192,471863,1,0,0:0:0:0:
64,192,471863,128,0,472135:0:0:0:0:
320,192,472135,1,0,0:0:0:0:
448,192,472135,1,0,0:0:0:0:
64,192,472204,1,0,0:0:0:0:
192,192,472204,1,0,0:0:0:0:
320,192,472272,1,0,0:0:0:0:
448,192,472272,1,0,0:0:0:0:
192,192,472340,1,0,0:0:0:0:
64,192,472408,1,0,0:0:0:0:
192,192,472476,1,0,0:0:0:0:
320,192,472545,1,0,0:0:0:0:
448,192,472545,1,0,0:0:0:0:
192,192,472613,1,0,0:0:0:0:
64,192,472681,1,0,0:0:0:0:
320,192,472749,1,0,0:0:0:0:
192,192,472817,1,0,0:0:0:0:
448,192,472817,1,0,0:0:0:0:
64,192,472885,1,0,0:0:0:0:
320,192,472954,1,0,0:0:0:0:
192,192,473022,1,0,0:0:0:0:
320,192,473090,1,0,0:0:0:0:
448,192,473090,1,0,0:0:0:0:
192,192,473158,1,0,0:0:0:0:
64,192,473226,1,0,0:0:0:0:
448,192,473295,1,0,0:0:0:0:
320,192,473363,1,0,0:0:0:0:
192,192,473363,1,0,0:0:0:0:
64,192,473431,1,0,0:0:0:0:
448,192,473499,1,0,0:0:0:0:
320,192,473567,1,0,0:0:0:0:
192,192,473635,1,0,0:0:0:0:
64,192,473635,1,0,0:0:0:0:
320,192,473704,1,0,0:0:0:0:
448,192,473772,1,0,0:0:0:0:
64,192,473840,1,0,0:0:0:0:
192,192,473908,1,0,0:0:0:0:
448,192,473908,1,0,0:0:0:0:
320,192,473976,1,0,0:0:0:0:
192,192,474045,1,0,0:0:0:0:
64,192,474113,1,0,0:0:0:0:
320,192,474181,1,0,0:0:0:0:
448,192,474181,1,0,0:0:0:0:
192,192,474249,1,0,0:0:0:0:
64,192,474317,1,0,0:0:0:0:
448,192,474385,1,0,0:0:0:0:
320,192,474454,1,0,0:0:0:0:
192,192,474454,1,0,0:0:0:0:
64,192,474522,1,0,0:0:0:0:
448,192,474590,1,0,0:0:0:0:
192,192,474658,1,0,0:0:0:0:
320,192,474726,1,0,0:0:0:0:
64,192,474726,1,0,0:0:0:0:
448,192,474795,1,0,0:0:0:0:
64,192,474863,1,0,0:0:0:0:
192,192,474931,1,0,0:0:0:0:
320,192,474999,1,0,0:0:0:0:
448,192,474999,1,0,0:0:0:0:
192,192,475067,1,0,0:0:0:0:
64,192,475135,1,0,0:0:0:0:
448,192,475204,1,0,0:0:0:0:
320,192,475272,1,0,0:0:0:0:
192,192,475272,1,0,0:0:0:0:
64,192,475340,1,0,0:0:0:0:
448,192,475408,1,0,0:0:0:0:
320,192,475476,1,0,0:0:0:0:
192,192,475545,1,0,0:0:0:0:
64,192,475545,1,0,0:0:0:0:
448,192,475613,1,0,0:0:0:0:
320,192,475681,1,0,0:0:0:0:
192,192,475749,1,0,0:0:0:0:
320,192,475817,1,0,0:0:0:0:
448,192,475817,1,0,0:0:0:0:
192,192,475885,1,0,0:0:0:0:
64,192,475954,1,0,0:0:0:0:
320,192,476022,1,0,0:0:0:0:
448,192,476090,1,0,0:0:0:0:
192,192,476090,1,0,0:0:0:0:
64,192,476158,1,0,0:0:0:0:
320,192,476226,1,0,0:0:0:0:
192,192,476295,1,0,0:0:0:0:
320,192,476363,1,0,0:0:0:0:
448,192,476363,1,0,0:0:0:0:
64,192,476431,1,0,0:0:0:0:
192,192,476499,1,0,0:0:0:0:
320,192,476567,1,0,0:0:0:0:
64,192,476635,128,0,477181:0:0:0:0:
448,192,476635,1,0,0:0:0:0:
320,192,477181,128,0,477726:0:0:0:0:
192,192,477454,1,0,0:0:0:0:
64,192,477454,1,0,0:0:0:0:
64,192,477590,1,0,0:0:0:0:
192,192,477590,1,0,0:0:0:0:
448,192,477726,128,0,478613:0:0:0:0:
192,192,477726,1,0,0:0:0:0:
64,192,477726,1,0,0:0:0:0:
320,192,478272,128,0,478613:0:0:0:0:
64,192,478613,1,0,0:0:0:0:
320,192,478681,1,0,0:0:0:0:
192,192,478749,1,0,0:0:0:0:
320,192,478817,1,0,0:0:0:0:
448,192,478817,1,0,0:0:0:0:
64,192,478954,1,0,0:0:0:0:
192,192,479022,1,0,0:0:0:0:
320,192,479090,1,0,0:0:0:0:
448,192,479226,1,0,0:0:0:0:
64,192,479226,1,0,0:0:0:0:
64,192,479363,1,0,0:0:0:0:
320,192,479431,1,0,0:0:0:0:
192,192,479499,1,0,0:0:0:0:
448,192,479499,1,0,0:0:0:0:
64,192,479635,1,0,0:0:0:0:
192,192,479704,1,0,0:0:0:0:
64,192,479772,1,0,0:0:0:0:
448,192,479840,1,0,0:0:0:0:
320,192,479908,1,0,0:0:0:0:
64,192,479908,1,0,0:0:0:0:
192,192,479976,1,0,0:0:0:0:
448,192,480045,1,0,0:0:0:0:
64,192,480113,1,0,0:0:0:0:
448,192,480181,1,0,0:0:0:0:
320,192,480181,1,0,0:0:0:0:
192,192,480249,1,0,0:0:0:0:
64,192,480317,1,0,0:0:0:0:
448,192,480385,1,0,0:0:0:0:
192,192,480454,1,0,0:0:0:0:
320,192,480454,1,0,0:0:0:0:
64,192,480590,1,0,0:0:0:0:
192,192,480658,1,0,0:0:0:0:
320,192,480726,1,0,0:0:0:0:
448,192,480726,1,0,0:0:0:0:
192,192,480863,1,0,0:0:0:0:
64,192,480999,1,0,0:0:0:0:
320,192,480999,1,0,0:0:0:0:
448,192,481067,1,0,0:0:0:0:
192,192,481135,1,0,0:0:0:0:
64,192,481204,1,0,0:0:0:0:
320,192,481272,1,0,0:0:0:0:
192,192,481340,1,0,0:0:0:0:
64,192,481408,1,0,0:0:0:0:
320,192,481476,1,0,0:0:0:0:
448,192,481545,1,0,0:0:0:0:
320,192,481613,1,0,0:0:0:0:
64,192,481681,1,0,0:0:0:0:
448,192,481749,1,0,0:0:0:0:
192,192,481817,1,0,0:0:0:0:
320,192,481885,1,0,0:0:0:0:
64,192,481954,1,0,0:0:0:0:
448,192,482022,1,0,0:0:0:0:
192,192,482090,1,0,0:0:0:0:
320,192,482090,1,0,0:0:0:0:
64,192,482158,1,0,0:0:0:0:
320,192,482226,1,0,0:0:0:0:
448,192,482226,1,0,0:0:0:0:
192,192,482295,1,0,0:0:0:0:
64,192,482295,1,0,0:0:0:0:
320,192,482363,1,0,0:0:0:0:
448,192,482431,1,0,0:0:0:0:
64,192,482499,1,0,0:0:0:0:
192,192,482567,1,0,0:0:0:0:
320,192,482635,1,0,0:0:0:0:
448,192,482635,1,0,0:0:0:0:
192,192,482704,1,0,0:0:0:0:
64,192,482704,1,0,0:0:0:0:
320,192,482772,1,0,0:0:0:0:
448,192,482772,1,0,0:0:0:0:
192,192,482840,1,0,0:0:0:0:
64,192,482840,1,0,0:0:0:0:
448,192,482908,1,0,0:0:0:0:
320,192,482976,1,0,0:0:0:0:
192,192,483045,1,0,0:0:0:0:
64,192,483113,1,0,0:0:0:0:
448,192,483181,1,0,0:0:0:0:
320,192,483181,1,0,0:0:0:0:
192,192,483249,1,0,0:0:0:0:
64,192,483317,1,0,0:0:0:0:
320,192,483317,1,0,0:0:0:0:
448,192,483454,1,0,0:0:0:0:
192,192,483522,1,0,0:0:0:0:
320,192,483590,1,0,0:0:0:0:
192,192,483658,1,0,0:0:0:0:
64,192,483658,1,0,0:0:0:0:
320,192,483726,1,0,0:0:0:0:
448,192,483726,1,0,0:0:0:0:
192,192,483795,1,0,0:0:0:0:
64,192,483863,1,0,0:0:0:0:
192,192,483999,1,0,0:0:0:0:
320,192,484067,1,0,0:0:0:0:
448,192,484135,1,0,0:0:0:0:
64,192,484272,1,0,0:0:0:0:
192,192,484272,1,0,0:0:0:0:
448,192,484272,1,0,0:0:0:0:
320,192,484340,1,0,0:0:0:0:
192,192,484408,1,0,0:0:0:0:
448,192,484476,1,0,0:0:0:0:
320,192,484545,1,0,0:0:0:0:
192,192,484613,1,0,0:0:0:0:
64,192,484681,1,0,0:0:0:0:
448,192,484749,1,0,0:0:0:0:
320,192,484817,1,0,0:0:0:0:
192,192,484885,1,0,0:0:0:0:
448,192,484954,1,0,0:0:0:0:
64,192,485022,1,0,0:0:0:0:
192,192,485090,1,0,0:0:0:0:
320,192,485090,1,0,0:0:0:0:
448,192,485158,1,0,0:0:0:0:
64,192,485226,1,0,0:0:0:0:
192,192,485226,1,0,0:0:0:0:
320,192,485295,1,0,0:0:0:0:
64,192,485363,128,0,491908:0:0:0:0:
448,192,485363,128,0,491908:0:0:0:0:
192,192,487545,1,0,0:0:0:0:
320,192,487545,1,0,0:0:0:0:
192,192,489726,1,0,0:0:0:0:
320,192,489726,1,0,0:0:0:0:
192,192,491908,1,0,0:0:0:0:
320,192,491908,1,0,0:0:0:0:
