osu file format v14

[General]
AudioFilename: audio.mp3
AudioLeadIn: 0
PreviewTime: 292349
Countdown: 0
SampleSet: None
StackLeniency: 0.9
Mode: 0
LetterboxInBreaks: 0
WidescreenStoryboard: 0

[Editor]
Bookmarks: 55,292417
DistanceSpacing: 2.4
BeatDivisor: 4
GridSize: 4
TimelineZoom: 2.899998

[Metadata]
Title:Yomi yori Kikoyu, Koukoku no Tou to Honoo no Shoujo.
TitleUnicode:黄泉より聴こゆ、皇国の燈と焔の少女。
Artist:Imperial Circus Dead Decadence
ArtistUnicode:Imperial Circus Dead Decadence
Creator:Emilious
Version:Rebirth: Tsumi
Source:
Tags:Symphonic Black Metal ICDD yomi yori fc marathon
BeatmapID:1922604
BeatmapSetID:920657

[Difficulty]
HPDrainRate:5.2
CircleSize:3.5
OverallDifficulty:9
ApproachRate:9.8
SliderMultiplier:1.4
SliderTickRate:1

[Events]
//Background and Video events
0,0,"Yomi Yori osu! Background.jpg",0,0
//Break Periods
2,192083,207327
//Storyboard Layer 0 (Background)
//Storyboard Layer 1 (Fail)
//Storyboard Layer 2 (Pass)
//Storyboard Layer 3 (Foreground)
//Storyboard Layer 4 (Overlay)
//Storyboard Sound Samples

[TimingPoints]
55,272.727272727273,4,3,1,100,1,0
1145,-100,4,3,1,90,0,0
2782,-79.9999999999999,4,3,1,80,0,0
3259,-79.9999999999999,4,3,1,5,0,0
3327,-79.9999999999999,4,3,1,70,0,0
4418,-54.054054054054,4,3,1,70,0,0
4691,-50,4,3,1,70,0,0
4964,-45.4545454545455,4,3,1,70,0,0
5236,-40,4,3,1,70,0,0
5986,-66.6666666666667,4,3,1,70,0,0
6600,-54.054054054054,4,3,1,70,0,0
7691,-66.6666666666667,4,3,1,70,0,0
9873,-66.6666666666667,4,3,1,70,0,1
14441,-66.6666666666667,4,3,1,5,0,1
14509,-71.4285714285714,4,3,1,70,0,1
18055,-66.6666666666667,4,3,1,70,0,1
18600,-66.6666666666667,4,3,1,70,0,0
24873,-76.9230769230769,4,3,1,70,0,0
27327,-66.6666666666667,4,3,1,74,0,1
39327,-47.6190476190476,4,3,1,70,0,1
39873,-66.6666666666667,4,3,1,70,0,1
39907,-66.6666666666667,4,3,1,5,0,1
39941,-66.6666666666667,4,3,1,70,0,1
39975,-66.6666666666667,4,3,1,5,0,1
40009,-66.6666666666667,4,3,1,70,0,1
40043,-66.6666666666667,4,3,1,5,0,1
40077,-66.6666666666667,4,3,1,70,0,1
40111,-66.6666666666667,4,3,1,5,0,1
40145,-52.6315789473684,4,3,1,70,0,0
42327,-62.5,4,3,1,70,0,0
46964,-80,4,3,1,70,0,0
49145,-100,4,3,1,70,0,0
51123,-100,4,3,1,5,0,0
51191,-41.6666666666667,4,3,1,70,0,0
52418,-100,4,3,1,70,0,0
52759,-66.6666666666667,4,3,1,70,0,0
57873,-66.6666666666667,4,1,1,70,0,0
75327,-66.6666666666667,4,3,1,70,0,0
91895,-66.6666666666667,4,3,1,5,0,0
91964,-66.6666666666667,4,3,1,60,0,0
92168,-66.6666666666667,4,3,1,5,0,0
92236,-66.6666666666667,4,3,1,60,0,0
92441,-66.6666666666667,4,3,1,5,0,0
92509,-66.6666666666667,4,3,1,60,0,0
92714,-66.6666666666667,4,3,1,5,0,0
92782,-66.6666666666667,4,1,1,60,0,0
97145,-50,4,1,1,60,0,0
98236,-66.6666666666667,4,1,1,60,0,0
100418,-66.6666666666667,4,1,1,60,0,0
104714,-66.6666666666667,4,1,1,5,0,0
104782,-66.6666666666667,4,1,1,70,0,0
105873,-66.6666666666667,4,3,1,60,0,0
107850,-66.6666666666667,4,3,1,5,0,0
107918,-66.6666666666667,4,3,1,60,0,0
108055,-133.333333333333,4,1,1,75,0,0
110236,-55.5555555555556,4,3,1,60,0,0
116782,-80,4,3,1,60,0,0
117327,-66.6666666666667,4,3,1,60,0,0
117532,-66.6666666666667,4,3,1,5,0,0
117600,-66.6666666666667,4,3,1,60,0,0
120873,-44.4444444444445,4,3,1,60,0,0
125236,-133.333333333333,4,3,1,60,0,0
127418,-66.6666666666667,4,1,1,60,0,0
132736,-55.5555555555556,4,1,1,60,0,0
135191,-100,4,1,1,60,0,0
135532,-100,4,1,1,5,0,0
135600,-58.8235294117647,4,1,1,60,0,0
143373,-100,4,1,1,60,0,0
143782,-133.333333333333,4,1,1,60,0,0
143918,-66.6666666666667,4,1,1,60,0,0
151691,-181.818181818181,4,1,1,60,0,0
152441,-181.818181818181,4,1,1,5,0,0
152509,-100,4,1,1,60,0,0
152782,-60.6060606060606,4,1,1,60,0,0
156464,-80,4,1,1,60,0,0
156873,-133.333333333333,4,1,1,60,0,0
157418,-66.6666666666667,4,1,1,60,0,0
160418,-66.6666666666667,4,1,1,60,0,1
161577,-66.6666666666667,4,1,1,45,0,1
161646,-66.6666666666667,4,1,1,70,0,1
161714,-66.6666666666667,4,1,1,45,0,1
161782,-66.6666666666667,4,1,1,70,0,1
161850,-66.6666666666667,4,1,1,45,0,1
161918,-66.6666666666667,4,1,1,70,0,1
161986,-66.6666666666667,4,1,1,45,0,1
162055,-66.6666666666667,4,1,1,70,0,1
162123,-66.6666666666667,4,1,1,45,0,1
162191,-66.6666666666667,4,1,1,70,0,1
164236,-66.6666666666667,4,1,1,25,0,0
164782,-222.222222222221,4,3,1,70,0,0
165327,-66.6666666666667,4,3,1,70,0,0
165873,-61.3496932515337,4,3,8,70,0,1
166009,-61.3496932515337,4,3,1,5,0,1
166055,-61.3496932515337,4,3,8,70,0,1
166191,-61.3496932515337,4,3,1,5,0,1
166236,-61.3496932515337,4,3,8,70,0,1
166373,-61.3496932515337,4,3,1,5,0,1
166418,-61.3496932515337,4,3,8,70,0,1
166555,-61.3496932515337,4,3,1,5,0,1
166600,-61.3496932515337,4,3,8,70,0,1
166736,-61.3496932515337,4,3,1,5,0,1
166782,-61.3496932515337,4,3,8,70,0,1
166918,-61.3496932515337,4,3,1,5,0,1
166964,-61.3496932515337,4,3,8,70,0,1
167055,-61.3496932515337,4,3,1,70,0,1
167509,-61.3496932515337,4,3,8,70,0,1
167645,-61.3496932515337,4,3,1,5,0,1
167691,-61.3496932515337,4,3,8,70,0,1
167827,-61.3496932515337,4,3,1,5,0,1
167873,-61.3496932515337,4,3,8,70,0,1
168009,-61.3496932515337,4,3,1,5,0,1
168055,-61.3496932515337,4,3,8,70,0,1
168327,-61.3496932515337,4,3,1,5,0,1
168418,-61.3496932515337,4,3,8,70,0,1
168555,-61.3496932515337,4,3,1,5,0,1
168600,-61.3496932515337,4,3,8,70,0,1
168736,-61.3496932515337,4,3,1,5,0,1
168782,-61.3496932515337,4,3,8,70,0,1
168918,-61.3496932515337,4,3,1,5,0,1
168964,-61.3496932515337,4,3,8,70,0,1
169100,-61.3496932515337,4,3,1,5,0,1
169145,-61.3496932515337,4,3,8,70,0,1
169236,-61.3496932515337,4,3,1,70,0,1
169691,-61.3496932515337,4,3,8,70,0,1
169782,-61.3496932515337,4,3,1,70,0,1
170055,-61.3496932515337,4,3,8,70,0,1
170191,-61.3496932515337,4,3,1,5,0,1
170236,-61.3496932515337,4,3,8,70,0,1
170509,-61.3496932515337,4,3,8,5,0,1
170600,-61.3496932515337,4,3,8,70,0,1
170736,-61.3496932515337,4,3,1,5,0,1
170782,-61.3496932515337,4,3,8,70,0,1
170918,-61.3496932515337,4,3,1,5,0,1
170964,-61.3496932515337,4,3,8,70,0,1
171100,-61.3496932515337,4,3,1,5,0,1
171145,-61.3496932515337,4,3,8,70,0,1
171282,-61.3496932515337,4,3,1,5,0,1
171327,-61.3496932515337,4,3,8,70,0,1
171418,-61.3496932515337,4,3,1,70,0,1
171873,-61.3496932515337,4,3,8,70,0,1
171964,-61.3496932515337,4,3,1,70,0,1
172418,-61.3496932515337,4,3,8,70,0,1
172555,-61.3496932515337,4,3,1,5,0,1
172600,-61.3496932515337,4,3,8,70,0,1
172736,-61.3496932515337,4,3,1,5,0,1
172782,-61.3496932515337,4,3,8,70,0,1
172918,-61.3496932515337,4,3,1,5,0,1
172964,-61.3496932515337,4,3,8,70,0,1
173100,-61.3496932515337,4,3,1,5,0,1
173145,-61.3496932515337,4,3,8,70,0,1
173282,-61.3496932515337,4,3,1,5,0,1
173327,-61.3496932515337,4,3,8,70,0,1
173464,-61.3496932515337,4,3,1,5,0,1
173509,-61.3496932515337,4,3,8,70,0,1
173600,-61.3496932515337,4,3,1,70,0,1
174600,-66.6666666666667,4,3,1,70,0,1
182782,-66.6666666666667,4,3,1,70,0,0
185441,-50,4,3,1,70,0,0
186600,-66.6666666666667,4,3,1,70,0,0
187418,-133.333333333333,4,3,1,70,0,0
187691,545.454545454546,4,3,1,70,1,0
208418,-100,4,3,1,60,0,0
212509,-66.6666666666667,4,3,1,55,0,0
220145,-50,4,3,1,55,0,0
226963,272.727272727273,4,3,1,70,1,0
226963,-100,4,2,1,70,0,0
230781,-55.5555555555556,4,2,1,70,0,0
243190,-55.5555555555556,4,2,1,50,0,0
244417,-55.5555555555556,4,3,1,70,0,0
257508,-66.6666666666667,4,3,1,70,0,0
262963,-66.6666666666667,4,3,1,35,0,0
264053,-66.6666666666667,4,3,1,70,0,0
274963,-66.6666666666667,4,3,1,70,0,1
283690,-66.6666666666667,4,3,1,80,0,1
290235,-50,4,3,1,70,0,0
291667,-50,4,3,1,5,0,0
291735,-50,4,3,1,70,0,0
291803,-50,4,3,1,15,0,0
291872,-50,4,3,1,70,0,0
292417,-58.8235294117647,4,3,1,70,0,0
293099,-66.6666666666667,4,3,1,70,0,0
293508,-66.6666666666667,4,3,1,70,0,0
296781,-66.6666666666667,4,3,1,70,0,1
305508,-66.6666666666667,4,2,1,70,0,1
307690,-66.6666666666667,4,3,1,100,0,0
309872,-66.6666666666667,4,3,1,70,0,1
313963,-66.6666666666667,4,1,1,75,0,1
314917,-66.6666666666667,4,1,1,60,0,1
315190,-66.6666666666667,4,1,1,80,0,1
316008,-66.6666666666667,4,1,1,65,0,1
316281,-66.6666666666667,4,1,1,85,0,1
317099,-55.5555555555556,4,1,1,70,0,1
317372,-55.5555555555556,4,1,1,80,0,1
318599,-66.6666666666667,4,2,1,90,0,1
322553,-45.4545454545455,4,3,1,90,0,1
322963,-55.5555555555556,4,1,1,90,0,1
328349,-66.6666666666667,4,1,1,70,0,0
330053,-133.333333333333,4,1,1,70,0,0
330326,-50,4,1,1,70,0,0
330599,-66.6666666666667,4,1,1,70,0,0
334963,-100,4,1,1,70,0,0
335235,-66.6666666666667,4,3,1,15,0,0
336053,-66.6666666666667,4,3,1,70,0,0
341508,-303.030303030303,4,3,1,70,0,0
342258,-303.030303030303,4,3,1,5,0,0
342326,-66.6666666666667,4,1,1,70,0,0
348326,-66.6666666666667,4,3,1,70,0,0
352417,-66.6666666666667,4,1,1,70,0,0
369803,-166.666666666667,4,3,1,40,0,0
371235,-166.666666666667,4,3,1,15,0,0
371781,-166.666666666667,4,3,1,50,0,0
374235,-166.666666666667,4,3,1,40,0,0
378190,-181.818181818181,4,3,1,40,0,0
379690,-133.333333333333,4,3,1,40,0,0
382144,-133.333333333333,4,3,1,5,0,0
382417,-133.333333333333,4,3,1,35,0,0
386781,-133.333333333333,4,3,1,30,0,0
387326,-133.333333333333,4,3,1,50,0,0
388417,-166.666666666667,4,3,8,50,0,1
388963,-66.6666666666667,4,3,1,100,0,1
389508,-55.5555555555556,4,3,8,70,0,1
389599,-55.5555555555556,4,3,8,5,0,1
389690,-55.5555555555556,4,3,8,70,0,1
389781,-55.5555555555556,4,3,8,5,0,1
389872,-55.5555555555556,4,3,8,70,0,1
389963,-55.5555555555556,4,3,8,5,0,1
390053,-55.5555555555556,4,3,8,70,0,1
390144,-55.5555555555556,4,3,8,5,0,1
390235,-55.5555555555556,4,3,8,70,0,1
390326,-55.5555555555556,4,3,8,5,0,1
390417,-55.5555555555556,4,3,8,70,0,1
390508,-55.5555555555556,4,3,8,5,0,1
390599,-55.5555555555556,4,3,8,70,0,1
390690,-55.5555555555556,4,3,1,70,0,1
391144,-55.5555555555556,4,3,8,70,0,1
391235,-55.5555555555556,4,3,1,70,0,1
391690,-55.5555555555556,4,3,8,70,0,1
391963,-55.5555555555556,4,3,8,5,0,1
392053,-55.5555555555556,4,3,8,70,0,1
392144,-55.5555555555556,4,3,8,5,0,1
392235,-55.5555555555556,4,3,8,70,0,1
392326,-55.5555555555556,4,3,8,5,0,1
392417,-55.5555555555556,4,3,8,70,0,1
392508,-55.5555555555556,4,3,8,5,0,1
392599,-55.5555555555556,4,3,8,70,0,1
392690,-55.5555555555556,4,3,8,5,0,1
392781,-55.5555555555556,4,3,8,70,0,1
392872,-55.5555555555556,4,3,1,70,0,1
393326,-55.5555555555556,4,3,8,70,0,1
393644,-55.5555555555556,4,3,8,5,0,1
393690,-55.5555555555556,4,3,8,70,0,1
393781,-55.5555555555556,4,3,8,5,0,1
393872,-55.5555555555556,4,3,8,70,0,1
393963,-55.5555555555556,4,3,8,5,0,1
394053,-55.5555555555556,4,3,8,70,0,1
394144,-55.5555555555556,4,3,8,5,0,1
394235,-55.5555555555556,4,3,8,70,0,1
394326,-55.5555555555556,4,3,8,5,0,1
394417,-55.5555555555556,4,3,8,70,0,1
394508,-55.5555555555556,4,3,8,5,0,1
394599,-55.5555555555556,4,3,8,70,0,1
394690,-55.5555555555556,4,3,8,5,0,1
394781,-55.5555555555556,4,3,8,70,0,1
394872,-55.5555555555556,4,3,8,5,0,1
394963,-55.5555555555556,4,3,8,70,0,1
395053,-55.5555555555556,4,3,1,70,0,1
395508,-55.5555555555556,4,3,8,70,0,1
395599,-55.5555555555556,4,3,1,70,0,1
396053,-55.5555555555556,4,3,8,70,0,1
396144,-55.5555555555556,4,3,8,5,0,1
396235,-55.5555555555556,4,3,8,70,0,1
396326,-55.5555555555556,4,3,8,5,0,1
396417,-55.5555555555556,4,3,8,70,0,1
396508,-55.5555555555556,4,3,8,5,0,1
396599,-55.5555555555556,4,3,8,70,0,1
396690,-55.5555555555556,4,3,8,5,0,1
396781,-55.5555555555556,4,3,8,70,0,1
396872,-55.5555555555556,4,3,8,5,0,1
396963,-55.5555555555556,4,3,8,70,0,1
397053,-55.5555555555556,4,3,8,5,0,1
397144,-55.5555555555556,4,3,8,70,0,1
397235,-55.5555555555556,4,3,1,70,0,1
397826,-55.5555555555556,4,3,1,5,0,1
397872,-55.5555555555556,4,3,1,70,0,1
398008,-55.5555555555556,4,3,1,5,0,1
398053,-55.5555555555556,4,3,1,70,0,1
398190,-55.5555555555556,4,3,1,5,0,1
398235,-55.5555555555556,4,3,1,70,0,1
398508,-80,4,3,1,70,0,1
406599,-80,4,3,8,70,0,1
406690,-80,4,3,8,5,0,1
406781,-80,4,3,8,70,0,1
406872,-80,4,3,8,5,0,1
406963,-80,4,3,8,70,0,1
407053,-80,4,3,8,5,0,1
407144,-80,4,3,8,70,0,1
407235,-55.5555555555556,4,3,1,5,0,1
407326,-80,4,3,8,70,0,1
407417,-55.5555555555556,4,3,1,5,0,1
407508,-80,4,3,8,70,0,1
407599,-55.5555555555556,4,3,1,5,0,1
407690,-80,4,3,8,70,0,1
407781,-55.5555555555556,4,3,1,5,0,1
407872,-80,4,3,8,70,0,1
407963,-55.5555555555556,4,3,1,5,0,1
408053,-80,4,3,8,70,0,1
408144,-80,4,3,1,70,0,1
408599,-80,4,3,8,70,0,1
408690,-80,4,3,1,70,0,1
409144,-80,4,3,8,70,0,1
409235,-55.5555555555556,4,3,1,5,0,1
409326,-80,4,3,8,70,0,1
409417,-55.5555555555556,4,3,1,5,0,1
409508,-80,4,3,8,70,0,1
409599,-55.5555555555556,4,3,1,5,0,1
409690,-80,4,3,8,70,0,1
409781,-55.5555555555556,4,3,1,5,0,1
409872,-80,4,3,8,70,0,1
409963,-55.5555555555556,4,3,1,5,0,1
410053,-80,4,3,8,70,0,1
410144,-55.5555555555556,4,3,1,5,0,1
410235,-80,4,3,8,70,0,1
410326,-80,4,3,1,70,0,1
410781,-80,4,3,8,70,0,1
411099,-55.5555555555556,4,3,1,5,0,1
411144,-80,4,3,8,70,0,1
411235,-55.5555555555556,4,3,1,5,0,1
411326,-80,4,3,8,70,0,1
411417,-80,4,3,1,70,0,1
411690,-80,4,3,8,70,0,1
411781,-55.5555555555556,4,3,1,5,0,1
411872,-80,4,3,8,70,0,1
411963,-55.5555555555556,4,3,1,5,0,1
412053,-80,4,3,8,70,0,1
412144,-55.5555555555556,4,3,1,5,0,1
412235,-80,4,3,8,70,0,1
412326,-55.5555555555556,4,3,1,5,0,1
412417,-80,4,3,8,70,0,1
412508,-80,4,3,1,70,0,1
412963,-80,4,3,8,70,0,1
413053,-80,4,3,1,70,0,1
413508,-80,4,3,8,70,0,1
413599,-80,4,3,8,5,0,1
413690,-80,4,3,8,70,0,1
413781,-80,4,3,8,5,0,1
413872,-80,4,3,8,70,0,1
413963,-80,4,3,8,5,0,1
414053,-80,4,3,8,70,0,1
414144,-80,4,3,8,5,0,1
414235,-80,4,3,8,70,0,1
414326,-80,4,3,8,5,0,1
414417,-80,4,3,8,70,0,1
414508,-80,4,3,8,5,0,1
414599,-80,4,3,8,70,0,1
414690,-80,4,3,1,70,0,1
424417,-80,4,1,1,70,0,0
426463,-66.6666666666667,4,1,1,60,0,0
427690,-100,4,1,1,70,0,0
428144,-50,4,1,1,70,0,0
428781,545.454545454546,4,3,1,70,1,0
428781,-50,4,3,1,70,0,0
433144,-50,4,3,1,60,0,0
437371,-44.4444444444445,4,3,1,60,0,0
439553,-57.1428571428571,4,3,1,60,0,0
440644,-50,4,3,1,50,0,0
446099,-40,4,3,1,70,0,0
448281,-57.1428571428571,4,3,1,70,0,0
452235,-57.1428571428571,4,3,1,50,0,0
457008,-80,4,3,1,50,0,0
458348,545.454545454546,4,3,1,100,1,0
458348,-200,4,3,1,100,0,0
462053,-200,4,3,1,30,0,0
463622,272.727272727273,4,3,1,70,1,1
463622,-66.6666666666667,4,1,1,70,0,1
464031,-66.6666666666667,4,1,1,75,0,1
464167,-66.6666666666667,4,1,1,80,0,1
464712,-66.6666666666667,4,1,1,85,0,1
465258,-66.6666666666667,4,1,1,90,0,1
465803,-66.6666666666667,4,1,1,95,0,1
466349,-66.6666666666667,4,1,1,100,0,1
472349,-66.6666666666667,4,3,1,100,0,1
476644,-100,4,3,1,70,0,1
485440,545.454545454546,4,3,1,80,1,0
485440,-100,4,3,1,80,0,0
487622,-100,4,3,1,60,0,0
489803,-100,4,3,1,50,0,0
491985,-100,4,3,1,40,0,0

[Colours]
Combo1 : 78,31,32
Combo2 : 234,0,0
Combo3 : 122,122,122
Combo4 : 136,0,3

[HitObjects]
87,212,1145,5,12,0:0:0:0:
116,232,1213,1,0,0:0:0:0:
150,234,1281,1,0,0:0:0:0:
181,218,1349,1,0,0:0:0:0:
212,195,1417,1,0,0:0:0:0:
245,173,1485,1,0,0:0:0:0:
281,157,1554,1,0,0:0:0:0:
319,149,1622,1,0,0:0:0:0:
358,154,1690,1,0,0:0:0:0:
392,173,1758,1,0,0:0:0:0:
412,207,1826,1,0,0:0:0:0:
412,245,1895,1,0,0:0:0:0:
393,279,1964,1,0,0:0:0:0:
358,299,2031,1,0,0:0:0:0:
321,299,2100,1,2,0:0:0:0:
291,275,2167,1,2,0:0:0:0:
228,212,2236,6,0,P|293:186|379:226,1,140,10|0,3:0|3:0,3:0:0:0:
272,79,2577,1,0,3:0:0:0:
274,100,2645,1,0,3:0:0:0:
277,117,2714,1,0,3:0:0:0:
278,132,2782,2,2,L|295:243,1,87.5,2|0,0:0|0:0,0:0:0:0:
424,289,3055,2,0,P|438:215|413:164,1,131.25,0|0,3:0|3:0,3:0:0:0:
360,68,3327,5,8,0:0:0:0:
331,88,3395,1,0,0:0:0:0:
299,103,3463,1,0,0:0:0:0:
266,113,3531,1,0,0:0:0:0:
231,118,3599,1,0,0:0:0:0:
196,117,3667,1,0,0:0:0:0:
162,111,3736,1,0,0:0:0:0:
129,99,3804,1,0,0:0:0:0:
101,70,3873,1,2,0:0:0:0:
117,100,3941,1,0,0:0:0:0:
119,135,4009,1,0,0:0:0:0:
113,169,4077,1,0,0:0:0:0:
107,204,4145,1,0,0:0:0:0:
105,238,4213,1,0,0:0:0:0:
109,273,4282,1,0,0:0:0:0:
122,306,4350,1,2,0:0:0:0:
154,323,4418,6,0,B|152:278|160:235|160:235|121:279,1,129.499999505997,8|2,2:1|0:0,0:0:0:0:
331,328,4691,2,0,B|315:299|312:274|313:265|321:223|321:223|353:234,1,140,2|0,2:1|3:0,3:0:0:0:
185,261,4964,2,2,B|172:250|168:241|180:233|166:229|167:220|190:205|184:189|172:148|172:148|129:182,1,154.000004699707,10|2,2:1|0:0,3:0:0:0:
273,262,5236,2,0,B|252:206|282:123|282:123|344:163,1,175,2|0,2:1|3:0,3:0:0:0:
239,179,5509,5,10,0:0:0:0:
225,164,5577,1,0,3:0:0:0:
213,146,5645,1,0,3:0:0:0:
206,125,5714,1,0,3:0:0:0:
202,104,5782,1,2,3:0:0:0:
206,84,5850,1,0,3:0:0:0:
210,68,5918,1,0,3:0:0:0:
217,53,5986,2,0,P|230:37|259:28,8,52.5000020027161,0|0|0|0|0|2|2|2|2,3:0|3:0|3:0|3:0|3:0|3:0|3:0|3:0|3:0,3:0:0:0:
333,35,6600,6,0,L|388:212,1,129.499999505997,8|0,2:3|2:3,2:3:0:0:
100,233,7009,1,0,3:0:0:0:
124,45,7145,2,0,P|93:156|101:235,1,194.249999258995,8|0,2:3|3:0,3:0:0:0:
198,349,7418,2,0,P|207:303|194:264,1,64.7499997529984
284,179,7555,2,0,P|278:218|289:258,1,64.7499997529984
330,336,7691,2,0,L|383:306,6,52.5000020027161,8|0|0|0|0|0|0,3:0|3:0|3:0|3:0|3:0|3:0|3:0,3:0:0:0:
403,266,8236,5,8,3:0:0:0:
211,202,8373,1,8,3:0:0:0:
331,90,8509,1,0,0:0:0:0:
331,90,8577,1,0,0:0:0:0:
331,90,8645,1,0,0:0:0:0:
133,283,8782,5,10,0:0:0:0:
143,274,8850,1,0,0:0:0:0:
151,265,8918,1,8,0:0:0:0:
161,258,8986,1,0,0:0:0:0:
169,251,9055,1,2,0:0:0:0:
179,243,9123,1,0,0:0:0:0:
189,235,9191,1,8,0:0:0:0:
199,227,9259,1,0,0:0:0:0:
208,219,9327,2,0,P|203:175|178:141,6,52.5000020027161,10|0|0|0|2|0|0,3:0|3:0|3:0|3:0|3:0|3:0|3:0,3:0:0:0:
52,71,9873,5,10,0:0:0:0:
98,95,9941,1,0,0:0:0:0:
149,103,10009,1,0,0:0:0:0:
202,100,10077,1,0,0:0:0:0:
253,91,10145,1,2,0:0:0:0:
305,81,10214,1,0,0:0:0:0:
357,76,10282,1,0,0:0:0:0:
408,87,10350,1,0,0:0:0:0:
452,115,10418,1,0,0:0:0:0:
425,159,10486,1,0,0:0:0:0:
384,191,10555,1,0,0:0:0:0:
333,203,10623,1,0,0:0:0:0:
282,200,10691,6,0,P|248:191|228:168,3,52.5000020027161,8|0|0|0,0:0|0:0|0:0|0:0,0:0:0:0:
138,99,10964,2,0,L|201:100,3,52.5000020027161,8|0|0|0,3:0|3:0|3:0|3:0,3:0:0:0:
388,136,11236,2,0,L|315:135,3,52.5000020027161,2|0|0|0,0:0|0:0|0:0|0:0,0:0:0:0:
323,272,11509,6,0,L|281:218,3,52.5000020027161,8|0|0|0,3:0|3:0|3:0|3:0,3:0:0:0:
144,255,11782,2,0,L|191:208,3,52.5000020027161,8|0|0|0,3:0|3:0|3:0|3:0,3:0:0:0:
103,113,12055,2,0,P|168:112|168:112,5,52.5000020027161,8|0|0|0|0|0,3:0|3:0|3:0|3:0|3:0|3:0,3:0:0:0:
230,65,12463,6,0,L|300:76,1,52.5000020027161,10|0,0:0|0:0,0:0:0:0:
464,117,12600,2,0,L|372:133,3,52.5000020027161,10|0|0|0,3:0|3:0|3:0|3:0,3:0:0:0:
358,193,12873,1,8,0:0:0:0:
353,208,12941,1,0,0:0:0:0:
356,226,13009,1,0,0:0:0:0:
362,241,13077,1,0,0:0:0:0:
361,258,13145,5,12,0:0:0:0:
352,278,13214,1,0,0:0:0:0:
341,296,13282,1,0,0:0:0:0:
315,315,13350,1,0,0:0:0:0:
267,314,13418,1,2,0:0:0:0:
238,269,13486,1,0,0:0:0:0:
247,220,13555,1,0,0:0:0:0:
306,208,13623,1,0,0:0:0:0:
349,240,13691,2,0,P|359:286|357:303,6,52.5000020027161,12|0|0|0|2|0|0,0:0|0:0|0:0|0:0|0:0|0:0|0:0,0:0:0:0:
139,88,14236,6,0,B|141:146|141:146|128:207|128:207|133:274,1,157.500006008148,8|8,2:3|2:3,2:3:0:0:
149,261,14509,1,0,0:0:0:0:
158,268,14577,1,0,3:0:0:0:
167,274,14645,1,0,3:0:0:0:
175,279,14714,1,0,3:0:0:0:
183,284,14782,1,0,3:0:0:0:
191,290,14850,1,0,3:0:0:0:
201,295,14918,1,0,3:0:0:0:
210,301,14986,1,0,3:0:0:0:
222,305,15055,2,0,P|299:304|329:277,1,97.9999970092774,8|0,0:0|3:1,3:1:0:0:
246,93,15327,6,0,P|247:116|229:144,3,48.9999985046387,8|0|0|0,0:0|0:0|0:0|0:0,0:0:0:0:
355,146,15600,2,0,P|351:167|362:196,3,48.9999985046387,2|0|0|0,0:0|0:0|0:0|0:0,0:0:0:0:
297,303,15873,6,0,L|250:290,1,48.9999985046387,8|0,0:0|0:0,0:0:0:0:
89,273,16009,2,0,L|138:268,1,48.9999985046387,8|0,0:0|0:0,0:0:0:0:
204,183,16145,2,0,P|186:266|247:333,1,146.999995513916,0|0,3:0|0:0,3:0:0:0:
248,316,16418,5,14,0:0:0:0:
298,310,16486,1,0,0:0:0:0:
342,281,16555,1,0,0:0:0:0:
389,258,16623,1,0,0:0:0:0:
441,253,16691,1,2,0:0:0:0:
488,274,16759,1,0,0:0:0:0:
509,317,16827,1,0,0:0:0:0:
469,351,16895,1,0,0:0:0:0:
419,365,16964,1,0,0:0:0:0:
368,356,17032,1,0,0:0:0:0:
323,330,17100,1,0,0:0:0:0:
280,307,17168,1,0,0:0:0:0:
242,301,17236,2,0,L|229:352,2,48.9999985046387,2|0|2,0:0|0:0|0:0,0:0:0:0:
268,109,17509,6,2,L|346:222,1,97.9999970092774,10|2,2:1|3:0,3:0:0:0:
190,257,17782,2,0,L|106:144,1,97.9999970092774,2|0,2:1|3:0,3:0:0:0:
292,96,18055,6,0,L|370:191,1,105.000004005432,10|0,2:1|3:0,3:0:0:0:
161,290,18327,2,0,L|70:176,1,105.000004005432,2|0,2:1|3:0,3:0:0:0:
245,285,18600,5,2,0:2:0:0:
267,281,18668,1,0,0:0:0:0:
290,278,18736,1,0,0:0:0:0:
313,275,18805,1,0,0:0:0:0:
333,271,18873,2,0,L|388:257,3,52.5000020027161,8|0|0|0,0:0|0:0|0:0|0:0,0:0:0:0:
262,196,19145,2,0,L|189:204,3,52.5000020027161
335,109,19418,2,0,L|398:104,3,52.5000020027161,8|0|0|0,0:0|0:0|0:0|0:0,0:0:0:0:
231,51,19691,2,0,L|158:58,3,52.5000020027161,10|0|0|0,0:0|1:0|1:0|1:0,1:0:0:0:
360,1,19964,2,0,L|436:1,3,52.5000020027161,10|0|0|0,0:0|0:0|0:0|0:0,0:0:0:0:
390,37,20236,5,0,0:0:0:0:
392,66,20304,1,0,0:0:0:0:
396,99,20372,1,0,0:0:0:0:
396,137,20440,1,0,0:0:0:0:
391,179,20508,1,0,0:0:0:0:
376,219,20576,1,0,0:0:0:0:
343,257,20645,5,0,3:0:0:0:
291,290,20714,1,0,0:0:0:0:
231,298,20782,2,0,B|159:318|99:253,1,105.000004005432,14|0,0:0|0:0,0:0:0:0:
214,41,21055,6,0,L|266:47,3,52.5000020027161,10|0|0|0,0:0|0:0|0:0|0:0,0:0:0:0:
436,84,21327,2,0,L|374:92,3,52.5000020027161,2|0|0|0,0:0|0:0|0:0|0:0,0:0:0:0:
227,138,21600,2,0,L|280:142,3,52.5000020027161,10|0|0|0,0:0|0:0|0:0|0:0,0:0:0:0:
448,174,21873,2,0,L|388:176,3,52.5000020027161,2|0|0|0,0:0|0:0|0:0|0:0,0:0:0:0:
372,205,22145,5,2,0:0:0:0:
372,205,22214,1,0,0:0:0:0:
372,205,22282,1,0,0:0:0:0:
372,205,22350,1,0,0:0:0:0:
374,248,22418,5,2,0:0:0:0:
366,291,22486,1,0,0:0:0:0:
334,323,22555,1,0,0:0:0:0:
288,334,22623,1,0,0:0:0:0:
237,311,22691,5,2,0:0:0:0:
214,258,22759,1,0,0:0:0:0:
234,205,22827,1,2,0:0:0:0:
290,188,22895,1,0,0:0:0:0:
340,200,22964,2,0,L|340:259,7,52.5000020027161,14|0|0|0|0|0|2|0,0:0|0:0|0:0|0:0|0:0|0:0|0:0|0:0,0:0:0:0:
446,320,23509,6,0,B|421:202,1,105.000004005432,2|0,0:0|0:0,0:0:0:0:
96,326,23782,1,0,0:0:0:0:
96,326,23918,2,0,L|114:213,1,105.000004005432,0|14,0:0|0:0,0:0:0:0:
121,192,24123,1,0,0:0:0:0:
131,186,24191,1,0,0:0:0:0:
141,181,24259,1,0,0:0:0:0:
151,175,24327,1,0,0:0:0:0:
161,170,24395,1,0,0:0:0:0:
173,166,24463,1,0,0:0:0:0:
347,199,24600,6,0,L|231:196,1,105.000004005432,8|0,0:0|0:0,0:0:0:0:
167,233,24873,2,0,B|167:173|167:173|144:147|144:147|137:123|153:89,1,136.499993751526,0|0,0:0|2:1,0:0:0:0:
175,77,25145,5,10,0:0:0:0:
190,66,25214,1,0,0:0:0:0:
206,60,25282,1,0,0:0:0:0:
222,55,25350,1,0,0:0:0:0:
239,51,25418,1,0,0:0:0:0:
256,48,25486,1,0,0:0:0:0:
274,47,25555,1,10,0:0:0:0:
291,46,25623,1,0,0:0:0:0:
308,47,25691,5,10,0:0:0:0:
326,48,25759,1,0,0:0:0:0:
342,52,25827,1,0,0:0:0:0:
361,55,25895,1,0,0:0:0:0:
376,64,25964,2,0,B|376:121|376:121|388:158|388:158|386:233,1,136.499993751526,8|0,0:0|0:0,0:0:0:0:
417,292,26236,2,2,P|377:310|348:295,3,45.4999979171754,10|0|0|0,0:0|0:0|0:0|0:0,0:0:0:0:
388,265,26509,2,0,L|341:273,3,45.4999979171754,2|0|0|0,0:0|0:0|0:0|0:0,0:0:0:0:
359,244,26782,2,0,L|301:227,3,45.4999979171754,2|0|0|0,0:0|0:0|0:0|0:0,0:0:0:0:
245,230,27055,5,0,0:0:0:0:
367,75,27191,1,0,0:0:0:0:
159,138,27327,1,14,0:0:0:0:
399,215,27464,1,0,0:0:0:0:
256,69,27600,1,0,0:0:0:0:
243,325,27736,1,0,0:0:0:0:
151,176,27873,5,2,0:0:0:0:
362,145,28009,1,0,0:0:0:0:
149,137,28145,1,0,0:0:0:0:
372,171,28282,1,0,0:0:0:0:
145,105,28418,6,10,P|119:171|158:230,1,105.000004005432,10|2,0:0|0:0,0:0:0:0:
373,280,28691,2,0,P|383:204|363:158,1,105.000004005432
177,183,28964,2,0,P|103:188|66:171,2,105.000004005432
220,111,29373,1,0,0:0:0:0:
198,293,29509,1,14,0:0:0:0:
304,41,29645,5,4,0:0:0:0:
301,332,29782,1,2,0:0:0:0:
419,48,29918,5,0,0:0:0:0:
429,326,30055,1,2,0:0:0:0:
219,165,30191,1,0,0:0:0:0:
219,165,30259,1,0,0:0:0:0:
219,165,30327,6,0,L|228:59,1,105.000004005432,2|0,0:0|0:0,0:0:0:0:
461,132,30600,2,2,L|452:250,1,105.000004005432,10|2,0:0|0:0,0:0:0:0:
188,323,30873,5,2,0:0:0:0:
201,323,30941,1,0,0:0:0:0:
215,322,31009,1,2,0:0:0:0:
230,320,31077,1,0,0:0:0:0:
239,318,31145,2,0,P|297:267|302:219,1,105.000004005432,2|2,0:0|0:0,0:0:0:0:
109,242,31418,5,0,0:0:0:0:
297,133,31555,1,0,0:0:0:0:
107,67,31691,2,0,B|162:31|162:31|226:41,1,105.000004005432,14|8,0:0|0:0,0:0:0:0:
371,44,31964,2,0,L|390:158,1,105.000004005432,2|0,0:0|0:0,0:0:0:0:
188,335,32236,2,0,L|207:218,2,105.000004005432
72,240,32645,5,0,0:0:0:0:
400,173,32782,2,0,L|256:166,1,105.000004005432,10|0,0:0|0:0,0:0:0:0:
353,323,33055,5,2,0:0:0:0:
339,61,33191,1,0,0:0:0:0:
257,242,33327,2,0,L|221:343,1,105.000004005432,2|0,0:0|0:0,0:0:0:0:
149,79,33600,5,2,0:0:0:0:
372,175,33736,1,0,0:0:0:0:
88,171,33873,2,0,P|163:188|210:172,1,105.000004005432,8|0,0:0|0:0,0:0:0:0:
313,86,34145,5,2,0:0:0:0:
253,349,34282,1,0,0:0:0:0:
239,12,34418,5,0,0:0:0:0:
342,281,34555,1,0,0:0:0:0:
434,50,34691,5,2,0:0:0:0:
188,233,34827,1,0,0:0:0:0:
434,50,34964,2,2,P|433:128|454:172,1,105.000004005432,14|2,0:0|0:0,0:0:0:0:
495,236,35236,2,0,B|457:286|457:286|369:286,1,105.000004005432
213,55,35509,6,0,B|155:161|155:161|148:292,1,210.000008010865,8|0,0:0|0:0,0:0:0:0:
134,275,36055,5,10,0:0:0:0:
146,291,36123,1,0,0:0:0:0:
162,305,36191,1,0,0:0:0:0:
184,315,36259,1,0,0:0:0:0:
219,322,36327,1,0,0:0:0:0:
249,320,36395,1,0,0:0:0:0:
286,314,36464,1,0,0:0:0:0:
317,307,36532,1,0,0:0:0:0:
350,297,36600,1,2,0:0:0:0:
380,270,36668,1,0,0:0:0:0:
395,239,36736,1,0,0:0:0:0:
363,215,36805,1,0,0:0:0:0:
326,199,36873,1,2,0:0:0:0:
286,198,36941,1,0,0:0:0:0:
248,211,37009,1,0,0:0:0:0:
213,232,37077,1,0,0:0:0:0:
182,235,37145,6,0,L|166:176,3,52.5000020027161,10|0|0|0,0:0|0:0|0:0|0:0,0:0:0:0:
186,21,37418,2,0,L|198:77,3,52.5000020027161,2|0|0|0,0:0|0:0|0:0|0:0,0:0:0:0:
311,195,37691,2,0,L|291:136,3,52.5000020027161,2|0|0|0,0:0|0:0|0:0|0:0,0:0:0:0:
356,11,37964,2,0,L|371:64,3,52.5000020027161,2|0|0|0,0:0|0:0|0:0|0:0,0:0:0:0:
376,107,38236,5,10,0:0:0:0:
346,147,38305,1,0,0:0:0:0:
296,159,38373,1,0,0:0:0:0:
244,155,38441,1,0,0:0:0:0:
192,149,38509,1,0,0:0:0:0:
141,151,38577,1,0,0:0:0:0:
92,169,38645,1,0,0:0:0:0:
60,204,38714,1,0,0:0:0:0:
95,242,38782,1,2,0:0:0:0:
143,261,38850,1,0,0:0:0:0:
194,267,38918,1,0,0:0:0:0:
245,249,38986,1,0,0:0:0:0:
285,237,39055,2,0,L|287:176,3,52.5000020027161,2|0|0|0,0:0|0:0|0:0|0:0,0:0:0:0:
36,92,39327,5,10,0:0:0:0:
79,115,39395,1,0,0:0:0:0:
129,123,39464,1,0,0:0:0:0:
177,107,39532,1,0,0:0:0:0:
216,82,39600,1,2,0:0:0:0:
258,53,39668,1,0,0:0:0:0:
308,47,39736,1,0,0:0:0:0:
339,82,39805,1,0,0:0:0:0:
314,126,39873,6,0,L|282:127,1,26.2500010013581,2|2,0:0|0:0,0:0:0:0:
362,146,39941,2,0,L|388:144,1,26.2500010013581,2|0,0:0|0:0,0:0:0:0:
316,184,40009,2,0,L|279:187,1,26.2500010013581,2|2,0:0|0:0,0:0:0:0:
351,223,40077,2,0,L|378:224,1,26.2500010013581,2|0,0:0|0:0,0:0:0:0:
335,265,40145,6,0,P|295:348|133:300,1,265.999992897034,14|10,0:0|0:0,0:0:0:0:
304,68,41236,6,0,L|328:157,1,66.4999982242585,8|0,0:0|0:0,0:0:0:0:
418,144,41373,2,0,L|396:206,2,66.4999982242585,8|0|10,0:0|0:0|0:0,0:0:0:0:
286,285,42327,5,8,0:0:0:0:
41,127,42464,1,0,0:0:0:0:
41,137,42532,1,0,0:0:0:0:
41,145,42600,5,12,0:0:0:0:
63,171,42668,1,0,0:0:0:0:
99,201,42736,1,0,0:0:0:0:
150,201,42805,1,0,0:0:0:0:
204,196,42873,1,0,0:0:0:0:
261,174,42941,1,0,0:0:0:0:
292,120,43009,1,8,0:0:0:0:
260,63,43077,1,0,0:0:0:0:
200,57,43145,1,8,0:0:0:0:
152,98,43214,1,0,0:0:0:0:
172,156,43282,1,0,0:0:0:0:
228,182,43350,1,0,0:0:0:0:
289,189,43418,1,0,0:0:0:0:
336,229,43486,1,0,0:0:0:0:
347,287,43555,1,0,0:0:0:0:
316,340,43623,1,0,0:0:0:0:
254,349,43691,6,2,P|182:347|141:303,1,112,8|0,1:0|0:0,0:0:0:0:
231,127,43964,2,2,L|217:259,1,112,10|2,1:0|1:0,1:0:0:0:
362,100,44236,1,8,2:3:0:0:
386,113,44304,1,0,2:3:0:0:
411,126,44372,1,0,2:3:0:0:
436,139,44440,1,0,2:3:0:0:
460,152,44508,5,2,2:3:0:0:
86,222,44782,5,4,1:0:0:0:
256,192,44805,12,0,45736,0:0:0:0:
351,129,45873,5,8,0:0:0:0:
351,129,45941,1,0,0:0:0:0:
351,129,46009,1,0,0:0:0:0:
351,129,46077,2,0,L|290:90,1,56
146,40,46418,5,8,0:0:0:0:
146,40,46486,1,0,0:0:0:0:
146,40,46555,1,0,0:0:0:0:
146,40,46623,2,0,L|121:131,1,56
59,138,46964,5,10,0:0:0:0:
61,181,47032,1,0,0:0:0:0:
82,219,47100,1,0,0:0:0:0:
116,246,47168,1,0,0:0:0:0:
158,257,47236,1,0,0:0:0:0:
201,250,47305,1,0,0:0:0:0:
236,225,47373,1,0,0:0:0:0:
260,189,47441,1,0,0:0:0:0:
259,166,47509,5,0,0:0:0:0:
256,160,47577,1,0,0:0:0:0:
254,154,47645,1,0,0:0:0:0:
253,148,47714,1,0,0:0:0:0:
252,142,47782,1,8,0:0:0:0:
250,136,47850,1,0,0:0:0:0:
248,130,47918,1,0,0:0:0:0:
246,123,47986,1,0,0:0:0:0:
254,105,48055,5,8,0:0:0:0:
284,68,48123,1,0,0:0:0:0:
255,23,48191,1,0,0:0:0:0:
208,3,48259,1,0,0:0:0:0:
152,5,48327,1,0,0:0:0:0:
116,35,48395,1,0,0:0:0:0:
107,79,48464,1,0,0:0:0:0:
125,121,48532,1,0,0:0:0:0:
164,143,48600,1,8,0:0:0:0:
211,150,48668,1,0,0:0:0:0:
252,142,48736,1,2,0:0:0:0:
299,131,48805,1,2,0:0:0:0:
351,143,48873,1,8,0:0:0:0:
393,192,48941,1,0,0:0:0:0:
371,259,49009,1,8,0:0:0:0:
312,306,49077,1,0,0:0:0:0:
233,290,49145,5,4,0:0:0:0:
256,192,49214,12,0,51123,0:0:0:0:
177,162,51191,5,0,0:0:0:0:
177,162,51259,1,0,0:0:0:0:
177,162,51327,5,12,0:0:0:0:
189,229,51395,1,0,0:0:0:0:
242,268,51464,1,0,0:0:0:0:
304,268,51532,1,0,0:0:0:0:
354,232,51600,1,8,0:0:0:0:
362,171,51668,1,0,0:0:0:0:
326,114,51736,1,0,0:0:0:0:
267,110,51805,1,0,0:0:0:0:
257,125,51873,5,0,0:0:0:0:
250,137,51941,1,0,0:0:0:0:
237,153,52009,1,0,0:0:0:0:
223,160,52077,1,0,0:0:0:0:
211,149,52145,5,10,0:0:0:0:
257,135,52214,1,0,0:0:0:0:
302,133,52282,1,0,0:0:0:0:
339,172,52350,1,0,0:0:0:0:
335,225,52418,2,0,L|303:260,2,35,10|0|0,0:0|0:0|0:0,0:0:0:0:
158,281,52623,2,0,L|187:300,2,23.3333333333333
276,351,52759,6,0,B|229:289|289:250|247:230|247:230|272:226|272:226|253:216|253:216|232:165|288:117|239:25,1,367.500014019013,8|8,0:0|0:1,0:0:0:0:
477,49,53509,5,8,2:0:0:0:
287,303,55418,5,8,0:0:0:0:
141,204,55691,2,0,P|221:128|319:141,1,210.000008010865,4|0,1:0|1:0,0:0:0:0:
402,325,56100,1,0,0:0:0:0:
342,207,56236,1,0,0:0:0:0:
287,315,56373,1,0,0:0:0:0:
217,207,56509,1,0,0:0:0:0:
158,313,56645,1,0,0:0:0:0:
93,81,56782,5,10,0:0:0:0:
94,99,56850,1,0,0:0:0:0:
96,119,56918,1,2,0:0:0:0:
122,160,56986,1,0,0:0:0:0:
171,174,57055,1,2,0:0:0:0:
201,145,57123,1,0,0:0:0:0:
255,152,57191,1,2,0:0:0:0:
315,176,57259,1,0,0:0:0:0:
355,150,57327,6,2,P|294:132|233:161,1,105.000004005432
267,261,57600,2,0,B|384:312|384:312|478:275,1,210.000008010865,0|14,0:0|0:0,0:0:0:0:
409,60,58009,1,2,0:0:0:0:
398,298,58145,5,2,0:0:0:0:
282,66,58282,1,8,0:0:0:0:
255,309,58418,2,0,P|263:250|251:202,1,105.000004005432,8|0,0:0|0:0,0:0:0:0:
139,57,58691,5,2,0:0:0:0:
317,178,58827,1,2,0:0:0:0:
110,332,58964,6,0,B|88:262|126:188,1,105.000004005432,10|0,0:0|0:0,0:0:0:0:
337,64,59236,1,2,0:0:0:0:
346,305,59373,1,2,0:0:0:0:
346,305,59509,2,0,P|366:240|342:198,1,105.000004005432,8|0,0:0|0:0,0:0:0:0:
206,85,59782,1,8,0:0:0:0:
425,189,59918,1,0,0:0:0:0:
206,85,60055,2,0,B|220:142|220:142|207:192,1,105.000004005432,10|0,0:0|0:0,0:0:0:0:
175,306,60327,5,8,0:0:0:0:
97,107,60464,1,0,0:0:0:0:
184,306,60600,5,0,0:0:0:0:
211,144,60736,1,2,0:0:0:0:
179,321,60873,5,0,0:0:0:0:
93,84,61009,1,0,0:0:0:0:
447,309,61145,6,0,P|385:273|343:261,1,105.000004005432,10|0,0:0|0:0,0:0:0:0:
135,218,61418,1,2,0:0:0:0:
361,140,61555,1,0,0:0:0:0:
93,84,61691,2,0,B|170:59|232:100,1,105.000004005432,8|0,0:0|0:0,0:0:0:0:
470,124,61964,2,0,P|393:115|333:159,1,105.000004005432,8|0,0:0|0:0,0:0:0:0:
113,193,62236,5,6,0:0:0:0:
128,207,62305,1,0,0:0:0:0:
143,221,62373,1,2,0:0:0:0:
301,340,62509,1,2,0:0:0:0:
245,82,62645,1,0,0:0:0:0:
351,223,62782,2,10,L|248:190,1,105.000004005432
141,146,63055,2,0,L|264:129,1,105.000004005432,8|0,0:0|0:0,0:0:0:0:
349,86,63327,5,8,0:0:0:0:
355,287,63464,1,2,0:0:0:0:
195,185,63600,1,2,0:0:0:0:
393,185,63736,5,8,0:0:0:0:
199,88,63873,1,0,0:0:0:0:
246,291,64009,1,2,0:0:0:0:
92,109,64145,6,0,P|75:206|69:219,1,105.000004005432,8|0,0:0|0:0,0:0:0:0:
266,198,64418,2,0,B|297:129|297:129|310:295|310:295|321:242|350:207|360:264,1,315.000012016297,12|8,0:3|0:0,0:0:0:0:
382,239,64895,1,0,0:0:0:0:
382,239,64964,1,2,0:0:0:0:
203,302,65100,1,0,0:0:0:0:
71,212,65236,2,0,L|133:155,1,52.5000020027161,10|0,0:0|0:0,0:0:0:0:
134,168,65373,5,0,0:0:0:0:
281,91,65509,1,2,0:0:0:0:
267,255,65645,1,0,0:0:0:0:
169,95,65782,1,10,0:0:0:0:
342,170,65918,1,0,0:0:0:0:
141,222,66055,2,0,P|86:236|57:289,1,105.000004005432,2|0,0:0|0:0,0:0:0:0:
181,338,66327,2,0,L|324:323,1,105.000004005432,10|0,0:0|0:0,0:0:0:0:
283,123,66600,6,0,P|219:144|177:126,1,105.000004005432,10|0,0:0|0:0,0:0:0:0:
68,105,66873,1,0,0:0:0:0:
381,124,67009,2,0,P|312:110|259:145,1,105.000004005432,8|0,0:0|0:0,0:0:0:0:
72,205,67282,5,8,0:0:0:0:
202,201,67418,2,0,P|275:210|302:268,1,105.000004005432,10|0,0:0|0:0,0:0:0:0:
463,110,67691,6,0,P|378:94|332:134,1,105.000004005432,2|0,0:0|0:0,0:0:0:0:
186,117,67964,1,0,0:0:0:0:
169,338,68100,5,2,0:0:0:0:
169,338,68236,2,0,P|152:274|176:227,1,105.000004005432,10|0,0:0|0:0,0:0:0:0:
182,219,68509,1,2,0:0:0:0:
276,88,68645,1,0,0:0:0:0:
307,261,68782,1,10,0:0:0:0:
158,125,68918,1,0,0:0:0:0:
360,137,69055,1,8,0:0:0:0:
221,282,69191,1,2,0:0:0:0:
151,20,69327,6,0,L|159:141,1,105.000004005432,2|0,0:0|0:0,0:0:0:0:
221,282,69600,1,0,0:0:0:0:
375,229,69736,5,0,0:0:0:0:
375,229,69805,1,0,0:0:0:0:
375,229,69873,2,0,B|386:159|357:110,2,105.000004005432,14|0|0,0:0|0:0|0:0,0:0:0:0:
142,216,70282,5,2,0:0:0:0:
142,216,70418,2,0,P|167:209|185:191,1,52.5000020027161,8|0,0:0|0:0,0:0:0:0:
183,104,70555,2,0,P|208:91|233:97,1,52.5000020027161
310,109,70691,2,0,B|301:188|271:222|271:223,1,105.000004005432,10|0,0:0|0:0,0:0:0:0:
420,346,70964,2,0,B|413:263|413:263|392:238|392:238|414:219|414:219|409:135|409:135,1,210.000008010865,2|8,0:0|0:0,0:0:0:0:
176,62,71509,5,2,0:0:0:0:
269,327,71645,1,8,0:0:0:0:
175,335,71918,5,2,0:0:0:0:
259,56,72055,1,8,0:0:0:0:
186,62,72327,5,8,0:0:0:0:
278,179,72464,1,0,0:0:0:0:
362,78,72600,5,8,0:0:0:0:
246,252,72736,1,0,0:0:0:0:
199,97,72873,5,8,0:0:0:0:
298,303,73009,1,0,0:0:0:0:
91,73,73145,6,4,P|67:158|128:260,1,210.000008010865,4|0,0:0|3:0,0:0:0:0:
307,325,73555,1,0,0:0:0:0:
385,56,73691,5,8,0:0:0:0:
417,314,73827,1,2,0:0:0:0:
225,85,73964,5,8,0:0:0:0:
187,324,74100,1,2,0:0:0:0:
98,203,74236,2,8,B|169:173|224:208|224:208|243:182|243:182|252:199|325:227|421:189,1,315.000012016297,12|8,0:0|0:0,0:0:0:0:
185,111,75055,6,0,P|229:55|324:68,1,157.500006008148,2|0,0:0|0:0,0:0:0:0:
355,74,75327,1,12,0:2:0:0:
340,107,75395,1,0,0:0:0:0:
341,143,75464,1,0,0:0:0:0:
359,176,75532,1,0,0:0:0:0:
379,206,75600,5,0,0:0:0:0:
388,242,75668,1,0,0:0:0:0:
382,278,75736,1,0,0:0:0:0:
369,312,75805,1,0,0:0:0:0:
344,338,75873,2,0,L|276:338,3,52.5000020027161,8|0|0|0,0:0|0:0|0:0|0:0,0:0:0:0:
120,251,76145,2,0,P|173:238|173:206,3,52.5000020027161,8|0|0|0,0:0|0:0|0:0|0:0,0:0:0:0:
346,132,76418,2,0,P|323:165|337:190,3,52.5000020027161,8|0|0|0,0:0|0:0|0:0|0:0,0:0:0:0:
112,84,76691,2,0,L|176:77,1,52.5000020027161,2|0,0:0|0:0,0:0:0:0:
443,45,76827,5,0,0:0:0:0:
191,289,76964,1,8,0:0:0:0:
154,288,77032,1,0,0:0:0:0:
120,275,77100,1,0,0:0:0:0:
94,249,77168,1,0,0:0:0:0:
80,215,77236,1,8,0:0:0:0:
79,179,77305,1,0,0:0:0:0:
93,145,77373,1,0,0:0:0:0:
118,119,77441,1,0,0:0:0:0:
153,99,77509,2,0,P|165:148|146:177,3,52.5000020027161,8|0|0|0,0:0|0:0|0:0|0:0,0:0:0:0:
231,226,77782,5,2,0:0:0:0:
268,236,77850,1,2,0:0:0:0:
309,248,77918,1,2,0:0:0:0:
349,262,77986,1,2,0:0:0:0:
390,275,78055,2,0,L|446:294,1,52.5000020027161,8|0,0:0|0:0,0:0:0:0:
304,335,78191,2,0,L|265:398,1,52.5000020027161
192,319,78327,1,8,0:0:0:0:
172,292,78395,1,0,0:0:0:0:
173,259,78464,1,0,0:0:0:0:
188,235,78532,1,0,0:0:0:0:
215,209,78600,5,8,0:0:0:0:
247,154,78668,1,0,0:0:0:0:
247,84,78736,1,0,0:0:0:0:
202,32,78805,1,0,0:0:0:0:
135,28,78873,1,2,0:0:0:0:
82,61,78941,1,0,0:0:0:0:
79,127,79009,1,2,0:0:0:0:
122,181,79077,1,0,0:0:0:0:
187,181,79145,1,8,0:0:0:0:
243,162,79214,1,0,0:0:0:0:
303,158,79282,1,0,0:0:0:0:
327,202,79350,1,0,0:0:0:0:
374,281,79418,6,0,B|309:299|309:299|261:261,1,105.000004005432,8|0,0:0|0:0,0:0:0:0:
455,69,79691,1,8,0:0:0:0:
431,57,79759,1,0,0:0:0:0:
405,55,79827,1,0,0:0:0:0:
379,59,79895,1,0,0:0:0:0:
354,66,79964,1,0,0:0:0:0:
328,69,80032,1,0,0:0:0:0:
302,66,80100,1,0,0:0:0:0:
276,58,80168,1,0,0:0:0:0:
242,56,80236,2,0,P|191:64|174:78,3,52.5000020027161
75,154,80509,2,0,P|112:160|134:159,3,52.5000020027161,10|0|2|2,0:0|0:0|0:0|0:0,0:0:0:0:
187,219,80782,5,8,0:0:0:0:
172,192,80850,1,0,0:0:0:0:
170,166,80918,1,0,0:0:0:0:
175,144,80986,1,0,0:0:0:0:
188,123,81055,1,0,0:0:0:0:
207,105,81123,1,0,0:0:0:0:
234,92,81191,2,0,L|248:160,1,52.5000020027161
264,339,81327,5,8,0:0:0:0:
226,335,81395,1,0,0:0:0:0:
189,313,81464,1,0,0:0:0:0:
175,281,81532,1,0,0:0:0:0:
175,241,81600,1,2,0:0:0:0:
194,207,81668,1,2,0:0:0:0:
235,193,81736,2,0,P|242:220|236:262,1,52.5000020027161,2|0,0:0|0:0,0:0:0:0:
374,111,81873,6,0,B|405:56|405:56|381:170|412:279,1,262.500010013581,8|0,0:0|0:0,0:0:0:0:
419,276,82282,1,0,0:0:0:0:
211,210,82418,5,2,0:0:0:0:
211,210,82555,1,0,0:0:0:0:
247,351,82691,5,8,0:0:0:0:
247,351,82827,1,0,0:0:0:0:
421,170,82964,6,2,P|384:101|318:54,1,157.500006008148,10|0,2:1|3:0,3:0:0:0:
294,70,83236,2,0,P|360:98|400:206,1,157.500006008148,2|0,3:0|3:0,3:0:0:0:
373,180,83509,2,2,P|335:109|257:87,1,157.500006008148,10|0,2:1|0:0,0:0:0:0:
255,107,83782,2,2,P|320:124|348:224,1,157.500006008148,10|0,2:1|3:2,3:0:0:0:
324,339,84055,5,8,0:0:0:0:
296,324,84123,1,0,0:0:0:0:
265,319,84191,1,0,0:0:0:0:
234,322,84259,1,0,0:0:0:0:
202,327,84327,1,0,0:0:0:0:
171,328,84395,1,0,0:0:0:0:
142,317,84464,1,0,0:0:0:0:
118,304,84532,2,0,L|111:239,1,52.5000020027161
124,96,84600,5,8,0:0:0:0:
140,109,84668,1,0,0:0:0:0:
156,122,84736,1,0,0:0:0:0:
173,135,84805,1,0,0:0:0:0:
189,148,84873,1,0,0:0:0:0:
206,144,84941,1,0,0:0:0:0:
222,131,85009,1,0,0:0:0:0:
239,119,85077,1,0,0:0:0:0:
254,111,85145,2,0,P|302:82|327:213,1,210.000008010865,8|0,0:0|0:0,0:0:0:0:
125,338,85691,6,0,L|157:107,1,210.000008010865,8|0,0:0|0:0,0:0:0:0:
322,149,86236,5,12,0:0:0:0:
322,155,86305,1,0,0:0:0:0:
323,162,86373,1,0,0:0:0:0:
324,169,86441,1,0,0:0:0:0:
325,176,86509,1,0,0:0:0:0:
326,182,86577,1,0,0:0:0:0:
327,189,86645,1,0,0:0:0:0:
328,196,86714,1,0,0:0:0:0:
361,207,86782,5,8,0:0:0:0:
381,159,86850,1,0,0:0:0:0:
374,108,86918,1,0,0:0:0:0:
341,68,86986,1,0,0:0:0:0:
292,52,87055,1,0,0:0:0:0:
242,64,87123,1,0,0:0:0:0:
196,88,87191,1,0,0:0:0:0:
142,102,87259,1,0,0:0:0:0:
78,77,87327,5,12,0:0:0:0:
78,77,87464,1,0,0:0:0:0:
141,299,87600,5,0,0:0:0:0:
252,154,87736,1,0,0:0:0:0:
412,278,87873,2,0,L|355:278,2,52.5000020027161,8|0|0,0:0|0:0|0:0,0:0:0:0:
128,220,88145,2,0,L|183:219,2,52.5000020027161,2|0|0,0:0|0:0|0:0,0:0:0:0:
468,163,88418,6,0,P|371:189|332:180,1,105.000004005432,8|0,0:0|0:0,0:0:0:0:
98,90,88691,1,0,0:0:0:0:
98,90,88827,1,0,0:0:0:0:
268,303,88964,2,0,P|276:253|256:191,1,105.000004005432
255,44,89236,5,2,0:0:0:0:
255,44,89373,1,0,0:0:0:0:
301,361,89509,6,0,P|284:294|311:245,1,105.000004005432,8|0,0:0|0:0,0:0:0:0:
438,73,89782,5,0,0:0:0:0:
438,73,89918,1,0,0:0:0:0:
252,323,90055,6,0,P|216:274|129:317,1,157.500006008148,2|0,0:0|0:0,0:0:0:0:
111,278,90327,6,0,P|157:353|203:303,1,157.500006008148,8|0,0:0|0:0,0:0:0:0:
219,303,90600,5,12,0:0:0:0:
234,250,90668,1,0,0:0:0:0:
235,198,90736,1,0,0:0:0:0:
218,146,90804,1,0,0:0:0:0:
220,94,90872,1,0,0:0:0:0:
244,48,90940,1,0,0:0:0:0:
289,23,91009,1,8,0:0:0:0:
342,21,91077,1,0,0:0:0:0:
389,42,91145,1,10,0:0:0:0:
407,89,91213,1,0,0:0:0:0:
409,139,91282,2,0,P|405:166|388:206,5,52.5000020027161
367,310,91691,6,0,L|317:143,1,157.500006008148,10|0,0:0|0:0,0:0:0:0:
271,142,91964,2,0,P|196:161|126:129,1,157.500006008148,2|0,0:0|0:0,0:0:0:0:
84,54,92236,2,0,L|136:248,1,157.500006008148,10|0,0:0|0:0,0:0:0:0:
175,288,92509,2,0,P|243:309|228:249,1,157.500006008148,2|0,0:0|0:0,0:0:0:0:
209,237,92782,5,10,0:0:0:0:
333,98,92918,1,0,0:0:0:0:
371,294,93055,1,8,0:0:0:0:
371,294,93123,1,0,0:0:0:0:
371,294,93191,1,2,0:0:0:0:
153,129,93327,6,0,L|135:238,1,105.000004005432,10|0,0:0|0:0,0:0:0:0:
407,202,93600,2,0,P|339:194|293:217,1,105.000004005432,8|0,0:0|0:0,0:0:0:0:
61,105,93873,2,4,B|52:191|135:210,1,105.000004005432,8|2,0:0|0:0,0:0:0:0:
275,311,94145,1,8,0:0:0:0:
321,51,94282,1,2,0:0:0:0:
321,51,94418,2,0,P|372:35|431:58,1,105.000004005432,10|2,0:0|0:0,0:0:0:0:
484,200,94691,6,0,L|374:144,1,105.000004005432,8|0,0:0|0:0,0:0:0:0:
202,46,94964,1,10,0:0:0:0:
98,294,95100,1,0,0:0:0:0:
201,28,95236,5,8,0:0:0:0:
341,284,95373,1,0,0:0:0:0:
196,15,95509,2,2,P|218:134|218:134,1,105.000004005432,10|2,0:0|0:0,0:0:0:0:
206,307,95782,2,0,P|273:300|273:300,2,52.5000020027161
432,325,96055,6,0,P|419:234|386:221,1,105.000004005432,8|0,0:0|0:0,0:0:0:0:
191,177,96327,1,2,0:0:0:0:
352,165,96464,1,0,0:0:0:0:
141,319,96600,6,0,L|111:178,1,105.000004005432,10|0,0:0|0:0,0:0:0:0:
97,75,96873,1,8,0:0:0:0:
267,271,97009,1,0,0:0:0:0:
355,64,97145,5,2,0:0:0:0:
87,231,97282,1,8,0:0:0:0:
315,165,97418,2,0,L|386:294,1,140,8|0,0:0|0:0,0:0:0:0:
396,312,97691,2,2,L|313:167,1,140
129,152,97964,5,2,0:0:0:0:
367,89,98100,1,2,0:0:0:0:
129,152,98236,2,0,L|166:257,1,105.000004005432,8|0,0:0|0:0,0:0:0:0:
383,227,98509,1,2,0:0:0:0:
228,350,98645,1,2,0:0:0:0:
383,227,98782,2,0,B|350:119,1,105.000004005432,10|0,0:0|0:0,0:0:0:0:
241,53,99055,1,2,0:0:0:0:
191,260,99191,1,0,0:0:0:0:
342,94,99327,5,10,0:0:0:0:
134,157,99464,1,0,0:0:0:0:
294,304,99600,1,2,0:0:0:0:
156,77,99736,5,0,0:0:0:0:
374,227,99873,2,2,P|382:152|370:116,1,105.000004005432,8|2,0:0|0:0,0:0:0:0:
186,225,100145,2,0,P|175:175|191:117,1,105.000004005432,8|0,0:0|0:0,0:0:0:0:
356,161,100418,6,0,L|382:272,1,105.000004005432,10|0,0:0|0:0,0:0:0:0:
181,162,100691,2,2,L|159:268,1,105.000004005432,10|2,0:0|0:0,0:0:0:0:
148,90,100964,5,2,0:0:0:0:
339,278,101100,1,0,0:0:0:0:
360,79,101236,1,8,0:0:0:0:
146,263,101373,1,0,0:0:0:0:
346,168,101509,6,0,P|417:161|458:195,1,105.000004005432,8|0,0:0|0:0,0:0:0:0:
362,356,101782,2,0,L|390:244,1,105.000004005432,10|0,0:0|0:0,0:0:0:0:
206,172,102055,1,0,0:0:0:0:
89,296,102191,2,0,L|205:322,1,105.000004005432,8|0,0:0|0:0,0:0:0:0:
288,71,102464,1,0,0:0:0:0:
288,71,102600,2,0,B|341:92|342:155,1,105.000004005432,8|2,0:0|0:0,0:0:0:0:
137,310,102873,5,0,0:0:0:0:
112,93,103010,1,0,0:0:0:0:
347,252,103146,2,2,L|230:181,1,105.000004005432,8|8,0:0|0:0,0:0:0:0:
328,38,103418,5,2,0:0:0:0:
327,48,103486,1,0,0:0:0:0:
327,56,103555,1,0,0:0:0:0:
146,313,103691,2,2,P|124:253|156:187,1,105.000004005432,10|2,0:0|0:0,0:0:0:0:
380,214,103964,5,10,0:0:0:0:
160,108,104100,1,0,0:0:0:0:
248,327,104236,1,2,0:0:0:0:
160,108,104373,1,0,0:0:0:0:
366,101,104509,6,0,B|376:150|329:185|361:260,1,157.500006008148,10|0,0:0|0:0,0:0:0:0:
389,278,104782,1,8,0:0:0:0:
130,189,104918,1,0,0:0:0:0:
354,121,105055,1,2,0:0:0:0:
248,327,105191,1,0,0:0:0:0:
243,69,105327,1,8,0:0:0:0:
118,300,105464,1,0,0:0:0:0:
350,249,105600,2,0,P|360:197|351:123,1,105.000004005432,8|0,0:0|0:0,0:0:0:0:
302,31,105873,5,14,0:0:0:0:
275,30,105941,1,0,0:0:0:0:
251,40,106009,1,0,0:0:0:0:
232,57,106077,1,0,0:0:0:0:
215,77,106145,1,0,0:0:0:0:
198,97,106213,1,0,0:0:0:0:
179,115,106282,1,0,0:0:0:0:
157,129,106350,1,0,0:0:0:0:
135,133,106418,5,2,0:0:0:0:
127,84,106486,1,0,0:0:0:0:
154,50,106554,1,0,0:0:0:0:
210,51,106622,1,0,0:0:0:0:
240,98,106690,1,0,0:0:0:0:
249,157,106758,1,0,0:0:0:0:
289,193,106827,1,0,0:0:0:0:
342,188,106895,1,0,0:0:0:0:
396,161,106964,1,2,0:0:0:0:
389,93,107032,1,0,0:0:0:0:
325,79,107100,1,2,0:0:0:0:
266,112,107168,1,2,0:0:0:0:
279,173,107236,6,0,B|204:210|117:210|117:210|149:151,1,210.000008010865,8|0,0:0|0:0,0:0:0:0:
396,41,107645,2,0,L|410:197,1,157.500006008148,2|0,0:0|0:0,0:0:0:0:
195,340,107918,2,0,L|198:281,1,52.5000020027161
139,190,108055,2,0,B|197:145|264:227|359:176,1,210.000008010865,8|4,3:0|3:0,3:0:0:0:
100,321,109145,6,0,L|126:161,1,157.500006008148,10|8,0:0|3:0,0:0:0:0:
388,108,109691,1,2,3:0:0:0:
273,316,109964,5,2,3:0:0:0:
118,120,110236,6,0,L|112:225,3,62.9999980773926,8|0|2|0,0:0|0:0|0:0|0:0,0:0:0:0:
225,306,110509,2,0,L|211:229,3,62.9999980773926,8|0|2|0,0:0|0:0|0:0|0:0,0:0:0:0:
384,143,110782,2,0,L|375:221,3,62.9999980773926,8|0|2|0,0:0|0:0|0:0|0:0,0:0:0:0:
221,126,111055,2,0,L|284:157,1,62.9999980773926,8|0,0:0|0:0,0:0:0:0:
496,228,111191,2,0,L|417:241,1,62.9999980773926,2|0,0:0|0:0,0:0:0:0:
335,354,111327,6,0,B|349:274|335:248|335:248|342:225|342:225|356:164|329:101,1,251.999992309571,8|0,0:0|0:0,0:0:0:0:
99,186,111736,5,0,0:0:0:0:
99,186,111873,2,0,P|131:282|281:251,1,251.999992309571,8|0,0:0|0:0,0:0:0:0:
276,269,112214,1,0,0:0:0:0:
276,269,112282,1,8,0:0:0:0:
242,77,112418,5,12,0:0:0:0:
242,77,112486,1,0,0:0:0:0:
261,96,112555,5,0,0:0:0:0:
261,96,112623,1,0,0:0:0:0:
275,72,112691,6,0,B|317:19|317:19|286:133|300:199,1,188.999994232178
296,162,112964,5,2,0:0:0:0:
158,195,113100,1,0,0:0:0:0:
212,361,113236,1,0,0:0:0:0:
357,335,113373,1,0,0:0:0:0:
256,152,113509,5,10,0:0:0:0:
142,229,113645,1,0,0:0:0:0:
240,378,113782,1,0,0:0:0:0:
369,293,113918,1,0,0:0:0:0:
129,288,114055,6,0,B|207:291|207:291|289:265|289:265|398:270,1,251.999992309571,8|0,0:0|0:0,0:0:0:0:
99,30,114600,5,10,0:0:0:0:
113,57,114668,1,0,0:0:0:0:
118,88,114736,1,0,0:0:0:0:
111,119,114805,1,2,0:0:0:0:
99,148,114873,1,2,0:0:0:0:
95,183,114941,1,0,0:0:0:0:
90,208,115009,1,0,0:0:0:0:
95,229,115077,1,2,0:0:0:0:
104,246,115145,1,2,0:0:0:0:
110,256,115214,1,2,0:0:0:0:
117,265,115282,1,2,0:0:0:0:
119,273,115350,1,2,0:0:0:0:
123,278,115418,2,0,P|190:320|249:319,1,125.999996154785,2|0,0:0|0:0,0:0:0:0:
367,348,115691,6,0,B|429:265|282:172|364:57,1,251.999992309571,8|0,0:0|0:0,0:0:0:0:
58,69,116236,6,0,P|142:65|188:98,1,125.999996154785,10|0,0:0|0:0,0:0:0:0:
485,164,116509,2,0,P|401:162|349:205,1,125.999996154785,2|0,0:0|0:0,0:0:0:0:
89,215,116782,2,0,P|133:204|183:224,1,87.5,10|0,0:0|0:0,0:0:0:0:
216,303,117055,2,0,P|259:313|305:284,1,87.5,8|0,0:0|0:0,0:0:0:0:
401,301,117327,6,0,B|387:171|387:171|342:196,1,157.500006008148
341,215,117600,1,2,0:0:0:0:
144,168,117736,1,0,0:0:0:0:
324,124,117873,5,12,0:0:0:0:
324,124,117941,1,0,0:0:0:0:
324,124,118009,1,0,0:0:0:0:
324,124,118077,1,0,0:0:0:0:
324,124,118145,2,0,P|273:156|273:156,1,52.5000020027161,2|0,0:0|0:0,0:0:0:0:
249,350,118282,2,0,L|245:287,1,52.5000020027161
130,103,118418,2,0,L|148:176,1,52.5000020027161,2|0,0:0|0:0,0:0:0:0:
36,358,118555,2,0,L|64:280,1,52.5000020027161
249,350,118964,5,2,1:2:0:0:
385,55,119100,1,2,1:3:0:0:
86,234,120873,5,2,1:2:0:0:
324,61,121145,5,14,0:0:0:0:
372,302,121282,1,2,0:0:0:0:
127,254,123327,5,10,1:0:0:0:
477,103,123464,1,8,1:0:0:0:
294,137,125236,6,0,L|273:230,1,78.7500030040742,8|0,0:0|0:0,0:0:0:0:
274,234,125509,1,8,0:0:0:0:
115,55,125645,1,0,0:0:0:0:
131,52,125714,1,0,0:0:0:0:
148,49,125782,1,2,0:0:0:0:
196,311,125918,1,0,0:0:0:0:
288,90,126055,1,12,0:0:0:0:
288,90,126191,1,0,0:0:0:0:
473,229,126327,2,0,L|383:275,1,78.7500030040742
383,276,126600,5,14,1:0:0:0:
126,119,126873,5,8,1:0:0:0:
412,38,127145,5,12,1:0:0:0:
177,187,127691,5,2,0:0:0:0:
177,187,127827,2,0,P|98:212|84:270,1,105.000004005432,8|0,0:0|0:0,0:0:0:0:
364,298,128100,6,0,L|320:187,1,105.000004005432,2|0,0:0|0:0,0:0:0:0:
321,43,128373,2,0,P|264:44|219:66,1,105.000004005432,2|0,0:0|0:0,0:0:0:0:
81,138,128645,1,8,0:0:0:0:
260,191,128782,6,0,L|379:186,1,105.000004005432,2|0,0:0|0:0,0:0:0:0:
377,33,129055,1,0,0:0:0:0:
216,245,129191,1,2,0:0:0:0:
188,4,129327,1,8,0:0:0:0:
372,300,129464,2,0,L|373:248,1,52.5000020027161,2|0,0:0|0:0,0:0:0:0:
435,246,129600,2,0,L|335:169,1,105.000004005432
116,258,129873,6,0,B|165:243|205:255|205:255|247:221,1,105.000004005432,10|0,0:0|0:0,0:0:0:0:
321,301,130077,1,0,0:0:0:0:
321,301,130145,2,0,L|280:183,1,105.000004005432,8|0,0:0|0:0,0:0:0:0:
96,118,130418,2,0,P|168:151|226:131,1,105.000004005432,10|0,0:0|0:0,0:0:0:0:
301,82,130691,1,2,0:0:0:0:
301,82,130827,1,0,0:0:0:0:
198,248,130964,6,0,L|316:246,1,105.000004005432,10|0,0:0|0:0,0:0:0:0:
385,168,131236,2,0,L|276:207,1,105.000004005432,8|0,0:0|0:0,0:0:0:0:
142,180,131509,6,2,P|101:275|204:331,1,210.000008010865
286,203,131918,1,0,0:0:0:0:
131,76,132055,6,2,L|250:92,1,105.000004005432,10|0,0:0|0:0,0:0:0:0:
468,174,132327,1,0,0:0:0:0:
468,174,132464,2,2,L|467:285,1,105.000004005432
198,313,132736,2,0,P|104:279|99:203,1,125.999996154785,8|0,0:0|0:0,0:0:0:0:
88,90,133009,1,10,0:0:0:0:
280,101,133145,1,2,0:0:0:0:
88,90,133282,1,8,0:0:0:0:
280,101,133418,6,2,B|348:129|348:129|405:118,2,125.999996154785,10|2|2,0:0|0:0|0:0,0:0:0:0:
187,221,133827,1,0,0:0:0:0:
194,241,133964,1,8,0:0:0:0:
201,262,134100,1,2,0:0:0:0:
340,214,134236,2,2,P|402:195|476:230,1,125.999996154785,10|2,0:0|0:0,0:0:0:0:
207,293,134509,1,2,0:0:0:0:
207,293,134645,6,2,P|151:274|73:308,1,125.999996154785,8|2,0:0|0:0,0:0:0:0:
408,276,134918,6,0,B|314:220|250:309,1,125.999996154785,2|2,0:0|0:0,0:0:0:0:
236,333,135191,2,0,B|229:263|229:263|240:212|240:212|236:136,1,175,8|0,3:0|3:0,3:0:0:0:
230,123,135600,1,2,3:0:0:0:
194,97,135668,1,0,3:0:0:0:
155,77,135736,1,2,3:0:0:0:
114,90,135805,1,0,3:0:0:0:
81,118,135873,1,2,3:0:0:0:
67,162,135941,1,0,3:0:0:0:
92,208,136009,1,2,3:0:0:0:
138,224,136077,1,0,0:0:0:0:
184,228,136145,6,0,P|263:192|308:202,1,119.000002269745,2|0,0:0|0:0,0:0:0:0:
209,64,136418,1,10,0:0:0:0:
96,160,136555,2,0,L|135:289,1,119.000002269745,8|0,0:0|0:0,0:0:0:0:
369,300,136827,5,0,0:0:0:0:
337,105,136964,2,0,P|275:163|138:109,1,238.00000453949,8|0,0:0|0:0,0:0:0:0:
132,112,137373,1,2,0:0:0:0:
124,303,137509,5,8,0:0:0:0:
324,206,137645,1,2,0:0:0:0:
112,211,137782,5,8,0:0:0:0:
330,315,137918,1,2,0:0:0:0:
435,122,138055,6,0,B|326:109|297:47|297:47|255:136,1,238.00000453949,8|0,0:0|0:0,0:0:0:0:
230,280,138464,1,0,0:0:0:0:
131,148,138600,5,8,0:0:0:0:
370,212,138736,1,2,0:0:0:0:
231,49,138873,1,2,0:0:0:0:
283,347,139009,2,0,P|309:285|290:234,1,119.000002269745,8|0,0:0|0:0,0:0:0:0:
341,56,139282,1,0,0:0:0:0:
144,279,139418,1,2,0:3:0:0:
125,242,139509,1,2,0:3:0:0:
104,207,139600,1,2,0:3:0:0:
90,176,139691,6,0,P|166:196|206:177,1,119.000002269745,8|0,0:0|0:0,0:0:0:0:
291,338,139964,2,2,L|259:217,1,119.000002269745,0|2,0:0|0:0,0:0:0:0:
233,66,140236,6,0,B|202:49|202:49|237:126,1,119.000002269745,2|8,0:0|0:0,0:0:0:0:
428,232,140509,2,0,B|407:263|407:263|369:191,1,119.000002269745,0|2,0:0|0:0,0:0:0:0:
319,86,140782,5,10,0:0:0:0:
369,232,140918,1,0,0:0:0:0:
204,189,141055,1,8,0:0:0:0:
449,128,141191,2,0,B|379:166|284:120,1,119.000002269745,2|0,0:0|0:0,0:0:0:0:
117,58,141464,2,0,P|198:50|239:63,1,119.000002269745,8|0,0:0|0:0,0:0:0:0:
157,347,141736,2,0,P|141:264|159:210,1,119.000002269745,2|0,0:0|0:0,0:0:0:0:
326,106,142009,2,0,L|308:224,2,119.000002269745,2|0|0,0:0|0:0|0:0,0:0:0:0:
154,116,142418,5,10,0:0:0:0:
87,290,142555,1,0,0:0:0:0:
87,290,142691,2,0,L|205:284,1,119.000002269745,2|0,0:0|0:0,0:0:0:0:
328,320,142964,1,10,0:0:0:0:
226,170,143100,1,0,0:0:0:0:
225,330,143236,5,0,0:0:0:0:
314,212,143373,2,0,B|317:167|317:167|296:138,1,70,2|0,0:0|0:0,0:0:0:0:
66,31,143645,1,0,0:0:0:0:
79,77,143714,1,0,0:0:0:0:
97,124,143782,2,0,L|127:105,1,26.2500010013581
251,101,143918,6,0,B|276:66|324:48|324:48|301:116|301:138|360:173|352:256|352:256|422:193|426:159|408:129,1,420.000016021729,4|2,0:3|0:3,0:0:0:0:
411,137,144532,5,0,0:0:0:0:
411,120,144600,2,0,P|379:120|342:125,1,52.5000020027161
215,132,144736,1,0,0:0:0:0:
215,160,144805,1,0,0:0:0:0:
219,187,144873,2,0,P|245:197|273:192,1,52.5000020027161
379,283,145009,2,0,P|340:285|307:279,1,52.5000020027161
135,258,145145,6,0,P|123:184|160:142,1,105.000004005432,2|0,0:0|0:0,0:0:0:0:
311,175,145418,1,8,0:0:0:0:
311,175,145555,1,8,0:0:0:0:
182,59,145691,2,0,L|289:59,1,105.000004005432,2|0,0:0|0:0,0:0:0:0:
363,316,145964,2,0,L|239:272,1,105.000004005432
138,331,146236,6,2,B|99:258|218:196|135:117,1,210.000008010865,2|0,0:0|0:0,0:0:0:0:
164,30,146645,1,2,0:0:0:0:
300,105,146782,2,0,B|289:158|289:158|313:202,1,105.000004005432,8|0,0:0|0:0,0:0:0:0:
216,244,147055,1,8,0:0:0:0:
173,84,147191,1,8,0:0:0:0:
433,175,147327,2,0,L|324:157,1,105.000004005432,2|0,0:0|0:0,0:0:0:0:
108,279,147600,5,8,0:0:0:0:
283,188,147736,1,0,0:0:0:0:
113,296,147873,1,8,0:0:0:0:
274,177,148009,1,0,0:0:0:0:
133,169,148145,6,0,P|178:117|165:73,1,105.000004005432,10|0,0:0|0:0,0:0:0:0:
366,244,148418,2,0,L|356:130,1,105.000004005432,2|0,0:0|0:0,0:0:0:0:
279,72,148691,1,10,0:0:0:0:
273,286,148827,1,0,0:0:0:0:
276,60,148964,1,8,0:0:0:0:
178,250,149100,1,0,0:0:0:0:
272,52,149236,1,8,0:0:0:0:
279,285,149373,1,0,0:0:0:0:
119,97,149509,6,0,L|96:216,2,105.000004005432,2|8|2,0:0|0:0|0:0,0:0:0:0:
391,233,149918,2,0,L|382:90,2,105.000004005432,8|2|8,0:0|0:0|0:0,0:0:0:0:
189,239,150327,2,0,P|140:291|137:335,1,105.000004005432,2|8,0:0|0:0,0:0:0:0:
203,86,150600,2,0,P|103:141|139:159,1,210.000008010865,10|0,0:0|0:0,0:0:0:0:
421,159,151009,6,2,B|395:156|395:156|391:166|375:161|375:161|328:176|286:149,1,105.000004005432
203,86,151282,1,8,0:0:0:0:
134,267,151418,5,2,0:0:0:0:
134,267,151486,1,0,0:0:0:0:
167,276,151555,5,0,0:0:0:0:
167,276,151623,1,0,0:0:0:0:
178,253,151691,2,0,P|201:227|378:206,1,211.750006462097,8|0,3:0|0:0,0:0:0:0:
366,257,152509,2,0,L|346:313,1,35,2|0,3:0|3:0,3:0:0:0:
309,306,152645,2,0,L|294:257,1,35,2|0,3:0|3:0,3:0:0:0:
245,267,152782,2,0,P|218:321|85:229,1,231.000002202988,10|0,3:0|3:0,3:0:0:0:
152,52,153191,6,0,L|148:124,1,57.7500005507469,2|0,0:0|0:0,0:0:0:0:
227,53,153327,2,0,L|231:137,4,57.7500005507469,2|0|0|0|0,0:0|0:0|0:0|0:0|0:0,0:0:0:0:
130,264,153736,1,0,0:0:0:0:
327,159,153873,5,2,0:0:0:0:
327,159,154009,2,0,B|298:232|331:313|312:320,1,115.500001101494,8|0,0:0|0:0,0:0:0:0:
137,183,154282,1,0,0:0:0:0:
137,183,154418,2,0,P|146:121|140:63,1,115.500001101494,8|0,0:0|0:0,0:0:0:0:
382,127,154691,1,0,0:0:0:0:
382,127,154827,5,0,0:0:0:0:
150,227,154964,2,0,B|240:244|240:244|327:216,1,173.250001652241,8|0,0:0|0:0,0:0:0:0:
337,223,155236,1,0,0:0:0:0:
337,223,155305,1,0,0:0:0:0:
414,305,155509,5,8,0:0:0:0:
376,135,155645,1,0,0:0:0:0:
130,278,155782,6,0,B|227:129,1,173.250001652241,2|0,0:0|0:0,0:0:0:0:
244,102,156055,1,2,0:0:0:0:
446,48,156191,6,0,L|444:184,1,115.500001101494,0|8,0:0|0:0,0:0:0:0:
226,325,156464,2,0,P|210:249|223:210,1,87.5,2|8,0:0|0:0,0:0:0:0:
128,69,156736,1,0,0:0:0:0:
128,69,156873,2,0,B|128:117|126:161,1,78.7500030040742,2|0,0:0|0:0,0:0:0:0:
128,173,157145,1,0,0:0:0:0:
404,94,157282,1,0,0:0:0:0:
404,94,157418,6,0,B|356:148|294:122,1,105.000004005432,10|0,0:0|0:0,0:0:0:0:
289,114,157691,1,0,0:0:0:0:
82,250,157827,1,2,3:0:0:0:
82,250,157895,1,0,3:0:0:0:
82,250,157964,6,0,L|130:199,1,52.5000020027161,2|0,3:0|3:0,3:0:0:0:
119,277,158100,2,0,L|166:221,1,52.5000020027161,2|0,3:0|3:0,3:0:0:0:
163,300,158236,2,0,B|215:249|215:249|227:328|311:344,1,210.000008010865,10|0,3:0|3:0,3:0:0:0:
344,135,158645,2,2,L|315:253,1,105.000004005432
187,153,158918,5,0,0:0:0:0:
187,153,159055,2,0,B|209:125|235:123|235:123|241:100|251:83|271:76|292:83|292:83|311:58|311:58|347:61,1,157.500006008148,2|0,0:0|0:0,0:0:0:0:
328,72,159327,5,8,0:0:0:0:
413,212,159464,5,0,0:0:0:0:
387,233,159532,1,0,0:0:0:0:
357,241,159600,1,0,0:0:0:0:
325,241,159668,1,0,0:0:0:0:
294,232,159736,2,2,L|206:203,4,52.5000020027161,2|2|2|2|2,3:0|3:0|3:0|3:0|3:0,3:0:0:0:
133,224,160145,2,0,B|123:206|109:199|109:199|96:170|122:156|122:156|154:149|161:119|161:119|205:134|205:134,1,157.500006008148
262,53,160418,5,8,0:0:0:0:
288,346,160555,1,2,0:0:0:0:
365,104,160691,5,8,0:0:0:0:
147,308,160827,1,2,0:0:0:0:
413,226,160964,5,8,0:0:0:0:
112,190,161100,1,2,0:0:0:0:
366,314,161236,5,8,0:0:0:0:
170,108,161373,1,2,0:0:0:0:
265,335,161509,6,0,L|253:267,1,52.5000020027161,8|0,0:0|0:0,0:0:0:0:
262,124,161645,2,0,P|260:194|260:195,1,52.5000020027161,2|0,0:0|0:0,0:0:0:0:
175,300,161782,2,0,L|211:263,1,52.5000020027161,8|0,0:0|0:0,0:0:0:0:
363,175,161918,2,0,L|314:212,1,52.5000020027161,2|0,0:0|0:0,0:0:0:0:
152,199,162055,2,0,L|214:231,1,52.5000020027161,8|0,0:0|0:0,0:0:0:0:
354,303,162191,2,0,L|295:263,5,52.5000020027161,2|0|8|0|2|0,0:0|0:0|0:0|0:0|0:0|0:0,0:0:0:0:
94,312,162600,2,0,B|72:242|102:163|204:167|301:59|156:-65|-53:-57|-119:206|126:240|201:200|242:170|264:167|264:167|265:104|265:104|268:51|373:28|373:28|410:87|410:87|392:143|315:185|321:212|321:212|448:231|444:170|429:108,1,1260.00004806519,4|4,1:0|2:0,0:0:0:0:
353,49,164782,6,0,L|333:154,1,94.499997116089,8|0,0:0|0:0,0:0:0:0:
246,67,165327,2,0,L|340:328,1,210,4|0,0:0|0:0,0:0:0:0:
88,74,165873,6,0,L|134:192,1,114.099999912949,12|0,0:0|0:0,0:0:0:0:
169,243,166055,2,0,P|243:234|266:196,1,114.099999912949,8|0,0:0|0:0,0:0:0:0:
252,123,166236,2,0,B|300:76|300:76|352:103,1,114.099999912949,8|0,0:0|0:0,0:0:0:0:
375,146,166418,6,0,P|371:229|322:253,1,114.099999912949,8|0,0:0|0:0,0:0:0:0:
304,273,166600,2,0,B|238:325|238:325|197:287,1,114.099999912949,8|0,0:0|0:0,0:0:0:0:
167,258,166782,2,0,L|207:132,1,114.099999912949,8|0,0:0|0:0,0:0:0:0:
299,71,166964,2,0,P|256:93|204:96,5,76.0666666086324,12|0|0|0|0|0,0:0|0:0|0:0|0:0|0:0|0:0,0:0:0:0:
168,107,167509,6,0,B|118:167|118:167|133:234,1,114.099999912949,8|0,0:0|0:0,0:0:0:0:
155,264,167691,2,0,P|226:293|277:283,1,114.099999912949,8|0,0:0|0:0,0:0:0:0:
293,263,167873,2,0,B|354:245|354:245|392:282,1,114.099999912949,8|0,0:0|0:0,0:0:0:0:
441,285,168055,6,0,P|415:161|305:126,1,228.199999825897,12|0,0:0|0:0,0:0:0:0:
111,165,168418,2,0,P|162:136|242:154,1,114.099999912949,8|0,0:0|0:0,0:0:0:0:
342,178,168600,2,0,B|334:170|284:120|224:158,1,114.099999912949,8|0,0:0|0:0,0:0:0:0:
126,255,168782,6,0,B|179:300|256:261,1,114.099999912949,8|0,0:0|0:0,0:0:0:0:
342,178,168964,2,0,P|337:253|351:300,1,114.099999912949,8|0,0:0|0:0,0:0:0:0:
443,218,169145,2,0,P|444:154|429:125,5,76.0666666086324,12|0|0|0|0|0,0:0|0:0|0:0|0:0|0:0|0:0,0:0:0:0:
256,103,169691,2,0,P|246:153|260:182,3,76.0666666086324,12|0|0|0,0:0|0:0|0:0|0:0,0:0:0:0:
377,85,170055,6,0,P|338:27|279:30,1,114.099999912949,8|0,0:0|0:0,0:0:0:0:
233,9,170236,2,0,B|206:47|239:78|239:108|256:130|256:154|244:169|221:196|221:196|184:180|181:153|185:121,1,266.233333130213,12|0,0:0|0:0,0:0:0:0:
156,117,170600,6,0,P|112:174|132:235,1,114.099999912949,8|0,0:0|0:0,0:0:0:0:
197,190,170782,2,0,P|211:247|263:280,1,114.099999912949,8|0,0:0|0:0,0:0:0:0:
332,342,170964,2,0,B|366:283|334:228,1,114.099999912949,8|0,0:0|0:0,0:0:0:0:
271,202,171145,6,0,P|255:152|284:85,1,114.099999912949,8|0,0:0|0:0,0:0:0:0:
361,169,171327,2,0,P|374:112|352:68,5,76.0666666086324,12|0|0|0|0|0,0:0|0:0|0:0|0:0|0:0|0:0,0:0:0:0:
280,57,171873,2,0,P|263:120|273:150,5,76.0666666086324,12|0|0|0|0|0,0:0|0:0|0:0|0:0|0:0|0:0,0:0:0:0:
433,150,172418,6,0,B|420:202|437:225|437:225|425:236|425:236|434:245|434:273|415:286,1,114.099999912949,8|0,0:0|0:0,0:0:0:0:
391,302,172600,6,0,B|315:269|315:269|304:204,1,114.099999912949,8|0,0:0|0:0,0:0:0:0:
320,158,172782,2,0,B|255:119|255:119|190:139,1,114.099999912949,8|0,0:0|0:0,0:0:0:0:
234,205,172964,2,0,B|233:297|233:297|186:308,1,114.099999912949,8|0,0:0|0:0,0:0:0:0:
155,247,173145,6,0,B|106:190|106:190|108:119,1,114.099999912949,8|0,0:0|0:0,0:0:0:0:
139,48,173327,2,0,P|188:87|181:139,1,114.099999912949,8|0,0:0|0:0,0:0:0:0:
216,191,173509,2,0,P|217:241|242:269,3,76.0666666086324,12|0|0|0,0:0|0:0|0:0|0:0,0:0:0:0:
330,132,173873,5,0,0:0:0:0:
330,132,173964,1,0,0:0:0:0:
330,132,174055,2,0,P|337:187|322:240,5,76.0666666086324,8|0|0|0|0|0,0:0|0:0|0:0|0:0|0:0|0:0,0:0:0:0:
185,270,174600,5,8,0:0:0:0:
185,270,174691,1,0,0:0:0:0:
185,270,174782,1,0,0:0:0:0:
185,270,174873,2,0,P|137:244|103:206,1,70.0000026702882
132,78,175055,5,0,0:0:0:0:
147,89,175145,1,8,0:0:0:0:
164,101,175236,1,0,0:0:0:0:
183,112,175327,1,0,0:0:0:0:
203,124,175418,2,0,P|266:141|296:138,2,70.0000026702882
418,184,175691,5,8,0:0:0:0:
388,210,175782,1,0,0:0:0:0:
347,224,175873,1,0,0:0:0:0:
303,229,175964,1,0,0:0:0:0:
257,229,176055,2,0,P|210:227|170:196,1,70.0000026702882
72,100,176236,6,0,B|137:64|196:89,1,105.000004005432,8|0,0:0|0:0,0:0:0:0:
223,119,176418,2,0,P|170:99|116:112,1,105.000004005432,8|0,0:0|0:0,0:0:0:0:
99,149,176577,2,0,P|150:135|205:156,1,105.000004005432,8|0,0:0|0:0,0:0:0:0:
211,188,176782,5,8,0:0:0:0:
211,188,176873,1,0,0:0:0:0:
211,188,176964,1,0,0:0:0:0:
211,188,177055,1,0,0:0:0:0:
211,188,177145,2,0,P|260:259|302:263,1,70.0000026702882
378,293,177327,5,8,0:0:0:0:
406,249,177418,1,0,0:0:0:0:
365,217,177509,5,8,0:0:0:0:
356,180,177600,1,0,0:0:0:0:
391,145,177691,6,0,P|392:98|431:62,1,70.0000026702882,8|0,0:0|0:0,0:0:0:0:
146,52,177873,6,0,L|165:133,1,70.0000026702882,8|0,0:0|0:0,0:0:0:0:
204,87,178055,2,0,L|195:178,1,70.0000026702882
148,149,178236,2,0,L|188:219,1,70.0000026702882
238,204,178418,2,0,P|289:259|140:256,1,350.000013351441,8|0,0:0|0:0,0:0:0:0:
125,164,178964,5,8,0:0:0:0:
125,164,179055,1,0,0:0:0:0:
125,164,179145,1,0,0:0:0:0:
125,164,179236,1,0,0:0:0:0:
125,164,179327,2,0,P|169:125|194:127,1,70.0000026702882
316,121,179509,5,8,0:0:0:0:
359,161,179600,1,0,0:0:0:0:
380,208,179691,1,0,0:0:0:0:
374,272,179782,1,0,0:0:0:0:
346,320,179873,2,0,P|306:356|268:361,1,70.0000026702882,8|0,0:0|0:0,0:0:0:0:
153,303,180055,5,8,0:0:0:0:
130,269,180145,1,0,0:0:0:0:
160,244,180236,5,0,0:0:0:0:
172,202,180327,1,0,0:0:0:0:
143,175,180418,6,0,L|119:99,1,70.0000026702882
399,56,180600,2,0,P|337:45|291:52,1,105.000004005432,8|0,0:0|0:0,0:0:0:0:
226,96,180782,2,0,P|277:127|350:119,1,105.000004005432,8|0,0:0|0:0,0:0:0:0:
403,146,180964,2,0,P|368:197|322:214,1,105.000004005432,8|0,0:0|0:0,0:0:0:0:
264,246,181145,5,8,0:0:0:0:
245,266,181236,1,0,0:0:0:0:
224,280,181327,1,0,0:0:0:0:
200,294,181418,1,0,0:0:0:0:
174,306,181509,2,0,P|147:312|109:269,1,70.0000026702882
82,202,181691,5,8,0:0:0:0:
120,220,181782,1,0,0:0:0:0:
171,197,181873,1,0,0:0:0:0:
217,211,181964,1,0,0:0:0:0:
257,187,182055,2,0,P|276:137|263:112,1,70.0000026702882
209,89,182236,6,0,P|73:116|221:236,1,420.000016021729,14|0,1:0|0:0,0:0:0:0:
297,128,183327,5,10,1:0:0:0:
124,280,183600,5,8,1:0:0:0:
180,56,183873,5,8,1:0:0:0:
271,168,184009,1,8,1:0:0:0:
335,56,184145,5,8,1:0:0:0:
287,294,184282,1,8,1:0:0:0:
96,129,184418,6,0,P|99:231|195:282,1,210.000008010865,10|0,1:0|0:0,0:0:0:0:
287,152,184964,6,0,L|249:53,1,105.000004005432,8|0,1:0|1:0,1:0:0:0:
361,87,185236,2,8,L|408:190,1,105.000004005432,8|0,1:0|1:0,1:0:0:0:
369,272,185509,6,0,P|239:324|136:228,1,280,8|8,1:0|0:0,0:0:0:0:
118,217,186055,5,8,1:0:0:0:
415,109,186191,1,8,1:0:0:0:
125,229,186327,1,8,1:0:0:0:
419,90,186464,1,8,1:0:0:0:
199,314,186600,2,0,P|322:316|401:232,1,210.000008010865,10|0,1:0|0:0,0:0:0:0:
255,114,187145,5,4,0:0:0:0:
372,243,187418,5,0,0:0:0:0:
169,283,187691,5,4,1:0:0:0:
256,192,187725,12,0,189872,0:0:0:0:
269,35,208418,5,12,0:0:0:0:
365,181,208691,5,8,0:0:0:0:
155,164,208963,5,8,0:0:0:0:
288,306,209236,5,8,0:0:0:0:
341,144,209509,6,0,B|350:189|363:200|363:200|338:217|338:217|323:246|328:251|351:292|304:294|298:311|298:311|260:292,1,210,12|0,2:0|0:0,0:0:0:0:
155,197,210600,2,0,L|173:282,1,70,2|0,0:0|0:0,0:0:0:0:
234,111,211145,5,0,0:0:0:0:
234,111,211691,2,0,L|255:207,1,70,8|0,0:0|0:0,0:0:0:0:
190,307,212509,1,0,0:0:0:0:
190,307,212781,1,8,0:0:0:0:
206,215,213327,6,0,B|203:257|191:267|191:267|202:302|202:302|172:307|186:348,1,105.000004005432,2|2,0:0|0:0,0:0:0:0:
103,307,213872,2,0,B|82:254|116:227|116:227|114:193|114:193|137:134|185:134,1,210.000008010865,8|0,0:0|0:0,0:0:0:0:
269,119,214691,1,0,0:0:0:0:
269,119,214963,6,0,B|276:174|293:201|293:201|283:245,1,105.000004005432,8|0,0:0|0:0,0:0:0:0:
364,243,215509,2,0,B|392:190|365:167|365:167|355:136|355:136,1,105.000004005432
331,61,216054,1,8,0:0:0:0:
105,127,216327,5,0,0:0:0:0:
358,189,216463,1,0,0:0:0:0:
69,197,216600,1,0,0:0:0:0:
358,189,216872,6,0,L|363:112,1,52.5000020027161
363,112,217145,1,8,0:0:0:0:
133,50,217418,5,0,0:0:0:0:
133,110,217691,1,0,0:0:0:0:
136,170,217963,1,0,0:0:0:0:
419,208,218236,6,0,B|381:251|368:257|368:257|338:227|338:227|327:271|278:286|278:286|246:217|246:217|177:253,1,315.000012016297,4|0,0:0|0:0,0:0:0:0:
140,99,219327,5,0,0:0:0:0:
369,263,219872,5,0,0:0:0:0:
306,137,220418,6,8,B|315:207|315:207|310:229|310:229|317:283,1,140
107,206,221236,5,0,0:0:0:0:
107,206,221509,2,0,L|272:239,1,140,2|0,0:0|0:0,0:0:0:0:
157,106,222054,2,0,B|206:83|206:83|261:89|283:133|283:133|321:113|321:113|347:155,1,210,2|0,0:0|0:0,0:0:0:0:
378,190,222600,2,0,B|350:240|327:282|327:282|278:211|278:211|231:300|178:242|178:242|170:193|170:193|240:141,1,420,12|0,0:0|0:0,0:0:0:0:
286,54,223691,1,0,0:0:0:0:
286,54,223963,6,0,L|288:145,1,70
115,287,224236,2,0,P|181:264|237:271,1,70,2|0,0:0|0:0,0:0:0:0:
362,252,224509,2,0,P|290:247|252:259,1,70
161,115,224781,6,0,P|250:72|286:135,1,140,8|0,0:0|0:0,0:0:0:0:
292,108,225191,1,0,0:0:0:0:
292,108,225327,1,0,0:0:0:0:
130,316,225600,6,0,L|226:290,1,70
375,151,225872,2,2,P|376:264|323:304,1,140,2|2,1:0|1:0,1:0:0:0:
136,141,226281,1,0,0:0:0:0:
136,141,226418,2,2,L|294:102,1,140
350,320,226963,6,0,L|336:230,1,70,6|0,2:0|0:0,0:0:0:0:
215,149,227235,2,0,L|226:249,1,70
345,173,227508,2,0,L|337:77,1,70
114,82,227781,2,0,L|210:63,1,70
170,295,228053,6,0,P|161:228|173:199,1,70,4|0,2:0|0:0,0:0:0:0:
284,118,228326,2,0,P|327:161|327:198,1,70
374,337,228599,6,0,L|401:262,1,70
363,40,228872,2,0,L|391:122,1,70
88,215,229144,6,0,B|113:181|113:181|148:167,1,70,8|0,3:0|0:0,0:0:0:0:
241,263,229417,2,0,B|271:237|271:237|279:203,1,70
169,92,229690,6,0,L|256:91,1,70
326,179,229963,2,0,L|237:180,1,70
164,317,230235,5,4,2:0:0:0:
339,159,230372,1,0,0:0:0:0:
375,339,230508,2,0,L|296:284,1,70
101,194,230781,6,0,B|126:145|126:145|159:133|159:133|186:78,1,125.999996154785
353,138,231053,2,0,B|332:191|332:191|302:201|302:201|272:275,1,125.999996154785
153,55,231326,6,0,P|245:50|298:76,1,125.999996154785,6|0,2:0|0:0,0:0:0:0:
169,85,231599,2,0,P|244:88|320:124,1,125.999996154785
273,339,231872,6,0,B|211:265|211:265|196:307|173:321,1,125.999996154785
275,326,232144,2,0,B|230:278|212:246|212:246|199:290|178:298,1,125.999996154785
169,353,232417,1,2,0:0:0:0:
179,125,232553,1,0,0:0:0:0:
440,155,232690,2,0,B|355:177|355:177|336:224,1,125.999996154785
133,127,232963,6,0,P|144:217|106:209,1,125.999996154785
94,282,233235,2,0,P|48:222|125:219,1,125.999996154785
291,140,233508,5,6,0:0:0:0:
291,140,233576,1,2,3:0:0:0:
291,140,233644,1,2,3:0:0:0:
291,140,233713,2,0,L|287:222,1,62.9999980773926,0|4,3:0|2:0,0:0:0:0:
117,292,234053,5,6,0:0:0:0:
117,292,234122,1,0,3:0:0:0:
117,292,234190,1,0,3:0:0:0:
117,292,234258,2,0,L|124:228,1,62.9999980773926,0|2,3:0|3:0,3:0:0:0:
299,255,234599,5,8,0:0:0:0:
191,134,234735,1,0,0:0:0:0:
389,38,234872,2,0,L|347:165,1,125.999996154785
141,295,235144,2,0,L|115:164,1,125.999996154785
150,78,235417,5,0,0:0:0:0:
150,78,235553,1,0,0:0:0:0:
108,160,235690,5,0,0:0:0:0:
141,188,235758,1,0,0:0:0:0:
182,202,235826,1,0,0:0:0:0:
226,199,235894,1,0,0:0:0:0:
269,187,235963,1,0,0:0:0:0:
311,174,236031,1,0,0:0:0:0:
354,167,236099,1,0,0:0:0:0:
397,175,236167,1,0,0:0:0:0:
432,201,236235,2,0,P|443:290|384:328,1,125.999996154785,0|0,2:0|0:0,0:0:0:0:
147,343,236508,6,0,P|150:227|182:215,1,125.999996154785
258,226,236781,2,0,B|232:192|226:144|226:144|213:144|194:163,1,125.999996154785
86,218,237053,5,0,0:0:0:0:
330,196,237190,1,0,0:0:0:0:
89,236,237326,1,0,0:0:0:0:
328,177,237463,1,0,0:0:0:0:
77,84,237599,5,0,0:0:0:0:
77,84,237667,1,0,0:0:0:0:
77,84,237735,1,0,0:0:0:0:
205,334,237872,6,0,L|214:205,1,125.999996154785,6|0,2:0|0:0,0:0:0:0:
218,77,238144,1,0,0:0:0:0:
218,77,238281,1,0,0:0:0:0:
400,296,238417,5,0,0:0:0:0:
356,303,238485,1,0,0:0:0:0:
314,292,238553,1,0,0:0:0:0:
280,265,238622,1,0,0:0:0:0:
260,226,238690,1,0,0:0:0:0:
257,182,238758,1,0,0:0:0:0:
273,141,238826,1,0,0:0:0:0:
304,110,238894,1,0,0:0:0:0:
343,101,238963,6,0,P|395:113|425:154,7,62.9999980773926
352,191,239508,2,0,L|291:219,6,62.9999980773926
139,291,240053,5,8,3:0:0:0:
202,116,240190,1,0,0:0:0:0:
396,255,240326,2,0,L|314:148,1,125.999996154785
275,41,240599,5,4,2:0:0:0:
240,243,240735,1,0,0:0:0:0:
105,161,240872,2,0,P|163:104|220:110,1,125.999996154785
275,41,241144,2,0,L|294:172,1,125.999996154785
211,299,241417,5,0,0:0:0:0:
352,260,241553,1,0,0:0:0:0:
157,254,241690,5,0,0:0:0:0:
370,203,241826,5,0,0:0:0:0:
109,202,241963,5,0,0:0:0:0:
394,132,242099,1,0,0:0:0:0:
128,57,242235,6,0,B|181:70|181:70|205:49|205:49|229:85|229:85|298:98,1,188.999994232178,8|0,0:0|0:0,0:0:0:0:
310,103,242508,1,0,0:0:0:0:
280,302,242781,2,0,P|202:308|134:277,2,125.999996154785,8|0|0,0:0|0:0|0:0,0:0:0:0:
420,259,243190,1,0,0:0:0:0:
380,227,243258,1,0,0:0:0:0:
334,207,243326,1,14,0:0:0:0:
284,205,243394,1,0,0:0:0:0:
235,215,243462,1,0,0:0:0:0:
185,215,243530,1,0,0:0:0:0:
142,189,243599,5,2,0:0:0:0:
288,23,243735,1,0,0:0:0:0:
318,286,243872,1,2,3:0:0:0:
318,286,244008,1,0,3:0:0:0:
116,182,244144,2,0,P|168:109|205:96,1,125.999996154785,0|0,3:0|3:0,3:0:0:0:
172,323,244417,5,6,1:0:0:0:
175,304,244485,1,0,0:0:0:0:
179,285,244553,1,0,0:0:0:0:
182,267,244622,1,0,0:0:0:0:
186,248,244690,1,2,0:0:0:0:
189,230,244758,1,0,0:0:0:0:
193,211,244826,1,0,0:0:0:0:
196,194,244894,1,0,0:0:0:0:
197,187,244963,5,2,0:0:0:0:
198,181,245031,1,2,0:0:0:0:
200,175,245099,1,0,0:0:0:0:
201,169,245167,1,2,0:0:0:0:
203,163,245235,1,2,0:0:0:0:
204,157,245303,1,2,0:0:0:0:
205,151,245372,2,0,B|228:106|228:106|287:237,1,188.999994232178
310,259,245644,5,0,0:0:0:0:
355,292,245713,1,0,0:0:0:0:
409,290,245781,1,2,0:0:0:0:
451,253,245849,1,0,0:0:0:0:
473,203,245917,1,0,0:0:0:0:
477,155,245985,1,0,0:0:0:0:
454,116,246053,2,0,P|361:37|238:88,1,251.999992309571,2|0,0:0|0:0,0:0:0:0:
69,225,246531,5,0,0:0:0:0:
69,225,246599,2,0,L|221:199,1,125.999996154785,2|0,0:0|0:0,0:0:0:0:
291,184,246940,2,0,L|286:277,5,62.9999980773926,2|0|2|0|2|0,0:0|0:0|0:0|0:0|0:0|0:0,0:0:0:0:
387,43,247417,5,2,0:0:0:0:
346,50,247485,1,0,0:0:0:0:
298,38,247553,1,0,0:0:0:0:
242,17,247622,1,0,0:0:0:0:
177,5,247690,1,2,0:0:0:0:
114,20,247758,1,0,0:0:0:0:
68,70,247826,1,2,0:0:0:0:
90,126,247894,1,0,0:0:0:0:
141,159,247963,2,0,P|200:170|248:154,2,62.9999980773926,2|0|2,0:0|0:0|0:0,0:0:0:0:
314,330,248235,5,2,0:0:0:0:
312,311,248303,1,0,0:0:0:0:
311,292,248372,1,0,0:0:0:0:
309,273,248440,1,0,0:0:0:0:
340,257,248508,5,2,0:0:0:0:
338,238,248576,1,0,0:0:0:0:
336,219,248644,1,0,0:0:0:0:
334,200,248713,1,0,0:0:0:0:
298,187,248781,5,2,0:0:0:0:
295,168,248849,1,0,0:0:0:0:
293,149,248917,1,0,0:0:0:0:
291,130,248985,1,0,0:0:0:0:
320,108,249053,6,0,L|315:39,1,62.9999980773926
136,36,249326,5,0,0:0:0:0:
137,51,249394,1,0,0:0:0:0:
137,66,249463,1,0,0:0:0:0:
136,78,249531,1,0,0:0:0:0:
125,102,249599,5,2,0:0:0:0:
158,152,249667,1,0,0:0:0:0:
116,199,249735,1,0,0:0:0:0:
162,236,249803,1,0,0:0:0:0:
126,285,249872,2,0,P|128:349|138:374,3,62.9999980773926,2|0|0|0,0:0|0:0|0:0|0:0,0:0:0:0:
267,301,250144,6,0,L|237:243,3,62.9999980773926,2|0|0|0,0:0|0:0|0:0|0:0,0:0:0:0:
87,254,250417,2,0,L|114:190,3,62.9999980773926,2|0|0|0,0:0|0:0|0:0|0:0,0:0:0:0:
211,142,250690,2,0,L|193:56,3,62.9999980773926,2|0|0|0,0:0|0:0|0:0|0:0,0:0:0:0:
253,65,250963,5,2,0:0:0:0:
276,51,251031,1,0,0:0:0:0:
302,43,251099,1,0,0:0:0:0:
330,42,251167,1,0,0:0:0:0:
376,45,251235,1,2,0:0:0:0:
413,75,251303,1,0,0:0:0:0:
435,116,251372,1,0,0:0:0:0:
442,163,251440,1,0,0:0:0:0:
424,213,251508,1,2,0:0:0:0:
371,243,251576,1,0,0:0:0:0:
311,237,251644,1,0,0:0:0:0:
259,201,251713,1,0,0:0:0:0:
203,148,251781,5,2,0:0:0:0:
120,129,251849,1,0,0:0:0:0:
46,176,251917,1,0,0:0:0:0:
60,265,251985,1,0,0:0:0:0:
137,303,252053,6,0,P|182:303|216:290,3,62.9999980773926,6|2|2|2,0:0|0:0|0:0|0:0,0:0:0:0:
199,106,252326,2,0,P|207:156|195:182,3,62.9999980773926,2|0|0|0,0:0|0:0|0:0|0:0,0:0:0:0:
339,313,252599,2,0,P|391:323|421:304,3,62.9999980773926,2|0|0|0,0:0|0:0|0:0|0:0,0:0:0:0:
264,273,252872,1,2,0:0:0:0:
210,212,252940,1,0,0:0:0:0:
183,140,253008,1,2,0:0:0:0:
212,72,253076,1,2,0:0:0:0:
278,30,253144,5,12,0:0:0:0:
271,294,253281,1,0,0:0:0:0:
215,50,253417,1,0,0:0:0:0:
331,300,253553,1,0,0:0:0:0:
122,227,253690,2,0,P|188:181|239:183,1,125.999996154785
365,312,253963,2,0,P|250:303|217:287,1,125.999996154785
353,84,254235,5,8,0:0:0:0:
180,177,254372,1,0,0:0:0:0:
368,104,254508,1,0,0:0:0:0:
146,167,254644,1,0,0:0:0:0:
315,274,254781,2,0,B|324:234|324:234|351:190|351:190|355:145,1,125.999996154785
156,95,255053,5,0,0:0:0:0:
150,101,255122,1,0,0:0:0:0:
143,107,255190,1,0,0:0:0:0:
104,211,255326,6,0,L|253:214,1,125.999996154785,8|0,0:0|0:0,0:0:0:0:
365,140,255599,2,0,L|220:126,1,125.999996154785,8|0,0:0|0:0,0:0:0:0:
298,272,255872,5,0,0:0:0:0:
73,209,256008,1,0,0:0:0:0:
269,88,256144,2,0,P|241:156|256:206,1,125.999996154785
298,312,256417,5,8,0:0:0:0:
381,117,256553,1,0,0:0:0:0:
295,328,256690,1,0,0:0:0:0:
257,72,256826,1,0,0:0:0:0:
73,209,256963,6,8,B|97:260|89:300|89:300|145:350,1,125.999996154785
225,167,257235,2,0,B|197:85|197:85|258:105,1,125.999996154785
172,285,257508,6,0,L|229:283,3,52.5000020027161,10|0|2|0,0:0|0:0|0:0|0:0,0:0:0:0:
235,292,257781,1,2,0:0:0:0:
235,298,257849,1,0,0:0:0:0:
236,303,257917,1,2,0:0:0:0:
236,308,257985,1,0,0:0:0:0:
250,322,258053,5,0,0:0:0:0:
271,344,258122,1,0,0:0:0:0:
306,352,258190,1,0,0:0:0:0:
345,350,258258,1,0,0:0:0:0:
388,330,258326,1,10,0:0:0:0:
420,285,258394,1,0,0:0:0:0:
389,225,258463,1,10,0:0:0:0:
324,213,258531,1,0,0:0:0:0:
251,227,258599,1,10,0:0:0:0:
180,201,258667,1,0,0:0:0:0:
119,146,258735,1,2,0:0:0:0:
128,65,258803,1,0,0:0:0:0:
206,29,258872,5,0,0:0:0:0:
257,41,258940,1,0,0:0:0:0:
292,68,259008,1,0,0:0:0:0:
300,83,259076,1,0,0:0:0:0:
304,95,259144,2,0,L|240:89,7,52.5000020027161,2|0|0|0|2|0|0|0,0:0|0:0|0:0|0:0|0:0|0:0|0:0|0:0,0:0:0:0:
171,50,259690,5,10,0:0:0:0:
199,37,259758,1,0,0:0:0:0:
230,34,259826,1,0,0:0:0:0:
260,42,259894,1,0,0:0:0:0:
286,60,259963,1,2,0:0:0:0:
304,86,260031,1,0,0:0:0:0:
316,111,260099,1,10,0:0:0:0:
299,137,260167,1,0,0:0:0:0:
282,164,260235,5,10,0:0:0:0:
265,191,260303,1,0,0:0:0:0:
249,217,260372,1,2,0:0:0:0:
232,244,260440,1,0,0:0:0:0:
219,267,260508,2,0,L|180:319,3,52.5000020027161,2|0|0|0,0:0|0:0|0:0|0:0,0:0:0:0:
140,307,260781,2,0,L|141:243,1,52.5000020027161,10|0,0:0|0:0,0:0:0:0:
194,104,260917,6,0,L|194:197,1,52.5000020027161,2|0,0:0|0:0,0:0:0:0:
278,308,261053,2,0,L|274:255,1,52.5000020027161,8|0,0:0|0:0,0:0:0:0:
339,102,261190,2,0,L|338:187,1,52.5000020027161,2|0,0:0|0:0,0:0:0:0:
422,333,261326,2,0,L|411:248,1,52.5000020027161,2|0,0:0|0:0,0:0:0:0:
475,131,261463,6,0,L|483:190,1,52.5000020027161,2|0,0:0|0:0,0:0:0:0:
461,236,261599,1,10,0:0:0:0:
405,251,261667,1,0,0:0:0:0:
354,229,261735,1,8,0:0:0:0:
304,201,261803,1,0,0:0:0:0:
248,196,261872,2,0,B|82:333|-75:63|188:33|394:250|446:144|446:144|306:127|197:45,1,840.000032043458,4|4,0:0|0:2,0:0:0:0:
256,192,262980,12,0,265144,0:0:0:0:
129,100,266235,5,10,0:0:0:0:
261,200,266508,1,2,0:0:0:0:
261,200,266576,1,0,0:0:0:0:
261,200,266644,1,0,0:0:0:0:
261,200,266713,1,0,0:0:0:0:
261,200,266781,2,0,L|281:129,6,52.5000020027161,2|0|2|0|2|0|2,0:0|0:0|0:0|0:0|0:0|0:0|0:0,0:0:0:0:
397,220,267326,5,10,0:0:0:0:
169,317,267599,1,0,0:0:0:0:
169,317,267735,2,0,B|200:299|200:299|236:313|236:313|269:315|269:315|297:308,1,105.000004005432,8|0,0:0|0:0,0:0:0:0:
235,49,268144,6,0,L|195:163,2,105.000004005432,2|0|10,0:0|0:0|0:0,0:0:0:0:
276,109,268553,1,0,0:0:0:0:
276,109,268622,1,0,0:0:0:0:
276,109,268690,1,2,0:0:0:0:
276,109,268758,1,0,0:0:0:0:
276,109,268826,1,0,0:0:0:0:
276,109,268894,1,0,0:0:0:0:
276,109,268963,2,0,P|328:143|329:142,6,52.5000020027161,2|0|0|0|2|0|0,0:0|0:0|0:0|0:0|0:0|0:0|0:0,0:0:0:0:
248,314,269508,5,10,0:0:0:0:
90,87,269781,2,2,L|201:170,1,105.000004005432,10|2,0:0|0:0,0:0:0:0:
397,79,270326,6,0,L|311:140,2,105.000004005432,2|0|10,0:0|0:0|0:0,0:0:0:0:
396,323,270872,1,10,0:0:0:0:
395,312,270940,1,0,0:0:0:0:
394,302,271008,1,0,0:0:0:0:
394,291,271076,1,0,0:0:0:0:
393,281,271144,1,2,0:0:0:0:
392,270,271213,1,0,0:0:0:0:
392,260,271281,1,0,0:0:0:0:
391,249,271349,1,0,0:0:0:0:
391,239,271417,1,2,0:0:0:0:
390,228,271485,1,0,0:0:0:0:
389,218,271553,1,0,0:0:0:0:
390,210,271622,2,0,L|387:144,1,52.5000020027161,0|10,0:0|0:0,0:0:0:0:
116,288,271963,6,2,L|222:241,1,105.000004005432,10|2,0:0|0:0,0:0:0:0:
351,61,272508,2,2,P|331:147|346:171,1,105.000004005432
433,138,272781,5,10,0:0:0:0:
448,188,272849,1,0,0:0:0:0:
450,237,272917,1,2,0:0:0:0:
432,286,272985,1,0,0:0:0:0:
395,323,273053,1,2,0:0:0:0:
346,339,273122,1,0,0:0:0:0:
295,332,273190,1,2,0:0:0:0:
252,301,273258,1,0,0:0:0:0:
243,252,273326,2,0,P|245:220|271:178,7,52.5000020027161,10|0|0|0|2|0|0|0,0:0|0:0|0:0|0:0|0:0|0:0|0:0|0:0,0:0:0:0:
162,159,273872,6,0,L|154:96,7,52.5000020027161,12|0|0|0|2|0|0|0,0:0|0:0|0:0|0:0|0:0|0:0|0:0|0:0,0:0:0:0:
329,130,274417,2,0,L|332:184,6,52.5000020027161,10|0|0|0|2|0|0,0:0|0:0|0:0|0:0|0:0|0:0|0:0,0:0:0:0:
190,48,274963,6,0,L|172:179,1,105.000004005432,8|0,0:0|0:0,0:0:0:0:
315,321,275235,2,0,L|314:208,1,105.000004005432
286,36,275508,1,0,0:0:0:0:
209,331,275644,1,0,0:0:0:0:
232,46,275781,5,0,0:0:0:0:
315,321,275917,1,0,0:0:0:0:
434,210,276053,2,0,B|424:139|424:139|384:107,1,105.000004005432,8|0,0:0|0:0,0:0:0:0:
292,176,276326,5,0,0:0:0:0:
60,304,276463,1,0,0:0:0:0:
296,214,276599,1,0,0:0:0:0:
72,274,276735,1,0,0:0:0:0:
329,253,276872,5,0,0:0:0:0:
51,232,277008,1,0,0:0:0:0:
412,334,277144,2,0,P|421:257|403:218,1,105.000004005432,8|0,0:0|0:0,0:0:0:0:
326,65,277417,1,0,0:0:0:0:
173,179,277553,1,0,0:0:0:0:
311,314,277690,2,0,P|332:244|334:190,1,105.000004005432,8|0,0:0|0:0,0:0:0:0:
304,50,277963,5,0,0:0:0:0:
101,173,278099,1,0,0:0:0:0:
264,305,278235,1,8,0:0:0:0:
264,305,278303,1,0,0:0:0:0:
264,305,278372,2,0,P|350:302|400:283,1,105.000004005432,8|0,0:0|0:0,0:0:0:0:
141,271,278644,5,0,0:0:0:0:
433,292,278781,2,0,L|443:167,1,105.000004005432
144,58,279053,5,0,0:0:0:0:
375,89,279190,1,0,0:0:0:0:
144,58,279326,2,0,L|263:62,1,105.000004005432,8|0,0:0|0:0,0:0:0:0:
434,178,279599,2,0,L|318:175,1,105.000004005432
56,276,279872,2,0,L|177:269,1,105.000004005432,8|0,0:0|0:0,0:0:0:0:
474,338,280144,2,0,L|335:344,1,105.000004005432
263,110,280417,6,0,P|291:56|348:67,1,105.000004005432,12|0,0:0|0:0,0:0:0:0:
453,111,280690,2,0,P|374:103|350:132,1,105.000004005432
183,264,280963,5,0,0:0:0:0:
422,187,281099,1,0,0:0:0:0:
183,264,281235,1,0,0:0:0:0:
422,293,281372,1,0,0:0:0:0:
245,89,281508,6,0,B|200:81|200:81|151:109|118:59|118:59,1,105.000004005432,8|0,0:0|0:0,0:0:0:0:
375,48,281781,1,0,0:0:0:0:
449,229,281917,1,0,0:0:0:0:
278,348,282053,2,0,L|281:224,1,105.000004005432,8|0,0:0|0:0,0:0:0:0:
150,215,282326,6,0,B|128:264|95:274|95:274|110:319,1,105.000004005432
158,78,282599,1,6,0:0:0:0:
175,82,282667,1,0,0:0:0:0:
188,90,282735,1,2,0:0:0:0:
200,97,282803,1,0,0:0:0:0:
218,109,282872,2,0,P|254:139|266:158,6,52.5000020027161,2|0|2|0|2|0|2,0:0|0:0|0:0|0:0|0:0|0:0|0:0,0:0:0:0:
276,288,283417,2,2,L|277:221,2,52.5000020027161
257,53,283690,5,8,0:0:0:0:
288,335,283826,1,0,0:0:0:0:
379,55,283963,1,0,0:0:0:0:
209,314,284099,1,0,0:0:0:0:
421,127,284235,5,8,0:0:0:0:
168,234,284372,1,0,0:0:0:0:
419,242,284508,1,0,0:0:0:0:
175,129,284644,1,0,0:0:0:0:
350,331,284781,5,8,0:0:0:0:
220,63,284917,1,0,0:0:0:0:
243,330,285053,1,0,0:0:0:0:
341,68,285190,1,0,0:0:0:0:
404,178,285326,6,0,L|410:299,1,105.000004005432,8|0,0:0|0:0,0:0:0:0:
78,331,285599,2,0,L|164:250,1,105.000004005432
370,223,285872,5,8,0:0:0:0:
79,53,286008,1,0,0:0:0:0:
376,199,286144,1,0,0:0:0:0:
70,68,286281,1,0,0:0:0:0:
253,281,286417,5,8,0:0:0:0:
190,56,286553,1,0,0:0:0:0:
227,286,286690,1,0,0:0:0:0:
216,56,286826,1,0,0:0:0:0:
108,254,286963,5,8,0:0:0:0:
340,84,287099,1,0,0:0:0:0:
103,235,287235,1,0,0:0:0:0:
352,101,287372,1,0,0:0:0:0:
302,280,287508,6,0,L|185:241,1,105.000004005432
110,197,287781,1,0,0:0:0:0:
256,59,287917,1,0,0:0:0:0:
246,281,288053,5,4,1:0:0:0:
384,84,288190,1,0,0:0:0:0:
166,119,288326,5,0,0:0:0:0:
382,169,288463,1,0,0:0:0:0:
161,112,288599,5,4,1:0:0:0:
304,326,288735,1,0,0:0:0:0:
207,31,288872,5,0,0:0:0:0:
304,326,289008,1,0,0:0:0:0:
108,155,289144,5,4,1:0:0:0:
311,332,289281,1,0,0:0:0:0:
300,89,289417,1,0,0:0:0:0:
311,332,289553,2,0,L|289:217,1,105.000004005432
361,44,289826,2,0,L|360:168,1,105.000004005432
244,310,290099,1,0,0:0:0:0:
243,310,290235,6,0,P|120:288|145:165,1,280,8|0,0:0|0:0,0:0:0:0:
319,101,290644,1,0,0:0:0:0:
282,287,290781,6,0,P|159:265|184:142,1,280,8|0,0:0|0:0,0:0:0:0:
319,101,291190,1,0,0:0:0:0:
311,337,291326,6,0,B|328:286|331:237|331:237|354:271|400:290|459:262|477:216|477:154|447:112|358:99|366:122,1,350,8|0,0:0|2:0,2:0:0:0:
319,101,291735,2,0,P|267:91|231:102,1,70
52,168,291872,1,8,1:0:0:0:
144,253,292417,6,0,B|138:311|211:349|211:349|244:292|242:258|242:235|223:224|223:224|173:197|151:172|138:127|151:88|191:48|191:48|273:86|280:132|241:189,1,654.500012483597,12|2,2:0|0:0,0:0:0:0:
281,205,293235,2,0,B|282:217|294:178|294:178|320:235|267:252|274:282,1,105.000004005432,8|0,0:0|0:0,0:0:0:0:
290,351,293508,6,0,P|453:215|181:63,1,630.000024032594,8|0,2:3|1:0,2:0:0:0:
110,190,294463,5,0,1:0:0:0:
110,190,294599,2,0,P|177:172|236:197,1,105.000004005432,8|0,0:0|0:0,0:0:0:0:
314,271,294872,5,0,0:0:0:0:
314,271,295008,2,0,P|233:289|196:272,1,105.000004005432,8|0,0:0|0:0,0:0:0:0:
110,190,295281,5,0,0:0:0:0:
305,89,295417,5,2,1:0:0:0:
305,89,295485,1,0,1:0:0:0:
305,89,295553,1,2,1:0:0:0:
375,340,295690,6,0,L|374:223,1,105.000004005432,8|0,0:0|0:0,0:0:0:0:
431,177,295894,1,0,0:0:0:0:
431,169,295963,2,0,P|371:154|328:167,1,105.000004005432
135,264,296235,5,0,0:0:0:0:
135,264,296372,1,0,0:0:0:0:
377,207,296508,2,0,L|265:265,1,105.000004005432,8|0,0:0|0:0,0:0:0:0:
85,101,296781,6,0,L|413:134,1,315.000012016297,8|0,0:0|0:0,0:0:0:0:
399,267,297326,1,2,1:0:0:0:
231,207,297463,1,0,0:0:0:0:
231,207,297599,6,0,B|155:162|119:204|20:189|125:177|179:165|179:165|166:141,1,210.000008010865,2|12,1:0|0:0,0:0:0:0:
383,157,298008,5,2,1:0:0:0:
170,116,298144,1,0,0:0:0:0:
394,115,298281,1,0,0:0:0:0:
330,307,298417,6,0,L|329:193,1,105.000004005432,8|0,0:0|0:0,0:0:0:0:
342,61,298690,1,2,1:0:0:0:
135,78,298963,6,0,B|149:127|125:178|125:178|176:127|172:43|172:43|201:117,1,315.000012016297,8|0,0:0|0:0,0:0:0:0:
220,262,299508,1,0,0:0:0:0:
346,76,299644,1,0,0:0:0:0:
346,76,299781,6,0,L|340:200,1,105.000004005432,2|0,1:0|1:0,1:0:0:0:
270,123,300053,2,0,L|309:254,1,105.000004005432,12|0,0:0|0:0,0:0:0:0:
114,339,300463,5,0,0:0:0:0:
114,339,300531,1,0,0:0:0:0:
114,339,300599,2,0,B|119:268|94:244|94:244|138:218|138:218|111:193|111:193|110:144,1,210.000008010865,8|0,0:0|0:0,0:0:0:0:
187,162,301144,5,8,1:0:0:0:
409,65,301281,1,2,1:0:0:0:
241,263,301417,5,8,1:0:0:0:
309,16,301553,1,2,1:0:0:0:
345,259,301690,5,8,1:0:0:0:
204,41,301826,1,2,1:0:0:0:
411,163,301963,5,8,1:0:0:0:
155,136,302099,1,2,1:0:0:0:
143,321,302235,6,0,B|188:265|188:265|222:303|292:309|306:233,1,210.000008010865,8|0,0:0|0:0,0:0:0:0:
345,67,302644,1,2,0:0:0:0:
345,67,302781,6,2,L|347:182,1,105.000004005432,10|2,1:0|1:0,1:0:0:0:
129,243,303053,2,2,L|129:122,1,105.000004005432,2|2,1:0|1:0,1:0:0:0:
128,79,303326,1,12,0:0:0:0:
299,255,303463,1,2,1:0:0:0:
161,70,303599,1,8,1:0:0:0:
274,266,303735,1,2,1:0:0:0:
330,41,303872,6,0,L|368:144,1,105.000004005432,8|2,1:0|1:0,1:0:0:0:
122,291,304144,2,0,L|162:162,1,105.000004005432,8|2,1:0|1:0,1:0:0:0:
152,131,304417,5,10,1:0:0:0:
347,119,304553,1,2,1:0:0:0:
70,56,304690,5,8,1:0:0:0:
428,190,304826,1,2,1:0:0:0:
194,285,304963,5,10,1:0:0:0:
285,40,305235,5,2,1:0:0:0:
37,117,305508,5,10,0:0:0:0:
38,130,305576,1,0,0:0:0:0:
39,141,305644,1,0,0:0:0:0:
40,152,305713,1,0,0:0:0:0:
41,162,305781,5,0,0:0:0:0:
77,148,305849,1,0,0:0:0:0:
116,145,305917,1,0,0:0:0:0:
157,150,305985,1,0,0:0:0:0:
190,175,306053,1,0,0:0:0:0:
226,177,306122,1,0,0:0:0:0:
266,175,306190,1,0,0:0:0:0:
306,164,306258,1,0,0:0:0:0:
339,173,306326,5,2,0:0:0:0:
340,162,306394,1,0,0:0:0:0:
340,150,306463,1,2,0:0:0:0:
340,137,306531,1,0,0:0:0:0:
339,124,306599,2,0,L|276:127,1,52.5000020027161,2|0,0:0|0:0,0:0:0:0:
163,134,306735,5,0,0:0:0:0:
161,186,306803,1,0,0:0:0:0:
182,233,306872,1,0,0:0:0:0:
222,266,306940,1,0,0:0:0:0:
273,278,307008,1,2,0:0:0:0:
324,267,307076,1,0,0:0:0:0:
364,234,307144,1,0,0:0:0:0:
364,244,307213,1,0,0:0:0:0:
364,252,307281,1,2,0:0:0:0:
364,260,307349,1,0,0:0:0:0:
365,267,307417,2,2,L|268:218,1,105.000004005432
5,22,307690,5,4,1:0:0:0:
144,205,309872,6,0,P|164:132|197:102,1,105.000004005432,8|0,0:0|0:0,0:0:0:0:
338,47,310144,1,0,0:0:0:0:
445,156,310281,2,0,P|420:203|372:231,1,105.000004005432
124,285,310553,5,0,0:0:0:0:
124,285,310690,2,0,P|169:259|224:250,1,105.000004005432
305,26,310963,2,0,L|302:140,1,105.000004005432,12|0,0:0|0:0,0:0:0:0:
301,151,311167,1,0,0:0:0:0:
301,151,311235,1,0,0:0:0:0:
45,207,311372,1,0,0:0:0:0:
299,211,311508,2,0,L|189:206,1,105.000004005432,8|2,0:1|0:1,0:0:0:0:
141,62,311781,5,2,0:0:0:0:
147,72,311849,1,2,0:0:0:0:
163,81,311917,5,2,0:0:0:0:
185,70,311985,1,2,0:0:0:0:
212,67,312053,1,10,0:0:0:0:
240,70,312122,1,0,0:0:0:0:
258,85,312190,5,0,0:0:0:0:
259,86,312258,1,0,0:0:0:0:
288,92,312326,5,2,0:0:0:0:
309,82,312394,1,0,0:0:0:0:
339,78,312463,2,0,P|387:98|392:127,1,52.5000020027161
404,158,312599,6,0,L|336:191,5,52.5000020027161,10|0|2|0|10|0,0:0|0:0|0:0|0:0|0:0|0:0,0:0:0:0:
362,213,313008,1,2,0:0:0:0:
362,213,313076,1,0,0:0:0:0:
362,213,313144,2,0,L|432:200,5,52.5000020027161,10|0|2|0|2|0,0:0|0:0|0:0|0:0|0:0|0:0,0:0:0:0:
440,149,313553,2,2,P|422:254|314:315,1,210.000008010865,0|0,0:0|0:0,1:0:0:0:
166,259,313963,1,0,0:0:0:0:
146,155,314099,5,2,0:0:0:0:
273,318,314235,5,8,0:0:0:0:
231,72,314372,1,2,0:0:0:0:
387,317,314508,1,8,0:0:0:0:
339,48,314644,1,2,0:0:0:0:
215,257,314781,5,8,0:0:0:0:
491,80,314917,2,0,L|433:119,2,52.5000020027161,2|0|2,0:3|0:3|0:3,0:3:0:0:
123,184,315190,5,2,1:0:0:0:
281,64,315326,5,8,0:0:0:0:
148,301,315463,1,2,0:0:0:0:
401,97,315599,1,8,0:0:0:0:
251,341,315735,1,2,0:0:0:0:
400,273,315872,5,8,0:0:0:0:
281,64,316008,2,0,L|315:128,2,52.5000020027161,2|0|2,0:3|0:3|0:0,0:3:0:0:
400,273,316281,5,2,0:0:0:0:
191,63,316417,5,8,0:0:0:0:
274,299,316553,1,2,0:0:0:0:
72,119,316690,1,8,0:0:0:0:
158,334,316826,1,2,0:0:0:0:
179,47,316963,5,8,0:0:0:0:
376,279,317099,2,0,L|322:215,2,62.9999980773926,2|0|2,0:0|0:0|0:0,0:0:0:0:
171,54,317372,5,2,0:0:0:0:
158,334,317508,1,8,0:0:0:0:
279,52,317644,1,2,0:0:0:0:
282,336,317781,1,8,0:0:0:0:
403,66,317917,1,2,0:0:0:0:
400,338,318053,5,10,0:0:0:0:
207,167,318190,2,0,L|295:172,1,62.9999980773926,8|0,0:0|0:0,0:0:0:0:
426,236,318326,2,2,L|387:285,3,62.9999980773926,2|2|2|2,3:0|3:0|3:0|3:0,3:0:0:0:
282,336,318599,5,12,0:3:0:0:
130,281,318735,1,0,0:3:0:0:
331,202,318872,2,0,L|273:189,1,52.5000020027161,2|0,0:3|0:3,0:3:0:0:
124,136,319008,1,0,0:3:0:0:
324,42,319144,5,8,0:3:0:0:
326,67,319235,1,0,0:3:0:0:
325,94,319326,1,0,0:3:0:0:
290,178,319417,5,8,0:3:0:0:
256,202,319508,1,0,0:3:0:0:
215,206,319599,1,0,0:3:0:0:
124,136,319690,6,0,P|172:123|210:137,2,70.0000026702882,8|0|0,0:3|0:3|0:3,0:3:0:0:
426,205,319963,2,0,P|397:191|349:212,2,70.0000026702882,8|0|0,0:3|0:3|0:3,0:3:0:0:
195,348,320235,5,8,0:3:0:0:
208,303,320326,1,0,0:3:0:0:
214,264,320417,1,0,0:3:0:0:
194,197,320508,5,8,0:3:0:0:
190,148,320599,1,0,0:3:0:0:
225,106,320690,1,0,0:3:0:0:
267,72,320781,5,8,0:3:0:0:
231,143,320872,2,0,L|154:150,1,70.0000026702882,0|0,0:3|0:3,0:3:0:0:
267,57,321053,1,8,0:3:0:0:
308,189,321144,2,0,L|398:189,1,70.0000026702882,0|0,0:3|0:3,0:3:0:0:
267,44,321326,1,8,0:3:0:0:
233,258,321417,2,0,L|145:258,1,70.0000026702882,0|0,0:3|0:3,0:3:0:0:
265,32,321599,1,8,0:3:0:0:
304,312,321690,2,0,L|382:308,1,70.0000026702882,0|0,0:3|0:3,0:3:0:0:
421,56,321872,6,0,P|406:101|416:128,2,70.0000026702882,8|0|0,0:3|0:3|0:3,0:3:0:0:
170,124,322144,2,0,P|189:170|158:207,2,70.0000026702882,8|0|0,0:3|0:3|0:3,0:3:0:0:
214,331,322417,1,8,0:3:0:0:
214,331,322463,1,0,0:3:0:0:
214,331,322508,1,0,0:3:0:0:
214,331,322553,5,0,0:0:0:0:
313,152,322690,6,0,L|309:308,1,154.000004699707
117,237,322963,6,0,L|141:156,7,62.9999980773926,10|0|8|2|8|0|10|0,0:0|0:0|0:0|0:0|0:0|0:0|0:0|0:0,0:0:0:0:
95,176,323508,6,0,B|127:143|134:107|134:107|164:137,1,62.9999980773926,2|0,0:0|0:0,0:0:0:0:
68,153,323644,2,0,P|102:91|99:80,1,62.9999980773926,2|0,0:0|0:0,0:0:0:0:
50,116,323781,2,0,B|90:56|91:37|91:37|135:77|165:89,1,125.999996154785,10|0,0:0|0:0,0:0:0:0:
246,122,324053,5,10,0:0:0:0:
246,122,324122,1,0,0:0:0:0:
246,122,324190,1,8,0:0:0:0:
246,122,324258,1,0,0:0:0:0:
246,122,324326,2,8,P|250:213|239:293,1,125.999996154785
382,299,324599,2,0,L|331:156,1,125.999996154785
80,44,324872,2,0,L|80:181,1,125.999996154785
75,199,325076,1,0,0:0:0:0:
80,206,325144,5,6,0:0:0:0:
194,301,325280,1,0,0:0:0:0:
194,301,325348,1,0,0:0:0:0:
194,301,325417,5,2,0:0:0:0:
214,339,325485,1,0,0:0:0:0:
273,324,325553,1,0,0:0:0:0:
276,261,325621,1,0,0:0:0:0:
270,199,325689,1,8,0:0:0:0:
281,137,325757,1,0,0:0:0:0:
330,101,325826,1,2,0:0:0:0:
389,117,325894,1,0,0:0:0:0:
424,153,325963,6,0,L|361:145,3,62.9999980773926,8|0|8|0,0:0|0:0|0:0|0:0,0:0:0:0:
345,40,326235,2,0,B|295:71|295:71|273:54|258:95|218:92|218:92|179:62|117:102,1,251.999992309571,12|0,0:0|0:0,0:0:0:0:
242,248,326644,1,0,0:0:0:0:
242,248,326781,2,2,B|215:179|269:125|215:65|215:65|192:98|201:135,1,251.999992309571
100,122,327326,6,0,L|256:101,1,125.999996154785,10|0,0:0|0:0,0:0:0:0:
349,243,327599,2,0,L|214:273,1,125.999996154785,8|0,0:0|0:0,0:0:0:0:
115,243,327872,1,10,0:0:0:0:
315,156,328008,1,0,0:0:0:0:
118,202,328144,1,8,0:0:0:0:
313,119,328281,1,0,0:0:0:0:
116,58,328417,6,0,L|209:187,1,157.500006008148,10|0,0:0|0:0,0:0:0:0:
152,72,328690,2,0,L|238:214,1,157.500006008148,10|0,0:0|0:0,0:0:0:0:
194,87,328963,2,0,L|287:253,1,157.500006008148,10|0,0:0|0:0,0:0:0:0:
271,255,329235,5,10,0:0:0:0:
404,215,329372,1,2,0:0:0:0:
210,180,329508,5,12,0:0:0:0:
434,111,329644,1,2,0:0:0:0:
171,33,329781,2,2,L|126:142,1,105.000004005432
258,224,330053,2,0,L|290:216,1,26.2500010013581,8|0,0:0|0:0,0:0:0:0:
390,266,330190,2,0,L|356:258,1,26.2500010013581,2|0,0:0|0:0,0:0:0:0:
324,314,330326,2,0,B|295:264|352:224|306:165,1,140,2|0,0:0|0:0,0:0:0:0:
122,138,330599,5,10,0:0:0:0:
373,117,330735,1,0,0:0:0:0:
122,138,330872,2,2,P|158:189|205:225,1,105.000004005432
339,299,331144,5,8,0:0:0:0:
339,299,331213,1,0,0:0:0:0:
367,315,331281,5,8,0:0:0:0:
367,315,331349,1,0,0:0:0:0:
391,309,331417,5,8,0:0:0:0:
391,309,331485,1,0,0:0:0:0:
421,310,331553,5,0,0:0:0:0:
361,135,331690,5,10,0:0:0:0:
221,314,331826,1,0,0:0:0:0:
145,88,331963,1,8,0:0:0:0:
221,314,332099,1,0,0:0:0:0:
152,98,332235,1,2,0:0:0:0:
221,314,332372,2,0,L|329:225,1,105.000004005432,2|8,0:0|0:0,0:0:0:0:
371,90,332644,5,0,0:0:0:0:
94,193,332781,6,0,L|228:145,1,105.000004005432,10|0,0:0|0:0,0:0:0:0:
200,76,333053,1,2,0:0:0:0:
152,279,333190,1,0,0:0:0:0:
112,59,333326,1,10,0:0:0:0:
230,289,333463,1,0,0:0:0:0:
112,59,333599,2,0,L|169:175,1,105.000004005432,2|0,0:0|0:0,0:0:0:0:
389,96,333872,5,2,0:0:0:0:
343,286,334008,1,0,0:0:0:0:
359,119,334144,1,8,0:0:0:0:
438,308,334281,1,0,0:0:0:0:
93,157,334417,6,0,P|181:159|183:159,1,52.5000020027161,10|0,0:0|0:0,0:0:0:0:
343,244,334553,2,0,L|284:241,1,52.5000020027161,2|0,0:0|0:0,0:0:0:0:
70,142,334690,2,0,L|151:138,1,52.5000020027161,10|0,0:0|0:0,0:0:0:0:
353,280,334826,2,0,L|280:271,1,52.5000020027161,2|0,0:0|0:0,0:0:0:0:
148,278,334963,6,0,B|171:244|171:244|148:225|148:225|165:188|165:188|141:161,1,140,4|4,0:0|0:3,0:0:0:0:
256,192,335303,12,0,336053,0:0:0:0:
128,234,336872,5,8,0:0:0:0:
272,78,337144,5,8,0:0:0:0:
358,319,337281,1,2,1:0:0:0:
325,124,339326,5,8,0:0:0:0:
70,220,339463,1,0,0:0:0:0:
325,124,339599,2,0,L|215:101,1,105.000004005432,2|0,1:0|0:0,0:0:0:0:
70,220,339872,2,0,L|173:245,1,105.000004005432
431,74,340144,6,0,L|425:198,1,105.000004005432
181,233,340417,1,8,0:0:0:0:
424,176,340553,1,0,0:0:0:0:
192,338,340690,2,0,L|181:228,1,105.000004005432,8|0,0:0|0:0,0:0:0:0:
189,52,340963,6,0,B|275:100|275:100|324:107|324:107|390:144,1,210.000008010865,2|0,0:0|0:0,0:0:0:0:
131,274,341508,2,0,P|181:215|228:196,1,127.049999612274,8|0,0:0|0:0,0:0:0:0:
287,176,342326,5,2,1:0:0:0:
287,176,342463,1,2,1:0:0:0:
186,333,342599,5,8,0:0:0:0:
129,78,342735,1,2,1:0:0:0:
129,78,343144,6,8,P|90:118|121:190,1,105.000004005432,8|8,1:0|1:0,1:0:0:0:
88,268,343690,5,6,0:3:0:0:
119,295,343758,1,0,0:0:0:0:
155,316,343826,1,0,0:0:0:0:
195,330,343894,1,0,0:0:0:0:
236,336,343963,1,0,0:0:0:0:
278,334,344031,1,0,0:0:0:0:
319,324,344099,1,0,0:0:0:0:
357,306,344167,1,0,0:0:0:0:
391,281,344235,5,2,0:0:0:0:
106,96,344372,1,0,0:0:0:0:
402,73,344508,2,0,L|278:94,1,105.000004005432,2|0,1:0|0:0,0:0:0:0:
307,212,344781,5,8,0:0:0:0:
184,121,344917,1,0,0:0:0:0:
188,264,345053,5,8,0:0:0:0:
313,96,345190,1,0,0:0:0:0:
83,176,345326,5,8,0:0:0:0:
292,315,345463,1,0,0:0:0:0:
132,16,345599,5,10,0:0:0:0:
361,227,345735,1,0,0:0:0:0:
74,333,345872,5,10,0:0:0:0:
254,38,346008,1,0,0:0:0:0:
465,182,346144,2,0,L|339:190,1,105.000004005432,8|0,0:0|0:0,0:0:0:0:
81,130,346417,2,2,L|210:129,1,105.000004005432
337,315,346690,5,2,0:0:0:0:
391,287,346758,1,0,0:0:0:0:
418,238,346826,1,0,0:0:0:0:
417,181,346894,1,0,0:0:0:0:
404,124,346963,2,0,L|261:119,1,105.000004005432,2|0,0:0|0:0,0:0:0:0:
109,42,347235,6,0,P|104:124|118:205,1,157.500006008148
134,216,347508,1,8,0:0:0:0:
368,180,347644,1,0,0:0:0:0:
204,330,347781,1,8,0:0:0:0:
246,66,347917,1,0,0:0:0:0:
368,345,348053,6,0,B|386:279|386:279|386:223,1,105.000004005432,2|0,0:0|0:0,0:0:0:0:
436,80,348326,2,0,B|368:19|267:68,1,157.500006008148,8|0,0:0|0:0,0:0:0:0:
193,67,348599,5,2,0:0:0:0:
171,83,348667,1,2,0:0:0:0:
152,104,348735,1,2,0:0:0:0:
134,120,348803,1,2,0:0:0:0:
115,135,348872,1,2,0:0:0:0:
97,151,348940,1,2,0:0:0:0:
78,168,349008,2,0,B|104:224|179:219,1,105.000004005432,2|8,0:0|0:0,0:0:0:0:
358,93,349417,6,0,L|357:212,1,105.000004005432,8|0,0:0|0:0,0:0:0:0:
89,291,349690,2,0,P|79:206|110:185,1,105.000004005432,8|0,0:0|0:0,0:0:0:0:
195,227,349963,2,0,P|201:165|174:113,1,105.000004005432,8|0,0:0|0:0,0:0:0:0:
80,120,350235,5,8,0:0:0:0:
405,84,350508,5,0,0:0:0:0:
219,261,350781,5,2,0:0:0:0:
219,261,350849,1,0,0:0:0:0:
219,261,350917,1,2,0:0:0:0:
219,261,350985,1,0,0:0:0:0:
219,261,351053,2,0,L|219:175,3,52.5000020027161,2|0|2|0,0:0|0:0|0:0|0:0,0:0:0:0:
168,180,351326,5,8,0:0:0:0:
168,180,351463,1,0,0:0:0:0:
396,240,351599,5,8,0:0:0:0:
396,240,351735,1,0,0:0:0:0:
313,60,351872,5,4,0:0:0:0:
99,299,352417,6,0,L|113:190,1,105.000004005432,10|0,0:0|0:0,0:0:0:0:
296,197,352690,1,2,0:0:0:0:
159,84,352826,1,0,0:0:0:0:
340,40,352963,2,0,P|426:56|436:103,1,105.000004005432,8|0,0:0|0:0,0:0:0:0:
420,130,353235,5,0,0:0:0:0:
288,304,353372,1,0,0:0:0:0:
144,118,353508,2,0,P|132:173|149:228,1,105.000004005432,10|8,0:0|0:0,0:0:0:0:
22,150,353781,5,2,0:0:0:0:
310,187,353917,1,0,0:0:0:0:
47,292,354053,1,2,0:0:0:0:
312,82,354190,5,0,0:0:0:0:
312,82,354326,2,0,L|309:222,1,105.000004005432,8|0,0:0|0:0,0:0:0:0:
117,62,354599,2,0,L|115:190,1,105.000004005432,8|0,0:0|0:0,0:0:0:0:
291,338,354872,2,0,L|291:200,1,105.000004005432,8|0,0:0|0:0,0:0:0:0:
297,60,355144,5,2,0:0:0:0:
297,60,355213,1,0,0:0:0:0:
297,60,355281,1,0,0:0:0:0:
231,267,355417,5,2,0:0:0:0:
159,32,355553,1,0,0:0:0:0:
64,318,355690,2,0,L|71:203,1,105.000004005432,10|0,0:0|0:0,0:0:0:0:
76,129,355894,1,0,0:0:0:0:
76,129,355963,5,8,0:0:0:0:
394,209,356099,1,0,0:0:0:0:
78,241,356235,5,8,0:0:0:0:
386,291,356372,1,0,0:0:0:0:
64,318,356508,6,0,L|168:302,1,105.000004005432,10|0,0:0|0:0,0:0:0:0:
420,47,356781,6,0,L|401:167,1,105.000004005432,2|0,0:0|0:0,0:0:0:0:
386,291,356985,1,0,0:0:0:0:
386,291,357053,1,2,0:0:0:0:
241,75,357190,1,0,0:0:0:0:
239,333,357326,1,2,0:0:0:0:
344,105,357463,1,0,0:0:0:0:
103,252,357599,5,10,0:0:0:0:
103,252,357667,1,0,0:0:0:0:
103,252,357735,2,0,B|143:299|143:299|201:217|278:236,1,210.000008010865,2|0,0:0|0:0,0:0:0:0:
447,113,358144,6,0,L|320:112,1,105.000004005432,10|0,0:0|0:0,0:0:0:0:
109,74,358417,1,2,0:0:0:0:
407,255,358553,2,0,L|284:253,1,105.000004005432,2|8,0:0|0:0,0:0:0:0:
149,222,358826,1,2,0:0:0:0:
141,327,358963,6,0,L|151:200,1,105.000004005432,8|0,0:0|0:0,0:0:0:0:
179,85,359235,1,0,0:0:0:0:
285,321,359372,6,0,B|287:277|287:277|310:245|310:245|310:177,1,105.000004005432,10|0,0:0|0:0,0:0:0:0:
325,103,359644,1,0,0:0:0:0:
325,103,359781,1,8,0:0:0:0:
406,241,359917,1,4,0:0:0:0:
406,241,359985,1,0,0:0:0:0:
362,278,360053,5,0,0:0:0:0:
300,270,360121,1,0,0:0:0:0:
242,249,360189,1,0,0:0:0:0:
180,232,360257,1,0,0:0:0:0:
121,265,360325,1,0,0:0:0:0:
154,318,360393,1,0,0:0:0:0:
220,307,360462,1,0,0:0:0:0:
237,244,360530,1,0,0:0:0:0:
230,192,360599,6,0,P|226:150|206:117,3,52.5000020027161,8|0|0|0,0:0|0:0|0:0|0:0,0:0:0:0:
351,69,360872,2,0,P|345:112|352:157,3,52.5000020027161,8|0|8|0,0:0|0:0|0:0|0:0,0:0:0:0:
391,310,361144,2,0,L|384:183,1,105.000004005432,10|0,0:0|0:0,0:0:0:0:
449,53,361417,2,0,P|364:59|334:96,1,105.000004005432,8|0,0:0|0:0,0:0:0:0:
282,266,361690,5,8,0:0:0:0:
103,202,361826,1,2,0:0:0:0:
282,114,361963,5,8,0:0:0:0:
45,208,362099,1,2,0:0:0:0:
292,276,362235,2,0,P|374:254|405:215,1,105.000004005432,10|0,0:0|0:0,0:0:0:0:
439,44,362508,6,0,L|415:165,1,105.000004005432,8|0,0:0|0:0,0:0:0:0:
375,290,362781,1,8,0:0:0:0:
236,70,362917,1,2,0:0:0:0:
228,339,363053,2,0,L|235:229,1,105.000004005432,8|0,0:0|0:0,0:0:0:0:
147,224,363326,5,10,0:0:0:0:
369,148,363463,1,2,0:0:0:0:
86,73,363599,2,0,L|73:196,1,105.000004005432,8|0,0:0|0:0,0:0:0:0:
346,283,363872,5,8,0:0:0:0:
74,177,364008,1,2,0:0:0:0:
369,148,364144,1,8,0:0:0:0:
92,320,364281,2,0,P|78:285|96:258,1,52.5000020027161,2|0,0:0|0:0,0:0:0:0:
122,281,364417,6,0,L|257:268,1,105.000004005432,8|0,0:0|0:0,0:0:0:0:
432,229,364690,2,0,L|337:150,1,105.000004005432,2|0,0:0|0:0,0:0:0:0:
379,72,364963,2,0,P|304:68|238:145,1,157.500006008148,8|0,0:0|0:0,0:0:0:0:
244,148,365235,1,0,0:0:0:0:
244,148,365372,1,0,0:0:0:0:
100,262,365508,5,10,0:0:0:0:
378,253,365644,1,2,0:0:0:0:
100,262,365781,1,8,0:0:0:0:
220,336,365917,2,0,P|295:343|366:313,1,105.000004005432,2|0,0:0|0:0,0:0:0:0:
173,123,366190,2,0,B|173:192|173:192|198:241,1,105.000004005432,2|0,0:0|0:0,0:0:0:0:
333,134,366463,2,0,L|329:66,1,52.5000020027161,2|0,0:0|0:0,0:0:0:0:
370,66,366599,6,0,P|309:47|263:81,1,105.000004005432,8|2,0:0|0:0,0:0:0:0:
298,227,366872,1,2,0:0:0:0:
298,227,366940,1,0,0:0:0:0:
298,227,367008,1,0,0:0:0:0:
165,305,367144,6,0,L|151:197,1,105.000004005432,8|0,0:0|0:0,0:0:0:0:
393,304,367417,2,0,L|396:192,1,105.000004005432,2|0,0:0|0:0,0:0:0:0:
163,112,367690,5,8,0:0:0:0:
248,203,367826,1,0,0:0:0:0:
284,80,367963,1,2,0:0:0:0:
120,226,368099,5,8,0:0:0:0:
361,169,368235,1,0,0:0:0:0:
193,12,368372,1,8,0:0:0:0:
312,317,368508,2,0,L|299:193,1,105.000004005432,2|12,0:0|0:0,0:0:0:0:
119,73,368917,5,2,0:3:0:0:
115,98,368985,1,0,0:3:0:0:
113,124,369053,2,0,P|156:132|196:123,1,52.5000020027161,0|0,0:3|0:3,0:3:0:0:
357,221,369190,1,2,0:3:0:0:
360,192,369258,1,0,0:3:0:0:
359,167,369326,2,0,P|326:159|301:169,1,52.5000020027161,0|0,0:3|0:3,0:3:0:0:
224,80,369463,1,0,0:3:0:0:
225,168,369531,1,0,0:3:0:0:
224,253,369599,5,8,0:3:0:0:
148,296,369872,6,0,B|167:244|167:244|191:276|224:265|224:265|241:276|241:276|240:274|240:274,1,125.999996154785,4|0,1:0|0:0,0:0:0:0:
347,181,370690,1,0,0:0:0:0:
347,181,370963,2,0,B|316:195|311:207|311:207|287:194|258:197|258:197,1,83.9999974365235
275,98,371781,5,0,0:0:0:0:
275,98,372053,2,0,P|327:107|335:219,1,167.999994873047,8|0,2:0|0:2,0:0:0:0:
107,296,372872,2,8,L|116:200,1,83.9999974365235,8|12,2:0|2:0,2:0:0:0:
338,282,373690,5,0,0:0:0:0:
319,91,373963,5,0,0:0:0:0:
319,91,374235,2,0,B|264:123|264:123|234:125|234:125|196:143,2,125.999996154785,2|2|2,0:0|0:0|0:0,0:0:0:0:
141,283,375326,6,0,P|204:291|236:278,1,83.9999974365235,8|4,2:0|2:0,2:0:0:0:
387,51,375735,2,0,L|376:185,1,125.999996154785
168,237,376417,6,0,B|240:226|282:241|282:241|291:200|245:195|245:195,1,167.999994873047,4|0,1:0|0:0,0:0:0:0:
221,124,377235,5,0,0:0:0:0:
221,124,377508,2,0,B|153:113|153:113|104:117|104:117|55:105,1,167.999994873047,2|0,2:0|0:0,0:0:0:0:
342,320,378326,5,0,0:0:0:0:
342,320,378599,2,0,P|275:305|228:266,1,115.50000352478,4|0,0:0|0:0,0:0:0:0:
101,55,379417,6,0,L|113:84,1,19.2500005874634
173,74,379553,2,0,L|160:103,1,19.2500005874634
138,116,379690,2,0,B|167:170|169:212|137:232|118:282|160:323|222:323|276:310|236:222,1,315.000012016297,8|0,0:0|0:0,0:0:0:0:
368,57,380781,6,0,L|415:223,2,157.500006008148,4|0|0,1:0|0:0|0:0,0:0:0:0:
302,303,381872,2,0,L|309:187,1,105.000004005432,8|4,0:2|2:0,0:0:0:0:
218,43,382417,5,0,0:0:0:0:
96,293,382690,5,0,0:0:0:0:
96,293,382963,2,0,P|168:291|228:230,2,157.500006008148,10|0|0,0:0|0:0|0:0,0:0:0:0:
109,63,384053,6,0,L|134:224,1,157.500006008148,6|0,0:0|0:0,0:0:0:0:
263,73,384872,5,0,0:0:0:0:
263,73,385144,2,0,L|248:242,1,157.500006008148,4|0,1:0|0:0,0:0:0:0:
412,338,386235,2,0,L|331:129,1,210.000008010865,8|4,2:0|2:0,0:0:0:0:
59,234,387326,5,0,0:0:0:0:
59,234,388417,6,0,L|217:280,1,146.999995513916,12|0,0:0|0:0,0:0:0:0:
59,234,388963,6,0,L|279:298,1,210.000008010865,12|0,0:0|0:0,0:0:0:0:
370,303,389508,6,0,P|345:224|351:196,1,83.9999974365235,8|0,0:0|0:0,0:0:0:0:
381,280,389690,2,0,P|374:221|380:186,1,83.9999974365235,8|0,0:0|0:0,0:0:0:0:
398,257,389872,2,0,P|400:186|417:164,1,83.9999974365235,8|0,0:0|0:0,0:0:0:0:
387,69,390053,6,0,L|369:164,1,83.9999974365235,8|0,0:0|0:0,0:0:0:0:
344,102,390235,2,0,L|323:196,1,83.9999974365235,8|0,0:0|0:0,0:0:0:0:
306,125,390417,2,0,L|284:221,1,83.9999974365235,8|0,0:0|0:0,0:0:0:0:
85,238,390599,6,0,P|147:252|170:239,5,83.9999974365235,12|0|0|0|0|0,3:0|0:0|0:0|0:0|0:0|0:0,0:0:0:0:
229,176,391144,2,0,P|179:149|130:156,5,83.9999974365235,12|0|0|0|0|0,3:0|0:0|0:0|0:0|0:0|0:0,0:0:0:0:
379,325,391690,6,0,B|346:214|426:158|375:49,1,251.999992309571,12|0,0:0|0:0,0:0:0:0:
346,48,392053,6,0,P|303:86|254:87,1,83.9999974365235,8|0,0:0|0:0,0:0:0:0:
310,56,392235,2,0,P|248:83|216:70,1,83.9999974365235,8|0,0:0|0:0,0:0:0:0:
270,57,392417,6,0,P|225:54|173:98,1,83.9999974365235,8|0,0:0|0:0,0:0:0:0:
211,48,392599,2,0,P|176:92|196:149,1,83.9999974365235,8|0,0:0|0:0,0:0:0:0:
204,232,392781,6,0,L|209:117,5,83.9999974365235,12|0|0|0|0|0,0:0|0:0|0:0|0:0|0:0|0:0,0:0:0:0:
393,157,393326,2,0,P|424:260|274:280,1,293.999991027832,12|0,0:0|0:0,0:0:0:0:
197,226,393690,2,0,L|256:167,1,83.9999974365235,12|0,0:0|0:0,0:0:0:0:
284,80,393872,6,0,L|162:83,1,83.9999974365235,12|0,0:0|0:0,0:0:0:0:
147,89,394053,2,0,P|114:148|127:191,1,83.9999974365235,8|0,0:0|0:0,0:0:0:0:
190,153,394235,2,0,B|199:218|168:254|168:253,1,83.9999974365235,8|0,0:0|0:0,0:0:0:0:
101,242,394417,6,0,P|142:285|196:290,1,83.9999974365235,8|0,0:0|0:0,0:0:0:0:
130,243,394599,2,0,P|177:270|230:270,1,83.9999974365235,8|0,0:0|0:0,0:0:0:0:
158,247,394781,2,0,P|216:258|250:249,1,83.9999974365235,8|0,0:0|0:0,0:0:0:0:
311,158,394963,6,0,L|297:262,5,83.9999974365235,12|0|0|0|0|0,0:0|0:0|0:0|0:0|0:0|0:0,0:0:0:0:
363,111,395508,2,0,L|392:198,5,83.9999974365235,12|0|0|0|0|0,0:0|0:0|0:0|0:0|0:0|0:0,0:0:0:0:
322,66,396053,6,0,B|273:38|212:100|211:100,1,83.9999974365235,8|0,0:0|0:0,0:0:0:0:
279,141,396235,2,0,P|220:172|178:147,1,83.9999974365235,8|0,0:0|0:0,0:0:0:0:
174,92,396417,2,0,P|126:124|124:170,1,83.9999974365235,8|0,0:0|0:0,0:0:0:0:
131,254,396599,6,0,L|159:160,1,83.9999974365235,8|0,0:0|0:0,0:0:0:0:
166,300,396781,2,0,L|193:199,1,83.9999974365235,8|0,0:0|0:0,0:0:0:0:
205,353,396963,2,0,L|225:253,1,83.9999974365235,8|0,0:0|0:0,0:0:0:0:
361,290,397144,6,0,P|330:235|288:223,5,83.9999974365235,12|0|0|0|0|0,0:0|0:0|0:0|0:0|0:0|0:0,0:0:0:0:
241,188,397690,6,0,P|296:144|364:165,1,125.999996154785,8|0,0:0|0:0,0:0:0:0:
346,124,397872,2,0,P|297:106|226:150,1,125.999996154785,8|0,0:0|0:0,0:0:0:0:
218,121,398053,2,0,P|260:75|342:80,1,125.999996154785,8|0,0:0|0:0,0:0:0:0:
366,80,398235,5,4,0:0:0:0:
401,112,398326,1,0,0:0:0:0:
424,160,398417,1,0,0:0:0:0:
421,215,398508,1,0,0:0:0:0:
402,262,398599,2,0,P|350:305|306:303,1,58.3333333333333
278,318,398781,5,12,0:0:0:0:
228,310,398872,1,0,0:0:0:0:
176,288,398963,1,0,0:0:0:0:
130,245,399053,1,0,0:0:0:0:
106,197,399122,2,0,L|144:125,1,58.3333333333333
231,56,399326,5,12,0:0:0:0:
261,88,399417,1,0,0:0:0:0:
291,122,399508,1,0,0:0:0:0:
322,152,399599,1,0,0:0:0:0:
347,192,399690,2,0,L|309:264,1,58.3333333333333
55,320,399872,6,0,L|68:219,1,87.5,8|0,0:0|0:0,0:0:0:0:
100,211,400053,2,0,L|129:312,1,87.5,8|0,0:0|0:0,0:0:0:0:
174,322,400235,2,0,L|189:218,1,87.5,8|0,0:0|0:0,0:0:0:0:
203,210,400417,5,12,0:0:0:0:
203,210,400508,1,0,0:0:0:0:
203,210,400599,1,0,0:0:0:0:
203,210,400690,1,0,0:0:0:0:
203,210,400758,2,0,P|229:157|243:142,1,58.3333333333333
279,72,400963,5,8,0:0:0:0:
294,54,401053,1,0,0:0:0:0:
319,43,401144,1,8,0:0:0:0:
345,44,401235,1,0,0:0:0:0:
366,54,401303,2,0,P|399:85|394:117,1,58.3333333333333,8|0,0:0|0:0,0:0:0:0:
388,174,401508,5,12,0:0:0:0:
387,233,401599,1,0,0:0:0:0:
368,289,401690,1,0,0:0:0:0:
324,326,401781,1,0,0:0:0:0:
272,339,401849,2,0,P|232:350|196:348,1,58.3333333333333
190,307,402053,5,8,0:0:0:0:
190,294,402144,1,0,0:0:0:0:
192,280,402235,1,0,0:0:0:0:
194,267,402326,1,0,0:0:0:0:
197,252,402417,1,0,0:0:0:0:
201,237,402508,1,0,0:0:0:0:
213,220,402599,5,12,0:0:0:0:
190,176,402690,1,0,0:0:0:0:
165,130,402781,1,0,0:0:0:0:
168,80,402872,1,0,0:0:0:0:
190,35,402963,1,0,0:0:0:0:
245,29,403053,1,0,0:0:0:0:
283,49,403144,5,8,0:0:0:0:
291,58,403235,1,0,0:0:0:0:
299,67,403326,1,0,0:0:0:0:
306,78,403417,1,0,0:0:0:0:
312,90,403508,1,0,0:0:0:0:
316,104,403599,1,0,0:0:0:0:
319,117,403690,6,0,L|264:177,5,58.3333333333333,12|0|0|0|0|0,0:0|0:0|0:0|0:0|0:0|0:0,0:0:0:0:
280,211,404235,6,0,P|260:287|248:298,1,87.5,8|0,0:0|0:0,0:0:0:0:
229,282,404417,2,0,P|244:246|242:193,1,87.5,8|0,0:0|0:0,0:0:0:0:
190,184,404599,2,0,P|193:239|181:281,1,87.5,8|0,0:0|0:0,0:0:0:0:
140,283,404781,5,12,0:0:0:0:
140,283,404872,1,0,0:0:0:0:
140,283,404963,1,0,0:0:0:0:
140,283,405053,1,0,0:0:0:0:
140,283,405144,2,0,L|106:225,1,58.3333333333333
226,83,405326,5,8,0:0:0:0:
258,109,405417,1,0,0:0:0:0:
293,126,405508,1,0,0:0:0:0:
334,128,405599,2,0,L|393:106,2,58.3333333333333
367,308,405872,6,0,P|322:289|290:255,1,87.5,12|0,0:0|0:0,0:0:0:0:
371,266,406053,2,0,P|304:227|282:238,1,87.5
266,253,406235,2,0,P|250:290|196:298,2,87.5
25,355,406599,6,0,L|46:285,1,58.3333333333333,12|0,0:0|0:0,0:0:0:0:
139,302,406781,2,0,L|165:225,1,58.3333333333333,12|0,0:0|0:0,0:0:0:0:
72,185,406963,6,0,L|95:118,1,58.3333333333333,12|0,0:0|0:0,0:0:0:0:
57,42,407144,2,0,P|109:15|135:17,1,58.3333333333333,8|0,0:0|0:0,0:0:0:0:
200,64,407326,2,0,P|248:46|272:60,1,58.3333333333333,8|0,0:0|0:0,0:0:0:0:
265,145,407508,6,0,P|336:151|336:151,1,58.3333333333333,8|0,0:0|0:0,0:0:0:0:
448,166,407690,2,0,L|407:236,1,58.3333333333333,8|0,0:0|0:0,0:0:0:0:
265,309,407872,2,0,L|289:243,1,58.3333333333333,8|0,0:0|0:0,0:0:0:0:
413,295,408053,6,0,P|383:330|353:327,5,58.3333333333333,12|0|0|0|0|0,0:0|0:0|0:0|0:0|0:0|0:0,0:0:0:0:
189,307,408599,2,0,P|220:281|247:284,5,58.3333333333333,12|0|0|0|8|0,0:0|0:0|0:0|0:0|0:0|0:0,0:0:0:0:
451,261,409144,6,0,L|371:253,1,58.3333333333333,12|0,0:0|0:0,0:0:0:0:
212,191,409326,2,0,L|286:193,1,58.3333333333333,8|0,0:0|0:0,0:0:0:0:
367,71,409508,2,0,L|293:80,1,58.3333333333333,8|0,0:0|0:0,0:0:0:0:
170,33,409690,6,0,P|207:108|207:108,1,58.3333333333333,8|0,0:0|0:0,0:0:0:0:
53,105,409872,2,0,P|81:167|81:167,1,58.3333333333333,8|0,0:0|0:0,0:0:0:0:
179,167,410053,2,0,L|202:239,1,58.3333333333333,8|0,0:0|0:0,0:0:0:0:
245,322,410235,6,0,L|268:249,5,58.3333333333333,12|0|0|0|0|0,0:0|0:0|0:0|0:0|0:0|0:0,0:0:0:0:
335,311,410781,2,0,P|398:212|334:165,1,204.166666666667,12|0,0:0|0:0,0:0:0:0:
299,184,411144,2,0,L|281:107,1,58.3333333333333,12|0,0:0|0:0,0:0:0:0:
200,72,411326,6,0,P|159:89|147:119,3,58.3333333333333,12|0|0|0,0:0|0:0|0:0|0:0,0:0:0:0:
67,138,411690,6,0,L|76:214,1,58.3333333333333,8|0,0:0|0:0,0:0:0:0:
205,206,411872,2,0,L|213:271,1,58.3333333333333,8|0,0:0|0:0,0:0:0:0:
122,298,412053,2,0,L|141:373,1,58.3333333333333,8|0,0:0|0:0,0:0:0:0:
288,344,412235,2,0,L|295:259,1,58.3333333333333,8|0,0:0|0:0,0:0:0:0:
201,143,412417,6,0,L|269:180,5,58.3333333333333,12|0|0|0|0|0,0:0|0:0|0:0|0:0|0:0|0:0,0:0:0:0:
451,238,412963,2,0,L|420:167,5,58.3333333333333,12|0|0|0|0|0,0:0|0:0|0:0|0:0|0:0|0:0,0:0:0:0:
318,56,413508,6,0,P|279:53|261:67,1,58.3333333333333,12|0,0:0|0:0,0:0:0:0:
226,177,413690,2,0,P|262:161|289:172,1,58.3333333333333,8|0,0:0|0:0,0:0:0:0:
332,252,413872,2,0,P|289:255|278:269,1,58.3333333333333,8|0,0:0|0:0,0:0:0:0:
215,339,414053,6,0,L|180:267,1,58.3333333333333,8|0,0:0|0:0,0:0:0:0:
57,286,414235,2,0,L|74:219,1,58.3333333333333,8|0,0:0|0:0,0:0:0:0:
185,219,414417,2,0,L|162:158,1,58.3333333333333,8|0,0:0|0:0,0:0:0:0:
98,29,414599,6,0,L|93:95,5,58.3333333333333,12|0|0|0|0|0,0:0|0:0|0:0|0:0|0:0|0:0,0:0:0:0:
191,161,415144,6,0,B|251:169|271:134,1,87.5,8|0,0:0|0:0,0:0:0:0:
230,131,415326,2,0,P|253:94|316:106,1,87.5,8|0,0:0|0:0,0:0:0:0:
354,127,415485,2,0,B|304:119|273:152,1,87.5,8|0,0:0|0:0,0:0:0:0:
273,228,415690,5,8,0:0:0:0:
273,228,415781,1,0,0:0:0:0:
273,228,415872,1,0,0:0:0:0:
273,228,415963,1,0,0:0:0:0:
273,228,416031,2,0,L|198:257,1,58.3333333333333
112,233,416235,5,8,0:0:0:0:
114,207,416326,1,0,0:0:0:0:
112,185,416417,1,0,0:0:0:0:
108,163,416508,1,0,0:0:0:0:
102,142,416576,2,0,P|97:98|118:71,1,58.3333333333333
232,60,416781,5,8,0:0:0:0:
288,80,416872,1,0,0:0:0:0:
324,125,416963,1,0,0:0:0:0:
320,189,417053,1,0,0:0:0:0:
288,236,417122,2,0,P|246:277|205:286,1,87.5
113,301,417326,5,8,0:0:0:0:
118,248,417417,1,0,0:0:0:0:
122,190,417508,1,8,0:0:0:0:
128,125,417599,1,0,0:0:0:0:
133,62,417667,2,0,L|213:92,1,58.3333333333333,8|0,0:0|0:0,0:0:0:0:
299,125,417872,5,8,0:0:0:0:
341,95,417963,1,0,0:0:0:0:
401,98,418053,1,0,0:0:0:0:
450,137,418144,1,0,0:0:0:0:
477,196,418235,2,0,L|405:207,1,58.3333333333333
234,210,418417,5,8,0:0:0:0:
228,196,418508,1,0,0:0:0:0:
219,183,418599,1,8,0:0:0:0:
210,169,418690,1,0,0:0:0:0:
198,159,418781,2,0,P|158:125|137:125,1,58.3333333333333,8|0,0:0|0:0,0:0:0:0:
101,298,418963,6,0,L|110:222,5,58.3333333333333,8|0|0|0|0|0,0:0|0:0|0:0|0:0|0:0|0:0,0:0:0:0:
348,117,419508,2,0,L|306:165,5,58.3333333333333,8|0|0|0|0|0,0:0|0:0|0:0|0:0|0:0|0:0,0:0:0:0:
194,287,420053,5,8,0:0:0:0:
183,259,420144,1,0,0:0:0:0:
170,237,420235,1,0,0:0:0:0:
154,223,420326,1,0,0:0:0:0:
131,208,420394,2,0,L|181:163,1,58.3333333333333
382,198,420599,5,8,0:0:0:0:
370,127,420690,1,0,0:0:0:0:
315,79,420781,1,8,0:0:0:0:
243,62,420872,1,0,0:0:0:0:
175,60,420940,2,0,L|125:117,1,58.3333333333333,8|0,0:0|0:0,0:0:0:0:
71,235,421144,6,0,L|135:224,5,58.3333333333333,8|0|0|0|0|0,0:0|0:0|0:0|0:0|0:0|0:0,0:0:0:0:
202,241,421690,6,0,P|249:234|274:195,1,87.5,8|0,0:0|0:0,0:0:0:0:
292,151,421872,2,0,B|242:149|227:202,1,87.5,8|0,0:0|0:0,0:0:0:0:
180,182,422031,2,0,P|206:135|258:140,1,87.5,8|0,0:0|0:0,0:0:0:0:
302,114,422235,5,8,0:0:0:0:
368,124,422326,1,0,0:0:0:0:
414,164,422417,1,0,0:0:0:0:
427,218,422508,1,0,0:0:0:0:
418,277,422599,1,0,0:0:0:0:
384,326,422690,1,0,0:0:0:0:
263,333,422781,5,8,0:0:0:0:
201,324,422872,1,0,0:0:0:0:
158,283,422963,1,0,0:0:0:0:
134,234,423053,1,0,0:0:0:0:
133,177,423144,1,0,0:0:0:0:
151,125,423235,1,0,0:0:0:0:
247,78,423326,6,0,L|330:54,5,58.3333333333333,8|0|0|0|0|0,0:0|0:0|0:0|0:0|0:0|0:0,0:0:0:0:
372,78,423872,2,0,L|376:137,5,58.3333333333333,8|0|0|0|0|0,0:0|0:0|0:0|0:0|0:0|0:0,0:0:0:0:
382,201,424417,2,0,P|362:306|210:246,1,306.25,6|0,0:0|0:0,0:0:0:0:
207,247,424963,5,8,0:0:0:0:
270,22,425099,1,8,1:0:0:0:
389,224,425235,1,8,0:0:0:0:
115,124,425372,1,8,0:0:0:0:
395,101,425508,2,0,L|306:145,1,87.5,10|2,0:0|0:0,0:0:0:0:
407,88,426053,6,0,L|218:127,1,175,10|0,1:0|1:0,1:0:0:0:
422,70,426599,6,0,L|196:113,1,210.000008010865,8|0,0:0|1:0,1:0:0:0:
232,370,427144,6,0,L|210:242,1,105.000004005432,8|8,0:0|0:0,0:0:0:0:
319,310,427417,2,0,L|343:196,1,105.000004005432,8|8,0:0|0:0,0:0:0:0:
131,164,427690,6,0,P|165:133|204:130,2,70,10|0|2,0:3|3:0|3:0,3:0:0:0:
395,158,428054,1,0,0:0:0:0:
395,158,428144,2,0,L|341:138,1,46.6666666666667
233,81,428235,5,8,0:0:0:0:
406,339,428781,6,0,L|343:57,1,280,6|0,1:0|0:0,0:0:0:0:
142,169,429599,5,0,0:0:0:0:
142,169,429871,2,8,P|303:179|400:246,2,280,2|2|8,1:0|1:0|0:0,0:0:0:0:
381,333,431371,5,0,0:0:0:0:
84,207,431781,1,0,0:0:0:0:
84,207,432053,6,0,B|189:180|194:145|194:145|222:164|228:169|241:204|206:235|256:283|258:283,1,280,12|0,0:0|0:0,0:0:0:0:
84,207,433144,6,0,B|160:196|160:196|185:221|186:225|192:296|234:286|259:194|250:96|358:45|375:183,1,420,8|0,0:0|0:0,0:0:0:0:
414,345,434235,2,0,B|407:303|401:295|401:295|409:277|409:277|430:247|420:232|420:232|392:238|391:237|390:203|397:190|397:190|411:174|405:142|405:142|385:113|345:97|336:40|336:40|337:97|190:99|243:185,1,560,8|8,0:0|0:0,0:0:0:0:
107,266,435599,5,0,0:0:0:0:
115,275,436144,5,0,0:0:0:0:
115,275,436417,1,8,0:0:0:0:
115,275,436690,2,0,P|171:97|296:107,1,280,8|0,0:0|0:0,0:0:0:0:
408,43,437508,6,0,P|465:192|222:270,1,472.500018024445,8|0,0:0|0:0,0:0:0:0:
321,74,438599,2,0,P|380:212|225:181,1,315.000012016297,12|0,0:0|0:0,0:0:0:0:
107,81,439417,1,0,0:0:0:0:
107,81,439690,6,0,L|137:281,2,183.750001752377,8|0|0,2:0|0:0|0:0,0:0:0:0:
444,149,440781,2,0,B|399:116|376:49|376:49|357:108|334:131|321:144|338:193|338:193|358:219|358:244|367:268|359:293|339:328,1,420,8|0,0:0|0:0,0:0:0:0:
34,305,441871,6,0,B|158:207|221:366|371:238,1,350,12|0,1:0|1:0,1:0:0:0:
374,219,442962,2,0,B|373:196|378:157|378:157|366:142|366:142|386:110|374:79|334:48|289:43|226:73|224:113|229:159|247:200|283:212|326:201|339:178,1,420,12|0,2:0|0:0,0:0:0:0:
132,135,444053,6,0,P|200:70|321:84,2,210,4|0|0,1:0|0:0|0:0,0:0:0:0:
314,227,445144,6,0,B|336:98,1,70,8|0,1:0|1:0,1:0:0:0:
365,204,445417,2,0,L|381:103,1,70,8|0,1:0|1:0,1:0:0:0:
423,176,445690,2,0,B|423:104|438:45|438:45|348:79|372:102,1,210,8|0,1:0|1:0,1:0:0:0:
280,195,446235,2,0,B|242:124|242:124|167:153|34:255|73:392|267:379|312:297|148:118|89:126|89:126|49:204,1,700,4|2,1:0|0:0,0:0:0:0:
307,298,448417,6,0,P|385:192|339:108,1,183.750001752377,8|0,2:0|0:0,0:0:0:0:
198,106,449235,1,0,0:0:0:0:
198,106,449508,6,0,L|189:266,1,122.500001168251,8|0,0:0|0:0,0:0:0:0:
280,72,450053,2,0,P|270:218|270:218,1,122.500001168251
91,239,450599,6,0,P|226:327|335:150,1,367.500003504753,12|0,2:0|0:0,0:0:0:0:
246,157,451690,6,0,P|340:86|433:159,1,245.000002336502,2|8,0:0|0:0,0:0:0:0:
130,318,452508,5,0,0:0:0:0:
130,318,452781,2,8,B|53:280|53:280|167:223,1,183.750001752377
273,293,453599,5,0,0:0:0:0:
273,293,453871,2,0,B|284:229|275:171|275:171|348:224|353:187|415:252|415:252|401:156|401:156,1,367.500003504753,8|0,2:0|0:0,0:0:0:0:
465,119,454962,6,0,B|400:74|361:121|361:121|327:71|282:60|232:53|232:53|182:136|201:173,1,367.500003504753,4|0,1:0|0:0,0:0:0:0:
154,214,456053,6,0,P|266:205|274:135,2,183.750001752377,8|0|0,0:0|0:0|0:0,0:0:0:0:
407,140,457144,2,0,P|381:296|274:357,1,262.5,12|0,2:0|0:0,0:0:0:0:
287,98,458348,6,0,P|134:210|295:104,1,595,4|4,1:0|0:0,0:0:0:0:
438,302,463622,6,0,L|314:248,1,105.000004005432,12|0,1:0|0:0,0:0:0:0:
215,210,463894,1,8,0:0:0:0:
398,139,464031,1,0,0:0:0:0:
174,208,464167,1,8,0:0:0:0:
384,267,464303,1,0,0:0:0:0:
126,206,464440,1,8,0:0:0:0:
380,132,464576,1,0,0:0:0:0:
258,322,464712,6,0,P|257:259|228:220,1,105.000004005432,12|0,0:0|0:0,0:0:0:0:
146,91,464985,5,8,0:0:0:0:
143,270,465122,1,0,0:0:0:0:
274,49,465258,5,8,0:0:0:0:
281,303,465394,1,0,0:0:0:0:
399,31,465531,5,8,0:0:0:0:
405,326,465667,1,0,0:0:0:0:
420,148,465803,2,0,P|363:174|308:147,1,105.000004005432,12|0,0:0|0:0,0:0:0:0:
140,196,466076,5,8,0:0:0:0:
436,128,466212,1,0,0:0:0:0:
131,97,466349,6,0,L|250:105,1,105.000004005432,8|0,0:0|0:0,0:0:0:0:
450,282,466622,2,0,L|309:275,1,105.000004005432,8|0,0:0|0:0,0:0:0:0:
86,190,466894,5,12,0:0:0:0:
312,224,467031,1,0,0:0:0:0:
85,231,467167,1,8,0:0:0:0:
328,188,467303,1,0,0:0:0:0:
92,273,467440,2,0,P|162:342|279:307,1,210.000008010865,8|8,0:0|0:0,0:0:0:0:
349,56,467849,1,0,0:0:0:0:
349,56,467917,1,0,0:0:0:0:
349,56,467985,5,12,0:0:0:0:
369,285,468122,1,0,0:0:0:0:
236,70,468258,1,8,0:0:0:0:
144,297,468394,1,0,0:0:0:0:
137,64,468531,5,8,0:0:0:0:
297,325,468667,1,0,0:0:0:0:
340,49,468803,1,8,0:0:0:0:
233,263,468940,5,0,0:0:0:0:
433,194,469076,2,0,P|413:251|347:234,1,105.000004005432,12|0,0:0|0:0,0:0:0:0:
241,131,469349,1,8,0:0:0:0:
241,131,469417,1,0,0:0:0:0:
241,131,469485,1,0,0:0:0:0:
131,308,469622,6,0,L|178:187,1,105.000004005432,8|0,0:0|0:0,0:0:0:0:
440,177,469894,2,0,P|406:246|358:251,1,105.000004005432,8|0,0:0|0:0,0:0:0:0:
78,165,470167,5,12,0:0:0:0:
108,138,470235,1,0,0:0:0:0:
150,138,470303,1,0,0:0:0:0:
192,142,470372,1,0,0:0:0:0:
231,130,470440,1,8,0:0:0:0:
262,102,470508,1,0,0:0:0:0:
302,82,470576,2,8,P|365:70|408:107,1,105.000004005432,0|8,0:0|0:0,0:0:0:0:
138,286,470849,1,0,0:0:0:0:
138,286,470985,2,0,L|233:214,1,105.000004005432,8|0,0:0|0:0,0:0:0:0:
421,112,471258,5,12,0:0:0:0:
225,224,471394,1,0,0:0:0:0:
401,91,471531,1,8,0:0:0:0:
236,243,471667,1,0,0:0:0:0:
368,71,471803,2,0,B|253:57|253:57|151:108,1,210.000008010865,8|0,0:0|0:0,0:0:0:0:
108,47,472349,5,2,0:0:0:0:
108,62,472417,1,0,0:0:0:0:
108,78,472485,1,0,0:0:0:0:
108,94,472553,1,0,0:0:0:0:
149,131,472622,1,2,0:0:0:0:
149,146,472690,1,0,0:0:0:0:
149,162,472758,1,0,0:0:0:0:
149,178,472826,1,0,0:0:0:0:
105,224,472894,1,2,0:0:0:0:
142,242,472962,1,0,0:0:0:0:
184,247,473030,1,0,0:0:0:0:
225,240,473098,1,0,0:0:0:0:
274,176,473167,1,2,0:0:0:0:
314,142,473235,1,0,0:0:0:0:
364,131,473303,1,0,0:0:0:0:
415,143,473371,1,0,0:0:0:0:
451,233,473440,6,0,L|396:235,3,52.5000020027161,8|0|0|0,0:0|0:0|0:0|0:0,0:0:0:0:
136,291,473712,2,0,L|196:293,3,52.5000020027161,8|0|0|0,0:0|0:0|0:0|0:0,0:0:0:0:
318,333,473985,5,0,0:0:0:0:
298,98,474122,1,0,0:0:0:0:
335,334,474258,2,0,L|270:203,1,105.000004005432,8|0,0:0|0:0,0:0:0:0:
109,40,474531,5,8,0:0:0:0:
98,91,474599,1,0,0:0:0:0:
95,146,474667,1,0,0:0:0:0:
109,197,474735,1,0,0:0:0:0:
140,240,474803,1,8,0:0:0:0:
185,212,474872,1,0,0:0:0:0:
244,198,474940,1,0,0:0:0:0:
305,197,475008,1,0,0:0:0:0:
348,230,475076,1,0,0:0:0:0:
358,250,475144,1,0,0:0:0:0:
362,270,475212,1,2,0:0:0:0:
363,290,475281,1,0,0:0:0:0:
365,309,475349,6,2,L|364:192,1,105.000004005432
187,38,475622,2,0,L|135:176,1,105.000004005432,12|0,0:0|0:0,0:0:0:0:
142,336,475894,5,8,0:0:0:0:
304,147,476031,1,2,0:0:0:0:
270,337,476167,1,8,0:0:0:0:
193,147,476303,1,2,0:0:0:0:
345,258,476440,1,8,0:0:0:0:
125,216,476576,1,2,0:0:0:0:
215,39,476712,6,8,L|253:187,2,140,12|0|0,0:0|0:0|0:0,0:0:0:0:
309,79,477531,5,8,0:0:0:0:
341,315,477667,1,0,0:0:0:0:
309,79,477803,2,8,L|261:243,1,140
129,265,478349,5,0,0:0:0:0:
386,177,478622,5,8,0:0:0:0:
386,177,478690,1,0,0:0:0:0:
386,177,478758,1,0,0:0:0:0:
386,177,478826,1,0,0:0:0:0:
393,222,478894,5,8,0:0:0:0:
388,276,478962,1,0,0:0:0:0:
352,320,479031,1,8,0:0:0:0:
289,320,479099,1,0,0:0:0:0:
241,269,479167,1,0,0:0:0:0:
249,207,479235,1,0,0:0:0:0:
304,185,479303,5,8,0:0:0:0:
357,202,479372,1,0,0:0:0:0:
374,246,479440,1,8,0:0:0:0:
350,284,479508,1,0,0:0:0:0:
304,290,479576,1,0,0:0:0:0:
270,260,479644,1,0,0:0:0:0:
292,234,479712,2,0,P|339:237|355:256,1,70
291,107,479985,5,8,0:0:0:0:
291,107,480053,1,0,0:0:0:0:
291,107,480122,2,0,L|293:152,1,35
378,232,480258,6,0,L|331:187,3,35,8|0|0|0,0:0|0:0|0:0|0:0,0:0:0:0:
209,160,480531,5,8,0:0:0:0:
209,160,480599,1,0,0:0:0:0:
209,160,480667,2,0,L|230:214,1,35
226,324,480803,6,0,L|177:326,3,35,8|0|0|0,0:0|0:0|0:0|0:0,0:0:0:0:
96,331,481076,5,4,0:0:0:0:
118,295,481144,1,0,0:0:0:0:
126,254,481212,1,0,0:0:0:0:
119,213,481280,1,0,0:0:0:0:
106,173,481348,1,0,0:0:0:0:
96,133,481416,1,0,0:0:0:0:
97,91,481485,1,0,0:0:0:0:
116,54,481553,1,0,0:0:0:0:
149,28,481621,1,0,0:0:0:0:
188,14,481689,1,0,0:0:0:0:
230,10,481757,1,0,0:0:0:0:
271,15,481826,1,0,0:0:0:0:
309,33,481894,1,2,0:0:0:0:
339,62,481962,1,0,0:0:0:0:
355,101,482030,1,0,0:0:0:0:
357,142,482098,1,0,0:0:0:0:
328,178,482167,5,8,0:0:0:0:
197,259,482712,2,0,L|193:214,1,35,8|0,0:0|0:0,0:0:0:0:
363,95,483258,5,14,0:0:0:0:
386,110,483326,1,0,0:0:0:0:
404,131,483394,1,2,0:0:0:0:
413,157,483462,1,0,0:0:0:0:
415,185,483531,1,2,0:0:0:0:
408,212,483599,1,0,0:0:0:0:
393,236,483667,5,2,0:0:0:0:
371,253,483735,1,0,0:0:0:0:
345,263,483803,1,2,0:0:0:0:
317,265,483872,1,0,0:0:0:0:
290,258,483940,1,2,0:0:0:0:
267,242,484008,1,0,0:0:0:0:
246,229,484076,6,2,L|201:179,1,35
199,43,484212,2,0,L|222:81,1,35
355,131,484349,2,2,L|325:113,7,35,10|2|2|2|2|2|2|2,0:0|0:0|0:0|0:0|0:0|0:0|0:0|0:0,0:0:0:0:
299,5,484894,2,0,L|299:54,3,35
434,42,485167,5,8,0:0:0:0:
422,123,485235,1,8,0:0:0:0:
381,190,485303,1,8,0:0:0:0:
308,237,485372,1,8,0:0:0:0:
226,256,485440,5,4,0:1:0:0:
256,192,485474,12,8,487621,2:0:0:0:
256,192,487655,12,8,489803,2:0:0:0:
256,192,489837,12,4,491985,1:0:0:0:
