osu file format v14

[General]
AudioFilename: yomi.mp3
AudioLeadIn: 0
PreviewTime: 292273
Countdown: 0
SampleSet: None
StackLeniency: 0.7
Mode: 0
LetterboxInBreaks: 0
WidescreenStoryboard: 1

[Editor]
Bookmarks: 9797,27251,44706,57797,75251,91615,110160,127615,145070,164160,183251,208342,226887,244341,261796,274887,292341,309796,327250,333250,343614,361068,389432,406887,428705,446159,463544,480998
DistanceSpacing: 2.2
BeatDivisor: 4
GridSize: 4
TimelineZoom: 4.099998

[Metadata]
Title:Yomi yori Kikoyu, Koukoku no Tou to Honoo no Shoujo.
TitleUnicode:黄泉より聴こゆ、皇国の燈と焔の少女。
Artist:Imperial Circus Dead Decadence
ArtistUnicode:Imperial Circus Dead Decadence
Creator:DoKito
Version:Kyouaku
Source:
Tags:Symphonic Black Metal DoKoLP Unknown Anon
BeatmapID:1031991
BeatmapSetID:461744

[Difficulty]
HPDrainRate:6
CircleSize:4.2
OverallDifficulty:9.4
ApproachRate:10
SliderMultiplier:2
SliderTickRate:2

[Events]
//Background and Video events
0,0,"687474703a2f2f7075752e73682f70424e4b582f333632393263633430612e6a7067.jpg",0,0
//Break Periods
2,192028,207942
//Storyboard Layer 0 (Background)
//Storyboard Layer 1 (Fail)
//Storyboard Layer 2 (Pass)
//Storyboard Layer 3 (Foreground)
//Storyboard Sound Samples

[TimingPoints]
1120,272.727272727273,4,3,8,30,1,0
1188,-100,4,3,11,30,0,0
1733,-100,4,3,10,30,0,0
2210,-100,4,3,8,30,0,0
2279,-100,4,3,11,30,0,0
2756,-100,4,3,7,30,0,0
2824,-100,4,3,10,30,0,0
3301,-100,4,3,8,30,0,0
3370,-100,4,3,11,30,0,0
3915,-100,4,3,10,30,0,0
4392,-100,4,3,7,30,0,0
4597,-100,4,3,69,5,0,0
4665,-111.111111111111,4,3,16,30,0,0
4870,-111.111111111111,4,3,69,5,0,0
4938,-125,4,3,15,30,0,0
5142,-125,4,3,69,5,0,0
5210,-142.857142857143,4,3,7,30,0,0
5415,-142.857142857143,4,3,69,5,0,0
5483,-100,4,3,8,30,0,0
5551,-100,4,3,11,30,0,0
6097,-100,4,3,10,30,0,0
6574,-100,4,3,8,30,0,0
6710,-100,4,3,1,30,0,0
6847,-100,4,3,11,30,0,0
7120,-100,4,3,8,30,0,0
7256,-100,4,3,1,30,0,0
7392,-100,4,3,10,30,0,0
7665,-100,4,3,8,30,0,0
8483,-100,4,3,11,30,0,0
9029,-100,4,3,10,30,0,0
9574,-100,4,3,3,30,0,0
9847,-100,4,3,30,50,0,1
10051,-100,4,3,4,50,0,1
12165,-100,4,3,5,50,0,1
12301,-100,4,3,4,50,0,1
13256,-100,4,3,5,50,0,1
13392,-100,4,3,4,50,0,1
14210,-100,4,3,31,50,0,1
14279,-100,4,3,4,50,0,1
16392,-100,4,3,8,50,0,1
16529,-100,4,3,4,50,0,1
16801,-100,4,3,8,50,0,1
16938,-100,4,3,4,50,0,1
17483,-100,4,3,8,50,0,1
17551,-100,4,3,10,50,0,1
17756,-100,4,3,11,50,0,1
18029,-100,4,3,1,50,0,1
18301,-100,4,3,10,50,0,1
18574,-100,4,3,32,50,0,1
18642,-100,4,3,4,50,0,1
20892,-100,4,3,5,50,0,1
21029,-100,4,3,4,50,0,1
21983,-100,4,3,5,50,0,1
22120,-100,4,3,4,50,0,1
22938,-100,4,3,31,50,0,1
23006,-100,4,3,4,50,0,1
25120,-100,4,3,32,50,0,1
25188,-100,4,3,1,50,0,1
25529,-100,4,3,3,50,0,1
25801,-100,4,3,1,50,0,1
26074,-100,4,3,12,50,0,1
26620,-100,4,3,11,50,0,1
27165,-100,4,3,10,50,0,1
27301,-100,4,3,30,50,0,1
27438,-100,4,3,6,50,0,1
29483,-100,4,3,32,50,0,1
29620,-100,4,3,6,50,0,1
31392,-100,4,3,3,50,0,1
31529,-100,4,3,6,50,0,1
31665,-100,4,3,32,50,0,1
31801,-100,4,3,6,50,0,1
33847,-100,4,3,32,50,0,1
33915,-100,4,3,6,50,0,1
35620,-100,4,3,8,50,0,1
36029,-100,4,3,30,50,0,1
36097,-100,4,3,8,50,0,1
40392,-100,4,3,1,50,0,1
41210,-100,4,3,10,50,0,1
41483,-100,4,3,8,50,0,1
42983,-100,4,3,15,50,0,1
43051,-100,4,3,10,50,0,1
43256,-100,4,3,3,50,0,1
43324,-100,4,3,11,50,0,1
43665,-100,4,3,7,50,0,1
43938,-100,4,3,16,50,0,1
44210,-100,4,3,15,50,0,1
44483,-100,4,3,7,50,0,1
44756,-100,4,3,1,50,0,0
45438,-100,4,3,11,50,0,0
45847,-100,4,3,8,50,0,0
45915,-100,4,3,8,50,0,0
46051,-100,4,3,11,50,0,0
46392,-100,4,3,8,50,0,0
46938,-100,4,3,8,50,0,1
47074,-100,4,3,1,50,0,1
47210,-100,4,3,11,50,0,1
47483,-100,4,3,1,50,0,1
47620,-100,4,3,10,50,0,1
48029,-100,4,3,1,50,0,1
48097,-100,4,3,11,50,0,1
48642,-100,4,3,10,50,0,1
48847,-100,4,3,3,50,0,1
48915,-100,4,3,10,50,0,1
49120,-166.666666666667,4,3,32,50,0,1
49256,-166.666666666667,4,3,1,50,0,1
51301,-166.666666666667,4,3,8,50,0,1
51370,-166.666666666667,4,3,11,50,0,1
51710,-166.666666666667,4,3,10,50,0,1
52188,-166.666666666667,4,3,11,50,0,1
52597,-166.666666666667,4,3,10,50,0,1
53210,-166.666666666667,4,3,3,50,0,1
53483,-100,4,3,32,50,0,0
55392,-100,4,3,8,50,0,0
55801,-100,4,1,0,50,0,0
56074,-100,4,3,1,50,0,0
56210,-100,4,1,0,50,0,0
56483,-100,4,3,1,50,0,0
56620,-100,4,3,1,50,0,0
56892,-100,4,3,12,50,0,0
57301,-100,4,3,11,50,0,0
57574,-200,4,3,8,50,0,0
57779,-200,4,3,69,5,0,0
57847,-100,4,3,30,50,0,0
57983,-100,4,3,5,50,0,0
62210,-125,4,3,1,50,0,0
62483,-125,4,3,7,50,0,0
62688,-125,4,3,69,5,0,0
62756,-125,4,3,15,50,0,0
63915,-125,4,3,69,5,0,0
63983,-125,4,3,15,50,0,0
64529,-125,4,3,11,50,0,0
65074,-125,4,3,10,50,0,0
65483,-125,4,3,7,50,0,0
66029,-125,4,3,11,50,0,0
66301,-125,4,3,1,50,0,0
66506,-125,4,3,69,50,0,0
66574,-100,4,3,32,50,0,0
66710,-100,4,3,5,50,0,0
70938,-100,4,3,1,50,0,0
71074,-100,4,3,5,50,0,0
73256,-100,4,3,20,50,0,0
73392,-100,4,3,5,50,0,0
73801,-100,4,3,20,50,0,0
73938,-100,4,3,5,50,0,0
74210,-100,4,3,1,50,0,0
74301,-100,4,3,11,50,0,0
74483,-100,4,3,10,50,0,0
75165,-100,4,3,11,50,0,0
75301,-100,4,3,30,50,0,1
75506,-100,4,3,69,5,0,1
75574,-100,4,3,4,50,0,1
77620,-100,4,3,5,50,0,1
77756,-100,4,3,4,50,0,1
79665,-100,4,3,32,50,0,1
79733,-100,4,3,4,50,0,1
81847,-100,4,3,8,50,0,1
81983,-100,4,3,4,50,0,1
82256,-100,4,3,8,50,0,1
82392,-100,4,3,4,50,0,1
82938,-100,4,3,8,50,0,1
83006,-100,4,3,10,50,0,1
83210,-100,4,3,11,50,0,1
83483,-100,4,3,1,50,0,1
83756,-100,4,3,10,50,0,1
84029,-83.3333333333333,4,3,32,50,0,1
84097,-83.3333333333333,4,3,4,50,0,1
86347,-83.3333333333333,4,3,5,50,0,1
86483,-83.3333333333333,4,3,4,50,0,1
87438,-83.3333333333333,4,3,5,50,0,1
87574,-83.3333333333333,4,3,4,50,0,1
88392,-71.4285714285714,4,3,32,60,0,1
88460,-71.4285714285714,4,3,4,60,0,1
90574,-62.5,4,3,8,60,0,1
90983,-62.5,4,3,3,60,0,1
91256,-62.5,4,3,1,60,0,1
91529,-62.5,4,3,12,60,0,1
91665,-125,4,3,1,50,0,0
91870,-125,4,3,69,5,0,0
91938,-142.857142857143,4,3,1,50,0,0
92142,-142.857142857143,4,3,69,5,0,0
92210,-166.666666666667,4,3,1,50,0,0
92415,-166.666666666667,4,3,69,50,0,0
92483,-200,4,3,7,50,0,0
92688,-200,4,3,69,5,0,0
92756,-100,4,3,30,50,0,0
92892,-100,4,3,5,50,0,0
97120,-100,4,3,8,50,0,0
97256,-100,4,3,5,50,0,0
98074,-100,4,3,5,50,0,0
99438,-100,4,3,20,50,0,0
99574,-100,4,3,5,50,0,0
99847,-100,4,3,21,50,0,0
99983,-100,4,3,5,50,0,0
101210,-100,4,3,7,50,0,0
101483,-100,4,3,32,50,0,0
101620,-100,4,3,5,50,0,0
101892,-100,4,3,20,50,0,0
102029,-100,4,3,5,50,0,0
102301,-100,4,3,21,50,0,0
102438,-100,4,3,5,50,0,0
105847,-100,4,3,8,50,0,0
105983,-100,4,3,6,50,0,0
108029,-100,4,3,8,50,0,0
108301,-100,4,3,11,50,0,0
108847,-100,4,3,10,50,0,0
109120,-200,4,3,30,50,0,0
109256,-200,4,3,1,50,0,0
109529,-200,4,1,0,50,0,0
109665,-200,4,3,1,50,0,0
109938,-200,4,1,0,50,0,0
110210,-133.333333333333,4,3,7,50,0,0
110483,-133.333333333333,4,3,6,50,0,0
114574,-100,4,3,32,50,0,0
114642,-100,4,3,1,50,0,0
115120,-100,4,3,8,50,0,0
115188,-100,4,3,12,50,0,0
115665,-100,4,3,3,50,0,0
115938,-100,4,3,11,50,0,0
116483,-100,4,3,10,50,0,0
116756,-100,4,3,1,50,0,0
116960,-100,4,3,69,5,0,0
117029,-100,4,3,1,50,0,0
117233,-100,4,3,69,5,0,0
117301,-100,4,3,1,50,0,0
117438,-100,4,3,21,50,0,0
117506,-100,4,3,69,5,0,0
117574,-100,4,3,1,50,0,0
118120,-100,4,3,11,50,0,0
118665,-100,4,3,1,50,0,0
118870,-100,4,3,69,50,0,0
118938,-100,4,3,30,50,0,0
119074,-100,4,3,8,50,0,0
120847,-100,4,3,8,50,0,0
121120,-100,4,3,15,50,0,0
125210,-100,4,3,8,50,0,0
125483,-100,4,3,15,50,0,0
125620,-100,4,3,11,50,0,0
126029,-100,4,3,7,50,0,0
126165,-100,4,3,11,50,0,0
126574,-100,4,3,15,50,0,0
126779,-100,4,3,69,5,0,0
126847,-100,4,3,7,50,0,0
127051,-100,4,3,69,5,0,0
127120,-100,4,3,15,50,0,0
127665,-83.3333333333333,4,3,30,50,0,0
127801,-83.3333333333333,4,3,4,50,0,0
131756,-83.3333333333333,4,3,5,50,0,0
132029,-83.3333333333333,4,3,32,50,0,0
132301,-83.3333333333333,4,3,4,50,0,0
132574,-83.3333333333333,4,3,23,50,0,0
132710,-83.3333333333333,4,3,4,50,0,0
133120,-83.3333333333333,4,3,23,50,0,0
133256,-83.3333333333333,4,3,4,50,0,0
133597,-83.3333333333333,4,3,69,5,0,0
133665,-83.3333333333333,4,3,4,50,0,0
134210,-83.3333333333333,4,3,1,50,0,0
134483,-83.3333333333333,4,3,5,50,0,0
134620,-83.3333333333333,4,3,8,50,0,0
134824,-83.3333333333333,4,3,69,5,0,0
134892,-83.3333333333333,4,3,5,50,0,0
135165,-83.3333333333333,4,3,1,50,0,0
135370,-83.3333333333333,4,3,69,5,0,0
135438,-83.3333333333333,4,3,11,50,0,0
136120,-83.3333333333333,4,3,7,50,0,0
136324,-83.3333333333333,4,3,69,5,0,0
136392,-71.4285714285714,4,3,30,70,0,1
136529,-71.4285714285714,4,3,1,70,0,1
137483,-71.4285714285714,4,3,21,70,0,1
137620,-71.4285714285714,4,3,1,70,0,1
139665,-71.4285714285714,4,3,21,70,0,1
139801,-71.4285714285714,4,3,1,70,0,1
140483,-71.4285714285714,4,3,8,70,0,1
140756,-83.3333333333333,4,3,30,50,0,0
140892,-83.3333333333333,4,3,1,50,0,0
141029,-83.3333333333333,4,3,4,50,0,0
141847,-83.3333333333333,4,3,23,50,0,0
141983,-83.3333333333333,4,3,4,50,0,0
142324,-83.3333333333333,4,3,69,50,0,0
142392,-83.3333333333333,4,3,4,50,0,0
142870,-83.3333333333333,4,3,69,5,0,0
142938,-83.3333333333333,4,3,1,50,0,0
143210,-83.3333333333333,4,3,5,50,0,0
143347,-83.3333333333333,4,3,8,50,0,0
143551,-83.3333333333333,4,3,69,5,0,0
143620,-83.3333333333333,4,3,1,50,0,0
143756,-83.3333333333333,4,3,5,50,0,0
143892,-83.3333333333333,4,3,1,50,0,0
144097,-83.3333333333333,4,3,69,5,0,0
144165,-83.3333333333333,4,3,11,50,0,0
144847,-83.3333333333333,4,3,1,50,0,0
145120,-100,4,3,32,50,0,1
145256,-100,4,3,5,50,0,1
149483,-100,4,3,32,50,0,1
149620,-100,4,3,5,50,0,1
150574,-100,4,3,1,50,0,1
150710,-100,4,3,5,50,0,1
151665,-100,4,3,8,50,0,1
151801,-100,4,3,5,50,0,1
152483,-100,4,3,11,50,0,0
152756,-100,4,3,30,50,0,0
152824,-100,4,3,11,50,0,0
153438,-100,4,3,1,50,0,0
153506,-100,4,3,11,50,0,0
153847,-100,4,3,32,50,0,0
153983,-100,4,3,4,50,0,0
157938,-100,4,3,7,50,0,0
158210,-100,4,3,32,50,0,0
158347,-100,4,3,1,50,0,0
158483,-100,4,3,4,50,0,0
160392,-71.4285714285714,4,3,3,70,0,1
162029,-100,4,3,1,50,0,1
162165,-100,4,3,11,50,0,1
162574,-100,4,3,1,50,0,1
164074,-100,4,3,69,5,0,1
164210,-100,4,3,1,50,0,0
164756,-133.333333333333,4,3,0,50,0,0
164892,-133.333333333333,4,3,1,50,0,0
165233,-133.333333333333,4,3,69,5,0,0
165301,-100,4,3,0,50,0,0
165438,-100,4,3,1,50,0,0
165779,-100,4,3,1,5,0,0
165847,-83.3333333333333,4,3,33,50,0,1
165983,-83.3333333333333,4,3,69,5,0,1
166029,-83.3333333333333,4,3,6,50,0,1
166165,-83.3333333333333,4,3,69,5,0,1
166210,-83.3333333333333,4,3,6,50,0,1
166347,-83.3333333333333,4,3,69,5,0,1
166392,-83.3333333333333,4,3,6,50,0,1
166529,-83.3333333333333,4,3,69,5,0,1
166574,-83.3333333333333,4,3,6,50,0,1
166710,-83.3333333333333,4,3,69,5,0,1
166756,-83.3333333333333,4,3,6,50,0,1
166892,-83.3333333333333,4,3,69,5,0,1
166938,-83.3333333333333,4,3,6,50,0,1
167074,-83.3333333333333,4,3,69,5,0,1
167120,-83.3333333333333,4,3,6,50,0,1
167256,-83.3333333333333,4,3,69,5,0,1
167301,-83.3333333333333,4,3,6,50,0,1
167438,-83.3333333333333,4,3,69,5,0,1
167483,-83.3333333333333,4,3,6,50,0,1
167620,-83.3333333333333,4,3,69,5,0,1
167665,-83.3333333333333,4,3,6,50,0,1
167801,-83.3333333333333,4,3,69,5,0,1
167847,-83.3333333333333,4,3,6,50,0,1
167983,-83.3333333333333,4,3,69,5,0,1
168029,-83.3333333333333,4,3,6,50,0,1
168165,-83.3333333333333,4,3,69,5,0,1
168210,-83.3333333333333,4,3,6,50,0,1
168347,-83.3333333333333,4,3,69,5,0,1
168392,-83.3333333333333,4,3,6,50,0,1
168529,-83.3333333333333,4,3,69,5,0,1
168574,-83.3333333333333,4,3,6,50,0,1
168710,-83.3333333333333,4,3,69,5,0,1
168756,-83.3333333333333,4,3,6,50,0,1
168892,-83.3333333333333,4,3,69,5,0,1
168938,-83.3333333333333,4,3,6,50,0,1
169074,-83.3333333333333,4,3,69,5,0,1
169120,-83.3333333333333,4,3,6,50,0,1
169256,-83.3333333333333,4,3,69,5,0,1
169301,-83.3333333333333,4,3,6,50,0,1
169438,-83.3333333333333,4,3,69,5,0,1
169483,-83.3333333333333,4,3,6,50,0,1
169620,-83.3333333333333,4,3,69,5,0,1
169665,-83.3333333333333,4,3,6,50,0,1
169938,-83.3333333333333,4,3,69,5,0,1
169983,-83.3333333333333,4,3,6,50,0,1
170165,-83.3333333333333,4,3,69,5,0,1
170210,-83.3333333333333,4,3,6,50,0,1
170483,-83.3333333333333,4,3,1,50,0,1
170529,-83.3333333333333,4,3,69,5,0,1
170574,-83.3333333333333,4,3,6,50,0,1
170710,-83.3333333333333,4,3,69,5,0,1
170756,-83.3333333333333,4,3,6,50,0,1
170892,-83.3333333333333,4,3,69,5,0,1
170938,-83.3333333333333,4,3,6,50,0,1
171074,-83.3333333333333,4,3,69,5,0,1
171120,-83.3333333333333,4,3,6,50,0,1
171256,-83.3333333333333,4,3,69,5,0,1
171301,-83.3333333333333,4,3,6,50,0,1
171438,-83.3333333333333,4,3,69,5,0,1
171483,-83.3333333333333,4,3,6,50,0,1
171620,-83.3333333333333,4,3,69,5,0,1
171665,-83.3333333333333,4,3,6,50,0,1
171801,-83.3333333333333,4,3,69,5,0,1
171847,-83.3333333333333,4,3,6,50,0,1
171983,-83.3333333333333,4,3,69,5,0,1
172029,-83.3333333333333,4,3,6,50,0,1
172165,-83.3333333333333,4,3,69,5,0,1
172210,-83.3333333333333,4,3,6,50,0,1
172347,-83.3333333333333,4,3,69,5,0,1
172392,-83.3333333333333,4,3,6,50,0,1
172529,-83.3333333333333,4,3,69,5,0,1
172574,-83.3333333333333,4,3,6,50,0,1
172710,-83.3333333333333,4,3,69,5,0,1
172756,-83.3333333333333,4,3,6,50,0,1
172892,-83.3333333333333,4,3,69,5,0,1
172938,-83.3333333333333,4,3,6,50,0,1
173074,-83.3333333333333,4,3,69,5,0,1
173120,-83.3333333333333,4,3,6,50,0,1
173256,-83.3333333333333,4,3,69,5,0,1
173301,-83.3333333333333,4,3,6,50,0,1
173438,-83.3333333333333,4,3,69,5,0,1
173483,-83.3333333333333,4,3,8,50,0,1
173688,-83.3333333333333,4,3,1,50,0,0
174029,-83.3333333333333,4,3,11,50,0,0
174392,-83.3333333333333,4,3,2,50,0,0
174529,-83.3333333333333,4,3,69,5,0,0
174574,-83.3333333333333,4,3,30,50,0,0
174665,-83.3333333333333,4,3,1,50,0,0
175120,-83.3333333333333,4,3,7,50,0,0
178574,-83.3333333333333,4,3,12,50,0,0
178938,-83.3333333333333,4,3,8,50,0,0
180029,-83.3333333333333,4,3,7,50,0,0
180938,-83.3333333333333,4,3,12,50,0,0
181120,-83.3333333333333,4,3,8,50,0,0
181301,-83.3333333333333,4,3,12,50,0,0
181665,-83.3333333333333,4,3,8,50,0,0
181847,-83.3333333333333,4,3,12,50,0,0
182210,-83.3333333333333,4,3,8,50,0,0
182301,-83.3333333333333,4,3,12,50,0,0
182756,-83.3333333333333,4,3,8,50,0,0
182847,-83.3333333333333,4,3,12,50,0,0
183301,-125,4,3,30,50,0,0
183574,-125,4,3,1,50,0,0
186574,-125,4,3,7,50,0,0
186756,-125,4,3,11,50,0,0
187120,-125,4,3,1,50,0,0
187301,-125,4,3,11,50,0,0
187665,545.454545454546,4,3,1,70,1,0
187665,-66.6666666666667,4,3,1,70,0,0
187801,-66.6666666666667,4,1,2,70,0,0
208392,-83.3333333333333,4,3,8,50,0,0
208665,-83.3333333333333,4,3,12,50,0,0
208937,-83.3333333333333,4,3,11,50,0,0
209210,-83.3333333333333,4,3,10,50,0,0
209483,-83.3333333333333,4,3,6,50,0,0
210028,-83.3333333333333,4,3,25,50,0,0
210301,-83.3333333333333,4,3,6,50,0,0
210983,-83.3333333333333,4,3,69,5,0,0
211119,-83.3333333333333,4,3,6,50,0,0
214392,-83.3333333333333,4,3,25,50,0,0
214665,-83.3333333333333,4,3,6,50,0,0
215415,-83.3333333333333,4,3,69,5,0,0
215483,-83.3333333333333,4,3,6,50,0,0
215687,-83.3333333333333,4,3,69,5,0,0
215755,-83.3333333333333,4,3,6,50,0,0
215960,-83.3333333333333,4,3,69,5,0,0
216028,-83.3333333333333,4,3,6,50,0,0
217665,-83.3333333333333,4,3,12,50,0,0
217937,-83.3333333333333,4,3,11,50,0,0
218210,-83.3333333333333,4,3,1,50,0,0
218755,-83.3333333333333,4,3,25,50,0,0
219028,-83.3333333333333,4,3,6,50,0,0
219778,-83.3333333333333,4,3,69,5,0,0
219846,-83.3333333333333,4,3,6,50,0,0
223119,-83.3333333333333,4,3,25,50,0,0
223392,-83.3333333333333,4,3,6,50,0,0
224755,-83.3333333333333,4,3,1,50,0,0
226119,-83.3333333333333,4,3,12,50,0,0
226665,-83.3333333333333,4,3,11,50,0,0
226937,272.727272727273,4,3,30,50,1,0
227073,-100,4,3,1,50,0,0
231300,-100,4,3,7,50,0,0
232527,-100,4,3,21,50,0,0
232596,-100,4,3,69,50,0,0
232664,-100,4,3,7,50,0,0
232800,-100,4,3,21,50,0,0
232868,-100,4,3,69,5,0,0
232937,-100,4,3,7,50,0,0
233073,-100,4,3,21,50,0,0
233141,-100,4,3,69,5,0,0
233209,-100,4,3,7,50,0,0
233346,-100,4,3,21,50,0,0
233414,-100,4,3,69,5,0,0
233482,-100,4,3,7,50,0,0
234027,-100,4,3,11,50,0,0
234573,-100,4,3,1,50,0,0
234846,-100,4,3,11,50,0,0
235118,-100,4,3,1,50,0,0
235664,-100,4,3,30,65,0,0
235732,-100,4,3,1,65,0,0
239755,-100,4,3,15,65,0,0
240027,-100,4,3,8,65,0,0
242209,-100,4,3,6,65,0,0
243300,-100,4,3,1,65,0,0
243573,-100,4,3,11,65,0,0
243846,-100,4,3,10,65,0,0
244118,-100,4,3,1,65,0,0
244391,-100,4,3,32,50,0,1
244459,-100,4,3,1,50,0,1
244664,-100,4,3,12,50,0,1
244937,-100,4,3,11,50,0,1
245209,-100,4,3,1,50,0,1
245482,-100,4,3,12,50,0,1
245618,-100,4,3,1,50,0,1
245891,-100,4,3,11,50,0,1
246164,-100,4,3,10,50,0,1
246437,-100,4,3,1,50,0,1
246777,-100,4,3,69,50,0,1
246846,-100,4,3,1,50,0,1
247664,-100,4,3,12,50,0,1
248073,-100,4,3,11,50,0,1
248209,-100,4,3,1,50,0,1
248755,-100,4,3,7,50,0,1
249027,-100,4,3,11,50,0,1
249300,-100,4,3,10,50,0,1
249573,-100,4,3,7,50,0,1
250255,-100,4,3,11,50,0,1
250664,-100,4,3,7,50,0,1
251346,-100,4,3,11,50,0,1
251618,-100,4,3,7,50,0,1
251823,-100,4,3,11,50,0,1
252027,-100,4,3,8,50,0,1
252300,-100,4,3,10,50,0,1
252573,-100,4,3,1,50,0,1
253118,-76.9230769230769,4,3,30,70,0,1
253255,-76.9230769230769,4,3,6,70,0,1
257209,-76.9230769230769,4,3,11,70,0,1
257482,-100,4,3,8,50,0,1
259664,-86.9565217391304,4,3,8,50,0,1
260073,-86.9565217391304,4,3,12,50,0,1
260482,-86.9565217391304,4,3,11,50,0,1
260755,-86.9565217391304,4,3,7,50,0,1
261300,-86.9565217391304,4,3,11,50,0,1
261573,-86.9565217391304,4,3,10,50,0,1
261846,-133.333333333333,4,3,1,50,0,0
264027,-133.333333333333,4,1,4,30,0,0
266209,-86.9565217391304,4,3,7,50,0,0
268323,-86.9565217391304,4,3,69,5,0,0
268391,-86.9565217391304,4,3,7,50,0,0
270505,-86.9565217391304,4,3,69,5,0,0
270573,-86.9565217391304,4,3,7,50,0,0
272687,-86.9565217391304,4,3,69,5,0,0
272755,-76.9230769230769,4,3,1,50,0,0
273164,-76.9230769230769,4,3,12,50,0,0
273709,-76.9230769230769,4,3,11,50,0,0
274255,-76.9230769230769,4,3,10,50,0,0
274664,-76.9230769230769,4,3,8,50,0,0
274937,-76.9230769230769,4,3,34,50,0,1
275005,-76.9230769230769,4,3,4,50,0,1
279300,-76.9230769230769,4,3,32,50,0,1
279368,-76.9230769230769,4,3,4,50,0,1
282573,-76.9230769230769,4,3,11,50,0,0
283118,-76.9230769230769,4,3,1,50,0,0
283664,-66.6666666666667,4,3,30,50,0,1
283732,-66.6666666666667,4,3,6,50,0,1
289118,-66.6666666666667,4,3,6,60,0,1
290209,-100,4,3,3,50,0,0
290755,-100,4,3,8,50,0,0
291300,-100,4,3,1,50,0,0
291573,-100,4,3,11,50,0,0
291846,-100,4,3,1,50,0,0
292391,-133.333333333333,4,3,8,50,0,0
295664,-133.333333333333,4,3,15,50,0,0
295800,-133.333333333333,4,3,12,50,0,0
296209,-133.333333333333,4,3,11,50,0,0
296482,-133.333333333333,4,3,10,50,0,0
296755,-100,4,3,32,50,0,1
296891,-100,4,3,5,50,0,1
298323,-100,4,3,69,5,0,1
298391,-100,4,3,5,50,0,1
298868,-100,4,3,69,5,0,1
298937,-100,4,3,1,50,0,1
299209,-100,4,3,5,50,0,1
300846,-100,4,3,8,50,0,1
301118,-83.3333333333333,4,3,30,50,0,1
301255,-83.3333333333333,4,3,6,50,0,1
305209,-83.3333333333333,4,3,7,50,0,1
305482,-100,4,3,30,50,0,1
305550,-100,4,3,11,50,0,1
306096,-100,4,3,10,50,0,1
306573,-100,4,3,1,50,0,1
306982,-100,4,3,10,50,0,1
307664,-90.9090909090909,4,3,1,50,0,0
309846,-83.3333333333333,4,3,34,50,0,1
309982,-83.3333333333333,4,3,4,50,0,1
314209,-83.3333333333333,4,3,8,65,0,1
314346,-83.3333333333333,4,3,4,65,0,1
318300,-83.3333333333333,4,3,1,65,0,1
318437,-83.3333333333333,4,3,21,65,0,1
318505,-83.3333333333333,4,3,69,5,0,1
318573,-83.3333333333333,4,3,32,65,0,1
318641,-83.3333333333333,4,3,4,65,0,1
320755,-74.0740740740741,4,3,4,65,0,1
321846,-66.6666666666667,4,3,4,65,0,1
322937,-83.3333333333333,4,3,30,65,0,1
323073,-83.3333333333333,4,3,26,65,0,1
323209,-83.3333333333333,4,3,6,65,0,1
324300,-83.3333333333333,4,3,6,65,0,1
324573,-83.3333333333333,4,3,6,65,0,1
324982,-83.3333333333333,4,3,27,65,0,1
325050,-83.3333333333333,4,3,69,5,0,1
325118,-66.6666666666667,4,3,8,75,0,1
325255,-66.6666666666667,4,3,11,75,0,1
325323,-66.6666666666667,4,3,8,75,0,1
325527,-66.6666666666667,4,3,11,75,0,1
325596,-66.6666666666667,4,3,8,75,0,1
325937,-66.6666666666667,4,3,10,75,0,1
326209,-66.6666666666667,4,3,8,75,0,1
326482,-66.6666666666667,4,3,11,75,0,1
326755,-66.6666666666667,4,3,1,75,0,1
326891,-66.6666666666667,4,3,11,75,0,1
327300,-90.9090909090909,4,3,8,50,0,1
327709,-90.9090909090909,4,3,26,50,0,1
327777,-90.9090909090909,4,3,69,5,0,1
327846,-90.9090909090909,4,3,8,50,0,1
328937,-90.9090909090909,4,3,15,50,0,1
329209,-90.9090909090909,4,3,7,50,0,1
329482,-90.9090909090909,4,3,8,50,0,1
329891,-90.9090909090909,4,3,26,50,0,1
329959,-90.9090909090909,4,3,69,5,0,1
330027,-90.9090909090909,4,3,8,50,0,1
330368,-90.9090909090909,4,3,69,5,0,1
330437,-90.9090909090909,4,3,8,50,0,1
331118,-83.3333333333333,4,3,6,50,0,1
331391,-76.9230769230769,4,3,6,70,0,1
331664,-71.4285714285714,4,3,8,70,0,1
332550,-71.4285714285714,4,3,69,5,0,1
332618,-71.4285714285714,4,3,8,70,0,1
333300,-71.4285714285714,4,3,15,70,0,1
333573,-71.4285714285714,4,3,7,70,0,1
333846,-71.4285714285714,4,3,8,70,0,1
334255,-71.4285714285714,4,3,26,70,0,1
334323,-71.4285714285714,4,3,69,5,0,1
334391,-71.4285714285714,4,3,8,70,0,1
334596,-71.4285714285714,4,3,11,70,0,1
334800,-71.4285714285714,4,3,10,70,0,1
334937,-71.4285714285714,4,3,8,70,0,1
336027,-100,4,3,69,5,0,0
336846,-100,4,3,1,50,0,0
337050,-100,4,3,69,5,0,0
337118,-100,4,3,1,50,0,0
340255,-100,4,3,21,50,0,0
340323,-100,4,3,69,5,0,0
340391,-100,4,3,1,50,0,0
341346,-100,4,3,21,50,0,0
341414,-100,4,3,69,50,0,0
341482,-133.333333333333,4,3,1,50,0,0
342232,-133.333333333333,4,3,69,5,0,0
342300,-133.333333333333,4,3,1,50,0,0
342573,-100,4,3,1,50,0,0
343664,-83.3333333333333,4,3,34,50,0,1
343732,-83.3333333333333,4,3,6,50,0,1
348027,-100,4,3,1,50,0,0
348300,-100,4,3,1,25,0,0
348368,-100,4,3,1,35,0,0
348437,-100,4,3,1,50,0,0
348641,-100,4,3,11,50,0,0
349118,-100,4,3,1,50,0,0
349255,-100,4,3,11,50,0,0
349664,-100,4,3,10,50,0,0
350209,-100,4,3,8,50,0,0
350618,-100,4,1,10,50,0,0
351027,-100,4,3,1,50,0,0
351232,-100,4,3,11,50,0,0
351846,-100,4,3,1,50,0,0
352323,-100,4,3,69,50,0,0
352391,-76.9230769230769,4,3,30,70,0,0
352527,-76.9230769230769,4,3,4,70,0,0
353482,-76.9230769230769,4,3,22,70,0,0
353550,-76.9230769230769,4,3,69,5,0,0
353618,-76.9230769230769,4,3,4,70,0,0
356482,-76.9230769230769,4,3,8,70,0,0
356755,-100,4,3,1,50,0,0
357027,-100,4,3,4,50,0,0
357300,-100,4,3,23,50,0,0
357368,-100,4,3,69,5,0,0
357437,-100,4,3,4,50,0,0
357573,-100,4,3,22,50,0,0
357641,-100,4,3,69,5,0,0
357709,-100,4,3,4,50,0,0
357846,-100,4,3,23,50,0,0
357914,-100,4,3,69,5,0,0
357982,-100,4,3,4,50,0,0
358664,-100,4,3,22,50,0,0
358732,-100,4,3,69,5,0,0
358800,-100,4,3,4,50,0,0
358937,-100,4,3,1,50,0,0
359209,-100,4,3,5,50,0,0
359346,-100,4,3,8,50,0,0
359550,-100,4,3,69,5,0,0
359618,-100,4,3,5,50,0,0
359891,-100,4,3,1,50,0,0
360164,-100,4,3,11,50,0,0
360300,-100,4,3,12,50,0,0
360846,-100,4,3,7,50,0,0
361118,-71.4285714285714,4,3,30,70,0,1
361255,-71.4285714285714,4,3,1,70,0,1
365209,-71.4285714285714,4,3,7,70,0,1
365482,-100,4,3,1,50,0,1
365755,-100,4,3,4,50,0,1
366027,-100,4,3,23,50,0,1
366096,-100,4,3,69,5,0,1
366164,-100,4,3,4,50,0,1
366300,-100,4,3,22,50,0,1
366368,-100,4,3,69,5,0,1
366437,-100,4,3,4,50,0,1
366573,-100,4,3,23,50,0,1
366641,-100,4,3,69,5,0,1
366709,-100,4,3,4,50,0,1
367050,-100,4,3,69,5,0,1
367118,-100,4,3,4,50,0,1
367596,-100,4,3,69,5,0,1
367664,-100,4,3,1,50,0,1
367937,-100,4,3,5,50,0,1
368073,-100,4,3,8,50,0,1
368482,-100,4,3,5,50,0,1
368618,-100,4,3,1,50,0,1
368891,-100,4,3,11,50,0,1
369027,-100,4,3,12,50,0,1
369709,-100,4,3,1,50,0,1
369846,-200,4,2,1,50,0,0
372027,-200,4,2,2,50,0,0
372164,-200,4,2,1,50,0,0
373118,-200,4,2,3,50,0,0
373255,-200,4,2,1,50,0,0
374209,-200,4,2,2,50,0,0
374346,-200,4,2,1,50,0,0
377482,-200,4,2,2,50,0,0
377618,-200,4,2,1,50,0,0
380755,-200,4,2,3,50,0,0
381846,-200,4,2,4,50,0,0
381982,-200,4,2,1,50,0,0
382391,-200,4,2,3,50,0,0
382937,-200,4,2,1,50,0,0
384027,-200,4,2,2,50,0,0
384164,-200,4,2,1,50,0,0
385118,-200,4,2,3,50,0,0
385255,-200,4,2,1,50,0,0
387300,-200,4,2,2,50,0,0
388391,-133.333333333333,4,3,0,50,0,0
388527,-133.333333333333,4,3,1,50,0,0
388868,-133.333333333333,4,3,69,5,0,0
388937,-100,4,3,0,50,0,0
389073,-100,4,3,1,50,0,0
389391,-100,4,3,69,5,0,0
389482,-83.3333333333333,4,3,33,50,0,1
389618,-83.3333333333333,4,3,69,5,0,1
389664,-83.3333333333333,4,3,6,50,0,1
389800,-83.3333333333333,4,3,69,5,0,1
389846,-83.3333333333333,4,3,6,50,0,1
389982,-83.3333333333333,4,3,69,5,0,1
390027,-83.3333333333333,4,3,6,50,0,1
390164,-83.3333333333333,4,3,69,5,0,1
390209,-83.3333333333333,4,3,6,50,0,1
390346,-83.3333333333333,4,3,69,5,0,1
390391,-83.3333333333333,4,3,6,50,0,1
390527,-83.3333333333333,4,3,69,5,0,1
390573,-83.3333333333333,4,3,6,50,0,1
390709,-83.3333333333333,4,3,69,5,0,1
390755,-83.3333333333333,4,3,6,50,0,1
390891,-83.3333333333333,4,3,69,5,0,1
390937,-83.3333333333333,4,3,6,50,0,1
391073,-83.3333333333333,4,3,69,5,0,1
391118,-83.3333333333333,4,3,6,50,0,1
391255,-83.3333333333333,4,3,69,5,0,1
391300,-83.3333333333333,4,3,6,50,0,1
391437,-83.3333333333333,4,3,69,5,0,1
391482,-83.3333333333333,4,3,6,50,0,1
391618,-83.3333333333333,4,3,69,5,0,1
391664,-83.3333333333333,4,3,6,50,0,1
391800,-83.3333333333333,4,3,69,5,0,1
391846,-83.3333333333333,4,3,6,50,0,1
391982,-83.3333333333333,4,3,69,5,0,1
392027,-83.3333333333333,4,3,6,50,0,1
392164,-83.3333333333333,4,3,69,5,0,1
392209,-83.3333333333333,4,3,6,50,0,1
392346,-83.3333333333333,4,3,69,5,0,1
392391,-83.3333333333333,4,3,6,50,0,1
392527,-83.3333333333333,4,3,69,5,0,1
392573,-83.3333333333333,4,3,6,50,0,1
392709,-83.3333333333333,4,3,69,5,0,1
392755,-83.3333333333333,4,3,6,50,0,1
392891,-83.3333333333333,4,3,69,5,0,1
392937,-83.3333333333333,4,3,6,50,0,1
393073,-83.3333333333333,4,3,69,5,0,1
393118,-83.3333333333333,4,3,6,50,0,1
393255,-83.3333333333333,4,3,69,5,0,1
393300,-83.3333333333333,4,3,6,50,0,1
393573,-83.3333333333333,4,3,69,5,0,1
393618,-83.3333333333333,4,3,6,50,0,1
393800,-83.3333333333333,4,3,69,5,0,1
393846,-83.3333333333333,4,3,6,50,0,1
394118,-83.3333333333333,4,3,1,50,0,1
394164,-83.3333333333333,4,3,69,5,0,1
394209,-83.3333333333333,4,3,6,50,0,1
394346,-83.3333333333333,4,3,69,5,0,1
394391,-83.3333333333333,4,3,6,50,0,1
394527,-83.3333333333333,4,3,69,5,0,1
394573,-83.3333333333333,4,3,6,50,0,1
394709,-83.3333333333333,4,3,69,5,0,1
394755,-83.3333333333333,4,3,6,50,0,1
394891,-83.3333333333333,4,3,69,5,0,1
394937,-83.3333333333333,4,3,6,50,0,1
395073,-83.3333333333333,4,3,69,5,0,1
395118,-83.3333333333333,4,3,6,50,0,1
395255,-83.3333333333333,4,3,69,5,0,1
395300,-83.3333333333333,4,3,6,50,0,1
395437,-83.3333333333333,4,3,69,5,0,1
395482,-83.3333333333333,4,3,6,50,0,1
395618,-83.3333333333333,4,3,69,5,0,1
395664,-83.3333333333333,4,3,6,50,0,1
395800,-83.3333333333333,4,3,69,5,0,1
395846,-83.3333333333333,4,3,6,50,0,1
395982,-83.3333333333333,4,3,69,5,0,1
396027,-83.3333333333333,4,3,6,50,0,1
396164,-83.3333333333333,4,3,69,5,0,1
396209,-83.3333333333333,4,3,6,50,0,1
396346,-83.3333333333333,4,3,69,5,0,1
396391,-83.3333333333333,4,3,6,50,0,1
396527,-83.3333333333333,4,3,69,5,0,1
396573,-83.3333333333333,4,3,6,50,0,1
396709,-83.3333333333333,4,3,69,5,0,1
396755,-83.3333333333333,4,3,6,50,0,1
396891,-83.3333333333333,4,3,69,5,0,1
396937,-83.3333333333333,4,3,6,50,0,1
397073,-83.3333333333333,4,3,69,5,0,1
397118,-83.3333333333333,4,3,6,50,0,1
397255,-83.3333333333333,4,3,69,5,0,1
397300,-83.3333333333333,4,3,6,50,0,1
397437,-83.3333333333333,4,3,69,5,0,1
397482,-83.3333333333333,4,3,1,50,0,0
397664,-83.3333333333333,4,3,11,50,0,0
398209,-83.3333333333333,4,3,34,50,0,0
398300,-83.3333333333333,4,3,15,50,0,0
398755,-83.3333333333333,4,3,7,50,0,0
402118,-83.3333333333333,4,3,12,50,0,0
402482,-83.3333333333333,4,3,11,50,0,0
402573,-83.3333333333333,4,3,15,50,0,0
403664,-83.3333333333333,4,3,7,50,0,0
404482,-83.3333333333333,4,3,12,50,0,0
404755,-83.3333333333333,4,3,15,50,0,0
405846,-83.3333333333333,4,3,7,50,0,0
406027,-83.3333333333333,4,3,11,50,0,0
406391,-83.3333333333333,4,3,10,50,0,0
406573,-83.3333333333333,4,3,11,50,0,0
406755,-83.3333333333333,4,3,12,50,0,0
406937,-76.9230769230769,4,3,34,50,0,1
407027,-76.9230769230769,4,3,15,50,0,1
407482,-76.9230769230769,4,3,6,50,0,1
410755,-83.3333333333333,4,3,6,50,0,1
414573,-83.3333333333333,4,3,8,50,0,1
415118,-83.3333333333333,4,3,12,50,0,1
415300,-83.3333333333333,4,3,11,50,0,1
415482,-83.3333333333333,4,3,10,50,0,1
415664,-83.3333333333333,4,3,30,50,0,1
415755,-83.3333333333333,4,3,15,50,0,1
416209,-83.3333333333333,4,3,7,50,0,1
419573,-83.3333333333333,4,3,12,50,0,1
419755,-83.3333333333333,4,3,11,50,0,1
419937,-83.3333333333333,4,3,10,50,0,1
420027,-83.3333333333333,4,3,15,50,0,1
421118,-83.3333333333333,4,3,7,50,0,1
422209,-83.3333333333333,4,3,15,50,0,1
422755,-83.3333333333333,4,3,7,50,0,1
423391,-83.3333333333333,4,3,12,50,0,1
423755,-83.3333333333333,4,3,11,50,0,1
423846,-83.3333333333333,4,3,15,50,0,1
423937,-83.3333333333333,4,3,11,50,0,1
424209,-83.3333333333333,4,3,10,50,0,1
424391,-125,4,3,8,50,0,0
426982,-125,4,3,1,50,0,0
427050,-125,4,3,69,5,0,0
427118,-125,4,3,8,50,0,0
427664,-125,4,3,6,50,0,0
427846,-125,4,3,11,50,0,0
428209,-125,4,3,1,50,0,0
428391,-125,4,3,11,50,0,0
428755,545.454545454546,4,3,30,30,1,0
428755,-66.6666666666667,4,3,30,30,0,0
429027,-66.6666666666667,4,3,8,30,0,0
429845,-66.6666666666667,4,3,6,30,0,0
431209,-66.6666666666667,4,3,69,5,0,0
431345,-66.6666666666667,4,3,6,30,0,0
431618,-66.6666666666667,4,3,69,5,0,0
431755,-66.6666666666667,4,3,6,30,0,0
433391,-66.6666666666667,4,3,6,30,0,0
437482,-66.6666666666667,4,3,33,30,0,0
437573,-66.6666666666667,4,3,6,30,0,0
445391,-66.6666666666667,4,3,12,30,0,0
445664,-66.6666666666667,4,3,11,30,0,0
445936,-66.6666666666667,4,3,10,30,0,0
446209,-66.6666666666667,4,3,30,30,0,0
446482,-66.6666666666667,4,3,1,30,0,0
447300,-66.6666666666667,4,3,6,30,0,0
451936,-66.6666666666667,4,3,69,5,0,0
452073,-66.6666666666667,4,3,6,30,0,0
452345,-66.6666666666667,4,3,69,5,0,0
452482,-66.6666666666667,4,3,6,30,0,0
454936,-66.6666666666667,4,3,30,30,0,0
455209,-66.6666666666667,4,3,1,30,0,0
456027,-66.6666666666667,4,3,6,30,0,0
457118,603.015075376884,4,3,1,30,1,0
457118,-97.0873786407767,4,3,1,30,0,0
458022,588.235294117647,4,3,1,30,1,0
458022,-100,4,3,1,30,0,0
458316,659.848234905972,4,3,1,30,1,0
458316,-500,4,3,1,30,0,0
458357,-500,4,3,1,5,0,0
463594,272.727272727273,4,3,34,50,1,1
463594,-83.3333333333333,4,3,34,50,0,1
463662,-83.3333333333333,4,3,6,50,0,1
465775,-83.3333333333333,4,3,1,50,0,1
465912,-83.3333333333333,4,3,6,50,0,1
467139,-83.3333333333333,4,3,8,50,0,1
467275,-83.3333333333333,4,3,6,50,0,1
467957,-83.3333333333333,4,3,3,50,0,1
468094,-83.3333333333333,4,3,6,50,0,1
470139,-83.3333333333333,4,3,8,50,0,1
470275,-83.3333333333333,4,3,6,50,0,1
471912,-83.3333333333333,4,3,8,50,0,1
472184,-83.3333333333333,4,3,15,50,0,1
472321,-83.3333333333333,4,3,34,50,0,1
472389,-83.3333333333333,4,3,1,50,0,1
473412,-83.3333333333333,4,3,3,50,0,1
473684,-83.3333333333333,4,3,1,50,0,1
474503,-83.3333333333333,4,3,3,50,0,1
474775,-83.3333333333333,4,3,1,50,0,1
475594,-83.3333333333333,4,3,3,50,0,1
475866,-83.3333333333333,4,3,1,50,0,1
476139,-83.3333333333333,4,3,15,50,0,1
476412,-83.3333333333333,4,3,7,50,0,1
476684,-83.3333333333333,4,3,8,50,0,1
477503,-83.3333333333333,4,3,11,50,0,1
477775,-83.3333333333333,4,3,8,50,0,1
479275,-83.3333333333333,4,3,3,50,0,1
479548,-83.3333333333333,4,3,1,50,0,1
480230,-83.3333333333333,4,3,16,50,0,1
480503,-83.3333333333333,4,3,7,50,0,1
480775,-83.3333333333333,4,3,15,50,0,1
481048,-83.3333333333333,4,3,3,50,0,1
481594,-83.3333333333333,4,3,11,50,0,1
481866,-83.3333333333333,4,3,10,50,0,1
482139,-83.3333333333333,4,3,8,50,0,1
482412,-83.3333333333333,4,3,11,50,0,1
482684,-83.3333333333333,4,3,8,50,0,1
482957,-83.3333333333333,4,3,11,50,0,1
483230,-100,4,3,1,50,0,0
483503,-100,4,3,11,50,0,0
483775,-100,4,3,1,50,0,0
483912,-100,4,3,10,50,0,0
484321,-100,4,3,1,50,0,0
484412,-100,4,3,12,50,0,0
484684,-100,4,3,11,50,0,0
484957,-100,4,3,10,50,0,0
485139,-100,4,3,3,50,0,0
485412,-100,4,3,30,50,0,0
485480,-100,4,3,2,50,0,0
487662,-100,4,3,2,70,0,0
489912,-100,4,3,2,90,0,0

[Colours]
Combo1 : 189,134,51
Combo2 : 150,16,16
Combo3 : 222,221,220
Combo4 : 125,92,72
Combo5 : 244,55,55

[HitObjects]
65,21,1120,5,6,0:0:0:0:
72,52,1188,1,8,0:0:0:0:
80,85,1256,1,8,0:0:0:0:
88,118,1324,1,8,0:0:0:0:
96,151,1392,1,8,0:0:0:0:
105,184,1460,1,4,0:0:0:0:
114,218,1529,1,4,0:0:0:0:
123,251,1597,1,4,0:0:0:0:
132,284,1665,1,4,0:0:0:0:
148,314,1733,1,8,0:0:0:0:
175,335,1801,1,8,0:0:0:0:
209,344,1870,1,8,0:0:0:0:
243,345,1938,1,8,0:0:0:0:
276,334,2006,1,4,0:0:0:0:
309,311,2074,2,4,L|328:265,1,50
350,153,2210,5,6,0:0:0:0:
355,138,2279,1,8,0:0:0:0:
356,123,2347,1,8,0:0:0:0:
355,108,2415,1,8,0:0:0:0:
350,93,2484,1,4,0:0:0:0:
344,79,2552,1,4,0:0:0:0:
335,66,2620,2,4,L|384:37,1,50
480,0,2756,5,6,0:0:0:0:
500,56,2824,1,8,0:0:0:0:
507,115,2893,1,8,0:0:0:0:
505,174,2961,1,8,0:0:0:0:
493,232,3029,1,4,0:0:0:0:
463,284,3097,1,4,0:0:0:0:
417,322,3165,2,4,L|367:308,1,50
188,164,3301,5,6,0:0:0:0:
158,157,3369,1,8,0:0:0:0:
128,150,3437,1,8,0:0:0:0:
99,143,3505,1,8,0:0:0:0:
69,148,3573,1,8,0:0:0:0:
44,165,3642,1,4,0:0:0:0:
30,191,3710,1,4,0:0:0:0:
30,220,3778,1,4,0:0:0:0:
42,247,3846,1,4,0:0:0:0:
63,267,3914,1,8,0:0:0:0:
93,271,3983,1,8,0:0:0:0:
122,264,4051,1,8,0:0:0:0:
147,247,4119,1,8,0:0:0:0:
160,220,4187,1,4,0:0:0:0:
158,189,4256,1,4,0:0:0:0:
144,162,4324,1,4,0:0:0:0:
119,144,4392,6,0,P|165:104|252:119,1,150,6|0,0:0|0:0,0:0:0:0:
347,285,4665,2,0,P|301:325|229:315,1,134.999995880127,6|0,0:0|0:0,0:0:0:0:
251,130,4938,2,0,L|274:247,1,120,6|0,0:0|0:0,0:0:0:0:
425,272,5210,2,0,L|445:168,1,104.999996795654,6|0,0:0|0:0,0:0:0:0:
459,89,5483,5,6,0:0:0:0:
444,62,5551,1,8,0:0:0:0:
420,42,5620,1,8,0:0:0:0:
391,34,5688,1,8,0:0:0:0:
361,32,5756,1,8,0:0:0:0:
332,40,5824,1,4,0:0:0:0:
306,56,5892,1,4,0:0:0:0:
292,82,5960,1,4,0:0:0:0:
285,111,6029,1,4,0:0:0:0:
287,140,6097,1,8,0:0:0:0:
299,167,6165,1,8,0:0:0:0:
315,192,6233,1,8,0:0:0:0:
325,219,6301,1,8,0:0:0:0:
327,249,6370,1,4,0:0:0:0:
321,278,6438,2,4,L|296:321,1,50
165,337,6574,5,4,0:0:0:0:
150,338,6642,1,4,0:0:0:0:
135,337,6710,1,8,0:0:0:0:
121,331,6778,1,8,0:0:0:0:
109,321,6847,1,8,0:0:0:0:
99,309,6915,1,6,0:0:0:0:
95,294,6983,2,4,L|146:275,1,50
248,334,7119,5,4,0:0:0:0:
304,354,7187,1,4,0:0:0:0:
364,360,7256,1,8,0:0:0:0:
419,336,7324,1,8,0:0:0:0:
463,295,7392,1,8,0:0:0:0:
486,239,7461,1,6,0:0:0:0:
486,179,7529,1,0,0:0:0:0:
462,123,7597,1,0,0:0:0:0:
419,81,7665,5,6,0:0:0:0:
397,126,7733,1,4,0:0:0:0:
378,172,7801,1,12,0:0:0:0:
358,218,7870,1,12,0:0:0:0:
337,263,7938,1,4,0:0:0:0:
317,309,8006,1,4,0:0:0:0:
277,340,8074,1,12,0:0:0:0:
228,349,8142,1,12,0:0:0:0:
178,343,8210,1,4,0:0:0:0:
136,312,8279,1,4,0:0:0:0:
110,269,8347,1,4,0:0:0:0:
109,219,8415,1,4,0:0:0:0:
136,177,8483,1,8,0:0:0:0:
178,151,8551,1,8,0:0:0:0:
206,109,8620,1,8,0:0:0:0:
196,59,8688,1,8,0:0:0:0:
143,38,8756,5,4,0:0:0:0:
141,79,8824,1,4,0:0:0:0:
141,118,8892,1,4,0:0:0:0:
139,158,8960,1,4,0:0:0:0:
135,199,9029,1,8,0:0:0:0:
134,239,9097,1,8,0:0:0:0:
120,275,9165,1,8,0:0:0:0:
87,297,9233,1,8,0:0:0:0:
47,299,9301,1,4,0:0:0:0:
15,274,9370,1,4,0:0:0:0:
1,236,9438,1,4,0:0:0:0:
9,196,9506,1,4,0:0:0:0:
40,172,9574,1,14,0:0:0:0:
278,229,9710,1,4,0:0:0:0:
88,328,9847,6,0,P|140:369|228:364,1,150,6|0,0:0|0:0,0:0:0:0:
319,345,10120,1,14,0:0:0:0:
328,295,10188,1,4,0:0:0:0:
337,246,10256,1,14,0:0:0:0:
346,197,10324,1,4,0:0:0:0:
355,148,10392,1,14,0:0:0:0:
365,99,10460,1,4,0:0:0:0:
390,55,10529,1,14,0:0:0:0:
437,41,10597,1,4,0:0:0:0:
484,55,10665,1,14,0:0:0:0:
503,100,10733,1,4,0:0:0:0:
488,147,10801,1,14,0:0:0:0:
443,170,10870,1,4,0:0:0:0:
394,158,10938,5,14,0:0:0:0:
371,113,11006,1,4,0:0:0:0:
330,83,11074,1,14,0:0:0:0:
280,77,11142,1,4,0:0:0:0:
233,94,11210,1,14,0:0:0:0:
208,138,11279,1,4,0:0:0:0:
209,187,11347,1,14,0:0:0:0:
230,231,11415,1,4,0:0:0:0:
232,280,11483,1,14,0:0:0:0:
208,323,11551,1,4,0:0:0:0:
163,347,11620,1,14,0:0:0:0:
113,345,11688,1,4,0:0:0:0:
73,314,11756,1,14,0:0:0:0:
56,267,11824,1,4,0:0:0:0:
60,217,11892,1,14,0:0:0:0:
90,177,11960,1,4,0:0:0:0:
137,158,12029,5,14,0:0:0:0:
121,110,12097,1,4,0:0:0:0:
141,64,12165,1,14,0:0:0:0:
186,43,12233,1,4,0:0:0:0:
234,54,12301,1,14,0:0:0:0:
267,91,12370,1,4,0:0:0:0:
314,110,12438,1,14,0:0:0:0:
363,109,12506,1,4,0:0:0:0:
407,86,12574,1,14,0:0:0:0:
456,79,12642,1,4,0:0:0:0:
495,109,12710,1,14,0:0:0:0:
496,159,12779,1,4,0:0:0:0:
458,191,12847,1,14,0:0:0:0:
408,185,12915,1,4,0:0:0:0:
380,143,12983,1,14,0:0:0:0:
400,97,13051,1,4,0:0:0:0:
415,48,13120,5,14,0:0:0:0:
383,9,13188,1,4,0:0:0:0:
333,4,13256,1,14,0:0:0:0:
301,42,13324,1,4,0:0:0:0:
305,91,13392,1,14,0:0:0:0:
343,122,13460,1,4,0:0:0:0:
364,167,13529,1,14,0:0:0:0:
359,216,13597,1,4,0:0:0:0:
323,251,13665,1,14,0:0:0:0:
273,259,13733,1,4,0:0:0:0:
227,239,13801,1,14,0:0:0:0:
200,195,13870,1,4,0:0:0:0:
207,145,13938,1,14,0:0:0:0:
235,104,14006,1,4,0:0:0:0:
282,90,14074,1,14,0:0:0:0:
331,96,14142,1,4,0:0:0:0:
373,122,14210,5,14,0:0:0:0:
348,166,14279,1,4,0:0:0:0:
323,209,14347,1,14,0:0:0:0:
297,251,14415,1,4,0:0:0:0:
271,293,14483,1,14,0:0:0:0:
230,322,14551,1,4,0:0:0:0:
179,328,14620,1,14,0:0:0:0:
132,310,14688,1,4,0:0:0:0:
105,267,14756,1,14,0:0:0:0:
100,217,14824,1,4,0:0:0:0:
124,173,14892,1,14,0:0:0:0:
169,151,14960,1,4,0:0:0:0:
219,151,15029,5,14,0:0:0:0:
213,200,15097,1,4,0:0:0:0:
208,249,15165,1,14,0:0:0:0:
203,298,15233,1,4,0:0:0:0:
199,347,15301,1,14,0:0:0:0:
245,327,15370,1,4,0:0:0:0:
290,305,15438,1,14,0:0:0:0:
335,284,15506,1,4,0:0:0:0:
379,261,15574,1,14,0:0:0:0:
338,232,15642,1,4,0:0:0:0:
297,202,15710,1,14,0:0:0:0:
254,173,15779,1,4,0:0:0:0:
211,146,15847,1,14,0:0:0:0:
170,173,15915,1,4,0:0:0:0:
127,202,15983,1,14,0:0:0:0:
86,232,16051,1,4,0:0:0:0:
45,261,16120,1,14,0:0:0:0:
87,286,16188,1,4,0:0:0:0:
130,310,16256,1,14,0:0:0:0:
173,334,16324,1,4,0:0:0:0:
218,354,16392,5,14,0:0:0:0:
212,304,16460,1,4,0:0:0:0:
209,253,16529,1,14,0:0:0:0:
204,203,16597,1,4,0:0:0:0:
201,153,16665,1,14,0:0:0:0:
213,104,16733,1,4,0:0:0:0:
250,71,16801,1,14,0:0:0:0:
300,67,16870,1,4,0:0:0:0:
345,87,16938,1,14,0:0:0:0:
368,131,17006,1,4,0:0:0:0:
385,177,17074,1,14,0:0:0:0:
436,197,17142,1,4,0:0:0:0:
485,187,17210,1,14,0:0:0:0:
509,142,17279,1,4,0:0:0:0:
507,97,17347,1,14,0:0:0:0:
465,61,17415,1,4,0:0:0:0:
392,54,17483,6,0,L|338:48,3,50,6|4|4|4,0:0|0:0|0:0|0:0,0:0:0:0:
312,163,17756,2,8,L|258:169,3,50
236,34,18029,2,8,L|182:28,3,50,14|12|12|12,0:0|0:0|0:0|0:0,0:0:0:0:
162,177,18302,2,8,L|108:183,3,50
59,105,18574,5,6,0:0:0:0:
21,137,18642,1,4,0:0:0:0:
3,183,18710,1,14,0:0:0:0:
0,233,18779,1,4,0:0:0:0:
14,280,18847,1,14,0:0:0:0:
49,315,18915,1,4,0:0:0:0:
95,332,18983,1,14,0:0:0:0:
144,329,19051,1,4,0:0:0:0:
191,312,19120,1,14,0:0:0:0:
240,308,19188,1,4,0:0:0:0:
287,323,19256,1,14,0:0:0:0:
331,346,19324,1,4,0:0:0:0:
380,353,19392,1,14,0:0:0:0:
428,343,19460,1,4,0:0:0:0:
469,313,19529,1,14,0:0:0:0:
489,267,19597,1,4,0:0:0:0:
490,217,19665,5,14,0:0:0:0:
473,170,19733,1,4,0:0:0:0:
434,138,19801,1,14,0:0:0:0:
385,123,19870,1,4,0:0:0:0:
335,127,19938,1,14,0:0:0:0:
291,103,20006,1,4,0:0:0:0:
279,54,20074,1,14,0:0:0:0:
307,12,20142,1,4,0:0:0:0:
356,5,20210,1,14,0:0:0:0:
398,31,20279,1,4,0:0:0:0:
406,80,20347,1,14,0:0:0:0:
385,123,20415,1,4,0:0:0:0:
338,141,20483,1,14,0:0:0:0:
288,137,20551,1,4,0:0:0:0:
242,114,20620,1,14,0:0:0:0:
193,101,20688,1,4,0:0:0:0:
143,105,20756,5,14,0:0:0:0:
99,128,20824,1,4,0:0:0:0:
71,169,20892,1,14,0:0:0:0:
64,218,20960,1,4,0:0:0:0:
77,266,21029,1,14,0:0:0:0:
109,304,21097,1,4,0:0:0:0:
156,319,21165,1,14,0:0:0:0:
205,322,21233,1,4,0:0:0:0:
250,301,21301,1,14,0:0:0:0:
258,251,21370,1,4,0:0:0:0:
225,212,21438,1,14,0:0:0:0:
175,208,21506,1,4,0:0:0:0:
128,226,21574,1,14,0:0:0:0:
78,223,21642,1,4,0:0:0:0:
44,186,21710,1,14,0:0:0:0:
42,135,21779,1,4,0:0:0:0:
77,100,21847,5,14,0:0:0:0:
126,95,21915,1,4,0:0:0:0:
171,114,21983,1,14,0:0:0:0:
220,115,22051,1,4,0:0:0:0:
266,95,22120,1,14,0:0:0:0:
299,57,22188,1,4,0:0:0:0:
343,35,22256,1,14,0:0:0:0:
392,36,22324,1,4,0:0:0:0:
434,61,22392,1,14,0:0:0:0:
453,106,22460,1,4,0:0:0:0:
443,155,22529,1,14,0:0:0:0:
405,187,22597,1,4,0:0:0:0:
386,233,22665,1,14,0:0:0:0:
387,282,22733,1,4,0:0:0:0:
412,325,22801,1,14,0:0:0:0:
455,350,22870,1,4,0:0:0:0:
504,351,22938,5,14,0:0:0:0:
475,298,23006,1,4,0:0:0:0:
421,271,23074,1,14,0:0:0:0:
362,258,23142,1,4,0:0:0:0:
302,263,23210,1,14,0:0:0:0:
249,294,23279,1,4,0:0:0:0:
189,299,23347,1,14,0:0:0:0:
133,276,23415,1,4,0:0:0:0:
92,231,23483,1,14,0:0:0:0:
80,172,23551,1,4,0:0:0:0:
92,112,23620,1,14,0:0:0:0:
132,67,23688,1,4,0:0:0:0:
189,50,23756,1,14,0:0:0:0:
248,53,23824,1,4,0:0:0:0:
296,88,23892,1,14,0:0:0:0:
320,142,23960,1,4,0:0:0:0:
316,202,24029,5,14,0:0:0:0:
342,148,24097,1,4,0:0:0:0:
398,129,24165,1,14,0:0:0:0:
456,141,24233,1,4,0:0:0:0:
499,182,24301,1,14,0:0:0:0:
507,242,24370,1,4,0:0:0:0:
486,298,24438,1,14,0:0:0:0:
435,329,24506,1,4,0:0:0:0:
376,339,24574,5,14,0:0:0:0:
337,293,24642,1,4,0:0:0:0:
296,249,24710,1,14,0:0:0:0:
256,202,24779,1,4,0:0:0:0:
216,157,24847,1,14,0:0:0:0:
212,216,24915,1,4,0:0:0:0:
190,272,24983,1,14,0:0:0:0:
146,312,25051,1,4,0:0:0:0:
95,335,25120,6,0,L|85:284,1,50,10|0,0:0|0:0,0:0:0:0:
50,126,25256,1,4,0:0:0:0:
50,126,25324,1,4,0:0:0:0:
50,126,25392,1,4,0:0:0:0:
184,296,25529,6,0,L|183:244,1,50,10|0,0:0|0:0,0:0:0:0:
180,80,25665,1,4,0:0:0:0:
180,80,25733,1,4,0:0:0:0:
180,80,25801,1,6,0:0:0:0:
284,273,25938,5,4,0:0:0:0:
289,281,26006,1,4,0:0:0:0:
294,289,26074,1,4,0:0:0:0:
299,297,26142,1,4,0:0:0:0:
342,311,26210,5,8,0:0:0:0:
358,263,26279,1,8,0:0:0:0:
373,215,26347,1,4,0:0:0:0:
388,167,26415,1,4,0:0:0:0:
401,108,26483,5,4,0:0:0:0:
380,51,26551,1,4,0:0:0:0:
327,20,26620,1,8,0:0:0:0:
267,22,26688,1,8,0:0:0:0:
208,60,26756,5,8,0:0:0:0:
192,128,26824,1,8,0:0:0:0:
216,193,26892,1,4,0:0:0:0:
278,223,26960,1,4,0:0:0:0:
348,221,27029,6,4,L|397:237,1,50
165,165,27165,2,4,L|116:181,1,50
401,76,27301,5,6,0:0:0:0:
135,36,27438,1,6,0:0:0:0:
410,240,27574,1,6,0:0:0:0:
105,184,27710,1,6,0:0:0:0:
331,362,27847,5,6,0:0:0:0:
239,126,27983,1,6,0:0:0:0:
67,338,28120,1,6,0:0:0:0:
345,207,28256,1,6,0:0:0:0:
77,126,28392,5,6,0:0:0:0:
158,363,28529,1,6,0:0:0:0:
274,144,28665,1,6,0:0:0:0:
31,31,28801,1,6,0:0:0:0:
130,292,28938,5,6,0:0:0:0:
245,45,29074,1,6,0:0:0:0:
309,299,29210,1,6,0:0:0:0:
424,52,29347,1,6,0:0:0:0:
383,323,29483,5,6,0:0:0:0:
339,27,29620,1,6,0:0:0:0:
303,322,29756,1,6,0:0:0:0:
251,34,29892,1,6,0:0:0:0:
153,341,30029,5,6,0:0:0:0:
356,173,30165,1,6,0:0:0:0:
70,139,30301,1,6,0:0:0:0:
263,340,30438,1,6,0:0:0:0:
172,96,30574,5,6,0:0:0:0:
132,360,30710,1,6,0:0:0:0:
360,272,30847,1,6,0:0:0:0:
86,152,30983,1,6,0:0:0:0:
373,35,31120,6,0,P|433:27|480:42,1,100,6|6,0:0|0:0,0:0:0:0:
386,327,31392,2,0,P|326:335|279:320,1,100,6|6,0:0|0:0,0:0:0:0:
193,169,31665,5,6,0:0:0:0:
424,46,31801,1,6,0:0:0:0:
94,102,31938,1,6,0:0:0:0:
354,146,32074,1,6,0:0:0:0:
151,30,32210,5,6,0:0:0:0:
433,129,32347,1,6,0:0:0:0:
117,191,32483,1,6,0:0:0:0:
467,290,32620,1,6,0:0:0:0:
244,322,32756,5,6,0:0:0:0:
297,74,32892,1,6,0:0:0:0:
370,359,33029,1,6,0:0:0:0:
202,164,33165,1,6,0:0:0:0:
431,112,33301,5,6,0:0:0:0:
370,359,33438,1,6,0:0:0:0:
297,74,33574,1,6,0:0:0:0:
467,290,33710,1,6,0:0:0:0:
173,359,33847,5,6,0:0:0:0:
173,359,33915,1,0,0:0:0:0:
173,359,33983,1,6,0:0:0:0:
160,156,34120,1,6,0:0:0:0:
18,307,34256,1,6,0:0:0:0:
254,309,34392,5,6,0:0:0:0:
16,211,34529,1,6,0:0:0:0:
83,373,34665,1,6,0:0:0:0:
201,127,34801,1,6,0:0:0:0:
184,378,34938,5,6,0:0:0:0:
86,111,35074,1,6,0:0:0:0:
18,307,35210,1,6,0:0:0:0:
269,191,35347,1,6,0:0:0:0:
3,131,35483,1,6,0:0:0:0:
280,32,35620,2,8,L|500:60,1,200,10|8,0:0|0:0,0:0:0:0:
365,161,36029,5,6,0:0:0:0:
316,171,36097,1,4,0:0:0:0:
266,172,36165,1,4,0:0:0:0:
218,157,36233,1,4,0:0:0:0:
176,129,36301,1,12,0:0:0:0:
126,118,36370,1,4,0:0:0:0:
76,124,36438,1,4,0:0:0:0:
35,152,36506,1,4,0:0:0:0:
19,199,36574,1,12,0:0:0:0:
28,247,36642,1,4,0:0:0:0:
59,285,36710,1,4,0:0:0:0:
107,298,36779,1,4,0:0:0:0:
156,293,36847,1,12,0:0:0:0:
196,263,36915,1,4,0:0:0:0:
212,216,36983,1,4,0:0:0:0:
211,166,37051,1,4,0:0:0:0:
204,115,37120,5,12,0:0:0:0:
169,163,37188,1,4,0:0:0:0:
112,181,37256,1,4,0:0:0:0:
56,157,37324,1,4,0:0:0:0:
31,102,37392,1,12,0:0:0:0:
42,43,37460,1,4,0:0:0:0:
91,7,37529,1,4,0:0:0:0:
150,2,37597,1,4,0:0:0:0:
200,33,37665,1,12,0:0:0:0:
217,90,37733,1,4,0:0:0:0:
203,139,37801,1,4,0:0:0:0:
159,181,37870,1,4,0:0:0:0:
102,200,37938,1,12,0:0:0:0:
68,249,38006,1,4,0:0:0:0:
78,307,38074,1,4,0:0:0:0:
128,339,38142,1,4,0:0:0:0:
187,341,38210,5,14,0:0:0:0:
237,348,38279,1,4,0:0:0:0:
286,356,38347,1,4,0:0:0:0:
335,364,38415,1,4,0:0:0:0:
384,372,38483,1,12,0:0:0:0:
407,325,38551,1,4,0:0:0:0:
427,278,38620,1,4,0:0:0:0:
446,232,38688,1,4,0:0:0:0:
465,186,38756,1,12,0:0:0:0:
476,137,38824,1,4,0:0:0:0:
464,88,38892,1,4,0:0:0:0:
424,57,38960,1,4,0:0:0:0:
373,53,39029,1,12,0:0:0:0:
331,80,39097,1,4,0:0:0:0:
320,128,39165,1,4,0:0:0:0:
335,175,39233,1,4,0:0:0:0:
380,195,39301,5,6,0:0:0:0:
418,182,39370,1,4,0:0:0:0:
440,148,39438,1,4,0:0:0:0:
431,109,39506,1,4,0:0:0:0:
398,85,39574,1,12,0:0:0:0:
358,86,39642,1,4,0:0:0:0:
330,114,39710,1,4,0:0:0:0:
329,154,39779,1,4,0:0:0:0:
352,186,39847,6,4,L|410:192,3,50,12|4|4|4,0:0|0:0|0:0|0:0,0:0:0:0:
267,266,40120,2,4,L|209:272,3,50,12|4|4|4,0:0|0:0|0:0|0:0,0:0:0:0:
372,329,40392,5,14,0:0:0:0:
256,347,41210,5,4,0:0:0:0:
256,37,41483,1,6,0:0:0:0:
256,37,42301,5,4,0:0:0:0:
255,192,42438,1,4,0:0:0:0:
256,347,42574,5,14,0:0:0:0:
256,347,42642,1,4,0:0:0:0:
256,347,42710,1,4,0:0:0:0:
432,256,42847,1,0,0:0:0:0:
214,230,42983,1,14,0:0:0:0:
168,224,43051,1,8,0:0:0:0:
122,218,43120,2,0,L|71:210,1,50,8|4,0:0|0:0,0:0:0:0:
27,87,43256,1,10,0:0:0:0:
75,74,43324,1,8,0:0:0:0:
123,61,43392,1,8,0:0:0:0:
171,49,43460,1,8,0:0:0:0:
219,36,43529,2,8,L|273:23,1,50
339,174,43665,5,6,0:0:0:0:
388,181,43733,1,4,0:0:0:0:
436,170,43801,2,4,P|465:164|486:147,1,50
436,55,43938,1,14,0:0:0:0:
387,48,44006,1,0,0:0:0:0:
339,59,44074,2,0,P|310:65|289:82,1,50
239,171,44210,5,14,0:0:0:0:
231,220,44279,1,0,0:0:0:0:
223,269,44347,2,0,L|215:321,1,50
108,365,44483,1,14,0:0:0:0:
100,316,44552,1,0,0:0:0:0:
92,267,44620,2,0,L|84:217,1,50
62,91,44756,6,0,B|45:46|78:13|78:13|116:44|105:91|133:115|133:115|163:93|152:44|184:10|184:10|223:42|212:95|276:112|328:82,1,500,14|4,0:0|0:0,0:0:0:0:
430,48,45574,1,4,0:0:0:0:
408,161,45710,1,4,0:0:0:0:
218,86,45847,5,6,0:0:0:0:
218,86,45915,1,8,0:0:0:0:
218,86,45983,1,8,0:0:0:0:
218,86,46051,1,4,0:0:0:0:
218,86,46120,1,4,0:0:0:0:
133,163,46256,1,4,0:0:0:0:
408,262,46392,5,6,0:0:0:0:
408,262,46460,1,4,0:0:0:0:
408,262,46529,1,8,0:0:0:0:
408,262,46597,1,8,0:0:0:0:
408,262,46665,2,0,L|420:314,3,50
315,334,46938,5,6,0:0:0:0:
273,361,47006,1,4,0:0:0:0:
223,370,47074,1,8,0:0:0:0:
177,348,47142,1,8,0:0:0:0:
146,308,47210,1,4,0:0:0:0:
139,257,47279,1,4,0:0:0:0:
162,212,47347,1,4,0:0:0:0:
186,168,47415,1,4,0:0:0:0:
180,118,47483,1,8,0:0:0:0:
144,83,47551,1,8,0:0:0:0:
94,73,47620,1,8,0:0:0:0:
47,89,47688,1,8,0:0:0:0:
16,128,47756,1,8,0:0:0:0:
8,177,47824,1,4,0:0:0:0:
28,222,47892,1,4,0:0:0:0:
71,245,47960,1,4,0:0:0:0:
125,243,48029,5,6,0:0:0:0:
153,202,48097,1,8,0:0:0:0:
159,152,48165,1,8,0:0:0:0:
165,101,48233,1,8,0:0:0:0:
205,66,48301,1,8,0:0:0:0:
255,61,48370,1,4,0:0:0:0:
300,80,48438,1,4,0:0:0:0:
322,124,48506,1,4,0:0:0:0:
325,173,48574,1,4,0:0:0:0:
352,214,48642,1,8,0:0:0:0:
398,231,48710,1,8,0:0:0:0:
449,226,48779,1,8,0:0:0:0:
481,188,48847,1,6,0:0:0:0:
489,138,48915,1,4,0:0:0:0:
469,92,48983,1,4,0:0:0:0:
425,67,49051,1,4,0:0:0:0:
379,67,49120,6,0,B|330:70|298:36|298:36|252:84|171:60|171:60|235:112|227:213|196:272|106:313|32:296|17:237|24:184|68:149|129:157|154:205|153:265|124:325|124:325|152:361|202:352,1,839.999974365235,14|0,0:0|0:0,0:0:0:0:
293,318,51165,1,4,0:0:0:0:
316,308,51233,1,4,0:0:0:0:
345,309,51301,1,6,0:0:0:0:
374,317,51370,1,8,0:0:0:0:
399,332,51438,5,8,0:0:0:0:
405,308,51506,1,8,0:0:0:0:
418,287,51574,1,4,0:0:0:0:
435,270,51642,1,4,0:0:0:0:
457,260,51710,6,0,L|477:224,3,29.9999990844727,8|8|8|4,0:0|0:0|0:0|0:0,0:0:0:0:
423,133,51983,2,0,L|408:159,3,29.9999990844727,4|4|4|4,0:0|0:0|0:0|0:0,0:0:0:0:
345,229,52256,6,0,L|331:256,3,29.9999990844727,4|4|8|8,0:0|0:0|0:0|0:0,0:0:0:0:
254,190,52529,2,0,L|269:164,3,29.9999990844727,8|4|4|4,0:0|0:0|0:0|0:0,0:0:0:0:
250,284,52801,6,0,P|219:311|137:307,1,119.999996337891,4|4,0:0|0:0,0:0:0:0:
60,261,53210,1,10,0:0:0:0:
255,33,53483,5,6,0:0:0:0:
255,33,55392,5,6,0:0:0:0:
255,33,55665,5,6,0:0:0:0:
330,210,55801,1,2,0:0:0:0:
411,62,55938,2,0,L|430:271,1,200,2|0,0:0|0:0,0:0:0:0:
257,33,56347,2,0,L|238:242,1,200,2|4,0:0|0:0,0:0:0:0:
332,28,56756,5,8,0:0:0:0:
333,47,56824,1,8,0:0:0:0:
334,66,56892,1,8,0:0:0:0:
335,85,56960,1,8,0:0:0:0:
336,105,57029,1,8,0:0:0:0:
338,124,57097,1,4,0:0:0:0:
340,143,57165,1,4,0:0:0:0:
342,162,57233,1,4,0:0:0:0:
345,181,57301,2,0,L|350:235,3,50,8|8|4|4,0:0|0:0|0:0|0:0,0:0:0:0:
273,218,57574,6,0,L|258:304,1,75,6|0,0:0|0:0,0:0:0:0:
210,349,57847,5,6,0:0:0:0:
130,159,57983,1,10,0:0:0:0:
31,339,58120,2,0,P|81:361|127:354,1,100,4|10,0:0|0:0,0:0:0:0:
308,275,58392,1,4,0:0:0:0:
331,66,58529,2,0,P|380:60|424:81,1,100,10|4,0:0|0:0,0:0:0:0:
494,222,58801,1,10,0:0:0:0:
308,275,58938,6,0,L|324:166,2,100,4|10|4,0:0|0:0|0:0,0:0:0:0:
203,140,59347,2,0,L|196:29,2,100,10|4|10,0:0|0:0|0:0,0:0:0:0:
241,316,59756,1,4,0:0:0:0:
278,109,59892,1,10,0:0:0:0:
137,255,60029,1,4,0:0:0:0:
373,219,60165,1,10,0:0:0:0:
163,118,60301,5,4,0:0:0:0:
153,351,60438,1,10,0:0:0:0:
168,104,60574,5,4,0:0:0:0:
82,365,60710,1,10,0:0:0:0:
174,90,60847,5,4,0:0:0:0:
12,342,60983,1,10,0:0:0:0:
180,76,61120,6,0,L|282:88,1,100,4|10,0:0|0:0,0:0:0:0:
491,76,61392,1,4,0:0:0:0:
236,155,61529,1,10,0:0:0:0:
512,239,61665,6,0,L|410:251,1,100,4|10,0:0|0:0,0:0:0:0:
168,279,61938,1,4,0:0:0:0:
408,152,62074,1,10,0:0:0:0:
139,88,62210,6,4,L|196:72,1,40
342,22,62347,1,4,0:0:0:0:
208,165,62483,2,0,L|337:177,1,120,10|0,0:0|0:0,0:0:0:0:
403,185,62756,1,4,0:0:0:0:
283,284,62892,1,10,0:0:0:0:
251,81,63029,2,0,L|241:33,1,40,4|0,0:0|0:0,0:0:0:0:
202,187,63165,2,0,L|192:235,1,40,4|0,0:0|0:0,0:0:0:0:
133,83,63301,6,0,P|86:75|49:84,1,80,10|0,0:0|0:0,0:0:0:0:
167,351,63574,1,4,0:0:0:0:
167,351,63710,2,0,P|214:359|249:350,1,80,14|0,0:0|0:0,0:0:0:0:
386,280,63983,2,4,L|426:265,1,40
491,230,64120,1,8,0:0:0:0:
303,178,64256,1,4,0:0:0:0:
505,115,64392,5,4,0:0:0:0:
259,50,64529,1,8,0:0:0:0:
259,50,64597,1,8,0:0:0:0:
259,50,64665,2,8,L|204:44,1,40
31,87,64801,1,4,0:0:0:0:
18,125,64870,1,4,0:0:0:0:
23,164,64938,2,0,L|31:209,3,40,4|4|8|8,0:0|0:0|0:0|0:0,0:0:0:0:
48,290,65210,2,8,L|56:335,1,40
264,344,65347,2,4,L|256:299,1,40
225,138,65483,5,10,0:0:0:0:
172,329,65620,1,4,0:0:0:0:
183,74,65756,1,10,0:0:0:0:
256,304,65892,1,4,0:0:0:0:
114,100,66029,1,8,0:0:0:0:
110,139,66097,1,8,0:0:0:0:
105,178,66165,1,8,0:0:0:0:
101,217,66233,1,8,0:0:0:0:
96,256,66301,2,0,L|83:380,1,120,10|0,0:0|0:0,0:0:0:0:
157,363,66574,5,6,0:0:0:0:
6,245,66710,1,10,0:0:0:0:
250,182,66847,2,0,B|306:173|306:173|353:181,1,100,4|10,0:0|0:0,0:0:0:0:
306,364,67120,5,4,0:0:0:0:
235,156,67256,2,0,B|291:147|291:147|338:155,1,100,10|4,0:0|0:0,0:0:0:0:
498,196,67529,5,10,0:0:0:0:
241,254,67665,2,0,P|175:238|151:208,1,100,4|10,0:0|0:0,0:0:0:0:
255,33,67938,5,4,0:0:0:0:
307,308,68074,2,0,P|260:337|207:331,1,100,10|4,0:0|0:0,0:0:0:0:
57,240,68347,5,10,0:0:0:0:
128,20,68483,1,4,0:0:0:0:
241,254,68620,1,10,0:0:0:0:
316,4,68756,5,4,0:0:0:0:
512,72,68892,1,10,0:0:0:0:
248,92,69029,1,4,0:0:0:0:
512,176,69165,1,10,0:0:0:0:
328,356,69301,6,0,L|316:251,1,100,4|10,0:0|0:0,0:0:0:0:
231,35,69574,2,0,L|219:140,1,100,4|10,0:0|0:0,0:0:0:0:
197,326,69847,5,4,0:0:0:0:
302,122,69983,1,10,0:0:0:0:
179,321,70120,1,4,0:0:0:0:
316,131,70256,1,10,0:0:0:0:
315,326,70392,5,4,0:0:0:0:
210,122,70528,1,10,0:0:0:0:
333,321,70665,1,4,0:0:0:0:
196,131,70801,1,10,0:0:0:0:
118,219,70938,5,6,0:0:0:0:
251,252,71074,1,10,0:0:0:0:
372,223,71210,2,0,P|416:255|431:313,1,100,4|10,0:0|0:0,0:0:0:0:
238,254,71483,5,4,0:0:0:0:
384,220,71619,2,0,P|436:258|454:328,1,100,10|4,0:0|0:0,0:0:0:0:
224,258,71892,5,10,0:0:0:0:
398,216,72028,2,0,P|452:254|473:297,1,100,4|10,0:0|0:0,0:0:0:0:
300,352,72301,5,4,0:0:0:0:
104,276,72438,1,10,0:0:0:0:
321,229,72574,1,4,0:0:0:0:
321,229,72710,1,10,0:0:0:0:
152,83,72847,1,4,0:0:0:0:
152,83,72983,1,10,0:0:0:0:
316,272,73120,6,0,P|273:304|141:260,1,200,4|4,0:0|0:0,0:0:0:0:
247,9,73529,1,10,0:0:0:0:
247,9,73665,2,4,L|234:213,1,200
220,373,74074,1,10,0:0:0:0:
153,194,74210,6,0,L|148:141,3,50,6|4|4|0,0:0|0:0|0:0|0:0,0:0:0:0:
67,201,74483,2,8,L|62:250,3,50
76,116,74756,2,4,L|81:67,3,50
184,22,75029,1,4,0:0:0:0:
231,7,75097,1,8,0:0:0:0:
280,9,75165,1,4,0:0:0:0:
324,31,75233,1,8,0:0:0:0:
344,76,75301,6,0,P|360:128|462:153,1,150,10|0,0:0|0:0,0:0:0:0:
505,126,75574,6,4,P|513:161|512:179,1,50,14|4,0:0|0:0,0:0:0:0:
501,277,75710,2,4,P|493:312|484:327,1,50,14|4,0:0|0:0,0:0:0:0:
270,348,75847,6,4,P|289:317|302:305,1,50,14|4,0:0|0:0,0:0:0:0:
379,244,75983,2,4,P|409:224|426:219,1,50,14|4,0:0|0:0,0:0:0:0:
478,113,76120,6,4,P|442:104|424:106,1,50,14|4,0:0|0:0,0:0:0:0:
327,116,76256,2,4,P|291:123|276:132,1,50,14|4,0:0|0:0,0:0:0:0:
170,204,76392,5,14,0:0:0:0:
131,235,76460,1,4,0:0:0:0:
80,239,76529,1,14,0:0:0:0:
41,207,76597,1,4,0:0:0:0:
25,159,76665,6,4,L|21:103,1,50,14|4,0:0|0:0,0:0:0:0:
169,26,76801,2,4,L|165:75,1,50,14|4,0:0|0:0,0:0:0:0:
286,183,76938,6,4,L|290:127,3,50,14|4|14|4,0:0|0:0|0:0|0:0,0:0:0:0:
412,32,77210,2,4,L|408:81,3,50,14|4|14|4,0:0|0:0|0:0|0:0,0:0:0:0:
483,166,77483,5,14,0:0:0:0:
478,215,77551,1,4,0:0:0:0:
474,265,77620,1,14,0:0:0:0:
462,313,77688,1,4,0:0:0:0:
433,353,77756,1,14,0:0:0:0:
386,371,77824,1,4,0:0:0:0:
336,371,77892,1,14,0:0:0:0:
292,346,77960,1,4,0:0:0:0:
265,302,78029,6,4,L|216:298,3,50,14|4|14|4,0:0|0:0|0:0|0:0,0:0:0:0:
300,208,78301,2,4,L|349:204,3,50,14|4|14|4,0:0|0:0|0:0|0:0,0:0:0:0:
201,218,78574,5,14,0:0:0:0:
155,196,78642,1,4,0:0:0:0:
130,152,78710,1,14,0:0:0:0:
121,102,78779,1,4,0:0:0:0:
138,55,78847,2,4,L|153:5,3,50,14|4|14|4,0:0|0:0|0:0|0:0,0:0:0:0:
45,142,79120,6,4,L|30:92,3,50,14|4|14|4,0:0|0:0|0:0|0:0,0:0:0:0:
140,234,79392,2,4,L|155:184,3,50,14|4|14|4,0:0|0:0|0:0|0:0,0:0:0:0:
34,300,79665,5,14,0:0:0:0:
65,338,79733,1,4,0:0:0:0:
108,361,79801,1,14,0:0:0:0:
158,367,79870,1,4,0:0:0:0:
205,352,79938,1,14,0:0:0:0:
238,314,80006,1,4,0:0:0:0:
259,268,80074,1,14,0:0:0:0:
292,231,80142,1,4,0:0:0:0:
337,210,80210,1,14,0:0:0:0:
387,205,80279,1,4,0:0:0:0:
435,215,80347,1,14,0:0:0:0:
471,248,80415,1,4,0:0:0:0:
481,296,80483,1,14,0:0:0:0:
465,343,80551,1,4,0:0:0:0:
422,370,80620,1,14,0:0:0:0:
372,370,80688,1,4,0:0:0:0:
327,347,80756,5,14,0:0:0:0:
335,297,80824,1,4,0:0:0:0:
344,247,80892,1,14,0:0:0:0:
353,198,80960,1,4,0:0:0:0:
362,148,81029,1,14,0:0:0:0:
357,98,81097,1,4,0:0:0:0:
325,59,81165,1,14,0:0:0:0:
278,41,81233,1,4,0:0:0:0:
228,42,81301,1,14,0:0:0:0:
185,69,81370,1,4,0:0:0:0:
163,114,81438,1,14,0:0:0:0:
163,163,81506,1,4,0:0:0:0:
200,196,81574,1,14,0:0:0:0:
249,194,81642,1,4,0:0:0:0:
279,154,81710,1,14,0:0:0:0:
271,103,81779,1,4,0:0:0:0:
230,73,81847,5,14,0:0:0:0:
182,87,81915,1,4,0:0:0:0:
163,126,81983,1,14,0:0:0:0:
170,175,82051,1,4,0:0:0:0:
212,203,82120,1,14,0:0:0:0:
223,251,82188,1,4,0:0:0:0:
202,296,82256,1,14,0:0:0:0:
160,323,82324,1,4,0:0:0:0:
110,318,82392,1,14,0:0:0:0:
73,282,82461,1,4,0:0:0:0:
76,232,82529,1,14,0:0:0:0:
106,192,82597,1,4,0:0:0:0:
153,175,82665,5,14,0:0:0:0:
151,155,82733,1,4,0:0:0:0:
155,135,82802,1,14,0:0:0:0:
161,116,82870,1,4,0:0:0:0:
170,98,82938,6,0,P|187:66|190:49,3,50,6|4|4|4,0:0|0:0|0:0|0:0,0:0:0:0:
285,18,83210,2,8,P|291:42|304:63,3,50
401,92,83483,2,8,P|414:70|420:46,3,50
488,118,83756,2,4,P|501:139|507:163,3,50
502,273,84029,5,14,0:0:0:0:
478,327,84097,1,4,0:0:0:0:
431,364,84165,1,14,0:0:0:0:
371,373,84233,1,4,0:0:0:0:
313,355,84301,6,4,P|276:345|246:345,3,59.9999981689454,14|4|14|4,0:0|0:0|0:0|0:0,0:0:0:0:
189,283,84574,2,4,P|219:266|254:261,3,59.9999981689454,14|4|14|4,0:0|0:0|0:0|0:0,0:0:0:0:
110,219,84847,2,4,L|92:162,3,59.9999981689454,14|4|14|4,0:0|0:0|0:0|0:0,0:0:0:0:
203,133,85120,2,4,L|221:190,3,59.9999981689454,14|4|14|4,0:0|0:0|0:0|0:0,0:0:0:0:
253,273,85392,5,14,0:0:0:0:
290,319,85460,1,4,0:0:0:0:
348,334,85529,1,14,0:0:0:0:
406,323,85597,1,4,0:0:0:0:
448,280,85665,1,14,0:0:0:0:
465,222,85733,1,4,0:0:0:0:
452,163,85801,1,14,0:0:0:0:
408,120,85870,1,4,0:0:0:0:
351,99,85938,1,14,0:0:0:0:
291,102,86006,1,4,0:0:0:0:
232,116,86074,1,14,0:0:0:0:
172,109,86142,1,4,0:0:0:0:
122,75,86210,2,4,L|59:70,3,59.9999981689454,14|4|14|4,0:0|0:0|0:0|0:0,0:0:0:0:
13,182,86483,5,14,0:0:0:0:
57,221,86551,1,4,0:0:0:0:
117,221,86620,2,4,P|153:228|183:250,1,59.9999981689454,14|4,0:0|0:0,0:0:0:0:
384,327,86756,1,14,0:0:0:0:
442,313,86824,1,4,0:0:0:0:
475,262,86893,2,4,P|483:229|478:203,1,59.9999981689454,14|4,0:0|0:0,0:0:0:0:
403,12,87029,1,14,0:0:0:0:
343,9,87097,1,4,0:0:0:0:
285,29,87166,2,4,P|256:42|227:41,1,59.9999981689454,14|4,0:0|0:0,0:0:0:0:
20,86,87301,5,14,0:0:0:0:
13,145,87369,1,4,0:0:0:0:
7,205,87438,2,4,L|1:267,1,59.9999981689454,14|4,0:0|0:0,0:0:0:0:
178,349,87574,1,14,0:0:0:0:
185,290,87642,1,4,0:0:0:0:
191,230,87711,2,4,L|197:170,1,59.9999981689454,14|4,0:0|0:0,0:0:0:0:
283,7,87847,1,14,0:0:0:0:
342,2,87915,1,4,0:0:0:0:
401,9,87983,2,0,L|465:18,1,59.9999981689454,14|4,0:0|0:0,0:0:0:0:
413,238,88120,1,14,0:0:0:0:
354,243,88188,1,4,0:0:0:0:
295,236,88256,2,0,L|231:227,1,59.9999981689454,14|4,0:0|0:0,0:0:0:0:
85,177,88392,6,4,L|12:188,1,69.9999978637696,14|4,0:0|0:0,0:0:0:0:
222,152,88529,2,4,L|297:141,1,69.9999978637696,14|4,0:0|0:0,0:0:0:0:
103,253,88665,2,4,L|29:288,1,69.9999978637696,14|4,0:0|0:0,0:0:0:0:
186,85,88801,2,4,L|260:50,1,69.9999978637696,14|4,0:0|0:0,0:0:0:0:
160,304,88938,6,4,P|155:340|161:378,3,69.9999978637696,14|4|14|4,0:0|0:0|0:0|0:0,0:0:0:0:
220,195,89210,2,4,P|225:159|219:121,3,69.9999978637696,14|4|14|4,0:0|0:0|0:0|0:0,0:0:0:0:
248,279,89483,5,14,0:0:0:0:
317,270,89551,1,4,0:0:0:0:
387,262,89620,2,0,L|465:254,1,69.9999978637696,14|4,0:0|0:0,0:0:0:0:
511,101,89756,1,14,0:0:0:0:
442,92,89824,1,4,0:0:0:0:
371,84,89893,2,0,L|293:76,1,69.9999978637696,14|4,0:0|0:0,0:0:0:0:
215,177,90029,6,0,L|292:169,3,69.9999978637696,14|4|14|4,0:0|0:0|0:0|0:0,0:0:0:0:
254,250,90301,2,0,P|244:288|223:313,1,69.9999978637696,14|4,0:0|0:0,0:0:0:0:
12,230,90438,2,0,P|22:192|43:167,1,69.9999978637696,14|4,0:0|0:0,0:0:0:0:
175,245,90574,5,10,0:0:0:0:
249,272,90642,1,0,0:0:0:0:
328,264,90710,1,4,0:0:0:0:
385,206,90779,1,4,0:0:0:0:
397,126,90847,2,0,L|383:40,1,80,4|0,0:0|0:0,0:0:0:0:
141,14,90983,5,10,0:0:0:0:
131,93,91051,1,0,0:0:0:0:
120,173,91120,1,4,0:0:0:0:
110,252,91188,1,4,0:0:0:0:
140,324,91256,1,10,0:0:0:0:
216,352,91324,1,4,0:0:0:0:
292,328,91392,1,4,0:0:0:0:
328,256,91460,1,4,0:0:0:0:
320,176,91529,1,10,0:0:0:0:
252,132,91597,1,4,0:0:0:0:
175,134,91665,6,0,L|50:120,1,120,4|0,0:0|0:0,0:0:0:0:
139,54,91938,2,0,L|31:42,1,104.999996795654,4|0,0:0|0:0,0:0:0:0:
211,66,92210,6,0,L|302:55,1,89.9999972534181,4|0,0:0|0:0,0:0:0:0:
247,138,92483,2,0,L|322:129,1,75,6|0,0:0|0:0,0:0:0:0:
164,152,92756,5,6,0:0:0:0:
172,360,92892,1,10,0:0:0:0:
260,176,93029,2,0,P|263:125|241:82,1,100,4|10,0:0|0:0,0:0:0:0:
112,5,93301,1,4,0:0:0:0:
23,214,93438,2,0,P|20:265|42:308,1,100,10|4,0:0|0:0,0:0:0:0:
232,372,93710,1,10,0:0:0:0:
400,292,93847,6,0,B|420:193,2,100,4|10|4,0:0|0:0|0:0,0:0:0:0:
257,186,94256,2,0,B|237:88,2,100,10|4|10,0:0|0:0|0:0,0:0:0:0:
295,349,94665,1,4,0:0:0:0:
340,136,94801,1,10,0:0:0:0:
204,324,94938,2,0,P|148:333|103:320,1,100,4|10,0:0|0:0,0:0:0:0:
25,142,95210,5,4,0:0:0:0:
88,16,95347,1,10,0:0:0:0:
36,152,95483,5,4,0:0:0:0:
176,12,95620,1,10,0:0:0:0:
44,160,95756,5,4,0:0:0:0:
264,8,95892,1,10,0:0:0:0:
120,216,96029,5,4,0:0:0:0:
321,128,96165,1,10,0:0:0:0:
304,336,96301,1,4,0:0:0:0:
212,136,96438,1,10,0:0:0:0:
294,337,96574,5,4,0:0:0:0:
260,75,96710,1,10,0:0:0:0:
410,196,96847,1,4,0:0:0:0:
182,276,96983,1,10,0:0:0:0:
192,41,97120,6,0,P|238:3|283:3,1,100,6|10,0:0|0:0,0:0:0:0:
479,223,97392,2,0,P|445:263|400:272,1,100,4|10,0:0|0:0,0:0:0:0:
303,182,97665,1,4,0:0:0:0:
461,343,97801,2,0,P|410:355|352:344,1,100,10|4,0:0|0:0,0:0:0:0:
261,261,98074,1,10,0:0:0:0:
117,339,98210,6,0,L|8:352,1,100,4|10,0:0|0:0,0:0:0:0:
51,127,98483,1,4,0:0:0:0:
255,48,98620,2,0,L|364:35,1,100,10|4,0:0|0:0,0:0:0:0:
512,20,98892,1,10,0:0:0:0:
465,205,99029,2,0,P|421:232|369:218,1,100,4|10,0:0|0:0,0:0:0:0:
208,156,99301,6,0,P|146:147|52:236,1,200,4|4,0:0|0:0,0:0:0:0:
288,366,99710,2,0,B|244:277|244:277|200:235|153:234,1,200,10|10,0:0|0:0,0:0:0:0:
29,354,100120,2,0,P|99:373|135:357,1,100,4|10,0:0|0:0,0:0:0:0:
318,145,100392,5,4,0:0:0:0:
214,371,100529,1,10,0:0:0:0:
131,89,100665,5,4,0:0:0:0:
237,375,100801,1,10,0:0:0:0:
278,31,100938,5,4,0:0:0:0:
162,255,101074,1,10,0:0:0:0:
415,177,101210,5,6,0:0:0:0:
204,119,101347,1,4,0:0:0:0:
346,331,101483,6,0,P|401:356|456:344,1,100,6|10,0:0|0:0,0:0:0:0:
484,111,101756,2,0,P|444:85|321:158,1,200,4|4,0:0|0:0,0:0:0:0:
27,111,102165,2,0,P|118:81|188:147,1,200,10|10,0:0|0:0,0:0:0:0:
81,319,102574,6,4,L|94:203,1,100,0|10,0:0|0:0,0:0:0:0:
115,27,102847,1,4,0:0:0:0:
165,272,102983,1,10,0:0:0:0:
226,2,103120,2,0,P|228:54|208:101,1,100,4|10,0:0|0:0,0:0:0:0:
42,267,103392,1,4,0:0:0:0:
264,174,103529,1,10,0:0:0:0:
4,124,103665,6,0,L|102:101,1,100,4|10,0:0|0:0,0:0:0:0:
311,55,103938,1,4,0:0:0:0:
108,186,104074,1,10,0:0:0:0:
324,199,104210,2,0,P|380:206|418:233,1,100,4|10,0:0|0:0,0:0:0:0:
358,360,104483,1,4,0:0:0:0:
245,158,104620,1,10,0:0:0:0:
461,149,104756,6,0,P|498:190|507:233,1,100,4|10,0:0|0:0,0:0:0:0:
202,236,105029,2,0,P|165:195|156:152,1,100,4|10,0:0|0:0,0:0:0:0:
336,88,105301,1,4,0:0:0:0:
111,254,105438,1,10,0:0:0:0:
373,178,105574,1,4,0:0:0:0:
68,163,105710,1,10,0:0:0:0:
281,322,105847,5,6,0:0:0:0:
324,346,105915,1,0,0:0:0:0:
371,356,105983,1,10,0:0:0:0:
419,346,106051,1,0,0:0:0:0:
462,320,106120,1,4,0:0:0:0:
495,282,106188,1,0,0:0:0:0:
506,233,106256,1,10,0:0:0:0:
505,183,106324,1,0,0:0:0:0:
481,138,106392,1,4,0:0:0:0:
440,108,106460,1,0,0:0:0:0:
389,108,106529,1,10,0:0:0:0:
344,131,106597,1,0,0:0:0:0:
321,175,106665,1,4,0:0:0:0:
325,224,106733,1,0,0:0:0:0:
352,265,106801,1,10,0:0:0:0:
401,274,106870,1,0,0:0:0:0:
443,205,106938,6,0,P|420:194|395:193,3,50,4|0|10|0,0:0|0:0|0:0|0:0,0:0:0:0:
289,215,107210,6,0,L|235:200,1,50,4|0,0:0|0:0,0:0:0:0:
23,278,107347,2,0,L|77:263,1,50,10|0,0:0|0:0,0:0:0:0:
352,244,107483,2,0,L|298:229,1,50,4|0,0:0|0:0,0:0:0:0:
89,275,107620,2,0,L|143:260,1,50,10|0,0:0|0:0,0:0:0:0:
352,319,107756,6,0,P|376:317|399:307,3,50,4|0|10|0,0:0|0:0|0:0|0:0,0:0:0:0:
352,244,108029,5,6,0:0:0:0:
316,196,108097,1,0,0:0:0:0:
318,136,108165,1,0,0:0:0:0:
357,91,108233,1,0,0:0:0:0:
416,81,108301,1,12,0:0:0:0:
475,94,108370,1,8,0:0:0:0:
508,143,108438,1,8,0:0:0:0:
510,202,108506,1,8,0:0:0:0:
487,257,108574,5,4,0:0:0:0:
430,275,108642,1,4,0:0:0:0:
372,291,108710,1,4,0:0:0:0:
314,309,108779,1,4,0:0:0:0:
255,321,108847,1,12,0:0:0:0:
196,307,108915,1,8,0:0:0:0:
137,292,108983,1,8,0:0:0:0:
79,275,109051,1,8,0:0:0:0:
26,258,109120,6,0,B|19:202|19:202|39:166|39:166|31:114,2,150,6|2|2,0:0|0:0|0:0,0:0:0:0:
135,306,110210,5,6,0:0:0:0:
172,313,110279,1,4,0:0:0:0:
209,310,110347,1,4,0:0:0:0:
244,297,110415,1,4,0:0:0:0:
273,273,110483,1,14,0:0:0:0:
291,240,110551,1,4,0:0:0:0:
310,207,110620,1,4,0:0:0:0:
337,181,110688,1,4,0:0:0:0:
372,168,110756,2,4,L|411:160,3,37.5000014305115,14|4|4|4,0:0|0:0|0:0|0:0,0:0:0:0:
488,231,111029,2,4,L|449:239,1,37.5000014305115,14|4,0:0|0:0,0:0:0:0:
323,254,111165,5,4,0:0:0:0:
285,253,111233,1,4,0:0:0:0:
249,241,111301,1,14,0:0:0:0:
217,220,111370,1,4,0:0:0:0:
194,189,111438,1,4,0:0:0:0:
186,152,111506,1,4,0:0:0:0:
191,115,111574,6,4,L|203:75,1,37.5000014305115,14|4,0:0|0:0,0:0:0:0:
337,21,111710,1,4,0:0:0:0:
337,21,111779,1,4,0:0:0:0:
337,21,111847,2,4,L|347:56,1,37.5000014305115,14|4,0:0|0:0,0:0:0:0:
327,198,111983,1,4,0:0:0:0:
305,228,112051,1,4,0:0:0:0:
270,243,112120,2,4,L|234:254,1,37.5000014305115,14|4,0:0|0:0,0:0:0:0:
109,330,112256,2,4,L|145:341,1,37.5000014305115
278,364,112392,6,4,L|356:355,1,75.0000028610231,14|4,0:0|0:0,0:0:0:0:
440,233,112665,1,14,0:0:0:0:
198,215,112801,1,4,0:0:0:0:
456,148,112938,1,14,0:0:0:0:
456,148,113006,1,4,0:0:0:0:
456,148,113074,1,4,0:0:0:0:
167,135,113210,1,14,0:0:0:0:
464,239,113347,1,4,0:0:0:0:
464,239,113415,1,4,0:0:0:0:
465,240,113483,2,4,L|472:291,3,37.5000014305115,14|4|4|4,0:0|0:0|0:0|0:0,0:0:0:0:
389,196,113756,5,14,0:0:0:0:
176,148,113892,1,4,0:0:0:0:
238,347,114029,2,4,L|259:271,1,75.0000028610231,14|4,0:0|0:0,0:0:0:0:
315,56,114301,1,14,0:0:0:0:
73,135,114438,1,4,0:0:0:0:
281,232,114574,5,6,0:0:0:0:
311,257,114642,1,8,0:0:0:0:
319,296,114710,1,8,0:0:0:0:
307,334,114779,1,8,0:0:0:0:
275,358,114847,1,8,0:0:0:0:
235,360,114915,1,8,0:0:0:0:
201,338,114983,2,8,P|174:327|151:326,1,50
40,347,115120,5,6,0:0:0:0:
28,308,115188,1,8,0:0:0:0:
24,268,115256,1,8,0:0:0:0:
30,228,115324,1,8,0:0:0:0:
44,190,115392,2,8,L|63:143,3,50
101,71,115665,5,14,0:0:0:0:
101,71,115733,1,8,0:0:0:0:
101,71,115801,2,0,P|128:94|140:114,1,50,8|0,0:0|0:0,0:0:0:0:
214,250,115938,1,8,0:0:0:0:
251,263,116006,1,8,0:0:0:0:
290,257,116074,2,0,L|342:247,1,50,8|0,0:0|0:0,0:0:0:0:
500,179,116210,5,4,0:0:0:0:
451,168,116278,1,4,0:0:0:0:
402,158,116346,1,4,0:0:0:0:
353,148,116414,1,0,0:0:0:0:
304,138,116482,1,4,0:0:0:0:
256,145,116551,1,4,0:0:0:0:
207,155,116619,1,4,0:0:0:0:
158,165,116687,1,0,0:0:0:0:
112,175,116756,6,0,P|58:173|103:99,1,150,6|0,0:0|0:0,0:0:0:0:
218,131,117029,2,0,P|242:192|177:207,1,150,4|0,0:0|0:0,0:0:0:0:
153,79,117301,2,0,P|195:53|292:87,1,150,4|0,0:0|0:0,0:0:0:0:
336,136,117574,5,8,0:0:0:0:
198,330,117710,2,0,L|219:119,1,200,6|4,0:0|0:0,0:0:0:0:
231,20,118120,5,8,0:0:0:0:
249,11,118188,1,8,0:0:0:0:
268,7,118256,1,8,0:0:0:0:
287,8,118324,1,0,0:0:0:0:
308,13,118392,2,4,P|334:17|355:28,1,50
375,182,118529,2,4,P|349:178|328:167,1,50
420,105,118665,2,0,L|443:255,1,150,8|0,0:0|0:0,0:0:0:0:
453,335,118938,5,6,0:0:0:0:
512,50,119074,1,6,0:0:0:0:
254,261,120847,5,6,0:0:0:0:
59,335,121120,5,6,0:0:0:0:
0,50,121256,1,6,0:0:0:0:
256,65,123301,5,6,0:0:0:0:
256,319,123438,1,6,0:0:0:0:
250,342,125210,5,6,0:0:0:0:
115,141,125483,5,6,0:0:0:0:
304,78,125620,1,8,0:0:0:0:
304,78,125688,1,8,0:0:0:0:
304,78,125756,2,8,P|318:133|312:175,1,100
224,361,126029,1,6,0:0:0:0:
406,193,126165,1,8,0:0:0:0:
175,208,126301,1,8,0:0:0:0:
391,346,126438,1,8,0:0:0:0:
287,107,126574,6,4,P|334:68|431:76,1,150,6|0,0:0|0:0,0:0:0:0:
295,214,126847,2,0,P|234:203|178:123,1,150,6|0,0:0|0:0,0:0:0:0:
375,157,127120,1,6,0:0:0:0:
168,114,127665,6,0,L|152:237,1,119.999996337891,6|4,0:0|0:0,0:0:0:0:
280,44,127938,1,10,0:0:0:0:
310,209,128074,2,0,L|328:333,1,119.999996337891,4|10,0:0|0:0,0:0:0:0:
127,363,128347,1,4,0:0:0:0:
42,158,128483,1,10,0:0:0:0:
256,179,128620,2,0,L|375:190,1,119.999996337891,4|10,0:0|0:0,0:0:0:0:
152,232,128892,1,4,0:0:0:0:
430,252,129029,5,10,0:0:0:0:
377,39,129165,1,4,0:0:0:0:
442,246,129301,5,10,0:0:0:0:
294,30,129438,1,4,0:0:0:0:
453,238,129574,5,10,0:0:0:0:
219,61,129710,1,4,0:0:0:0:
465,231,129847,6,0,P|496:286|479:350,1,119.999996337891,10|4,0:0|0:0,0:0:0:0:
255,370,130120,1,10,0:0:0:0:
36,339,130256,2,0,P|26:281|57:231,1,119.999996337891,4|10,0:0|0:0,0:0:0:0:
276,173,130529,2,0,P|285:231|255:281,1,119.999996337891,4|10,0:0|0:0,0:0:0:0:
6,170,130801,2,0,P|61:151|116:172,1,119.999996337891,4|10,0:0|0:0,0:0:0:0:
248,267,131074,1,4,0:0:0:0:
385,343,131210,6,0,P|439:364|495:344,1,119.999996337891,10|4,0:0|0:0,0:0:0:0:
432,164,131483,1,10,0:0:0:0:
308,321,131620,1,4,0:0:0:0:
503,261,131756,1,10,0:0:0:0:
363,124,131892,1,4,0:0:0:0:
228,283,132029,6,0,P|172:308|76:187,1,239.999992675781,6|10,0:0|0:0,0:0:0:0:
233,0,132438,2,4,B|255:59|228:125|228:125|160:224,1,239.999992675781
63,48,132847,1,10,0:0:0:0:
330,48,132983,2,4,L|349:291,1,239.999992675781
160,359,133392,6,0,L|175:173,1,179.999994506836,10|0,0:0|0:0,0:0:0:0:
181,108,133665,1,6,0:0:0:0:
433,210,133801,2,0,L|424:334,2,119.999996337891,4|10|4,0:0|0:0|0:0,0:0:0:0:
449,1,134210,5,6,0:0:0:0:
150,37,134347,1,4,0:0:0:0:
439,13,134483,1,10,0:0:0:0:
110,145,134620,2,0,P|99:208|181:292,1,179.999994506836,6|0,0:0|0:0,0:0:0:0:
244,308,134892,5,0,0:0:0:0:
272,32,135029,1,10,0:0:0:0:
318,326,135165,2,0,L|501:361,1,179.999994506836,6|0,0:0|0:0,0:0:0:0:
486,284,135438,5,8,0:0:0:0:
495,132,135574,1,8,0:0:0:0:
495,132,135642,1,8,0:0:0:0:
495,132,135710,1,8,0:0:0:0:
366,194,135847,1,4,0:0:0:0:
331,202,135915,1,4,0:0:0:0:
296,210,135983,1,4,0:0:0:0:
261,218,136051,1,4,0:0:0:0:
225,226,136120,2,0,L|45:261,1,179.999994506836,10|0,0:0|0:0,0:0:0:0:
22,175,136392,5,6,0:0:0:0:
214,361,136529,1,8,0:0:0:0:
37,75,136665,5,4,0:0:0:0:
235,367,136801,1,8,0:0:0:0:
110,12,136938,5,4,0:0:0:0:
258,370,137074,6,0,P|334:373|384:329,1,139.999995727539,8|4,0:0|0:0,0:0:0:0:
466,73,137347,2,8,L|183:36,1,279.999991455078
61,21,137756,5,4,0:0:0:0:
406,164,137892,1,8,0:0:0:0:
68,151,138029,5,4,0:0:0:0:
355,255,138165,1,8,0:0:0:0:
79,305,138301,5,4,0:0:0:0:
307,350,138438,1,8,0:0:0:0:
245,105,138574,6,0,L|184:237,1,139.999995727539,4|8,0:0|0:0,0:0:0:0:
442,266,138847,1,4,0:0:0:0:
341,60,138983,2,0,P|289:12|214:7,1,139.999995727539,8|4,0:0|0:0,0:0:0:0:
353,309,139256,2,0,P|405:357|480:362,1,139.999995727539,8|4,0:0|0:0,0:0:0:0:
407,130,139529,2,8,L|132:241,1,279.999991455078
273,93,139938,2,0,L|126:28,1,139.999995727539,4|8,0:0|0:0,0:0:0:0:
6,8,140210,5,4,0:0:0:0:
107,307,140347,1,8,0:0:0:0:
220,12,140483,1,6,0:0:0:0:
113,293,140620,1,0,0:0:0:0:
2,26,140756,6,0,L|35:278,1,239.999992675781,6|10,0:0|0:0,0:0:0:0:
177,353,141165,2,0,P|246:367|300:340,1,119.999996337891,4|2,0:0|0:0,0:0:0:0:
426,221,141438,1,4,0:0:0:0:
231,277,141574,1,10,0:0:0:0:
469,300,141710,2,4,P|508:256|410:133,1,239.999992675781
279,152,142120,6,0,B|190:176|190:176|101:150,1,179.999994506836,10|0,0:0|0:0,0:0:0:0:
37,129,142392,1,6,0:0:0:0:
132,24,142529,1,4,0:0:0:0:
52,214,142665,2,0,L|227:265,1,179.999994506836,10|0,0:0|0:0,0:0:0:0:
285,216,142938,5,6,0:0:0:0:
472,353,143074,1,4,0:0:0:0:
355,67,143210,1,10,0:0:0:0:
246,343,143347,2,0,P|180:349|118:261,1,179.999994506836,6|0,0:0|0:0,0:0:0:0:
119,185,143620,5,4,0:0:0:0:
243,5,143756,1,10,0:0:0:0:
382,204,143892,2,0,L|210:259,1,179.999994506836,6|0,0:0|0:0,0:0:0:0:
137,276,144165,1,8,0:0:0:0:
26,81,144301,5,8,0:0:0:0:
68,56,144370,1,8,0:0:0:0:
114,44,144438,1,8,0:0:0:0:
161,46,144506,1,8,0:0:0:0:
207,56,144574,1,4,0:0:0:0:
252,71,144642,1,4,0:0:0:0:
299,76,144710,1,4,0:0:0:0:
347,72,144779,1,4,0:0:0:0:
390,53,144847,2,8,L|404:117,1,59.9999981689454
457,212,144983,2,0,L|443:276,1,59.9999981689454,4|0,0:0|0:0,0:0:0:0:
387,360,145120,6,0,P|337:370|286:349,1,100,6|10,0:0|0:0,0:0:0:0:
137,171,145392,1,4,0:0:0:0:
366,186,145529,2,0,L|346:288,2,100,10|4|10,0:0|0:0|0:0,0:0:0:0:
255,20,145938,1,4,0:0:0:0:
215,260,146074,1,10,0:0:0:0:
166,40,146210,6,0,P|117:24|68:30,2,100,4|10|4,0:0|0:0|0:0,0:0:0:0:
267,199,146620,2,0,P|316:215|365:209,2,100,10|4|10,0:0|0:0|0:0,0:0:0:0:
110,116,147029,1,4,0:0:0:0:
331,40,147165,1,10,0:0:0:0:
274,288,147301,6,0,P|226:272|194:236,1,100,4|10,0:0|0:0,0:0:0:0:
203,20,147574,1,4,0:0:0:0:
452,184,147710,2,0,P|476:231|472:281,2,100,10|4|10,0:0|0:0|0:0,0:0:0:0:
212,118,148120,1,4,0:0:0:0:
456,80,148256,1,10,0:0:0:0:
150,23,148392,5,4,0:0:0:0:
78,233,148528,1,10,0:0:0:0:
144,41,148665,5,4,0:0:0:0:
175,273,148801,1,10,0:0:0:0:
144,60,148938,5,4,0:0:0:0:
94,333,149074,1,10,0:0:0:0:
56,148,149210,6,0,L|45:99,3,50,4|0|10|0,0:0|0:0|0:0|0:0,0:0:0:0:
70,221,149483,5,6,0:0:0:0:
275,194,149620,1,10,0:0:0:0:
138,357,149756,1,4,0:0:0:0:
156,130,149892,1,10,0:0:0:0:
270,328,150029,1,4,0:0:0:0:
72,153,150165,1,10,0:0:0:0:
285,15,150301,2,0,P|336:5|391:22,1,100,4|10,0:0|0:0,0:0:0:0:
488,90,150574,5,6,0:0:0:0:
325,176,150710,1,10,0:0:0:0:
507,245,150847,1,4,0:0:0:0:
347,91,150983,1,10,0:0:0:0:
226,224,151120,1,4,0:0:0:0:
375,359,151256,1,10,0:0:0:0:
239,106,151392,2,0,P|189:106|145:136,1,100,4|10,0:0|0:0,0:0:0:0:
46,272,151665,5,6,0:0:0:0:
218,186,151801,1,10,0:0:0:0:
39,288,151938,5,4,0:0:0:0:
286,201,152074,1,10,0:0:0:0:
31,305,152210,5,4,0:0:0:0:
356,216,152347,1,10,0:0:0:0:
24,322,152483,5,4,0:0:0:0:
31,328,152551,1,4,0:0:0:0:
38,334,152620,1,4,0:0:0:0:
45,340,152688,1,4,0:0:0:0:
52,346,152756,5,6,0:0:0:0:
84,357,152824,1,8,0:0:0:0:
133,349,152892,1,8,0:0:0:0:
169,315,152960,1,8,0:0:0:0:
182,266,153029,1,8,0:0:0:0:
165,218,153097,1,4,0:0:0:0:
171,168,153165,1,4,0:0:0:0:
200,127,153233,1,4,0:0:0:0:
246,109,153301,1,4,0:0:0:0:
296,112,153370,1,4,0:0:0:0:
335,142,153438,1,12,0:0:0:0:
351,189,153506,1,4,0:0:0:0:
350,238,153574,5,8,0:0:0:0:
378,246,153642,1,8,0:0:0:0:
406,254,153710,1,8,0:0:0:0:
435,262,153779,1,8,0:0:0:0:
463,270,153847,6,4,P|474:211|465:152,1,100,6|0,0:0|0:0,0:0:0:0:
373,29,154120,1,10,0:0:0:0:
258,143,154256,2,0,P|254:192|265:241,1,100,0|2,0:0|0:0,0:0:0:0:
360,356,154529,1,4,0:0:0:0:
343,125,154665,2,0,P|317:82|274:57,1,100,10|0,0:0|0:0,0:0:0:0:
49,114,154938,6,0,P|38:173|47:232,1,100,6|0,0:0|0:0,0:0:0:0:
139,355,155211,1,10,0:0:0:0:
254,241,155347,2,0,P|257:191|246:142,1,100,4|2,0:0|0:0,0:0:0:0:
152,28,155620,1,4,0:0:0:0:
168,258,155756,2,0,P|194:301|237:326,1,100,10|0,0:0|0:0,0:0:0:0:
439,236,156029,6,0,L|445:135,1,100,6|0,0:0|0:0,0:0:0:0:
258,32,156301,1,10,0:0:0:0:
67,136,156438,2,0,L|73:236,1,100,0|2,0:0|0:0,0:0:0:0:
257,347,156710,1,4,0:0:0:0:
256,212,156847,2,0,L|256:112,1,100,10|4,0:0|0:0,0:0:0:0:
146,346,157120,5,2,0:0:0:0:
366,346,157256,1,4,0:0:0:0:
256,160,157392,1,10,0:0:0:0:
256,160,157665,5,6,0:0:0:0:
316,39,157801,1,4,0:0:0:0:
196,39,157938,2,0,P|168:80|192:128,1,100,10|0,0:0|0:0,0:0:0:0:
326,199,158210,6,0,P|357:242|259:330,1,200,2|10,0:0|0:0,0:0:0:0:
134,214,158620,1,0,0:0:0:0:
266,104,158756,2,0,P|315:85|372:98,2,100,6|4|10,0:0|0:0|0:0,0:0:0:0:
115,219,159165,1,0,0:0:0:0:
299,303,159301,6,0,L|241:215,1,100,6|0,0:0|0:0,0:0:0:0:
202,82,159574,1,10,0:0:0:0:
330,172,159710,2,0,L|385:255,2,100,4|2|4,0:0|0:0|0:0,0:0:0:0:
192,66,160120,1,10,0:0:0:0:
192,66,160188,1,0,0:0:0:0:
192,66,160256,1,4,0:0:0:0:
148,320,160392,5,6,0:0:0:0:
318,103,160529,1,4,0:0:0:0:
82,210,160665,5,8,0:0:0:0:
360,213,160801,1,4,0:0:0:0:
162,91,160938,5,8,0:0:0:0:
292,330,161074,1,4,0:0:0:0:
252,23,161210,5,8,0:0:0:0:
214,379,161347,1,4,0:0:0:0:
351,58,161483,5,8,0:0:0:0:
42,232,161620,1,4,0:0:0:0:
416,243,161756,5,8,0:0:0:0:
105,27,161892,1,4,0:0:0:0:
300,201,162029,6,0,L|309:244,5,33.3333333333333,8|0|0|8|0|0,0:0|0:0|0:0|0:0|0:0|0:0,0:0:0:0:
226,161,162301,2,0,L|206:259,1,100,4|4,0:0|0:0,0:0:0:0:
64,356,162574,2,0,B|24:204|24:204|64:148|72:68|72:68|84:148|124:204|124:204|112:264|112:264|127:357|208:376|285:356|301:262|301:262|319:155|463:146|504:212|504:300,1,1100
176,360,164756,6,0,L|135:99,1,262.500010013581,2|0,0:2|0:0,0:0:0:0:
210,28,165301,6,0,L|265:375,1,350,2|0,0:2|0:0,0:0:0:0:
351,341,165847,6,0,L|329:214,1,119.999996337891,14|0,0:0|0:0,0:0:0:0:
316,152,166029,2,0,L|294:25,1,119.999996337891,14|0,0:0|0:0,0:0:0:0:
381,113,166210,2,0,L|403:240,1,119.999996337891,14|0,0:0|0:0,0:0:0:0:
453,341,166392,6,0,L|475:214,1,119.999996337891,14|0,0:0|0:0,0:0:0:0:
488,152,166574,2,0,L|510:25,1,119.999996337891,14|0,0:0|0:0,0:0:0:0:
422,113,166755,2,0,L|400:240,1,119.999996337891,14|0,0:0|0:0,0:0:0:0:
348,285,166938,6,0,P|305:301|233:274,1,119.999996337891,14|0,0:0|0:0,0:0:0:0:
183,217,167120,2,0,P|226:201|298:228,1,119.999996337891,14|0,0:0|0:0,0:0:0:0:
355,180,167301,2,0,P|326:127|337:68,1,119.999996337891,14|0,0:0|0:0,0:0:0:0:
409,11,167483,6,0,B|469:6|469:6|517:51,1,119.999996337891,14|0,0:0|0:0,0:0:0:0:
508,127,167665,2,0,L|493:249,1,119.999996337891,14|0,0:0|0:0,0:0:0:0:
414,216,167847,2,0,B|405:284|405:284|351:312,1,119.999996337891,14|0,0:0|0:0,0:0:0:0:
224,348,168029,6,0,L|94:362,1,119.999996337891,14|0,0:0|0:0,0:0:0:0:
4,277,168210,2,0,L|134:290,1,119.999996337891,14|0,0:0|0:0,0:0:0:0:
224,204,168392,2,0,L|93:217,1,119.999996337891,14|0,0:0|0:0,0:0:0:0:
288,180,168574,6,0,L|418:193,1,119.999996337891,14|0,0:0|0:0,0:0:0:0:
512,105,168755,2,0,L|381:118,1,119.999996337891,14|0,0:0|0:0,0:0:0:0:
292,28,168937,2,0,L|422:41,1,119.999996337891,14|0,0:0|0:0,0:0:0:0:
448,185,169120,6,0,P|438:234|373:265,1,119.999996337891,14|0,0:0|0:0,0:0:0:0:
344,332,169301,2,0,P|306:298|312:227,1,119.999996337891,14|0,0:0|0:0,0:0:0:0:
268,170,169483,2,0,P|315:154|374:194,1,119.999996337891,14|0,0:0|0:0,0:0:0:0:
231,237,169665,6,0,P|195:188|310:105,1,239.999992675781,14|0,0:0|0:0,0:0:0:0:
390,126,169983,2,0,L|390:289,1,159.999995117188,14|0,0:0|0:0,0:0:0:0:
446,235,170210,2,0,P|472:152|328:152,1,279.999991455078,14|0,0:0|0:0,0:0:0:0:
348,223,170574,2,0,P|291:215|254:163,1,119.999996337891,14|0,0:0|0:0,0:0:0:0:
202,234,170756,6,0,P|177:183|187:123,1,119.999996337891,14|0,0:0|0:0,0:0:0:0:
102,122,170938,2,0,P|124:70|180:40,1,119.999996337891,14|0,0:0|0:0,0:0:0:0:
250,73,171120,2,0,P|320:88|360:48,1,119.999996337891,14|0,0:0|0:0,0:0:0:0:
420,25,171301,6,0,L|441:147,1,119.999996337891,14|0,0:0|0:0,0:0:0:0:
337,275,171483,2,0,L|357:156,1,119.999996337891,14|0,0:0|0:0,0:0:0:0:
250,73,171665,2,0,L|271:195,1,119.999996337891,14|0,0:0|0:0,0:0:0:0:
192,336,171847,6,0,P|154:358|71:342,1,119.999996337891,14|0,0:0|0:0,0:0:0:0:
135,279,172029,2,0,P|173:257|256:273,1,119.999996337891,14|0,0:0|0:0,0:0:0:0:
279,345,172210,2,0,P|320:306|324:238,1,119.999996337891,14|0,0:0|0:0,0:0:0:0:
293,146,172392,6,0,L|277:27,1,119.999996337891,14|0,0:0|0:0,0:0:0:0:
354,29,172574,2,0,L|370:148,1,119.999996337891,14|0,0:0|0:0,0:0:0:0:
277,216,172756,2,0,L|292:97,1,119.999996337891,14|0,0:0|0:0,0:0:0:0:
354,224,172938,6,0,P|342:263|274:296,1,119.999996337891,14|0,0:0|0:0,0:0:0:0:
203,269,173120,2,0,L|83:257,1,119.999996337891,14|0,0:0|0:0,0:0:0:0:
81,183,173301,2,0,L|201:171,1,119.999996337891,14|0,0:0|0:0,0:0:0:0:
277,216,173483,2,0,P|344:214|395:138,1,159.999995117188,14|0,0:0|0:0,0:0:0:0:
204,68,173847,6,8,L|219:146,1,79.9999975585938,12|8,0:0|0:0,0:0:0:0:
152,224,174029,2,0,L|136:145,2,79.9999975585938,4|4|4,0:0|0:0|0:0,0:0:0:0:
168,304,174301,1,4,0:0:0:0:
84,305,174392,2,0,L|60:186,1,119.999996337891,4|0,0:0|0:0,0:0:0:0:
51,119,174574,5,14,0:0:0:0:
59,55,174665,1,8,0:0:0:0:
104,10,174756,1,8,0:0:0:0:
168,8,174847,1,8,0:0:0:0:
207,58,174938,1,8,0:0:0:0:
211,121,175029,1,8,0:0:0:0:
190,181,175120,5,14,0:0:0:0:
177,118,175210,1,8,0:0:0:0:
191,55,175301,1,8,0:0:0:0:
239,13,175392,1,8,0:0:0:0:
302,9,175483,1,8,0:0:0:0:
361,32,175574,1,8,0:0:0:0:
384,91,175665,6,0,P|387:133|375:170,1,79.9999975585938,6|8,0:0|0:0,0:0:0:0:
453,210,175847,2,8,P|422:239|386:253,1,79.9999975585938
406,340,176029,2,8,P|364:335|329:317,1,79.9999975585938
181,318,176210,6,8,P|145:336|106:340,1,79.9999975585938,14|8,0:0|0:0,0:0:0:0:
123,253,176392,2,8,P|87:237|59:210,1,79.9999975585938
136,168,176574,2,8,P|124:130|128:91,1,79.9999975585938
183,19,176756,5,14,0:0:0:0:
246,8,176847,1,8,0:0:0:0:
307,24,176938,1,8,0:0:0:0:
345,75,177029,1,8,0:0:0:0:
350,138,177120,1,8,0:0:0:0:
313,189,177210,1,8,0:0:0:0:
251,206,177301,5,14,0:0:0:0:
301,166,177392,1,8,0:0:0:0:
364,172,177483,1,8,0:0:0:0:
407,219,177574,1,8,0:0:0:0:
404,282,177665,1,8,0:0:0:0:
365,332,177756,1,8,0:0:0:0:
301,339,177847,6,8,P|257:343|211:327,5,79.9999975585938,14|8|8|8|8|8,0:0|0:0|0:0|0:0|0:0|0:0,0:0:0:0:
139,306,178392,2,0,P|100:296|60:300,5,79.9999975585938,14|8|8|8|4|4,0:0|0:0|0:0|0:0|0:0|0:0,0:0:0:0:
222,333,178938,5,14,0:0:0:0:
284,326,179029,1,8,0:0:0:0:
347,317,179120,1,8,0:0:0:0:
409,308,179210,1,8,0:0:0:0:
460,269,179301,1,8,0:0:0:0:
479,207,179392,1,8,0:0:0:0:
464,144,179483,6,8,L|438:65,1,79.9999975585938,14|8,0:0|0:0,0:0:0:0:
308,23,179665,2,8,L|282:98,1,79.9999975585938
241,224,179847,2,8,L|215:299,1,79.9999975585938
125,368,180029,5,14,0:0:0:0:
60,369,180120,1,8,0:0:0:0:
22,318,180210,1,8,0:0:0:0:
29,254,180301,1,8,0:0:0:0:
83,220,180392,1,8,0:0:0:0:
117,165,180483,1,8,0:0:0:0:
110,101,180574,5,14,0:0:0:0:
145,154,180665,1,8,0:0:0:0:
205,173,180756,1,8,0:0:0:0:
268,165,180847,1,8,0:0:0:0:
323,133,180938,1,8,0:0:0:0:
349,74,181029,1,4,0:0:0:0:
346,9,181120,6,8,L|361:110,1,79.9999975585938,14|8,0:0|0:0,0:0:0:0:
216,187,181301,2,8,L|228:108,1,79.9999975585938
377,190,181483,2,4,L|392:291,1,79.9999975585938
192,353,181665,6,8,L|203:273,1,79.9999975585938,14|8,0:0|0:0,0:0:0:0:
352,190,181847,2,8,L|364:270,1,79.9999975585938
223,172,182029,2,4,L|236:88,1,79.9999975585938
250,10,182210,5,14,0:0:0:0:
298,42,182301,2,0,P|342:49|383:40,4,79.9999975585938,8|8|4|4|4,0:0|0:0|0:0|0:0|0:0,0:0:0:0:
250,129,182756,5,14,0:0:0:0:
208,164,182847,2,0,P|164:171|123:162,4,79.9999975585938,8|8|4|4|4,0:0|0:0|0:0|0:0|0:0,0:0:0:0:
283,143,183301,5,14,0:0:0:0:
496,229,183574,1,8,0:0:0:0:
259,311,183847,5,12,0:0:0:0:
205,211,183983,1,8,0:0:0:0:
300,218,184120,1,8,0:0:0:0:
161,301,184256,1,8,0:0:0:0:
154,146,184392,5,12,0:0:0:0:
319,358,184665,1,8,0:0:0:0:
461,178,184938,5,12,0:0:0:0:
410,81,185074,1,8,0:0:0:0:
351,178,185210,1,8,0:0:0:0:
407,282,185347,1,8,0:0:0:0:
407,111,185483,6,12,P|366:91|267:151,1,160,8|12,0:0|0:0,0:0:0:0:
118,264,186029,2,8,P|75:279|32:270,1,80,12|8,0:0|0:0,0:0:0:0:
53,118,186301,2,8,L|70:204,1,80
155,342,186574,6,0,P|191:307|200:240,2,106.666666666667,6|4|4,0:0|0:0|0:0,0:0:0:0:
356,341,187120,2,0,P|319:304|309:253,2,106.666666666667,8|4|4,0:0|0:0|0:0,0:0:0:0:
256,128,187665,5,6,0:0:0:0:
256,192,187699,12,2,189846,0:0:0:0:
142,110,208392,6,0,P|184:95|258:106,1,119.999996337891,6|8,0:0|0:0,0:0:0:0:
380,190,208937,1,8,0:0:0:0:
244,260,209210,1,8,0:0:0:0:
345,123,209483,6,0,P|408:120|309:220,1,359.999989013672,6|4,0:0|0:0,0:0:0:0:
200,136,210574,2,0,P|191:203|234:307,1,179.999994506836,10|0,0:0|0:0,0:0:0:0:
290,354,211119,2,0,P|350:375|510:317,1,239.999992675781,6|6,0:0|0:0,0:0:0:0:
489,175,211937,1,4,0:0:0:0:
482,156,212755,5,10,0:0:0:0:
474,130,213301,5,6,0:0:0:0:
343,69,213574,1,0,0:0:0:0:
219,142,213846,2,0,B|160:128|104:183|104:183|30:142|52:45|52:45|82:64|73:111,1,359.999989013672,6|4,0:0|0:0,0:0:0:0:
35,369,214937,1,10,0:0:0:0:
117,220,215210,6,0,P|161:209|214:221,1,89.9999972534181
239,226,215483,2,0,P|283:233|326:222,1,89.9999972534181,6|0,0:0|0:0,0:0:0:0:
359,207,215755,2,0,L|393:298,1,89.9999972534181
405,324,216028,5,6,0:0:0:0:
490,137,216301,1,0,0:0:0:0:
277,159,216574,1,2,0:0:0:0:
501,264,216846,1,4,0:0:0:0:
376,61,217119,1,10,0:0:0:0:
295,293,217392,1,4,0:0:0:0:
506,131,217665,1,4,0:0:0:0:
241,142,217937,1,4,0:0:0:0:
402,362,218210,6,0,L|367:0,1,359.999989013672,6|0,0:0|0:0,0:0:0:0:
144,3,219301,2,0,L|124:225,1,209.999993591309,10|0,0:0|0:0,0:0:0:0:
122,240,219846,2,0,L|110:359,1,119.999996337891,6|0,0:0|0:0,0:0:0:0:
256,257,220392,5,2,0:0:0:0:
256,257,220665,1,4,0:0:0:0:
256,257,221210,5,4,0:0:0:0:
399,367,221483,2,0,L|390:248,1,119.999996337891,10|0,0:0|0:0,0:0:0:0:
344,41,222028,6,8,L|342:76,1,29.9999990844727,10|8,0:0|0:0,0:0:0:0:
317,321,222301,1,4,0:0:0:0:
260,114,222574,1,6,0:0:0:0:
224,295,222846,2,0,P|161:310|65:178,1,239.999992675781
117,55,223665,1,10,0:0:0:0:
166,196,223937,2,4,P|202:189|231:189,1,59.9999981689454,6|4,0:0|0:0,0:0:0:0:
316,218,224210,2,4,P|352:211|381:211,1,59.9999981689454,6|4,0:0|0:0,0:0:0:0:
463,245,224483,1,8,0:0:0:0:
379,352,224755,5,6,0:0:0:0:
243,146,225028,1,0,0:0:0:0:
352,149,225164,1,0,0:0:0:0:
295,244,225301,1,0,0:0:0:0:
180,28,225574,2,0,L|265:20,1,59.9999981689454
405,26,225846,1,2,0:0:0:0:
301,260,226119,2,8,L|299:183,1,59.9999981689454
297,127,226392,1,4,0:0:0:0:
173,52,226665,1,4,0:0:0:0:
36,116,226937,6,4,P|26:174|37:215,1,100,6|4,0:0|0:0,0:0:0:0:
213,267,227209,2,0,P|223:209|212:168,1,100,8|4,0:0|0:0,0:0:0:0:
126,328,227482,2,0,P|171:368|213:370,1,100,8|4,0:0|0:0,0:0:0:0:
289,121,227755,2,0,P|244:81|202:79,1,100,8|4,0:0|0:0,0:0:0:0:
198,287,228027,5,8,0:0:0:0:
368,127,228164,1,4,0:0:0:0:
103,147,228300,1,8,0:0:0:0:
261,356,228437,1,4,0:0:0:0:
295,153,228573,1,8,0:0:0:0:
139,290,228709,1,4,0:0:0:0:
349,289,228846,1,8,0:0:0:0:
312,80,228982,1,4,0:0:0:0:
64,268,229118,5,8,0:0:0:0:
64,268,229391,6,0,P|125:287|167:277,1,100,8|4,0:0|0:0,0:0:0:0:
493,151,229664,2,0,P|432:170|390:160,1,100,8|4,0:0|0:0,0:0:0:0:
167,369,229937,2,0,P|215:349|243:309,1,100,8|4,0:0|0:0,0:0:0:0:
434,94,230209,6,0,L|400:0,1,100,8|4,0:0|0:0,0:0:0:0:
164,72,230482,2,0,L|130:166,1,100,8|4,0:0|0:0,0:0:0:0:
71,348,230755,1,8,0:0:0:0:
227,185,230891,1,0,0:0:0:0:
366,299,231027,6,0,L|393:307,6,25,8|0|0|0|0|0|4,0:0|0:0|0:0|0:0|0:0|0:0|0:0,0:0:0:0:
446,248,231300,2,0,L|348:222,1,100,6|4,0:0|0:0,0:0:0:0:
180,132,231573,6,0,P|148:89|152:38,1,100,8|4,0:0|0:0,0:0:0:0:
269,155,231846,2,0,P|238:202|197:222,1,100,8|4,0:0|0:0,0:0:0:0:
237,63,232118,2,0,L|345:45,1,100,8|4,0:0|0:0,0:0:0:0:
509,204,232391,6,0,L|361:175,1,150,8|0,0:0|0:0,0:0:0:0:
292,160,232664,2,0,L|144:131,1,150,8|0,0:0|0:0,0:0:0:0:
0,248,232937,6,0,L|148:219,1,150,8|0,0:0|0:0,0:0:0:0:
217,204,233210,2,0,L|365:175,1,150,8|0,0:0|0:0,0:0:0:0:
436,265,233482,5,4,0:0:0:0:
436,265,233550,1,4,0:0:0:0:
436,265,233618,1,4,0:0:0:0:
364,175,233755,2,8,P|353:114|376:72,1,100,10|8,0:0|0:0,0:0:0:0:
460,135,234027,5,8,0:0:0:0:
52,135,234300,5,4,0:0:0:0:
43,151,234573,5,4,0:0:0:0:
38,180,234641,1,4,0:0:0:0:
43,209,234709,1,4,0:0:0:0:
57,235,234777,1,4,0:0:0:0:
81,252,234846,1,8,0:0:0:0:
110,256,234914,1,8,0:0:0:0:
139,255,234982,1,4,0:0:0:0:
166,244,235050,1,4,0:0:0:0:
195,237,235118,5,8,0:0:0:0:
239,228,235187,1,8,0:0:0:0:
283,230,235255,1,4,0:0:0:0:
321,252,235323,1,4,0:0:0:0:
339,292,235391,1,8,0:0:0:0:
331,336,235459,1,8,0:0:0:0:
305,372,235527,1,4,0:0:0:0:
260,382,235596,1,4,0:0:0:0:
215,376,235664,5,6,0:0:0:0:
211,321,235732,1,4,0:0:0:0:
205,266,235800,1,4,0:0:0:0:
200,211,235868,1,4,0:0:0:0:
194,155,235937,1,12,0:0:0:0:
207,101,236005,1,4,0:0:0:0:
247,63,236073,1,4,0:0:0:0:
300,50,236141,1,4,0:0:0:0:
353,61,236209,5,12,0:0:0:0:
333,112,236277,1,4,0:0:0:0:
281,133,236346,1,4,0:0:0:0:
226,136,236414,1,4,0:0:0:0:
177,109,236482,1,12,0:0:0:0:
150,60,236550,1,4,0:0:0:0:
106,26,236618,1,4,0:0:0:0:
50,24,236687,1,4,0:0:0:0:
2,51,236755,5,12,0:0:0:0:
15,104,236823,1,4,0:0:0:0:
26,157,236891,1,4,0:0:0:0:
38,210,236959,1,4,0:0:0:0:
47,263,237027,1,12,0:0:0:0:
73,311,237096,1,4,0:0:0:0:
121,336,237164,1,4,0:0:0:0:
175,328,237232,1,4,0:0:0:0:
211,287,237300,5,12,0:0:0:0:
219,341,237368,1,4,0:0:0:0:
262,373,237436,1,4,0:0:0:0:
316,375,237504,1,4,0:0:0:0:
364,348,237572,1,12,0:0:0:0:
387,297,237641,1,4,0:0:0:0:
383,242,237709,1,4,0:0:0:0:
352,196,237777,1,4,0:0:0:0:
296,193,237846,5,12,0:0:0:0:
255,155,237914,1,4,0:0:0:0:
237,103,237982,1,4,0:0:0:0:
254,51,238050,1,4,0:0:0:0:
295,15,238118,1,12,0:0:0:0:
350,7,238187,1,4,0:0:0:0:
400,28,238255,1,4,0:0:0:0:
424,76,238323,1,4,0:0:0:0:
424,130,238391,5,12,0:0:0:0:
369,138,238459,1,4,0:0:0:0:
314,147,238527,1,4,0:0:0:0:
255,155,238596,1,4,0:0:0:0:
200,163,238664,1,12,0:0:0:0:
151,187,238732,1,4,0:0:0:0:
113,227,238800,1,4,0:0:0:0:
102,280,238868,1,4,0:0:0:0:
106,335,238937,5,12,0:0:0:0:
134,288,239005,1,4,0:0:0:0:
146,234,239073,1,4,0:0:0:0:
141,179,239141,1,4,0:0:0:0:
126,126,239209,1,12,0:0:0:0:
132,71,239277,1,4,0:0:0:0:
169,30,239346,1,4,0:0:0:0:
221,15,239414,1,4,0:0:0:0:
273,31,239482,5,12,0:0:0:0:
274,85,239550,1,4,0:0:0:0:
297,134,239618,1,4,0:0:0:0:
342,165,239687,1,4,0:0:0:0:
396,169,239755,1,14,0:0:0:0:
447,149,239823,1,4,0:0:0:0:
475,102,239891,1,4,0:0:0:0:
482,47,239959,1,4,0:0:0:0:
442,8,240027,5,14,0:0:0:0:
450,62,240096,1,4,0:0:0:0:
460,115,240164,1,4,0:0:0:0:
468,169,240232,1,4,0:0:0:0:
471,223,240300,1,12,0:0:0:0:
465,277,240368,1,4,0:0:0:0:
444,327,240436,1,4,0:0:0:0:
401,361,240504,1,4,0:0:0:0:
346,361,240572,5,12,0:0:0:0:
310,318,240641,1,4,0:0:0:0:
302,263,240709,1,4,0:0:0:0:
316,210,240777,1,4,0:0:0:0:
359,176,240845,1,12,0:0:0:0:
414,169,240914,1,4,0:0:0:0:
465,187,240982,1,4,0:0:0:0:
496,231,241050,1,4,0:0:0:0:
485,284,241118,5,12,0:0:0:0:
430,274,241187,1,4,0:0:0:0:
375,267,241255,1,4,0:0:0:0:
320,257,241323,1,4,0:0:0:0:
265,247,241391,1,12,0:0:0:0:
210,239,241459,1,4,0:0:0:0:
155,230,241527,1,4,0:0:0:0:
100,224,241595,1,4,0:0:0:0:
104,278,241663,5,12,0:0:0:0:
154,301,241732,1,4,0:0:0:0:
205,281,241800,1,4,0:0:0:0:
225,230,241868,1,4,0:0:0:0:
204,179,241936,1,12,0:0:0:0:
152,158,242005,1,4,0:0:0:0:
98,170,242073,1,4,0:0:0:0:
68,216,242141,1,4,0:0:0:0:
71,270,242209,5,14,0:0:0:0:
118,286,242277,1,4,0:0:0:0:
166,298,242346,1,4,0:0:0:0:
213,312,242414,1,4,0:0:0:0:
262,319,242482,1,14,0:0:0:0:
309,303,242550,1,4,0:0:0:0:
325,256,242618,1,4,0:0:0:0:
305,209,242687,1,4,0:0:0:0:
257,193,242755,1,14,0:0:0:0:
212,212,242823,1,4,0:0:0:0:
201,260,242891,1,4,0:0:0:0:
222,304,242959,1,4,0:0:0:0:
270,313,243027,1,14,0:0:0:0:
313,286,243096,1,4,0:0:0:0:
347,249,243164,1,4,0:0:0:0:
396,242,243232,1,4,0:0:0:0:
444,254,243300,5,14,0:0:0:0:
442,209,243368,1,4,0:0:0:0:
416,169,243437,1,8,0:0:0:0:
374,151,243505,1,8,0:0:0:0:
329,145,243573,1,8,0:0:0:0:
286,153,243641,1,8,0:0:0:0:
241,149,243709,1,4,0:0:0:0:
203,124,243777,1,4,0:0:0:0:
178,85,243846,1,8,0:0:0:0:
140,59,243914,1,8,0:0:0:0:
95,54,243982,1,4,0:0:0:0:
53,70,244050,1,4,0:0:0:0:
26,106,244118,1,8,0:0:0:0:
25,151,244187,1,8,0:0:0:0:
41,192,244255,1,8,0:0:0:0:
78,216,244323,1,8,0:0:0:0:
149,229,244391,6,4,L|199:222,3,50,6|4|4|4,0:0|0:0|0:0|0:0,0:0:0:0:
285,239,244664,1,8,0:0:0:0:
323,251,244732,1,8,0:0:0:0:
362,253,244800,1,4,0:0:0:0:
400,243,244868,1,4,0:0:0:0:
433,220,244937,2,0,L|441:169,3,50,8|8|4|4,0:0|0:0|0:0|0:0,0:0:0:0:
371,120,245209,1,6,0:0:0:0:
364,159,245277,1,4,0:0:0:0:
357,198,245346,1,4,0:0:0:0:
350,237,245414,1,4,0:0:0:0:
328,288,245482,5,8,0:0:0:0:
304,319,245550,1,8,0:0:0:0:
267,334,245618,1,8,0:0:0:0:
227,325,245687,1,8,0:0:0:0:
198,296,245755,1,8,0:0:0:0:
188,257,245823,1,8,0:0:0:0:
168,222,245891,1,8,0:0:0:0:
131,206,245959,1,8,0:0:0:0:
91,208,246027,1,4,0:0:0:0:
60,234,246096,1,4,0:0:0:0:
45,271,246164,1,8,0:0:0:0:
46,310,246232,1,8,0:0:0:0:
63,345,246300,1,12,0:0:0:0:
99,360,246368,1,4,0:0:0:0:
139,361,246437,1,8,0:0:0:0:
175,344,246505,1,8,0:0:0:0:
201,293,246573,6,0,P|239:256|346:258,1,150,6|0,0:0|0:0,0:0:0:0:
405,296,246846,1,8,0:0:0:0:
419,300,246914,1,8,0:0:0:0:
433,301,246982,1,8,0:0:0:0:
447,298,247050,1,8,0:0:0:0:
460,291,247118,1,8,0:0:0:0:
420,138,247255,1,8,0:0:0:0:
295,217,247391,2,4,L|194:233,1,100,6|4,0:0|0:0,0:0:0:0:
11,260,247664,5,8,0:0:0:0:
11,260,247732,1,8,0:0:0:0:
11,260,247800,1,8,0:0:0:0:
74,95,247937,1,4,0:0:0:0:
96,330,248073,1,8,0:0:0:0:
3,155,248209,1,6,0:0:0:0:
253,189,248346,1,8,0:0:0:0:
11,260,248482,1,8,0:0:0:0:
267,298,248618,1,8,0:0:0:0:
24,370,248755,5,6,0:0:0:0:
29,330,248823,1,4,0:0:0:0:
34,290,248891,1,4,0:0:0:0:
39,250,248959,1,4,0:0:0:0:
44,210,249027,1,8,0:0:0:0:
50,170,249096,1,8,0:0:0:0:
56,130,249164,1,4,0:0:0:0:
62,90,249232,1,4,0:0:0:0:
70,39,249300,5,8,0:0:0:0:
110,67,249368,1,8,0:0:0:0:
151,96,249437,1,4,0:0:0:0:
191,124,249505,1,4,0:0:0:0:
231,152,249573,1,6,0:0:0:0:
271,180,249641,1,4,0:0:0:0:
311,209,249709,1,4,0:0:0:0:
354,233,249777,1,4,0:0:0:0:
407,269,249846,5,4,0:0:0:0:
347,277,249914,1,4,0:0:0:0:
292,302,249982,1,8,0:0:0:0:
244,337,250050,1,8,0:0:0:0:
187,357,250118,1,4,0:0:0:0:
126,357,250187,1,4,0:0:0:0:
70,334,250255,1,8,0:0:0:0:
45,279,250323,1,8,0:0:0:0:
52,217,250391,2,8,P|67:165|55:112,1,100,8|4,0:0|0:0,0:0:0:0:
137,98,250664,2,8,P|106:53|58:28,1,100
10,178,250937,5,6,0:0:0:0:
41,216,251005,1,4,0:0:0:0:
83,241,251073,1,4,0:0:0:0:
132,249,251141,1,4,0:0:0:0:
181,246,251209,1,8,0:0:0:0:
226,225,251277,1,8,0:0:0:0:
263,191,251346,1,8,0:0:0:0:
287,147,251414,1,8,0:0:0:0:
319,109,251482,1,8,0:0:0:0:
366,92,251550,1,8,0:0:0:0:
415,94,251618,1,4,0:0:0:0:
460,116,251687,1,0,0:0:0:0:
489,155,251755,1,4,0:0:0:0:
497,204,251823,1,0,0:0:0:0:
490,253,251891,1,4,0:0:0:0:
462,294,251959,1,4,0:0:0:0:
408,311,252027,5,6,0:0:0:0:
382,267,252096,1,4,0:0:0:0:
379,217,252164,1,4,0:0:0:0:
392,169,252232,1,4,0:0:0:0:
428,134,252300,1,8,0:0:0:0:
433,84,252368,1,8,0:0:0:0:
404,41,252437,1,8,0:0:0:0:
355,30,252505,1,8,0:0:0:0:
309,49,252573,1,8,0:0:0:0:
127,184,252709,1,8,0:0:0:0:
383,199,252846,1,8,0:0:0:0:
270,318,252982,1,8,0:0:0:0:
217,345,253050,1,8,0:0:0:0:
161,353,253118,6,0,P|91:347|39:295,1,129.999994049073,6|8,0:0|0:0,0:0:0:0:
20,56,253391,1,6,0:0:0:0:
272,176,253527,1,8,0:0:0:0:
23,297,253664,1,6,0:0:0:0:
147,15,253800,1,8,0:0:0:0:
196,272,253937,1,6,0:0:0:0:
265,28,254073,1,8,0:0:0:0:
186,295,254209,5,6,0:0:0:0:
32,68,254346,1,8,0:0:0:0:
16,348,254482,1,6,0:0:0:0:
160,32,254618,1,8,0:0:0:0:
216,340,254755,2,0,P|282:367|336:344,1,129.999994049073,2|8,0:0|0:0,0:0:0:0:
436,44,255027,2,0,P|370:25|312:48,1,129.999994049073,6|8,0:0|0:0,0:0:0:0:
192,256,255300,5,6,0:0:0:0:
484,364,255437,1,8,0:0:0:0:
380,104,255573,1,6,0:0:0:0:
260,356,255709,1,8,0:0:0:0:
496,220,255846,1,6,0:0:0:0:
172,200,255982,1,8,0:0:0:0:
384,364,256118,5,6,0:0:0:0:
432,48,256255,1,8,0:0:0:0:
112,128,256391,1,6,0:0:0:0:
448,292,256527,1,8,0:0:0:0:
372,8,256664,1,6,0:0:0:0:
164,240,256800,1,8,0:0:0:0:
504,116,256937,5,6,0:0:0:0:
172,32,257074,1,8,0:0:0:0:
306,342,257209,2,0,L|317:213,1,129.999994049073,6|4,0:0|0:0,0:0:0:0:
52,372,257482,5,6,0:0:0:0:
50,350,257550,1,0,0:0:0:0:
48,328,257618,1,0,0:0:0:0:
47,306,257686,1,0,0:0:0:0:
45,284,257754,1,0,0:0:0:0:
43,262,257822,1,0,0:0:0:0:
42,241,257891,1,0,0:0:0:0:
40,219,257959,1,0,0:0:0:0:
39,197,258027,1,0,0:0:0:0:
37,175,258095,1,0,0:0:0:0:
35,153,258163,1,0,0:0:0:0:
34,132,258232,1,0,0:0:0:0:
32,110,258300,1,4,0:0:0:0:
30,88,258368,1,0,0:0:0:0:
29,66,258436,1,0,0:0:0:0:
27,44,258504,1,0,0:0:0:0:
25,24,258572,5,10,0:0:0:0:
28,21,258641,1,0,0:0:0:0:
31,18,258709,1,0,0:0:0:0:
34,15,258777,1,0,0:0:0:0:
39,15,258846,5,0,0:0:0:0:
40,33,258914,1,0,0:0:0:0:
42,55,258982,1,0,0:0:0:0:
43,77,259050,1,0,0:0:0:0:
45,99,259118,1,0,0:0:0:0:
47,121,259186,1,0,0:0:0:0:
48,142,259255,1,0,0:0:0:0:
50,164,259323,1,0,0:0:0:0:
52,186,259391,1,4,0:0:0:0:
53,208,259459,1,0,0:0:0:0:
55,230,259527,1,4,0:0:0:0:
56,251,259596,1,0,0:0:0:0:
58,271,259664,5,6,0:0:0:0:
97,313,259732,1,0,0:0:0:0:
153,320,259800,1,0,0:0:0:0:
209,308,259868,1,0,0:0:0:0:
251,268,259937,1,8,0:0:0:0:
270,213,260005,1,8,0:0:0:0:
269,155,260073,1,8,0:0:0:0:
276,98,260141,1,8,0:0:0:0:
310,52,260209,1,8,0:0:0:0:
362,29,260277,1,0,0:0:0:0:
420,27,260346,1,4,0:0:0:0:
470,53,260414,1,0,0:0:0:0:
492,105,260482,1,8,0:0:0:0:
499,161,260550,1,0,0:0:0:0:
474,212,260618,1,4,0:0:0:0:
423,241,260687,1,0,0:0:0:0:
365,240,260755,6,0,L|304:229,3,57.5000010967255,6|0|0|0,0:0|0:0|0:0|0:0,0:0:0:0:
185,233,261027,2,0,L|129:244,3,57.5000010967255,12|0|12|0,0:0|0:0|0:0|0:0,0:0:0:0:
46,117,261300,6,8,L|102:106,3,57.5000010967255,12|0|12|0,0:0|0:0|0:0|0:0,0:0:0:0:
226,103,261572,2,4,L|282:113,3,57.5000010967255,6|4|12|4,0:0|0:0|0:0|0:0,0:0:0:0:
371,98,261846,6,0,B|441:100|493:117|545:83|537:10|480:-28|406:-4|393:39|424:90|453:165|453:165|488:161|517:145|517:145|536:176|526:210|526:210|485:236|410:230|410:230|454:275|454:275|417:296|417:296|441:327|441:327|398:363|398:363|325:375|268:317|185:336|185:336|179:261|289:320|289:320,1,1200.00004577637,6|0,0:0|0:0,0:0:0:0:
256,192,264044,12,6,266209,0:0:0:0:
336,84,266482,5,0,0:0:0:0:
336,84,266550,1,0,0:0:0:0:
336,84,266618,1,0,0:0:0:0:
336,84,266687,1,0,0:0:0:0:
336,84,266755,1,0,0:0:0:0:
336,84,266823,1,0,0:0:0:0:
336,84,266891,1,0,0:0:0:0:
336,84,266959,1,0,0:0:0:0:
336,84,267027,1,0,0:0:0:0:
336,84,267096,1,0,0:0:0:0:
336,84,267164,1,0,0:0:0:0:
336,84,267232,1,0,0:0:0:0:
336,84,267300,6,0,P|360:148|260:256,1,230.000004386902,6|0,0:0|0:0,0:0:0:0:
72,172,267709,2,0,P|115:119|260:146,1,230.000004386902,6|0,0:0|0:0,0:0:0:0:
280,356,268118,2,0,P|212:344|164:260,1,172.500003290176,6|0,0:0|0:0,0:0:0:0:
172,188,268391,2,0,L|158:71,1,115.000002193451,6|0,0:0|0:0,0:0:0:0:
444,188,268664,5,0,0:0:0:0:
444,188,268732,1,0,0:0:0:0:
444,188,268800,1,0,0:0:0:0:
444,188,268868,1,0,0:0:0:0:
444,188,268937,1,0,0:0:0:0:
444,188,269005,1,0,0:0:0:0:
444,188,269073,1,0,0:0:0:0:
444,188,269141,1,0,0:0:0:0:
444,188,269209,1,0,0:0:0:0:
444,188,269277,1,0,0:0:0:0:
444,188,269346,1,0,0:0:0:0:
444,188,269414,1,0,0:0:0:0:
444,188,269482,6,0,B|384:352|384:352|380:324|364:300,1,230.000004386902,6|0,0:0|0:0,0:0:0:0:
324,192,269891,2,0,P|256:116|184:192,1,230.000004386902,6|0,0:0|0:0,0:0:0:0:
148,300,270300,2,0,B|132:324|128:352|128:352|86:242,1,172.500003290176,6|0,0:0|0:0,0:0:0:0:
58,173,270573,2,0,L|11:51,1,115.000002193451,6|0,0:0|0:0,0:0:0:0:
256,24,270846,5,0,0:0:0:0:
256,36,270914,1,0,0:0:0:0:
256,48,270982,1,0,0:0:0:0:
256,60,271050,1,0,0:0:0:0:
256,72,271118,1,0,0:0:0:0:
256,84,271187,1,0,0:0:0:0:
256,96,271255,1,0,0:0:0:0:
256,108,271323,1,0,0:0:0:0:
256,120,271391,1,0,0:0:0:0:
256,132,271459,1,0,0:0:0:0:
256,144,271527,1,0,0:0:0:0:
256,156,271596,1,0,0:0:0:0:
256,168,271664,6,0,B|256:232|256:232|256:284|272:320|272:320|320:316|360:344,1,230.000004386902,6|0,0:0|0:0,0:0:0:0:
464,360,272073,2,0,P|512:304|400:284,1,230.000004386902,6|0,0:0|0:0,0:0:0:0:
328,216,272482,2,0,P|394:167|481:160,1,172.500003290176,6|0,0:0|0:0,0:0:0:0:
509,165,272755,5,6,0:0:0:0:
440,24,272891,1,8,0:0:0:0:
444,240,273027,1,4,0:0:0:0:
432,276,273096,1,0,0:0:0:0:
408,308,273164,1,8,0:0:0:0:
372,324,273232,1,8,0:0:0:0:
332,328,273300,1,8,0:0:0:0:
296,316,273368,1,8,0:0:0:0:
256,312,273437,1,4,0:0:0:0:
216,320,273505,1,4,0:0:0:0:
184,340,273573,1,4,0:0:0:0:
164,304,273641,1,4,0:0:0:0:
144,268,273709,1,8,0:0:0:0:
128,232,273777,1,8,0:0:0:0:
108,196,273846,5,8,0:0:0:0:
100,160,273914,1,8,0:0:0:0:
112,124,273982,1,4,0:0:0:0:
140,96,274050,1,4,0:0:0:0:
176,80,274118,1,4,0:0:0:0:
216,80,274187,1,4,0:0:0:0:
248,100,274255,1,8,0:0:0:0:
272,132,274323,1,8,0:0:0:0:
272,172,274391,2,0,B|264:204|264:204|272:240,3,64.9999970245363,8|8|4|4,0:0|0:0|0:0|0:0,0:0:0:0:
336,312,274664,2,0,B|344:344|344:344|336:380,3,64.9999970245363,10|0|0|0,0:0|0:0|0:0|0:0,0:0:0:0:
380,216,274937,5,6,0:0:0:0:
396,168,275005,1,0,0:0:0:0:
392,116,275073,1,14,0:0:0:0:
360,76,275141,1,0,0:0:0:0:
312,60,275209,1,14,0:0:0:0:
260,64,275277,1,0,0:0:0:0:
220,96,275346,1,14,0:0:0:0:
200,144,275414,1,0,0:0:0:0:
172,188,275482,1,14,0:0:0:0:
124,208,275550,1,0,0:0:0:0:
72,212,275618,1,14,0:0:0:0:
24,188,275687,1,0,0:0:0:0:
0,140,275755,1,14,0:0:0:0:
0,88,275823,1,0,0:0:0:0:
28,44,275891,1,14,0:0:0:0:
76,28,275959,1,0,0:0:0:0:
127,25,276027,5,14,0:0:0:0:
171,52,276096,1,0,0:0:0:0:
188,100,276164,1,14,0:0:0:0:
186,151,276232,1,0,0:0:0:0:
157,194,276300,1,14,0:0:0:0:
145,244,276368,1,0,0:0:0:0:
165,292,276437,1,14,0:0:0:0:
205,324,276505,1,0,0:0:0:0:
256,332,276573,1,14,0:0:0:0:
304,313,276641,1,0,0:0:0:0:
338,273,276709,1,14,0:0:0:0:
342,221,276777,1,0,0:0:0:0:
320,173,276846,1,14,0:0:0:0:
276,145,276914,1,0,0:0:0:0:
224,145,276982,1,14,0:0:0:0:
177,167,277050,1,0,0:0:0:0:
125,175,277118,5,14,0:0:0:0:
86,138,277187,1,0,0:0:0:0:
102,88,277255,1,14,0:0:0:0:
152,75,277323,1,0,0:0:0:0:
190,109,277391,1,14,0:0:0:0:
194,160,277459,1,0,0:0:0:0:
178,209,277527,1,14,0:0:0:0:
193,259,277596,1,0,0:0:0:0:
232,292,277664,1,14,0:0:0:0:
283,296,277732,1,0,0:0:0:0:
331,277,277800,1,14,0:0:0:0:
363,236,277868,1,0,0:0:0:0:
369,183,277937,1,14,0:0:0:0:
348,135,278005,1,0,0:0:0:0:
307,102,278073,1,14,0:0:0:0:
255,96,278141,1,0,0:0:0:0:
203,88,278209,5,14,0:0:0:0:
211,139,278277,1,0,0:0:0:0:
218,191,278346,1,14,0:0:0:0:
227,241,278414,1,0,0:0:0:0:
237,291,278482,2,0,L|250:360,3,64.9999970245363,14|0|14|0,0:0|0:0|0:0|0:0,0:0:0:0:
330,310,278755,2,0,L|366:363,7,64.9999970245363,14|0|14|0|14|0|14|0,0:0|0:0|0:0|0:0|0:0|0:0|0:0|0:0,0:0:0:0:
384,236,279300,5,6,0:0:0:0:
372,184,279368,1,0,0:0:0:0:
360,132,279437,1,14,0:0:0:0:
348,80,279505,1,0,0:0:0:0:
316,40,279573,1,14,0:0:0:0:
268,16,279641,1,0,0:0:0:0:
216,20,279709,1,14,0:0:0:0:
172,48,279777,1,0,0:0:0:0:
152,96,279846,1,14,0:0:0:0:
144,148,279914,1,0,0:0:0:0:
120,192,279982,1,14,0:0:0:0:
72,212,280050,1,0,0:0:0:0:
20,200,280118,1,14,0:0:0:0:
0,152,280187,1,0,0:0:0:0:
4,100,280255,1,14,0:0:0:0:
43,66,280323,1,0,0:0:0:0:
94,60,280391,5,14,0:0:0:0:
139,84,280459,1,0,0:0:0:0:
157,132,280527,1,14,0:0:0:0:
153,184,280596,1,0,0:0:0:0:
174,231,280664,1,14,0:0:0:0:
221,251,280732,1,0,0:0:0:0:
272,243,280800,1,14,0:0:0:0:
319,263,280868,1,0,0:0:0:0:
334,313,280937,1,14,0:0:0:0:
306,357,281005,1,0,0:0:0:0:
256,371,281073,1,14,0:0:0:0:
209,348,281141,1,0,0:0:0:0:
192,298,281209,1,14,0:0:0:0:
212,250,281277,1,0,0:0:0:0:
259,228,281346,1,14,0:0:0:0:
309,239,281414,1,0,0:0:0:0:
351,269,281482,6,0,P|379:277|415:277,3,64.9999970245363,14|0|14|0,0:0|0:0|0:0|0:0,0:0:0:0:
279,165,281755,2,0,P|251:157|215:157,3,64.9999970245363,14|0|14|0,0:0|0:0|0:0|0:0,0:0:0:0:
367,193,282027,2,0,P|371:149|355:113,3,64.9999970245363,14|0|14|0,0:0|0:0|0:0|0:0,0:0:0:0:
263,245,282300,2,0,P|259:289|275:325,3,64.9999970245363,14|0|14|0,0:0|0:0|0:0|0:0,0:0:0:0:
335,271,282573,6,8,P|367:291|399:295,3,64.9999970245363
203,257,282846,2,4,P|170:274|151:300,3,64.9999970245363
276,160,283118,2,8,P|278:122|265:92,7,64.9999970245363
232,268,283664,5,6,0:0:0:0:
211,324,283732,1,0,0:0:0:0:
164,361,283800,1,12,0:0:0:0:
104,367,283868,1,0,0:0:0:0:
47,343,283937,1,14,0:0:0:0:
23,287,284005,1,0,0:0:0:0:
18,227,284073,1,12,0:0:0:0:
45,173,284141,1,0,0:0:0:0:
93,138,284209,5,14,0:0:0:0:
144,168,284277,1,0,0:0:0:0:
196,200,284346,1,12,0:0:0:0:
248,228,284414,1,0,0:0:0:0:
300,260,284482,1,14,0:0:0:0:
352,288,284550,1,0,0:0:0:0:
404,320,284618,1,12,0:0:0:0:
456,352,284687,1,0,0:0:0:0:
508,380,284755,5,14,0:0:0:0:
508,320,284823,1,0,0:0:0:0:
484,264,284891,1,12,0:0:0:0:
442,221,284959,1,0,0:0:0:0:
386,198,285027,1,14,0:0:0:0:
325,190,285096,1,0,0:0:0:0:
266,202,285164,1,12,0:0:0:0:
216,235,285232,1,0,0:0:0:0:
156,241,285300,1,14,0:0:0:0:
97,227,285368,1,0,0:0:0:0:
57,180,285437,1,12,0:0:0:0:
44,121,285505,1,0,0:0:0:0:
60,63,285573,1,14,0:0:0:0:
107,26,285641,1,0,0:0:0:0:
165,14,285709,1,12,0:0:0:0:
224,23,285777,1,0,0:0:0:0:
260,71,285846,5,14,0:0:0:0:
237,126,285914,1,0,0:0:0:0:
246,185,285982,1,12,0:0:0:0:
286,228,286050,1,0,0:0:0:0:
339,254,286118,1,14,0:0:0:0:
399,255,286187,1,0,0:0:0:0:
454,233,286255,1,12,0:0:0:0:
492,187,286323,1,0,0:0:0:0:
503,128,286391,5,14,0:0:0:0:
444,112,286459,1,0,0:0:0:0:
384,100,286527,1,12,0:0:0:0:
324,88,286596,1,0,0:0:0:0:
264,76,286664,1,14,0:0:0:0:
204,64,286732,1,0,0:0:0:0:
144,56,286800,1,12,0:0:0:0:
84,44,286868,1,0,0:0:0:0:
24,36,286937,5,14,0:0:0:0:
16,95,287005,1,0,0:0:0:0:
17,154,287073,1,12,0:0:0:0:
38,209,287141,1,0,0:0:0:0:
82,249,287209,1,14,0:0:0:0:
141,251,287277,1,0,0:0:0:0:
189,214,287346,1,12,0:0:0:0:
204,152,287414,1,0,0:0:0:0:
227,97,287482,1,14,0:0:0:0:
284,79,287550,1,0,0:0:0:0:
333,112,287618,1,12,0:0:0:0:
342,172,287687,1,0,0:0:0:0:
360,228,287755,1,14,0:0:0:0:
407,264,287823,1,0,0:0:0:0:
466,255,287891,1,12,0:0:0:0:
500,206,287959,1,0,0:0:0:0:
503,146,288027,5,14,0:0:0:0:
447,171,288096,1,0,0:0:0:0:
392,195,288164,1,12,0:0:0:0:
337,220,288232,1,0,0:0:0:0:
282,245,288300,1,14,0:0:0:0:
227,270,288368,1,0,0:0:0:0:
171,295,288437,1,12,0:0:0:0:
116,320,288505,1,0,0:0:0:0:
62,346,288573,5,14,0:0:0:0:
120,356,288641,1,0,0:0:0:0:
176,335,288709,1,12,0:0:0:0:
199,280,288777,1,0,0:0:0:0:
195,219,288846,1,14,0:0:0:0:
215,162,288914,1,0,0:0:0:0:
256,118,288982,1,12,0:0:0:0:
314,107,289050,1,0,0:0:0:0:
373,116,289118,5,14,0:0:0:0:
341,167,289187,1,0,0:0:0:0:
283,182,289255,1,12,0:0:0:0:
227,160,289323,1,0,0:0:0:0:
202,105,289391,1,14,0:0:0:0:
163,58,289459,1,0,0:0:0:0:
104,47,289527,1,12,0:0:0:0:
51,77,289596,1,0,0:0:0:0:
34,134,289664,1,14,0:0:0:0:
62,186,289732,1,0,0:0:0:0:
118,204,289800,1,12,0:0:0:0:
173,180,289868,1,0,0:0:0:0:
225,149,289937,1,14,0:0:0:0:
284,145,290005,1,0,0:0:0:0:
333,178,290073,1,12,0:0:0:0:
345,236,290141,1,0,0:0:0:0:
269,242,290209,6,0,P|316:183|430:211,1,200,6|0,0:0|0:0,0:0:0:0:
366,365,290618,1,0,0:0:0:0:
274,208,290755,6,0,P|336:164|438:224,1,200,6|0,0:0|0:0,0:0:0:0:
347,352,291164,1,0,0:0:0:0:
491,145,291300,6,0,P|517:250|453:301,1,200,6|8,0:0|0:0,0:0:0:0:
286,255,291709,1,0,0:0:0:0:
508,17,291846,5,8,0:0:0:0:
356,336,292391,6,0,P|276:362|333:163,1,450.000017166138,6|0,0:0|0:0,0:0:0:0:
394,79,293482,6,0,P|231:59|76:277,1,450.000017166138,6|0,0:0|0:0,0:0:0:0:
155,370,294437,1,0,0:0:0:0:
204,262,294573,6,0,P|225:182|357:194,1,225.000008583069,6|0,0:0|0:0,0:0:0:0:
317,291,295118,2,0,L|202:96,1,225.000008583069,6|0,0:0|0:0,0:0:0:0:
34,276,295664,1,6,0:0:0:0:
273,361,295800,5,8,0:0:0:0:
273,361,295868,1,8,0:0:0:0:
273,361,295937,1,8,0:0:0:0:
422,277,296073,1,4,0:0:0:0:
278,192,296209,5,8,0:0:0:0:
278,192,296345,1,4,0:0:0:0:
370,363,296482,1,8,0:0:0:0:
370,363,296618,1,4,0:0:0:0:
377,158,296755,6,0,P|338:108|206:114,1,200,6|10,0:0|0:0,0:0:0:0:
98,170,297164,2,4,P|45:185|8:69,1,200
89,16,297573,5,10,0:0:0:0:
256,327,297846,1,4,0:0:0:0:
423,16,298118,2,0,L|466:162,1,150,10|0,0:0|0:0,0:0:0:0:
489,226,298391,1,4,0:0:0:0:
380,360,298527,1,4,0:0:0:0:
397,176,298664,2,0,P|355:133|263:137,1,150,10|0,0:0|0:0,0:0:0:0:
208,170,298937,6,0,L|6:147,1,200,6|10,0:0|0:0,0:0:0:0:
315,292,299346,2,4,L|113:269,1,200
3,255,299755,1,10,0:0:0:0:
90,105,299891,1,4,0:0:0:0:
216,207,300027,2,0,L|418:230,1,200,4|10,0:0|0:0,0:0:0:0:
479,40,300573,6,4,P|431:29|382:42,1,100
276,99,300846,2,0,P|227:109|178:98,1,100,8|0,0:0|0:0,0:0:0:0:
44,32,301118,5,6,0:0:0:0:
88,254,301255,1,14,0:0:0:0:
227,23,301391,1,14,0:0:0:0:
17,146,301527,1,14,0:0:0:0:
229,248,301664,1,14,0:0:0:0:
141,20,301800,1,14,0:0:0:0:
86,278,301937,5,14,0:0:0:0:
331,131,302073,1,14,0:0:0:0:
73,265,302209,5,14,0:0:0:0:
361,210,302346,1,14,0:0:0:0:
68,247,302482,5,14,0:0:0:0:
345,292,302618,1,14,0:0:0:0:
71,227,302755,6,12,P|31:179|33:119,1,119.999996337891,14|14,0:0|0:0,0:0:0:0:
269,15,303027,2,12,P|309:63|307:123,1,119.999996337891,14|14,0:0|0:0,0:0:0:0:
265,283,303300,5,14,0:0:0:0:
144,87,303437,1,14,0:0:0:0:
419,130,303573,1,14,0:0:0:0:
171,221,303709,1,14,0:0:0:0:
393,255,303846,6,12,L|418:133,1,119.999996337891,14|14,0:0|0:0,0:0:0:0:
154,218,304118,2,12,L|129:96,1,119.999996337891,14|14,0:0|0:0,0:0:0:0:
432,128,304391,2,12,L|457:6,1,119.999996337891,14|14,0:0|0:0,0:0:0:0:
256,39,304664,1,14,0:0:0:0:
257,193,304800,1,14,0:0:0:0:
256,345,304937,6,12,L|137:370,1,119.999996337891,14|14,0:0|0:0,0:0:0:0:
5,283,305209,1,10,0:0:0:0:
185,215,305346,1,4,0:0:0:0:
11,143,305482,5,6,0:0:0:0:
5,103,305550,1,8,0:0:0:0:
18,65,305618,1,8,0:0:0:0:
48,38,305687,1,8,0:0:0:0:
86,27,305755,1,8,0:0:0:0:
125,31,305823,1,4,0:0:0:0:
157,53,305891,1,4,0:0:0:0:
180,85,305959,1,4,0:0:0:0:
213,106,306027,1,4,0:0:0:0:
252,116,306096,1,8,0:0:0:0:
291,110,306164,1,8,0:0:0:0:
325,90,306232,1,8,0:0:0:0:
343,54,306300,6,0,L|403:39,3,50,8|4|4|4,0:0|0:0|0:0|0:0,0:0:0:0:
493,150,306573,2,8,L|433:135,5,50
322,158,306982,1,8,0:0:0:0:
310,196,307050,1,8,0:0:0:0:
299,234,307118,1,8,0:0:0:0:
288,272,307187,1,8,0:0:0:0:
277,310,307255,1,4,0:0:0:0:
267,348,307323,1,4,0:0:0:0:
237,374,307391,6,4,L|186:366,1,50
34,262,307527,2,4,L|85:254,1,50
404,204,307664,5,4,0:0:0:0:
177,211,309846,6,0,L|196:92,1,119.999996337891,6|10,0:0|0:0,0:0:0:0:
420,185,310118,1,4,0:0:0:0:
202,320,310255,2,0,P|164:325|90:282,1,119.999996337891,10|4,0:0|0:0,0:0:0:0:
41,53,310527,1,10,0:0:0:0:
263,128,310664,6,0,L|176:211,1,119.999996337891,4|10,0:0|0:0,0:0:0:0:
26,361,310937,1,4,0:0:0:0:
176,56,311073,2,0,P|226:19|283:13,1,119.999996337891,10|4,0:0|0:0,0:0:0:0:
451,158,311346,1,10,0:0:0:0:
253,267,311482,1,4,0:0:0:0:
253,267,311550,1,0,0:0:0:0:
253,267,311618,1,10,0:0:0:0:
462,335,311755,6,0,L|455:269,1,59.9999981689454,4|0,0:0|0:0,0:0:0:0:
371,193,311891,2,0,L|377:132,1,59.9999981689454,10|0,0:0|0:0,0:0:0:0:
450,30,312027,5,4,0:0:0:0:
402,10,312096,1,0,0:0:0:0:
354,7,312164,1,10,0:0:0:0:
311,29,312232,1,0,0:0:0:0:
290,72,312300,1,4,0:0:0:0:
290,119,312368,1,0,0:0:0:0:
313,161,312437,1,10,0:0:0:0:
355,182,312505,1,0,0:0:0:0:
409,175,312573,5,4,0:0:0:0:
363,159,312641,1,0,0:0:0:0:
315,155,312709,1,10,0:0:0:0:
274,180,312777,1,0,0:0:0:0:
249,222,312846,1,4,0:0:0:0:
239,268,312914,1,0,0:0:0:0:
251,314,312982,1,10,0:0:0:0:
281,350,313050,1,0,0:0:0:0:
328,364,313118,5,4,0:0:0:0:
360,328,313187,1,0,0:0:0:0:
352,280,313255,1,10,0:0:0:0:
304,268,313323,1,0,0:0:0:0:
264,292,313391,1,4,0:0:0:0:
240,332,313459,1,0,0:0:0:0:
200,356,313527,1,10,0:0:0:0:
152,356,313596,1,0,0:0:0:0:
111,329,313664,6,0,L|90:211,1,119.999996337891,4|10,0:0|0:0,0:0:0:0:
68,68,313937,1,4,0:0:0:0:
183,125,314073,1,8,0:0:0:0:
307,112,314209,5,6,0:0:0:0:
59,146,314346,1,10,0:0:0:0:
307,112,314482,1,4,0:0:0:0:
59,146,314619,1,10,0:0:0:0:
321,266,314755,5,4,0:0:0:0:
217,32,314891,1,10,0:0:0:0:
217,32,314959,1,0,0:0:0:0:
217,32,315027,1,4,0:0:0:0:
180,292,315164,1,10,0:0:0:0:
354,124,315300,5,4,0:0:0:0:
35,190,315437,1,10,0:0:0:0:
354,124,315573,1,4,0:0:0:0:
35,190,315709,1,10,0:0:0:0:
374,325,315846,5,4,0:0:0:0:
237,19,315982,1,10,0:0:0:0:
237,19,316050,1,0,0:0:0:0:
237,19,316118,1,4,0:0:0:0:
191,360,316255,1,10,0:0:0:0:
388,123,316391,5,4,0:0:0:0:
15,234,316527,1,10,0:0:0:0:
388,123,316664,1,4,0:0:0:0:
15,234,316800,1,10,0:0:0:0:
410,338,316937,5,4,0:0:0:0:
264,11,317073,1,10,0:0:0:0:
264,11,317141,1,0,0:0:0:0:
264,11,317209,1,4,0:0:0:0:
212,375,317346,1,10,0:0:0:0:
475,243,317482,5,4,0:0:0:0:
37,211,317618,1,10,0:0:0:0:
478,266,317755,5,4,0:0:0:0:
25,223,317891,1,10,0:0:0:0:
482,289,318027,5,4,0:0:0:0:
15,234,318164,1,10,0:0:0:0:
486,313,318300,6,0,L|493:133,1,179.999994506836,6|0,0:0|0:0,0:0:0:0:
434,23,318573,5,2,0:0:0:0:
362,19,318641,1,0,0:0:0:0:
301,57,318709,2,0,L|296:122,1,59.9999981689454,10|0,0:0|0:0,0:0:0:0:
257,289,318846,1,4,0:0:0:0:
199,332,318914,1,0,0:0:0:0:
127,326,318982,2,0,L|122:261,1,59.9999981689454,10|0,0:0|0:0,0:0:0:0:
78,23,319118,5,4,0:0:0:0:
150,19,319186,1,0,0:0:0:0:
211,57,319254,2,0,L|216:122,1,59.9999981689454,10|0,0:0|0:0,0:0:0:0:
255,289,319391,1,4,0:0:0:0:
313,332,319459,1,0,0:0:0:0:
385,326,319527,2,0,L|390:261,1,59.9999981689454,10|0,0:0|0:0,0:0:0:0:
401,83,319664,5,4,0:0:0:0:
330,72,319732,1,0,0:0:0:0:
259,83,319800,2,0,L|190:103,1,59.9999981689454,10|0,0:0|0:0,0:0:0:0:
98,252,319937,1,4,0:0:0:0:
27,238,320005,1,0,0:0:0:0:
4,169,320073,2,0,L|-2:109,1,59.9999981689454,10|0,0:0|0:0,0:0:0:0:
161,14,320209,5,4,0:0:0:0:
174,84,320277,1,0,0:0:0:0:
168,156,320346,2,0,L|158:231,1,59.9999981689454,10|0,0:0|0:0,0:0:0:0:
212,364,320482,1,4,0:0:0:0:
283,372,320550,1,0,0:0:0:0:
348,342,320618,2,0,L|358:267,1,59.9999981689454,10|0,0:0|0:0,0:0:0:0:
382,157,320755,5,6,0:0:0:0:
371,83,320823,1,0,0:0:0:0:
323,25,320891,1,10,0:0:0:0:
251,5,320959,1,0,0:0:0:0:
178,19,321027,1,4,0:0:0:0:
127,74,321096,1,0,0:0:0:0:
117,147,321164,1,10,0:0:0:0:
146,214,321232,1,0,0:0:0:0:
209,251,321300,2,0,P|275:266|292:261,3,67.5000002574921,4|0|10|0,0:0|0:0|0:0|0:0,0:0:0:0:
260,164,321573,2,0,P|194:149|177:154,3,67.5000002574921,4|0|10|0,0:0|0:0|0:0|0:0,0:0:0:0:
345,213,321846,5,6,0:0:0:0:
355,127,321914,1,0,0:0:0:0:
307,59,321982,1,10,0:0:0:0:
226,39,322050,1,0,0:0:0:0:
147,64,322118,1,4,0:0:0:0:
109,138,322187,1,0,0:0:0:0:
115,220,322255,1,10,0:0:0:0:
172,278,322323,1,0,0:0:0:0:
252,293,322391,2,0,P|300:294|327:282,3,75.0000028610231,4|0|10|0,0:0|0:0|0:0|0:0,0:0:0:0:
278,170,322664,2,0,P|230:169|203:181,3,75.0000028610231,4|0|10|0,0:0|0:0|0:0|0:0,0:0:0:0:
363,99,322937,6,0,P|305:66|133:93,1,239.999992675781,6|4,0:0|0:0,0:0:0:0:
151,266,323346,1,10,0:0:0:0:
270,371,323482,2,0,L|282:313,1,59.9999981689454,4|0,0:0|0:0,0:0:0:0:
336,137,323618,2,0,L|348:195,1,59.9999981689454,10|0,0:0|0:0,0:0:0:0:
431,381,323755,2,0,L|443:323,1,59.9999981689454,4|0,0:0|0:0,0:0:0:0:
475,159,323891,2,0,L|487:101,1,59.9999981689454,10|0,0:0|0:0,0:0:0:0:
402,0,324027,6,0,P|337:-2|294:32,1,119.999996337891,4|10,0:0|0:0,0:0:0:0:
210,207,324300,2,0,P|147:268|110:265,1,119.999996337891,4|10,0:0|0:0,0:0:0:0:
1,147,324573,2,0,L|12:80,1,59.9999981689454,4|0,0:0|0:0,0:0:0:0:
149,58,324709,1,10,0:0:0:0:
277,166,324846,2,0,P|339:193|433:144,1,179.999994506836,4|0,0:0|0:0,0:0:0:0:
459,66,325118,6,0,P|490:85|509:117,1,75.0000028610231,14|0,0:0|0:0,0:0:0:0:
458,317,325255,2,0,P|490:297|509:265,1,75.0000028610231,8|4,0:0|0:0,0:0:0:0:
477,103,325391,2,0,P|505:127|517:162,1,75.0000028610231,4|4,0:0|0:0,0:0:0:0:
433,350,325527,2,4,P|468:336|492:307,1,75.0000028610231
489,143,325664,6,0,P|513:171|518:208,1,75.0000028610231,4|4,0:0|0:0,0:0:0:0:
333,368,325800,1,8,0:0:0:0:
333,368,325868,1,8,0:0:0:0:
333,368,325937,2,8,P|295:367|263:350,1,75.0000028610231
133,188,326073,2,4,P|121:148|125:112,1,75.0000028610231
292,12,326209,5,6,0:0:0:0:
351,12,326277,1,8,0:0:0:0:
402,44,326346,1,8,0:0:0:0:
419,101,326414,1,8,0:0:0:0:
399,157,326482,2,8,L|346:210,1,75.0000028610231
245,180,326618,2,4,L|192:233,1,75.0000028610231
130,316,326755,5,8,0:0:0:0:
162,366,326823,1,8,0:0:0:0:
220,379,326891,1,8,0:0:0:0:
278,366,326959,1,8,0:0:0:0:
310,315,327027,1,8,0:0:0:0:
316,254,327096,1,4,0:0:0:0:
334,197,327164,1,4,0:0:0:0:
383,162,327232,1,4,0:0:0:0:
443,166,327300,5,6,0:0:0:0:
512,371,327437,1,8,0:0:0:0:
282,244,327573,2,0,P|256:171|277:89,1,165.000005035401,4|0,0:0|0:0,0:0:0:0:
320,16,327846,2,0,P|262:9|212:41,1,110.000003356934,6|8,0:0|0:0,0:0:0:0:
152,84,328050,2,0,L|169:200,1,110.000003356934,4|0,0:0|0:0,0:0:0:0:
248,184,328255,2,0,L|239:241,1,55.0000016784668,4|0,0:0|0:0,0:0:0:0:
228,332,328391,5,6,0:0:0:0:
420,304,328527,1,8,0:0:0:0:
211,251,328664,1,4,0:0:0:0:
432,220,328800,1,8,0:0:0:0:
204,168,328937,6,0,P|152:188|125:236,1,110.000003356934,6|8,0:0|0:0,0:0:0:0:
434,303,329209,2,0,P|486:283|513:235,1,110.000003356934,6|8,0:0|0:0,0:0:0:0:
487,48,329482,6,0,L|377:71,1,110.000003356934,6|8,0:0|0:0,0:0:0:0:
437,216,329755,2,0,L|270:250,1,165.000005035401,4|0,0:0|0:0,0:0:0:0:
195,263,330027,2,0,P|138:269|86:241,1,110.000003356934,6|8,0:0|0:0,0:0:0:0:
49,171,330232,2,0,P|106:165|158:193,1,110.000003356934,4|0,0:0|0:0,0:0:0:0:
203,285,330437,1,8,0:0:0:0:
211,131,330573,5,6,0:0:0:0:
427,182,330709,1,8,0:0:0:0:
170,196,330846,1,4,0:0:0:0:
445,255,330982,1,8,0:0:0:0:
150,273,331118,6,4,L|214:291,1,59.9999981689454
408,323,331255,2,0,L|344:341,1,59.9999981689454,10|0,0:0|0:0,0:0:0:0:
93,131,331391,2,4,L|160:151,1,64.9999970245363
502,171,331528,2,0,L|431:190,1,64.9999970245363,10|0,0:0|0:0,0:0:0:0:
293,6,331664,5,6,0:0:0:0:
231,307,331800,1,8,0:0:0:0:
196,2,331937,1,4,0:0:0:0:
393,223,332073,5,8,0:0:0:0:
393,223,332141,1,0,0:0:0:0:
393,223,332209,2,0,P|377:293|318:331,1,139.999995727539,6|8,0:0|0:0,0:0:0:0:
208,289,332414,2,0,P|141:304|91:354,1,139.999995727539,4|0,0:0|0:0,0:0:0:0:
44,231,332618,2,8,P|73:211|113:194,1,69.9999978637696
231,174,332755,5,6,0:0:0:0:
18,94,332891,1,8,0:0:0:0:
397,59,333027,1,4,0:0:0:0:
14,119,333163,1,8,0:0:0:0:
351,223,333300,2,0,P|348:140|305:82,1,139.999995727539,6|8,0:0|0:0,0:0:0:0:
10,23,333573,2,0,P|13:106|56:164,1,139.999995727539,6|8,0:0|0:0,0:0:0:0:
255,358,333846,5,6,0:0:0:0:
399,71,333982,1,8,0:0:0:0:
113,71,334118,2,0,L|192:274,1,209.999993591309,4|0,0:0|0:0,0:0:0:0:
322,266,334391,6,0,L|376:137,1,139.999995727539,6|8,0:0|0:0,0:0:0:0:
431,48,334596,2,0,P|363:33|300:64,1,139.999995727539,8|4,0:0|0:0,0:0:0:0:
241,137,334800,2,4,L|165:151,1,69.9999978637696
17,52,334937,5,4,0:0:0:0:
256,192,335005,12,0,336027,0:0:0:0:
191,115,336846,6,0,L|337:152,1,150,4|0,0:0|0:0,0:0:0:0:
393,216,337118,1,4,0:0:0:0:
150,277,337255,1,4,0:0:0:0:
137,283,339300,5,4,0:0:0:0:
176,147,339437,1,4,0:0:0:0:
283,238,339573,2,4,L|385:259,1,100
512,129,339846,2,4,L|410:150,1,100
198,215,340118,2,0,P|124:232|45:173,1,150,4|0,0:0|0:0,0:0:0:0:
19,133,340391,5,4,0:0:0:0:
172,0,340527,1,4,0:0:0:0:
136,140,340664,2,4,P|99:99|95:57,1,100
331,163,340937,2,4,P|324:211|290:246,1,100
135,140,341209,2,0,P|167:88|264:81,1,150,4|0,0:0|0:0,0:0:0:0:
346,35,341482,6,0,B|361:205|361:205|427:165|487:199|487:199|502:312,1,412.500015735627,6|0,0:0|0:0,0:0:0:0:
509,380,342300,5,8,0:0:0:0:
445,80,342437,1,8,0:0:0:0:
411,360,342573,5,4,0:0:0:0:
411,360,342709,1,4,0:0:0:0:
101,360,343118,5,4,0:0:0:0:
101,360,343255,1,4,0:0:0:0:
86,351,343664,5,6,0:0:0:0:
70,305,343732,1,0,0:0:0:0:
72,257,343800,1,12,0:0:0:0:
93,214,343868,1,0,0:0:0:0:
135,190,343937,1,14,0:0:0:0:
181,180,344005,1,0,0:0:0:0:
221,153,344073,1,12,0:0:0:0:
242,110,344141,1,0,0:0:0:0:
241,62,344209,2,0,L|227:4,3,59.9999981689454,14|0|12|0,0:0|0:0|0:0|0:0,0:0:0:0:
136,21,344482,6,0,L|154:88,1,59.9999981689454,14|0,0:0|0:0,0:0:0:0:
224,160,344618,1,12,0:0:0:0:
266,182,344687,1,0,0:0:0:0:
313,186,344755,1,14,0:0:0:0:
359,174,344823,1,0,0:0:0:0:
395,142,344891,1,12,0:0:0:0:
415,98,344959,1,0,0:0:0:0:
421,50,345027,6,0,L|430:125,3,59.9999981689454,14|0|12|0,0:0|0:0|0:0|0:0,0:0:0:0:
320,125,345300,2,0,L|329:200,3,59.9999981689454,14|0|12|0,0:0|0:0|0:0|0:0,0:0:0:0:
220,213,345573,2,0,L|229:288,3,59.9999981689454,14|0|12|0,0:0|0:0|0:0|0:0,0:0:0:0:
102,313,345846,5,14,0:0:0:0:
104,265,345914,1,0,0:0:0:0:
108,217,345982,1,12,0:0:0:0:
112,169,346050,1,0,0:0:0:0:
117,121,346118,1,14,0:0:0:0:
136,76,346187,1,0,0:0:0:0:
176,50,346255,1,12,0:0:0:0:
223,42,346323,1,0,0:0:0:0:
269,54,346391,6,0,P|302:60|332:80,1,59.9999981689454,14|0,0:0|0:0,0:0:0:0:
278,208,346527,2,0,P|266:176|269:140,1,59.9999981689454,12|0,0:0|0:0,0:0:0:0:
411,131,346664,2,0,P|389:156|356:172,1,59.9999981689454,14|0,0:0|0:0,0:0:0:0:
152,247,346800,1,12,0:0:0:0:
104,241,346868,1,0,0:0:0:0:
59,221,346937,1,14,0:0:0:0:
35,179,347005,1,0,0:0:0:0:
21,133,347073,1,12,0:0:0:0:
29,85,347141,1,0,0:0:0:0:
59,47,347209,6,0,L|104:2,3,59.9999981689454,14|0|12|0,0:0|0:0|0:0|0:0,0:0:0:0:
174,67,347482,2,0,P|176:104|188:132,1,59.9999981689454,14|0,0:0|0:0,0:0:0:0:
121,176,347618,2,0,P|150:198|179:207,1,59.9999981689454,12|0,0:0|0:0,0:0:0:0:
167,290,347755,2,0,P|203:281|228:264,1,59.9999981689454,14|0,0:0|0:0,0:0:0:0:
289,326,347891,2,0,P|305:292|309:262,1,59.9999981689454,12|0,0:0|0:0,0:0:0:0:
404,289,348027,5,6,0:0:0:0:
440,271,348096,1,0,0:0:0:0:
460,236,348164,1,0,0:0:0:0:
461,196,348232,1,0,0:0:0:0:
447,158,348300,1,8,0:0:0:0:
415,133,348368,1,8,0:0:0:0:
374,126,348437,2,0,L|327:141,1,50,8|0,0:0|0:0,0:0:0:0:
424,200,348573,5,8,0:0:0:0:
453,172,348641,1,8,0:0:0:0:
464,133,348710,1,8,0:0:0:0:
454,94,348778,1,8,0:0:0:0:
431,61,348846,1,4,0:0:0:0:
394,45,348914,1,4,0:0:0:0:
350,41,348983,2,4,L|296:32,1,50
241,123,349118,5,8,0:0:0:0:
235,163,349187,1,8,0:0:0:0:
210,194,349255,1,8,0:0:0:0:
172,208,349323,1,8,0:0:0:0:
132,208,349391,1,4,0:0:0:0:
98,187,349459,1,4,0:0:0:0:
76,151,349528,2,4,L|60:97,1,50
125,38,349664,5,14,0:0:0:0:
164,34,349732,1,8,0:0:0:0:
203,30,349800,2,0,L|256:26,1,50,12|0,0:0|0:0,0:0:0:0:
288,103,349937,1,14,0:0:0:0:
326,107,350005,1,8,0:0:0:0:
366,111,350073,2,0,L|419:115,1,50,12|0,0:0|0:0,0:0:0:0:
502,224,350209,6,0,L|443:218,1,50,6|0,0:0|0:0,0:0:0:0:
275,300,350346,2,4,L|327:295,1,50
443,356,350482,1,8,0:0:0:0:
415,100,350618,1,6,0:0:0:0:
415,100,350686,1,6,0:0:0:0:
415,100,350755,2,0,P|360:97|317:123,1,100,6|6,0:0|0:0,0:0:0:0:
264,282,351027,1,8,0:0:0:0:
190,80,351164,5,6,0:0:0:0:
175,77,351232,1,8,0:0:0:0:
160,75,351300,1,8,0:0:0:0:
145,75,351368,1,8,0:0:0:0:
130,77,351437,1,4,0:0:0:0:
115,81,351505,1,4,0:0:0:0:
102,89,351573,2,0,P|76:99|40:102,3,50,4|8|8|8,0:0|0:0|0:0|0:0,0:0:0:0:
104,180,351846,6,4,L|149:158,1,50
256,144,351982,1,4,0:0:0:0:
31,324,352118,2,0,P|79:343|172:311,1,150,8|0,0:0|0:0,0:0:0:0:
233,264,352391,5,6,0:0:0:0:
310,80,352527,1,4,0:0:0:0:
107,97,352664,1,10,0:0:0:0:
386,197,352800,2,0,P|445:138|448:83,1,129.999994049073,4|10,0:0|0:0,0:0:0:0:
216,59,353073,2,0,L|361:104,1,129.999994049073,4|10,0:0|0:0,0:0:0:0:
493,258,353346,2,0,L|304:315,1,194.999991073609,4|0,0:0|0:0,0:0:0:0:
232,336,353618,1,4,0:0:0:0:
81,268,353755,5,10,0:0:0:0:
181,68,353891,1,4,0:0:0:0:
151,310,354027,5,10,0:0:0:0:
255,70,354164,1,0,0:0:0:0:
236,306,354300,5,10,0:0:0:0:
317,110,354437,1,4,0:0:0:0:
310,270,354573,6,0,P|362:271|427:227,1,129.999994049073,10|4,0:0|0:0,0:0:0:0:
318,65,354846,1,10,0:0:0:0:
137,193,354982,2,0,P|110:257|133:330,1,129.999994049073,4|10,0:0|0:0,0:0:0:0:
389,314,355255,2,0,P|401:251|375:193,1,129.999994049073,4|10,0:0|0:0,0:0:0:0:
179,104,355527,2,0,P|112:96|60:130,1,129.999994049073,4|10,0:0|0:0,0:0:0:0:
256,287,355800,1,4,0:0:0:0:
373,163,355937,5,10,0:0:0:0:
92,206,356073,1,4,0:0:0:0:
398,222,356209,5,10,0:0:0:0:
85,188,356346,1,4,0:0:0:0:
417,98,356482,5,2,0:0:0:0:
103,77,356618,1,0,0:0:0:0:
433,106,356755,6,0,P|444:158|393:294,1,200,6|8,0:0|0:0,0:0:0:0:
228,360,357164,2,0,L|202:206,1,150,4|0,0:0|0:0,0:0:0:0:
282,163,357437,2,0,L|306:15,1,150,4|0,0:0|0:0,0:0:0:0:
223,24,357709,2,0,P|166:40|76:17,1,150
4,41,357982,1,4,0:0:0:0:
84,194,358118,6,0,L|91:302,1,100,10|0,0:0|0:0,0:0:0:0:
232,131,358391,1,6,0:0:0:0:
272,324,358527,2,0,P|324:356|412:331,1,150,4|0,0:0|0:0,0:0:0:0:
465,289,358800,1,0,0:0:0:0:
488,160,358937,5,6,0:0:0:0:
262,59,359073,1,4,0:0:0:0:
356,260,359209,1,10,0:0:0:0:
482,66,359346,2,0,P|407:29|332:37,1,150,6|0,0:0|0:0,0:0:0:0:
268,49,359618,5,4,0:0:0:0:
355,290,359755,1,10,0:0:0:0:
86,223,359891,2,0,P|154:181|280:195,1,200,6|4,0:0|0:0,0:0:0:0:
212,345,360300,5,8,0:0:0:0:
212,345,360368,1,8,0:0:0:0:
212,345,360437,1,8,0:0:0:0:
257,61,360573,6,4,L|256:10,2,50
330,169,360846,6,0,L|383:186,1,50,6|0,0:0|0:0,0:0:0:0:
144,243,360982,2,0,L|91:260,1,50
366,315,361118,6,0,P|426:348|507:354,1,139.999995727539,6|8,0:0|0:0,0:0:0:0:
485,34,361391,1,4,0:0:0:0:
119,91,361527,2,0,P|55:122|22:202,1,139.999995727539,8|4,0:0|0:0,0:0:0:0:
188,365,361800,5,8,0:0:0:0:
441,151,361937,1,4,0:0:0:0:
119,91,362073,2,0,P|87:164|110:229,1,139.999995727539,8|4,0:0|0:0,0:0:0:0:
257,352,362346,1,8,0:0:0:0:
404,191,362482,5,4,0:0:0:0:
170,148,362618,1,8,0:0:0:0:
392,323,362755,1,4,0:0:0:0:
259,36,362891,1,8,0:0:0:0:
120,323,363027,1,4,0:0:0:0:
448,117,363164,1,8,0:0:0:0:
18,69,363300,6,0,P|2:144|29:215,1,139.999995727539,4|8,0:0|0:0,0:0:0:0:
254,378,363573,1,4,0:0:0:0:
491,201,363709,2,0,P|508:134|488:67,1,139.999995727539,8|4,0:0|0:0,0:0:0:0:
156,40,363982,2,0,L|184:196,1,139.999995727539,8|4,0:0|0:0,0:0:0:0:
317,368,364255,2,0,L|341:230,1,139.999995727539,8|4,0:0|0:0,0:0:0:0:
379,30,364527,5,8,0:0:0:0:
226,275,364664,1,4,0:0:0:0:
480,125,364800,1,8,0:0:0:0:
113,115,364937,1,4,0:0:0:0:
113,115,365006,1,0,0:0:0:0:
113,115,365074,1,8,0:0:0:0:
359,301,365209,1,6,0:0:0:0:
389,71,365346,1,0,0:0:0:0:
186,148,365482,6,0,P|204:208|327:222,1,200,6|10,0:0|0:0,0:0:0:0:
428,136,365891,2,0,P|344:105|289:132,1,150,4|0,0:0|0:0,0:0:0:0:
249,214,366164,2,0,P|179:237|113:206,1,150,4|0,0:0|0:0,0:0:0:0:
48,146,366437,2,0,B|69:43|69:43|71:75|83:94,1,150,4|0,0:0|0:0,0:0:0:0:
144,134,366709,1,0,0:0:0:0:
248,42,366846,6,0,P|300:25|391:60,1,150,10|0,0:0|0:0,0:0:0:0:
460,31,367118,1,6,0:0:0:0:
348,186,367255,1,4,0:0:0:0:
448,356,367391,2,0,L|284:365,1,150,10|0,0:0|0:0,0:0:0:0:
195,365,367664,5,6,0:0:0:0:
418,255,367800,1,4,0:0:0:0:
105,284,367937,1,10,0:0:0:0:
436,240,368073,2,0,P|479:196|426:66,1,200,6|4,0:0|0:0,0:0:0:0:
256,9,368482,1,10,0:0:0:0:
67,75,368618,2,0,P|23:159|76:240,1,200,6|4,0:0|0:0,0:0:0:0:
191,259,369027,5,8,0:0:0:0:
261,140,369164,1,8,0:0:0:0:
268,168,369232,1,8,0:0:0:0:
276,197,369301,1,8,0:0:0:0:
330,63,369437,1,4,0:0:0:0:
335,82,369505,1,4,0:0:0:0:
340,101,369573,1,4,0:0:0:0:
384,197,369709,1,4,0:0:0:0:
384,197,369846,6,0,P|430:208|499:138,2,150,2|0|0,0:1|0:0|0:0,0:0:0:0:
254,131,370937,1,0,0:0:0:0:
235,165,371755,5,0,0:0:0:0:
79,207,372027,2,0,B|72:256|72:256|97:300|97:300|87:360,1,150,2|0,0:1|0:0,0:0:0:0:
422,349,372846,5,0,0:0:0:0:
423,349,373118,2,0,B|418:284|418:284|452:232|452:232|444:159,1,200,2|2,0:1|0:1,0:0:0:0:
310,34,373937,5,0,0:0:0:0:
230,187,374209,2,0,P|178:226|97:201,2,150,2|0|0,0:1|0:0|0:0,0:0:0:0:
317,139,375300,6,0,P|328:187|286:276,2,150
379,70,376391,6,0,P|425:200|358:341,1,300,2|0,0:1|0:0,0:0:0:0:
152,339,377482,2,0,P|87:208|133:70,1,300,2|0,0:1|0:0,0:0:0:0:
336,90,378573,6,0,B|452:103|452:103|423:118,2,150,2|0|0,0:1|0:0|0:0,0:0:0:0:
176,158,379664,2,0,B|60:171|60:171|89:186,2,150
377,206,380755,5,2,0:1:0:0:
126,256,381164,1,0,0:0:0:0:
413,306,381573,5,0,0:0:0:0:
413,306,381846,2,0,L|435:106,1,200,2|2,0:1|0:1,0:0:0:0:
294,19,382664,5,0,0:0:0:0:
294,19,382937,2,0,P|224:8|147:44,2,150,2|0|0,0:1|0:0|0:0,0:0:0:0:
264,252,384027,6,0,L|236:104,2,150,2|0|0,0:1|0:0|0:0,0:0:0:0:
437,338,385118,6,0,L|379:44,1,300,2|0,0:1|0:0,0:0:0:0:
133,44,386209,2,0,L|75:338,1,300,2|0,0:1|0:0,0:0:0:0:
257,373,387300,5,2,0:1:0:0:
267,349,388391,6,0,L|307:89,1,262.500010013581,2|0,0:2|0:0,0:0:0:0:
393,22,388937,6,0,L|447:375,1,350,2|0,0:2|0:0,0:0:0:0:
332,372,389482,6,0,L|358:249,1,119.999996337891,14|0,0:0|0:0,0:0:0:0:
292,157,389664,2,0,L|264:276,1,119.999996337891,14|0,0:0|0:0,0:0:0:0:
164,352,389846,2,0,L|190:229,1,119.999996337891,14|0,0:0|0:0,0:0:0:0:
225,107,390027,6,0,P|221:65|174:2,1,119.999996337891,14|0,0:0|0:0,0:0:0:0:
162,187,390209,2,0,P|200:204|278:195,1,119.999996337891,14|0,0:0|0:0,0:0:0:0:
125,92,390391,2,0,P|90:116|59:188,1,119.999996337891,14|0,0:0|0:0,0:0:0:0:
106,295,390573,6,0,B|147:379|147:379|156:354,1,119.999996337891,14|0,0:0|0:0,0:0:0:0:
202,280,390755,2,0,P|235:248|311:241,1,119.999996337891,14|0,0:0|0:0,0:0:0:0:
394,245,390937,2,0,P|381:199|318:160,1,119.999996337891,14|0,0:0|0:0,0:0:0:0:
232,152,391118,6,0,L|196:37,1,119.999996337891,14|0,0:0|0:0,0:0:0:0:
144,110,391300,2,0,L|108:225,1,119.999996337891,14|0,0:0|0:0,0:0:0:0:
54,153,391482,2,0,L|18:38,1,119.999996337891,14|0,0:0|0:0,0:0:0:0:
30,256,391664,6,0,P|62:291|143:294,1,119.999996337891,14|0,0:0|0:0,0:0:0:0:
206,242,391846,2,0,L|291:158,1,119.999996337891,14|0,0:0|0:0,0:0:0:0:
380,85,392027,2,0,P|439:87|482:128,1,119.999996337891,14|0,0:0|0:0,0:0:0:0:
482,256,392209,6,0,P|450:291|369:294,1,119.999996337891,14|0,0:0|0:0,0:0:0:0:
306,242,392391,2,0,L|221:158,1,119.999996337891,14|0,0:0|0:0,0:0:0:0:
131,85,392572,2,0,P|72:87|30:128,1,119.999996337891,14|0,0:0|0:0,0:0:0:0:
37,269,392755,6,0,L|159:307,1,119.999996337891,14|0,0:0|0:0,0:0:0:0:
300,182,392937,2,0,L|178:220,1,119.999996337891,14|0,0:0|0:0,0:0:0:0:
245,294,393118,2,0,L|367:332,1,119.999996337891,14|0,0:0|0:0,0:0:0:0:
433,243,393300,6,0,P|461:170|365:45,1,239.999992675781,14|0,0:0|0:0,0:0:0:0:
255,17,393618,2,0,P|200:19|130:95,1,159.999995117188,14|0,0:0|0:0,0:0:0:0:
120,216,393846,2,0,P|140:293|314:346,1,279.999991455078,14|0,0:0|0:0,0:0:0:0:
386,228,394209,2,0,P|423:201|498:198,1,119.999996337891,14|0,0:0|0:0,0:0:0:0:
512,98,394391,6,0,L|390:114,1,119.999996337891,14|0,0:0|0:0,0:0:0:0:
258,170,394573,2,0,L|124:188,1,119.999996337891,14|0,0:0|0:0,0:0:0:0:
140,311,394755,2,0,L|274:329,1,119.999996337891,14|0,0:0|0:0,0:0:0:0:
352,248,394937,6,0,P|401:253|454:304,1,119.999996337891,14|0,0:0|0:0,0:0:0:0:
264,260,395118,2,0,P|276:201|331:165,1,119.999996337891,14|0,0:0|0:0,0:0:0:0:
292,345,395300,2,0,P|242:350|183:291,1,119.999996337891,14|0,0:0|0:0,0:0:0:0:
146,203,395482,6,0,L|106:84,1,119.999996337891,14|0,0:0|0:0,0:0:0:0:
198,17,395664,2,0,P|257:2|315:18,1,119.999996337891,14|0,0:0|0:0,0:0:0:0:
404,89,395846,2,0,L|366:203,1,119.999996337891,14|0,0:0|0:0,0:0:0:0:
205,280,396027,6,0,P|154:299|90:282,1,119.999996337891,14|0,0:0|0:0,0:0:0:0:
92,100,396209,2,0,P|149:84|205:104,1,119.999996337891,14|0,0:0|0:0,0:0:0:0:
316,120,396391,2,0,L|444:139,1,119.999996337891,14|0,0:0|0:0,0:0:0:0:
434,246,396573,6,0,L|316:264,1,119.999996337891,14|0,0:0|0:0,0:0:0:0:
201,370,396755,2,0,L|184:252,1,119.999996337891,14|0,0:0|0:0,0:0:0:0:
77,137,396937,2,0,L|196:120,1,119.999996337891,14|0,0:0|0:0,0:0:0:0:
310,13,397118,6,0,L|328:132,1,119.999996337891,14|0,0:0|0:0,0:0:0:0:
398,90,397300,2,0,L|415:208,1,119.999996337891,14|0,0:0|0:0,0:0:0:0:
488,189,397482,6,8,L|496:236,2,39.9999987792969
472,109,397664,1,8,0:0:0:0:
431,59,397755,1,8,0:0:0:0:
368,42,397846,1,8,0:0:0:0:
304,51,397937,1,4,0:0:0:0:
254,90,398027,2,4,P|241:113|197:145,1,79.9999975585938
61,181,398209,5,6,0:0:0:0:
12,223,398300,1,8,0:0:0:0:
2,286,398391,1,8,0:0:0:0:
28,344,398482,1,8,0:0:0:0:
86,370,398573,1,8,0:0:0:0:
149,362,398664,1,8,0:0:0:0:
234,317,398755,5,14,0:0:0:0:
275,267,398846,1,8,0:0:0:0:
279,203,398937,1,8,0:0:0:0:
262,141,399027,1,8,0:0:0:0:
280,79,399118,1,8,0:0:0:0:
331,40,399209,1,8,0:0:0:0:
419,26,399300,5,14,0:0:0:0:
433,88,399391,1,8,0:0:0:0:
448,150,399482,1,8,0:0:0:0:
463,212,399573,1,8,0:0:0:0:
478,274,399664,1,8,0:0:0:0:
491,336,399755,1,8,0:0:0:0:
407,358,399846,6,8,P|377:368|327:358,1,79.9999975585938,14|8,0:0|0:0,0:0:0:0:
323,203,400027,2,8,P|346:223|363:272,1,79.9999975585938
226,347,400209,2,8,P|232:316|266:277,1,79.9999975585938
417,187,400391,5,14,0:0:0:0:
475,161,400482,1,8,0:0:0:0:
480,97,400573,1,8,0:0:0:0:
420,73,400664,1,8,0:0:0:0:
373,117,400755,1,8,0:0:0:0:
402,173,400846,1,8,0:0:0:0:
484,193,400937,5,14,0:0:0:0:
511,250,401027,1,8,0:0:0:0:
507,313,401118,1,8,0:0:0:0:
458,354,401209,1,8,0:0:0:0:
394,360,401300,1,8,0:0:0:0:
341,323,401391,1,8,0:0:0:0:
311,238,401482,5,14,0:0:0:0:
262,195,401573,1,8,0:0:0:0:
197,195,401664,1,8,0:0:0:0:
149,237,401755,1,8,0:0:0:0:
141,300,401846,1,8,0:0:0:0:
181,349,401937,1,8,0:0:0:0:
269,361,402027,6,0,L|300:287,5,79.9999975585938,14|8|8|4|4|8,0:0|0:0|0:0|0:0|0:0|0:0,0:0:0:0:
330,218,402573,5,2,0:0:0:0:
354,158,402664,1,8,0:0:0:0:
359,94,402755,1,8,0:0:0:0:
323,40,402846,1,8,0:0:0:0:
261,21,402937,1,8,0:0:0:0:
198,29,403027,1,8,0:0:0:0:
120,80,403118,5,14,0:0:0:0:
90,136,403209,1,8,0:0:0:0:
106,197,403300,1,8,0:0:0:0:
155,237,403391,1,8,0:0:0:0:
218,232,403482,1,8,0:0:0:0:
268,192,403573,1,8,0:0:0:0:
179,163,403664,5,14,0:0:0:0:
174,226,403755,1,8,0:0:0:0:
211,277,403846,1,8,0:0:0:0:
273,292,403937,1,8,0:0:0:0:
332,270,404027,1,8,0:0:0:0:
356,210,404118,1,8,0:0:0:0:
332,128,404210,5,14,0:0:0:0:
298,74,404301,1,8,0:0:0:0:
342,28,404392,1,8,0:0:0:0:
399,53,404482,1,8,0:0:0:0:
398,117,404573,1,8,0:0:0:0:
337,137,404664,1,4,0:0:0:0:
230,161,404755,6,8,L|150:155,1,79.9999975585938
53,46,404937,2,8,L|132:42,1,79.9999975585938
305,29,405118,2,8,P|348:28|382:48,1,79.9999975585938
392,261,405300,6,8,P|357:279|317:277,1,79.9999975585938,14|8,0:0|0:0,0:0:0:0:
107,141,405482,2,8,L|191:151,1,79.9999975585938
340,202,405664,2,8,L|256:212,1,79.9999975585938
74,260,405846,6,0,L|219:279,1,119.999996337891,4|0,0:0|0:0,0:0:0:0:
255,348,406027,2,0,L|110:367,1,119.999996337891,8|0,0:0|0:0,0:0:0:0:
7,321,406209,2,0,P|-10:267|9:201,1,119.999996337891,4|0,0:0|0:0,0:0:0:0:
60,114,406391,5,8,0:0:0:0:
109,73,406482,1,4,0:0:0:0:
171,61,406573,1,4,0:0:0:0:
234,71,406664,1,8,0:0:0:0:
279,115,406755,1,4,0:0:0:0:
294,177,406846,1,8,0:0:0:0:
282,263,406937,6,4,P|274:311|283:352,1,86.6666626993817,6|4,0:0|0:0,0:0:0:0:
459,289,407118,2,4,P|467:241|458:200,1,86.6666626993817
350,39,407300,2,4,P|342:87|351:128,1,86.6666626993817
492,183,407482,6,4,L|502:96,1,86.6666626993817,14|4,0:0|0:0,0:0:0:0:
374,263,407664,2,4,L|413:184,1,86.6666626993817
232,303,407846,2,4,L|295:242,1,86.6666626993817
104,287,408027,5,14,0:0:0:0:
25,250,408118,1,4,0:0:0:0:
9,164,408209,1,4,0:0:0:0:
50,87,408300,1,4,0:0:0:0:
133,63,408391,2,4,P|185:59|222:68,1,86.6666626993817
368,136,408573,5,14,0:0:0:0:
453,152,408664,1,4,0:0:0:0:
496,76,408755,1,4,0:0:0:0:
438,11,408846,1,4,0:0:0:0:
359,47,408937,2,4,P|343:98|352:141,1,86.6666626993817
402,255,409118,6,4,P|417:295|413:338,1,86.6666626993817,14|4,0:0|0:0,0:0:0:0:
237,303,409300,2,4,P|221:262|225:219,1,86.6666626993817
264,78,409482,2,4,P|291:44|330:26,1,86.6666626993817
323,316,409664,6,4,P|305:355|272:382,1,86.6666626993817,14|4,0:0|0:0,0:0:0:0:
144,211,409846,2,4,P|161:171|194:144,1,86.6666626993817
350,103,410028,2,4,P|392:98|433:113,1,86.6666626993817
480,287,410209,5,14,0:0:0:0:
413,342,410300,1,4,0:0:0:0:
326,334,410391,1,4,0:0:0:0:
271,266,410482,1,4,0:0:0:0:
262,179,410573,1,4,0:0:0:0:
221,102,410664,1,4,0:0:0:0:
136,83,410755,5,14,0:0:0:0:
134,90,410846,1,4,0:0:0:0:
132,97,410937,1,4,0:0:0:0:
130,104,411027,1,4,0:0:0:0:
127,111,411118,2,4,L|107:192,1,79.9999975585938
90,303,411300,5,14,0:0:0:0:
131,352,411391,1,4,0:0:0:0:
194,361,411482,1,4,0:0:0:0:
252,334,411573,1,4,0:0:0:0:
282,277,411664,2,4,L|304:200,1,79.9999975585938
440,62,411846,6,4,P|456:96|456:144,1,79.9999975585938,14|4,0:0|0:0,0:0:0:0:
298,359,412027,2,4,P|260:355|218:331,1,79.9999975585938
129,90,412209,2,4,P|150:59|192:35,1,79.9999975585938
481,136,412391,5,14,0:0:0:0:
450,191,412481,1,4,0:0:0:0:
389,213,412572,1,4,0:0:0:0:
324,214,412663,1,4,0:0:0:0:
271,175,412755,2,4,P|237:153|189:152,1,79.9999975585938
10,278,412937,5,14,0:0:0:0:
43,331,413027,1,4,0:0:0:0:
99,361,413118,1,4,0:0:0:0:
162,356,413209,1,4,0:0:0:0:
221,331,413301,2,4,P|260:309|302:302,1,79.9999975585938
446,291,413482,6,4,L|452:212,1,79.9999975585938,14|4,0:0|0:0,0:0:0:0:
461,73,413664,2,4,P|449:32|420:4,1,79.9999975585938
331,93,413846,2,4,L|320:176,1,79.9999975585938
192,172,414027,6,4,L|181:89,1,79.9999975585938,14|4,0:0|0:0,0:0:0:0:
88,6,414209,2,4,P|61:34|51:73,1,79.9999975585938
55,205,414391,2,4,L|64:288,1,79.9999975585938
170,354,414573,6,4,P|228:370|327:347,1,159.999995117188,14|4,0:0|0:0,0:0:0:0:
468,173,414937,1,8,0:0:0:0:
425,125,415027,1,8,0:0:0:0:
367,96,415118,1,8,0:0:0:0:
303,92,415209,1,4,0:0:0:0:
242,113,415300,1,8,0:0:0:0:
200,161,415391,1,4,0:0:0:0:
183,224,415482,2,0,L|191:308,1,79.9999975585938,8|4,0:0|0:0,0:0:0:0:
285,364,415664,5,14,0:0:0:0:
348,370,415755,1,8,0:0:0:0:
399,332,415846,1,8,0:0:0:0:
415,270,415937,1,8,0:0:0:0:
394,210,416027,1,8,0:0:0:0:
337,180,416118,1,8,0:0:0:0:
276,260,416209,5,14,0:0:0:0:
337,277,416300,1,8,0:0:0:0:
396,253,416391,1,8,0:0:0:0:
421,194,416482,1,8,0:0:0:0:
410,130,416573,1,8,0:0:0:0:
355,95,416664,1,8,0:0:0:0:
244,72,416755,5,14,0:0:0:0:
272,129,416846,1,8,0:0:0:0:
301,186,416937,1,8,0:0:0:0:
329,242,417027,1,8,0:0:0:0:
358,299,417118,1,8,0:0:0:0:
386,356,417209,1,8,0:0:0:0:
276,372,417300,5,14,0:0:0:0:
304,315,417391,1,8,0:0:0:0:
333,258,417482,1,8,0:0:0:0:
361,202,417572,1,8,0:0:0:0:
390,145,417663,1,8,0:0:0:0:
418,88,417754,1,8,0:0:0:0:
344,12,417846,5,14,0:0:0:0:
280,3,417937,1,8,0:0:0:0:
220,24,418027,1,8,0:0:0:0:
177,71,418118,1,8,0:0:0:0:
161,133,418209,1,8,0:0:0:0:
178,194,418300,1,8,0:0:0:0:
194,296,418391,5,14,0:0:0:0:
239,341,418482,1,8,0:0:0:0:
301,352,418573,1,8,0:0:0:0:
357,321,418664,1,8,0:0:0:0:
375,259,418755,1,8,0:0:0:0:
358,197,418846,1,8,0:0:0:0:
339,89,418937,5,14,0:0:0:0:
290,47,419027,1,8,0:0:0:0:
227,32,419118,1,8,0:0:0:0:
162,32,419209,1,8,0:0:0:0:
102,56,419300,1,8,0:0:0:0:
53,97,419391,1,8,0:0:0:0:
8,170,419482,5,14,0:0:0:0:
7,177,419573,1,0,0:0:0:0:
6,184,419664,1,0,0:0:0:0:
4,191,419755,1,0,0:0:0:0:
3,198,419846,1,0,0:0:0:0:
0,205,419937,1,0,0:0:0:0:
15,287,420027,5,14,0:0:0:0:
74,309,420118,1,8,0:0:0:0:
135,289,420209,1,8,0:0:0:0:
165,232,420300,1,8,0:0:0:0:
177,169,420391,1,8,0:0:0:0:
212,115,420482,1,8,0:0:0:0:
300,115,420573,5,14,0:0:0:0:
335,169,420664,1,8,0:0:0:0:
347,232,420755,1,8,0:0:0:0:
377,289,420846,1,8,0:0:0:0:
438,309,420937,1,8,0:0:0:0:
497,287,421028,1,8,0:0:0:0:
510,177,421118,5,14,0:0:0:0:
450,199,421209,1,8,0:0:0:0:
389,219,421300,1,8,0:0:0:0:
328,239,421391,1,8,0:0:0:0:
267,259,421482,1,8,0:0:0:0:
206,279,421573,1,8,0:0:0:0:
113,332,421664,5,14,0:0:0:0:
64,289,421755,1,8,0:0:0:0:
44,228,421846,1,8,0:0:0:0:
58,165,421937,1,8,0:0:0:0:
104,122,422027,1,8,0:0:0:0:
166,109,422118,1,8,0:0:0:0:
265,170,422209,5,14,0:0:0:0:
318,204,422300,1,8,0:0:0:0:
381,206,422390,1,8,0:0:0:0:
436,172,422481,1,8,0:0:0:0:
465,115,422572,1,8,0:0:0:0:
460,49,422663,1,8,0:0:0:0:
361,15,422755,5,14,0:0:0:0:
347,77,422846,1,8,0:0:0:0:
334,139,422937,1,8,0:0:0:0:
318,204,423027,1,8,0:0:0:0:
305,266,423118,1,8,0:0:0:0:
291,328,423209,1,8,0:0:0:0:
183,370,423300,6,0,L|168:289,5,79.9999975585938,14|8|8|4|4|8,0:0|0:0|0:0|0:0|0:0|0:0,0:0:0:0:
98,202,423846,6,0,L|83:124,5,79.9999975585938,2|4|4|4|8|4,0:0|0:0|0:0|0:0|0:0|0:0,0:0:0:0:
147,30,424391,5,8,0:0:0:0:
394,110,424664,1,8,0:0:0:0:
214,260,424937,5,12,0:0:0:0:
279,101,425073,1,8,0:0:0:0:
138,188,425209,1,8,0:0:0:0:
307,204,425346,1,8,0:0:0:0:
176,92,425482,5,12,0:0:0:0:
43,332,425755,1,8,0:0:0:0:
295,328,426027,5,12,0:0:0:0:
425,236,426164,1,8,0:0:0:0:
242,264,426300,1,8,0:0:0:0:
407,313,426437,1,8,0:0:0:0:
274,186,426573,6,0,P|226:181|230:347,1,280,12|0,0:0|0:0,0:0:0:0:
300,350,427118,5,12,0:0:0:0:
102,367,427255,1,8,0:0:0:0:
252,263,427391,1,8,0:0:0:0:
28,281,427527,1,8,0:0:0:0:
252,263,427664,6,0,L|224:140,1,106.666666666667,12|8,0:0|0:0,0:0:0:0:
234,7,428027,1,4,0:0:0:0:
260,121,428209,6,0,L|283:225,1,106.666666666667,8|8,0:0|0:0,0:0:0:0:
278,377,428573,1,4,0:0:0:0:
94,358,428755,6,4,B|75:337|74:316|74:316|22:313|6:265|6:265|32:218|61:219|61:219|108:205|128:143|99:103|99:103|105:87|105:87|87:49|106:9,1,450.000017166138,6|4,0:0|0:0,0:0:0:0:
315,37,429845,6,0,B|382:11|430:49|448:81|448:116|417:145|384:148|360:129|348:96|354:78|370:56|395:51|444:44|467:44|495:66|495:66|509:109|484:142,1,450.000017166138,10|4,0:0|0:0,0:0:0:0:
387,336,430936,6,0,L|234:313,1,150.000005722046,6|0,0:0|0:0,0:0:0:0:
168,238,431345,2,0,L|321:215,1,150.000005722046,4|0,0:0|0:0,0:0:0:0:
431,193,431755,1,4,0:0:0:0:
118,122,432027,5,10,0:0:0:0:
116,93,433118,6,0,B|149:90|165:60|165:60|209:29|298:45|320:110|320:110|295:187|321:237|393:243|419:209,1,450.000017166138,6|4,0:0|0:0,0:0:0:0:
385,312,434209,2,0,B|327:321|262:282|239:225|239:225|209:236|201:274|201:274|208:323|173:370|97:375|60:327,1,450.000017166138,10|0,0:0|0:0,0:0:0:0:
5,256,435300,6,0,B|9:201|55:179|55:179|119:191|125:283,2,225.000008583069,6|4|4,0:0|0:0|0:0,0:0:0:0:
50,362,436391,5,10,0:0:0:0:
203,192,436664,1,4,0:0:0:0:
9,121,436936,1,0,0:0:0:0:
131,270,437209,1,0,0:0:0:0:
211,95,437482,6,0,B|245:78|279:95|279:95|310:56|359:60|359:60|377:38|404:30|404:30|443:35|476:55|485:87|487:122|482:154|460:189|424:201,1,450.000017166138,6|4,0:0|0:0,0:0:0:0:
360,311,438573,6,0,B|346:325|322:326|322:326|296:301|273:288|204:254|131:342|194:406|278:394|310:324|258:240|174:195|92:259,1,450.000017166138,10|0,0:0|0:0,0:0:0:0:
37,158,439664,6,4,P|164:124|279:155,2,225.000008583069,6|4|4,0:0|0:0|0:0,0:0:0:0:
153,341,440755,1,10,0:0:0:0:
505,361,441573,5,0,0:0:0:0:
479,217,441845,2,4,B|459:134|459:134|414:58|347:65|347:65|316:180|214:196|157:161,1,450.000017166138,6|4,0:0|0:0,0:0:0:0:
15,130,442936,1,10,0:0:0:0:
20,151,444027,6,4,B|-1:254|-1:254|36:375,2,225.000008583069,6|4|4,0:0|0:0|0:0,0:0:0:0:
64,28,445118,5,10,0:0:0:0:
269,121,445391,1,8,0:0:0:0:
18,94,445664,1,8,0:0:0:0:
255,44,445936,1,8,0:0:0:0:
196,288,446209,6,4,P|262:325|308:87,1,450.000017166138,6|4,0:0|0:0,0:0:0:0:
155,288,447300,6,0,P|224:340|283:45,1,600.000022888185,10|6,0:0|0:0,0:0:0:0:
140,47,449209,5,4,0:0:0:0:
74,189,449482,1,10,0:0:0:0:
140,337,449755,1,4,0:0:0:0:
159,347,450573,6,0,B|194:309|258:306|258:306|356:325|356:325|476:323|507:217|459:145,1,450.000017166138,6|4,0:0|0:0,0:0:0:0:
368,205,451664,6,0,P|364:120|406:65,1,150.000005722046,10|0,0:0|0:0,0:0:0:0:
458,232,452073,2,0,P|414:295|328:291,1,150.000005722046
215,244,452482,1,4,0:0:0:0:
193,237,452755,5,6,0:0:0:0:
135,178,453164,1,4,0:0:0:0:
168,101,453573,1,4,0:0:0:0:
364,175,453845,6,0,L|382:326,1,150.000005722046,10|4,0:0|0:0,0:0:0:0:
131,325,454664,5,4,0:0:0:0:
131,325,454936,2,0,B|86:297|80:226|103:166|150:134|237:152|255:192|255:192|297:144|330:189|370:106,1,450.000017166138,6|4,0:0|0:0,0:0:0:0:
382,20,456027,6,0,P|450:70|410:197,2,225.000008583069,10|0|0,0:0|0:0|0:0,0:0:0:0:
223,43,457118,6,0,L|183:352,1,308.999997406769,6|4,0:0|0:0,0:0:0:0:
141,57,458316,6,0,L|101:364,1,310,10|0,0:0|0:0,0:0:0:0:
293,352,463594,5,6,0:0:0:0:
328,358,463662,1,0,0:0:0:0:
362,349,463730,1,14,0:0:0:0:
390,327,463798,1,0,0:0:0:0:
410,297,463866,1,14,0:0:0:0:
421,263,463934,1,0,0:0:0:0:
419,226,464003,1,14,0:0:0:0:
403,193,464071,1,0,0:0:0:0:
394,158,464139,1,14,0:0:0:0:
405,124,464207,1,0,0:0:0:0:
435,104,464275,1,14,0:0:0:0:
471,102,464344,1,0,0:0:0:0:
497,126,464412,1,14,0:0:0:0:
505,160,464480,1,0,0:0:0:0:
494,194,464548,1,14,0:0:0:0:
462,211,464616,1,0,0:0:0:0:
426,210,464684,5,14,0:0:0:0:
392,196,464753,1,0,0:0:0:0:
367,169,464821,1,14,0:0:0:0:
352,136,464889,1,0,0:0:0:0:
329,108,464957,1,14,0:0:0:0:
298,89,465025,1,0,0:0:0:0:
262,81,465094,1,14,0:0:0:0:
226,82,465162,1,0,0:0:0:0:
192,94,465230,1,14,0:0:0:0:
163,116,465298,1,0,0:0:0:0:
143,146,465366,1,14,0:0:0:0:
131,179,465434,1,0,0:0:0:0:
130,215,465503,1,14,0:0:0:0:
139,249,465571,1,0,0:0:0:0:
159,278,465639,1,14,0:0:0:0:
187,299,465707,1,0,0:0:0:0:
221,308,465775,5,14,0:0:0:0:
246,281,465844,1,0,0:0:0:0:
270,255,465912,1,14,0:0:0:0:
294,229,465980,1,0,0:0:0:0:
318,203,466048,1,14,0:0:0:0:
342,177,466116,1,0,0:0:0:0:
367,151,466184,1,14,0:0:0:0:
392,125,466253,1,0,0:0:0:0:
425,112,466321,1,14,0:0:0:0:
460,117,466389,1,0,0:0:0:0:
488,138,466457,1,14,0:0:0:0:
495,173,466525,1,0,0:0:0:0:
487,208,466594,1,14,0:0:0:0:
458,229,466662,1,0,0:0:0:0:
422,234,466730,1,14,0:0:0:0:
390,216,466798,1,0,0:0:0:0:
372,184,466866,5,14,0:0:0:0:
351,154,466934,1,0,0:0:0:0:
320,134,467003,1,14,0:0:0:0:
284,128,467071,1,0,0:0:0:0:
248,133,467139,1,14,0:0:0:0:
218,153,467207,1,0,0:0:0:0:
198,183,467275,1,14,0:0:0:0:
187,217,467344,1,0,0:0:0:0:
191,252,467412,5,14,0:0:0:0:
169,223,467480,1,0,0:0:0:0:
143,197,467548,1,14,0:0:0:0:
109,183,467616,1,0,0:0:0:0:
73,178,467684,1,14,0:0:0:0:
105,161,467753,1,0,0:0:0:0:
134,140,467821,1,14,0:0:0:0:
158,113,467889,1,0,0:0:0:0:
171,79,467957,5,14,0:0:0:0:
206,76,468025,1,0,0:0:0:0:
241,65,468094,1,14,0:0:0:0:
267,40,468162,1,0,0:0:0:0:
298,22,468230,1,14,0:0:0:0:
333,17,468298,1,0,0:0:0:0:
368,19,468366,1,14,0:0:0:0:
394,43,468434,1,0,0:0:0:0:
412,74,468503,5,14,0:0:0:0:
381,92,468571,1,0,0:0:0:0:
366,124,468639,1,14,0:0:0:0:
366,159,468707,1,0,0:0:0:0:
382,190,468775,1,14,0:0:0:0:
410,213,468844,1,0,0:0:0:0:
443,225,468912,1,14,0:0:0:0:
477,215,468980,1,0,0:0:0:0:
504,192,469048,5,14,0:0:0:0:
473,173,469116,1,0,0:0:0:0:
437,175,469184,1,14,0:0:0:0:
404,192,469253,1,0,0:0:0:0:
376,215,469321,1,14,0:0:0:0:
361,248,469389,1,0,0:0:0:0:
359,283,469457,1,14,0:0:0:0:
368,317,469525,1,0,0:0:0:0:
388,346,469594,5,14,0:0:0:0:
423,339,469662,1,0,0:0:0:0:
454,322,469730,1,14,0:0:0:0:
474,292,469798,1,0,0:0:0:0:
483,257,469866,1,14,0:0:0:0:
476,221,469934,1,0,0:0:0:0:
457,189,470003,1,14,0:0:0:0:
425,171,470071,1,0,0:0:0:0:
389,171,470139,5,14,0:0:0:0:
367,199,470207,1,0,0:0:0:0:
334,214,470275,1,14,0:0:0:0:
297,215,470344,1,0,0:0:0:0:
265,198,470412,1,14,0:0:0:0:
245,167,470480,1,0,0:0:0:0:
245,131,470548,1,14,0:0:0:0:
258,97,470616,1,0,0:0:0:0:
286,74,470684,1,14,0:0:0:0:
321,68,470753,1,0,0:0:0:0:
356,72,470821,1,14,0:0:0:0:
386,91,470889,1,0,0:0:0:0:
399,124,470957,1,14,0:0:0:0:
404,159,471025,1,0,0:0:0:0:
389,192,471094,1,14,0:0:0:0:
361,215,471162,1,0,0:0:0:0:
325,208,471230,5,14,0:0:0:0:
315,173,471298,1,0,0:0:0:0:
334,142,471366,1,14,0:0:0:0:
369,136,471434,1,0,0:0:0:0:
400,154,471503,1,14,0:0:0:0:
411,187,471571,1,0,0:0:0:0:
400,221,471639,1,14,0:0:0:0:
367,236,471707,1,0,0:0:0:0:
331,231,471775,6,0,L|267:215,3,59.9999981689454,4|0|10|0,0:0|0:0|0:0|0:0,0:0:0:0:
276,335,472048,2,0,L|215:351,3,59.9999981689454,0|0|10|0,0:0|0:0|0:0|0:0,0:0:0:0:
392,365,472321,5,6,0:0:0:0:
438,326,472389,1,4,0:0:0:0:
453,268,472457,1,4,0:0:0:0:
436,209,472525,1,4,0:0:0:0:
390,169,472594,1,14,0:0:0:0:
332,155,472662,1,4,0:0:0:0:
276,174,472730,1,4,0:0:0:0:
231,213,472798,1,4,0:0:0:0:
172,226,472866,1,14,0:0:0:0:
112,216,472934,1,4,0:0:0:0:
72,170,473003,1,4,0:0:0:0:
64,110,473071,1,4,0:0:0:0:
89,55,473139,1,14,0:0:0:0:
143,30,473207,1,4,0:0:0:0:
202,29,473275,1,4,0:0:0:0:
255,58,473344,1,4,0:0:0:0:
271,115,473412,5,14,0:0:0:0:
319,79,473480,1,4,0:0:0:0:
378,88,473548,1,4,0:0:0:0:
418,132,473616,1,4,0:0:0:0:
420,191,473684,1,14,0:0:0:0:
377,234,473753,1,4,0:0:0:0:
317,242,473821,1,4,0:0:0:0:
264,213,473889,1,4,0:0:0:0:
213,180,473957,1,14,0:0:0:0:
153,182,474025,1,4,0:0:0:0:
104,219,474094,1,4,0:0:0:0:
90,277,474162,1,4,0:0:0:0:
119,328,474230,1,14,0:0:0:0:
175,347,474298,1,4,0:0:0:0:
232,332,474366,1,4,0:0:0:0:
271,287,474434,1,4,0:0:0:0:
271,226,474503,5,14,0:0:0:0:
298,279,474571,1,4,0:0:0:0:
355,295,474639,1,4,0:0:0:0:
413,281,474707,1,4,0:0:0:0:
440,227,474775,1,14,0:0:0:0:
435,166,474844,1,4,0:0:0:0:
394,122,474912,1,4,0:0:0:0:
334,116,474980,1,4,0:0:0:0:
281,145,475048,1,14,0:0:0:0:
265,202,475116,1,4,0:0:0:0:
239,256,475184,1,4,0:0:0:0:
183,279,475253,1,4,0:0:0:0:
123,271,475321,1,14,0:0:0:0:
83,226,475389,1,4,0:0:0:0:
71,167,475457,1,4,0:0:0:0:
91,110,475525,1,4,0:0:0:0:
136,79,475594,5,14,0:0:0:0:
154,129,475662,1,4,0:0:0:0:
172,179,475730,1,4,0:0:0:0:
192,228,475798,1,4,0:0:0:0:
212,277,475866,1,14,0:0:0:0:
254,310,475934,1,4,0:0:0:0:
306,325,476003,1,4,0:0:0:0:
359,320,476071,1,4,0:0:0:0:
405,293,476139,5,14,0:0:0:0:
371,258,476207,1,4,0:0:0:0:
336,224,476275,1,4,0:0:0:0:
299,191,476344,1,4,0:0:0:0:
271,168,476412,5,14,0:0:0:0:
272,209,476480,1,4,0:0:0:0:
272,250,476548,1,4,0:0:0:0:
273,291,476616,1,4,0:0:0:0:
274,332,476684,6,0,L|278:84,1,239.999992675781,10|0,0:0|0:0,0:0:0:0:
52,254,477230,5,0,0:0:0:0:
500,166,477503,1,4,0:0:0:0:
234,92,477775,6,0,L|238:332,1,239.999992675781,10|0,0:0|0:0,0:0:0:0:
460,254,478321,5,0,0:0:0:0:
12,166,478594,1,4,0:0:0:0:
12,154,478662,1,4,0:0:0:0:
12,142,478730,1,4,0:0:0:0:
12,130,478798,1,4,0:0:0:0:
12,118,478866,6,0,L|12:56,1,59.9999981689454,10|0,0:0|0:0,0:0:0:0:
134,18,479003,1,4,0:0:0:0:
134,18,479071,1,0,0:0:0:0:
134,18,479139,1,4,0:0:0:0:
134,18,479207,1,0,0:0:0:0:
134,18,479275,2,0,L|134:85,1,59.9999981689454,10|0,0:0|0:0,0:0:0:0:
144,224,479412,5,4,0:0:0:0:
144,224,479480,1,0,0:0:0:0:
144,224,479548,2,0,L|144:351,1,119.999996337891,10|4,0:0|0:0,0:0:0:0:
253,145,479821,1,4,0:0:0:0:
381,62,479957,5,6,0:0:0:0:
381,62,480025,1,4,0:0:0:0:
381,62,480094,2,4,P|390:109|384:135,1,59.9999981689454
330,260,480230,1,10,0:0:0:0:
330,260,480298,1,4,0:0:0:0:
330,260,480367,2,4,P|321:307|327:333,1,59.9999981689454
440,297,480503,1,10,0:0:0:0:
440,297,480571,1,4,0:0:0:0:
440,297,480640,2,4,P|449:250|443:224,1,59.9999981689454
320,165,480776,1,10,0:0:0:0:
320,165,480844,1,4,0:0:0:0:
320,165,480913,2,4,P|311:118|317:92,1,59.9999981689454
422,26,481048,6,0,B|431:96|375:138|280:136|257:50|257:50|243:78|194:92,1,299.999990844727,6|8,0:0|0:0,0:0:0:0:
149,109,481457,1,0,0:0:0:0:
102,119,481525,1,0,0:0:0:0:
53,113,481594,1,0,0:0:0:0:
9,263,481730,1,0,0:0:0:0:
252,348,481866,2,0,P|267:318|269:291,1,59.9999981689454,8|0,0:0|0:0,0:0:0:0:
172,129,482003,2,0,P|157:159|155:186,1,59.9999981689454,8|0,0:0|0:0,0:0:0:0:
152,273,482139,5,4,0:0:0:0:
169,317,482207,1,4,0:0:0:0:
205,348,482276,1,8,0:0:0:0:
252,348,482344,1,4,0:0:0:0:
296,330,482412,1,8,0:0:0:0:
314,285,482480,1,8,0:0:0:0:
309,237,482548,1,0,0:0:0:0:
272,205,482617,1,6,0:0:0:0:
199,179,482684,5,6,0:0:0:0:
162,147,482753,1,0,0:0:0:0:
157,99,482821,1,8,0:0:0:0:
175,54,482889,1,8,0:0:0:0:
219,36,482957,1,8,0:0:0:0:
266,36,483025,1,8,0:0:0:0:
302,67,483094,1,4,0:0:0:0:
319,111,483162,1,4,0:0:0:0:
305,156,483230,6,0,P|290:204|301:254,1,100,6|8,0:0|0:0,0:0:0:0:
410,209,483503,1,8,0:0:0:0:
305,22,483639,1,4,0:0:0:0:
305,22,483707,1,0,0:0:0:0:
305,22,483775,2,0,P|252:32|214:63,1,100,8|12,0:0|0:0,0:0:0:0:
172,210,484048,2,0,P|132:239|83:247,1,100,8|4,0:0|0:0,0:0:0:0:
75,73,484321,6,0,L|91:124,3,50,6|8|8|0,0:0|0:0|0:0|0:0,0:0:0:0:
209,17,484594,2,0,L|197:66,3,50,4|8|8|0,0:0|0:0|0:0|0:0,0:0:0:0:
289,134,484866,2,0,L|302:182,3,50,4|8|4|0,0:0|0:0|0:0|0:0,0:0:0:0:
405,142,485139,2,0,L|436:40,1,100,10|4,0:0|0:0,0:0:0:0:
320,8,485412,5,10,0:0:0:0:
256,192,485429,12,2,487594,0:1:0:0:
256,192,487611,12,2,489775,0:1:0:0:
256,192,489792,12,2,491957,0:1:0:0:
