osu file format v14

[General]
AudioFilename: audio.mp3
AudioLeadIn: 0
PreviewTime: 388278
Countdown: 0
SampleSet: Normal
StackLeniency: 0.7
Mode: 1
LetterboxInBreaks: 0
EpilepsyWarning: 1
WidescreenStoryboard: 0

[Editor]
Bookmarks: 1065,9792,27246,44701,57792,185437,389428,424449
DistanceSpacing: 1.2
BeatDivisor: 8
GridSize: 32
TimelineZoom: 4.379998

[Metadata]
Title:Yomi yori Kikoyu, Koukoku no Hi to Honoo no Shoujo.
TitleUnicode:黄泉より聴こゆ、皇国の燈と焔の少女。
Artist:Imperial Circus Dead Decadence
ArtistUnicode:Imperial Circus Dead Decadence
Creator:Capu
Version:Despair
Source:osu!
Tags:metal dojin doujin symphonic black melodic death power japanese fa featured artist mappers guild mpg mg icdd
BeatmapID:2418754
BeatmapSetID:1159122

[Difficulty]
HPDrainRate:5
CircleSize:5
OverallDifficulty:7.2
ApproachRate:10
SliderMultiplier:1.4
SliderTickRate:1

[Events]
//Background and Video events
0,0,"nano.png",0,-105
//Break Periods
2,162728,165351
2,387455,388987
//Storyboard Layer 0 (Background)
//Storyboard Layer 1 (Fail)
//Storyboard Layer 2 (Pass)
//Storyboard Layer 3 (Foreground)
//Storyboard Layer 4 (Overlay)
//Storyboard Sound Samples

[TimingPoints]
1074,272.727272727273,4,1,0,100,1,0
27255,-100,4,1,0,100,0,1
35574,-100,4,1,0,100,0,0
35983,-100,4,1,0,100,0,1
44710,-100,4,1,0,100,0,0
118799,-111.111111111111,4,1,0,100,0,0
127617,-100,4,1,0,100,0,0
127619,-100,4,1,0,100,0,1
131570,-102.564102564103,4,1,0,100,0,1
131706,-105.263157894737,4,1,0,100,0,1
131842,-108.108108108108,4,1,0,100,0,1
131981,-111.111111111111,4,1,0,100,0,1
131983,-111.111111111111,4,1,0,100,0,0
136344,-100,4,1,0,100,0,0
136346,-100,4,1,0,100,0,1
140297,-102.564102564103,4,1,0,100,0,1
140433,-105.263157894737,4,1,0,100,0,1
140570,-108.108108108108,4,1,0,100,0,1
140708,-111.111111111111,4,1,0,100,0,1
140710,-111.111111111111,4,1,0,100,0,0
145072,-99.9999999999999,4,1,0,100,0,0
154005,-111.111111111111,4,1,0,100,0,0
160344,-99.9999999999999,4,1,0,100,0,0
162324,-111.111111111111,4,1,0,100,0,0
165753,-100,4,1,0,100,0,0
165799,-100,4,1,0,100,0,0
165801,-100,4,1,0,100,0,1
183253,-100,4,1,0,100,0,1
183255,-100,4,1,0,100,0,0
183526,-101.851870713309,4,1,0,100,0,0
183662,-102.803767141243,4,1,0,100,0,0
183799,-103.773624065519,4,1,0,100,0,0
183935,-104.76195464855,4,1,0,100,0,0
184072,-105.769179918663,4,1,0,100,0,0
184208,-106.79607503065,4,1,0,100,0,0
184344,-107.843105536342,4,1,0,100,0,0
184617,-109.999989000001,4,1,0,100,0,0
184753,-111.111111111111,4,1,0,100,0,0
184890,-112.244909412746,4,1,0,100,0,0
185026,-113.402085237543,4,1,0,100,0,0
185162,-114.583369140636,4,1,0,100,0,0
185299,-115.789522437694,4,1,0,100,0,0
185435,-117.021338841138,4,1,0,100,0,0
185708,-119.56516540645,4,1,0,100,0,0
185844,-120.879081028874,4,1,0,100,0,0
185981,-122.222195061734,4,1,0,100,0,0
186117,-123.595491730844,4,1,0,100,0,0
186253,-125,4,1,0,100,0,0
186390,-126.43679614216,4,1,0,100,0,0
186526,-127.907006490002,4,1,0,100,0,0
186617,-128.906179504433,4,1,0,100,0,0
186708,-129.92125472751,4,1,0,100,0,0
186890,-131.999957760014,4,1,0,100,0,0
187072,-134.146259666915,4,1,0,100,0,0
187253,-136.363698347136,4,1,0,100,0,0
187435,-138.655485488317,4,1,0,100,0,0
187617,-141.025622945433,4,1,0,100,0,0
187708,-142.857142857143,4,1,0,60,0,0
187753,-142.857142857143,4,1,0,60,0,0
209390,-117.647058823529,4,1,0,75,0,0
226844,-100,4,1,0,100,0,0
244344,-100,4,1,0,100,0,0
253072,-100,4,1,0,100,0,0
261890,-100,4,1,0,100,0,0
274892,-100,4,1,0,100,0,1
290164,-100,4,1,0,100,0,0
309801,-100,4,1,0,100,0,1
334892,-100,4,1,0,100,0,0
342187,-125,4,1,0,100,0,0
342460,-90.9090909090909,4,1,0,100,0,0
343551,-100,4,1,0,100,0,0
352346,-100,4,1,0,100,0,1
356297,-102.564102564103,4,1,0,100,0,1
356433,-105.263157894737,4,1,0,100,0,1
356570,-108.108108108108,4,1,0,100,0,1
356708,-111.111111111111,4,1,0,100,0,1
356710,-111.111111111111,4,1,0,100,0,0
361072,-100,4,1,0,100,0,0
361074,-100,4,1,0,100,0,1
365024,-102.564102564103,4,1,0,100,0,1
365160,-105.263157894737,4,1,0,100,0,1
365297,-108.108108108108,4,1,0,100,0,1
365435,-111.111111111111,4,1,0,100,0,1
365437,-111.111111111111,4,1,0,100,0,0
369753,-125,4,1,0,55,0,0
389390,-100,4,1,0,100,0,0
389437,-100,4,1,0,100,0,1
424346,-100,4,1,0,100,0,0
424617,-101.264182048696,4,1,0,100,0,0
424753,-101.908335490393,4,1,0,100,0,0
424890,-102.560631281198,4,1,0,100,0,0
425026,-103.221437853985,4,1,0,100,0,0
425163,-103.890814909163,4,1,0,100,0,0
425299,-104.5689302703,4,1,0,100,0,0
425435,-105.25595617142,4,1,0,100,0,0
425708,-106.65745146286,4,1,0,100,0,0
425844,-107.372288715495,4,1,0,100,0,0
425981,-108.096655705666,4,1,0,100,0,0
426117,-108.830981133061,4,1,0,100,0,0
426253,-109.575351682091,4,1,0,100,0,0
426390,-110.329974888898,4,1,0,100,0,0
426526,-111.095064046304,4,1,0,100,0,0
426799,-112.657523382069,4,1,0,100,0,0
426935,-113.455350781254,4,1,0,100,0,0
427072,-114.264428455042,4,1,0,100,0,0
427208,-115.085260915549,4,1,0,100,0,0
427344,-115.917971806431,4,1,0,100,0,0
427481,-116.762820849636,4,1,0,100,0,0
427617,-117.620075394468,4,1,0,100,0,0
427708,-118.198559395958,4,1,0,100,0,0
427799,-118.782761770481,4,1,0,100,0,0
427981,-119.968808109891,4,1,0,100,0,0
428163,-121.178631844775,4,1,0,100,0,0
428344,-122.413254907241,4,1,0,100,0,0
428526,-123.673141780126,4,1,0,100,0,0
428708,-124.959388198835,4,1,0,100,0,0
429481,-125,4,1,0,80,0,0
457074,300,4,1,0,80,1,0
457074,-111.111111111111,4,1,0,80,0,0
458274,329.67032967033,4,1,0,80,1,0
463500,-100,4,1,0,100,0,0
463548,272.727272727273,4,1,0,100,1,1
463548,-100,4,1,0,100,0,1
471866,-100,4,1,0,100,0,0
472275,-100,4,1,0,100,0,1
481002,-100,4,1,0,100,0,0
487500,-100,4,1,0,75,0,0
489682,-100,4,1,0,50,0,0
491864,-166.666666666667,4,1,0,25,0,0
494046,-166.666666666667,4,1,0,12,0,0

[HitObjects]
352,96,1074,5,8,0:0:0:0:
160,96,1142,1,0,0:0:0:0:
160,96,1210,1,0,0:0:0:0:
160,96,1278,1,0,0:0:0:0:
160,96,1346,1,0,0:0:0:0:
160,96,1414,1,0,0:0:0:0:
160,96,1483,1,0,0:0:0:0:
160,96,1551,1,0,0:0:0:0:
160,96,1619,1,0,0:0:0:0:
160,96,1687,1,0,0:0:0:0:
160,96,1755,1,0,0:0:0:0:
160,96,1824,1,0,0:0:0:0:
160,96,1892,1,0,0:0:0:0:
160,96,1960,1,0,0:0:0:0:
160,96,2028,1,0,0:0:0:0:
160,96,2096,1,0,0:0:0:0:
352,96,2164,1,8,0:0:0:0:
160,96,2233,1,0,0:0:0:0:
352,96,2301,1,8,0:0:0:0:
352,96,2369,1,8,0:0:0:0:
160,96,2437,1,0,0:0:0:0:
160,96,2505,1,0,0:0:0:0:
160,96,2574,1,0,0:0:0:0:
160,96,2642,1,0,0:0:0:0:
352,96,2710,1,8,0:0:0:0:
352,96,2778,1,8,0:0:0:0:
352,96,2846,1,8,0:0:0:0:
352,96,2914,1,8,0:0:0:0:
352,96,2983,1,8,0:0:0:0:
352,96,3051,1,8,0:0:0:0:
160,96,3119,1,0,0:0:0:0:
160,96,3187,1,0,0:0:0:0:
352,96,3255,1,8,0:0:0:0:
160,96,3324,1,0,0:0:0:0:
160,96,3392,1,0,0:0:0:0:
160,96,3460,1,0,0:0:0:0:
160,96,3528,1,0,0:0:0:0:
160,96,3596,1,0,0:0:0:0:
160,96,3664,1,0,0:0:0:0:
160,96,3733,1,0,0:0:0:0:
160,96,3801,1,8,0:0:0:0:
160,96,3869,1,8,0:0:0:0:
160,96,3937,1,8,0:0:0:0:
160,96,4005,1,8,0:0:0:0:
160,96,4074,1,0,0:0:0:0:
160,96,4142,1,0,0:0:0:0:
160,96,4210,1,0,0:0:0:0:
160,96,4278,1,0,0:0:0:0:
352,96,4346,1,8,0:0:0:0:
352,96,4619,1,8,0:0:0:0:
352,96,4892,1,8,0:0:0:0:
352,96,5164,1,8,0:0:0:0:
352,96,5437,1,8,0:0:0:0:
160,96,5505,1,0,0:0:0:0:
160,96,5574,1,0,0:0:0:0:
160,96,5642,1,0,0:0:0:0:
160,96,5710,1,0,0:0:0:0:
160,96,5778,1,0,0:0:0:0:
160,96,5846,1,8,0:0:0:0:
160,96,5914,1,8,0:0:0:0:
160,96,5983,1,8,0:0:0:0:
160,96,6051,1,8,0:0:0:0:
160,96,6119,1,0,0:0:0:0:
160,96,6187,1,0,0:0:0:0:
160,96,6255,1,8,0:0:0:0:
160,96,6324,1,8,0:0:0:0:
160,96,6392,1,0,0:0:0:0:
160,96,6460,1,0,0:0:0:0:
352,96,6528,1,8,0:0:0:0:
160,96,6596,1,0,0:0:0:0:
352,96,6664,1,8,0:0:0:0:
352,96,6733,1,8,0:0:0:0:
160,96,6801,1,0,0:0:0:0:
160,96,6869,1,0,0:0:0:0:
160,96,6937,1,0,0:0:0:0:
160,96,7005,1,0,0:0:0:0:
352,96,7074,1,8,0:0:0:0:
352,96,7142,1,8,0:0:0:0:
352,96,7210,1,8,0:0:0:0:
352,96,7278,1,8,0:0:0:0:
352,96,7346,1,8,0:0:0:0:
352,96,7414,1,8,0:0:0:0:
352,96,7483,1,8,0:0:0:0:
352,96,7551,1,8,0:0:0:0:
160,96,7619,1,0,0:0:0:0:
352,96,7755,1,8,0:0:0:0:
160,96,7892,1,0,0:0:0:0:
160,96,7960,1,0,0:0:0:0:
160,96,8028,1,0,0:0:0:0:
352,96,8096,1,8,0:0:0:0:
352,96,8233,1,8,0:0:0:0:
160,96,8301,1,0,0:0:0:0:
160,96,8369,1,0,0:0:0:0:
352,96,8437,1,8,0:0:0:0:
352,96,8505,1,8,0:0:0:0:
160,96,8574,1,0,0:0:0:0:
160,96,8642,1,0,0:0:0:0:
352,96,8710,1,8,0:0:0:0:
352,96,8778,1,8,0:0:0:0:
160,96,8846,1,0,0:0:0:0:
160,96,8914,1,0,0:0:0:0:
160,96,8983,1,8,0:0:0:0:
160,96,9051,1,8,0:0:0:0:
160,96,9119,1,8,0:0:0:0:
160,96,9187,1,8,0:0:0:0:
160,96,9255,1,0,0:0:0:0:
160,96,9324,1,0,0:0:0:0:
160,96,9392,1,0,0:0:0:0:
160,96,9460,1,0,0:0:0:0:
352,96,9528,1,8,0:0:0:0:
160,96,9664,1,0,0:0:0:0:
352,96,9801,1,8,0:0:0:0:
352,96,10074,1,8,0:0:0:0:
352,96,10142,1,8,0:0:0:0:
352,96,10210,1,8,0:0:0:0:
352,96,10278,1,8,0:0:0:0:
160,96,10346,1,0,0:0:0:0:
160,96,10414,1,0,0:0:0:0:
160,96,10483,1,0,0:0:0:0:
160,96,10551,1,0,0:0:0:0:
352,96,10619,1,8,0:0:0:0:
352,96,10687,1,8,0:0:0:0:
352,96,10755,1,8,0:0:0:0:
352,96,10824,1,8,0:0:0:0:
160,96,10892,1,0,0:0:0:0:
160,96,10960,1,0,0:0:0:0:
160,96,11028,1,0,0:0:0:0:
160,96,11096,1,0,0:0:0:0:
352,96,11164,1,8,0:0:0:0:
352,96,11233,1,8,0:0:0:0:
352,96,11301,1,8,0:0:0:0:
352,96,11369,1,8,0:0:0:0:
160,96,11437,1,0,0:0:0:0:
160,96,11505,1,0,0:0:0:0:
160,96,11574,1,0,0:0:0:0:
160,96,11642,1,0,0:0:0:0:
352,96,11710,1,8,0:0:0:0:
352,96,11778,1,8,0:0:0:0:
160,96,11846,1,0,0:0:0:0:
160,96,11914,1,0,0:0:0:0:
352,96,11983,1,8,0:0:0:0:
352,96,12051,1,8,0:0:0:0:
352,96,12119,1,8,0:0:0:0:
352,96,12187,1,8,0:0:0:0:
160,96,12255,1,0,0:0:0:0:
160,96,12324,1,0,0:0:0:0:
160,96,12392,1,0,0:0:0:0:
160,96,12460,1,0,0:0:0:0:
352,96,12528,1,8,0:0:0:0:
352,96,12596,1,8,0:0:0:0:
160,96,12664,1,0,0:0:0:0:
160,96,12733,1,0,0:0:0:0:
352,96,12801,1,8,0:0:0:0:
352,96,12869,1,8,0:0:0:0:
352,96,12938,1,8,0:0:0:0:
352,96,13005,1,8,0:0:0:0:
352,96,13074,1,8,0:0:0:0:
352,96,13142,1,8,0:0:0:0:
352,96,13210,1,8,0:0:0:0:
352,96,13278,1,8,0:0:0:0:
160,96,13346,1,0,0:0:0:0:
160,96,13414,1,0,0:0:0:0:
160,96,13483,1,0,0:0:0:0:
160,96,13551,1,0,0:0:0:0:
352,96,13619,1,8,0:0:0:0:
352,96,13687,1,8,0:0:0:0:
160,96,13755,1,0,0:0:0:0:
160,96,13824,1,0,0:0:0:0:
352,96,13892,1,8,0:0:0:0:
352,96,13960,1,8,0:0:0:0:
352,96,14028,1,8,0:0:0:0:
352,96,14096,1,8,0:0:0:0:
352,96,14164,1,8,0:0:0:0:
352,96,14233,1,8,0:0:0:0:
352,96,14301,1,8,0:0:0:0:
352,96,14369,1,8,0:0:0:0:
352,96,14437,1,8,0:0:0:0:
352,96,14505,1,8,0:0:0:0:
352,96,14574,1,8,0:0:0:0:
352,96,14642,1,8,0:0:0:0:
352,96,14710,1,8,0:0:0:0:
352,96,14778,1,8,0:0:0:0:
352,96,14846,1,8,0:0:0:0:
352,96,14914,1,8,0:0:0:0:
160,96,14983,1,0,0:0:0:0:
160,96,15051,1,0,0:0:0:0:
160,96,15119,1,0,0:0:0:0:
160,96,15187,1,0,0:0:0:0:
352,96,15256,1,8,0:0:0:0:
352,96,15324,1,8,0:0:0:0:
352,96,15392,1,8,0:0:0:0:
352,96,15460,1,8,0:0:0:0:
160,96,15528,1,0,0:0:0:0:
160,96,15596,1,0,0:0:0:0:
160,96,15664,1,0,0:0:0:0:
160,96,15733,1,0,0:0:0:0:
352,96,15801,1,8,0:0:0:0:
352,96,15869,1,8,0:0:0:0:
352,96,15937,1,8,0:0:0:0:
352,96,16005,1,8,0:0:0:0:
160,96,16074,1,0,0:0:0:0:
160,96,16142,1,0,0:0:0:0:
160,96,16210,1,0,0:0:0:0:
160,96,16278,1,0,0:0:0:0:
352,96,16346,1,8,0:0:0:0:
352,96,16414,1,8,0:0:0:0:
352,96,16483,1,8,0:0:0:0:
352,96,16551,1,8,0:0:0:0:
352,96,16619,1,8,0:0:0:0:
352,96,16687,1,8,0:0:0:0:
352,96,16755,1,8,0:0:0:0:
352,96,16824,1,8,0:0:0:0:
352,96,16892,1,8,0:0:0:0:
352,96,16960,1,8,0:0:0:0:
352,96,17028,1,8,0:0:0:0:
352,96,17096,1,8,0:0:0:0:
160,96,17164,1,0,0:0:0:0:
160,96,17233,1,0,0:0:0:0:
160,96,17301,1,0,0:0:0:0:
160,96,17369,1,0,0:0:0:0:
352,96,17437,1,8,0:0:0:0:
352,96,17505,1,8,0:0:0:0:
160,96,17574,1,0,0:0:0:0:
160,96,17642,1,0,0:0:0:0:
352,96,17710,1,8,0:0:0:0:
352,96,17778,1,8,0:0:0:0:
160,96,17846,1,0,0:0:0:0:
160,96,17914,1,0,0:0:0:0:
352,96,17983,1,8,0:0:0:0:
352,96,18051,1,8,0:0:0:0:
160,96,18120,1,0,0:0:0:0:
160,96,18187,1,0,0:0:0:0:
352,96,18255,1,8,0:0:0:0:
352,96,18324,1,8,0:0:0:0:
160,96,18392,1,0,0:0:0:0:
160,96,18460,1,0,0:0:0:0:
352,96,18529,1,8,0:0:0:0:
160,96,18597,1,0,0:0:0:0:
160,96,18665,1,0,0:0:0:0:
160,96,18733,1,0,0:0:0:0:
352,96,18801,1,8,0:0:0:0:
352,96,18870,1,8,0:0:0:0:
160,96,18938,1,0,0:0:0:0:
160,96,19006,1,0,0:0:0:0:
352,96,19074,1,8,0:0:0:0:
352,96,19142,1,8,0:0:0:0:
160,96,19210,1,0,0:0:0:0:
160,96,19279,1,0,0:0:0:0:
352,96,19347,1,8,0:0:0:0:
352,96,19415,1,8,0:0:0:0:
160,96,19483,1,0,0:0:0:0:
160,96,19551,1,0,0:0:0:0:
352,96,19620,1,8,0:0:0:0:
352,96,19688,1,8,0:0:0:0:
352,96,19756,1,8,0:0:0:0:
352,96,19824,1,8,0:0:0:0:
160,96,19892,1,0,0:0:0:0:
160,96,19960,1,0,0:0:0:0:
160,96,20029,1,0,0:0:0:0:
160,96,20097,1,0,0:0:0:0:
352,96,20165,1,8,0:0:0:0:
352,96,20233,1,8,0:0:0:0:
160,96,20301,1,0,0:0:0:0:
160,96,20370,1,0,0:0:0:0:
352,96,20438,1,8,0:0:0:0:
352,96,20506,1,8,0:0:0:0:
352,96,20574,1,8,0:0:0:0:
352,96,20642,1,8,0:0:0:0:
160,96,20710,1,0,0:0:0:0:
160,96,20779,1,0,0:0:0:0:
160,96,20847,1,0,0:0:0:0:
160,96,20915,1,0,0:0:0:0:
352,96,20983,1,8,0:0:0:0:
352,96,21051,1,8,0:0:0:0:
160,96,21120,1,0,0:0:0:0:
160,96,21188,1,0,0:0:0:0:
352,96,21256,1,8,0:0:0:0:
352,96,21324,1,8,0:0:0:0:
160,96,21392,1,0,0:0:0:0:
160,96,21460,1,0,0:0:0:0:
352,96,21529,1,8,0:0:0:0:
352,96,21597,1,8,0:0:0:0:
352,96,21665,1,8,0:0:0:0:
352,96,21733,1,8,0:0:0:0:
352,96,21801,1,8,0:0:0:0:
352,96,21870,1,8,0:0:0:0:
352,96,21938,1,8,0:0:0:0:
352,96,22006,1,8,0:0:0:0:
160,96,22074,1,0,0:0:0:0:
160,96,22142,1,0,0:0:0:0:
160,96,22210,1,0,0:0:0:0:
160,96,22279,1,0,0:0:0:0:
352,96,22347,1,8,0:0:0:0:
352,96,22415,1,8,0:0:0:0:
160,96,22483,1,0,0:0:0:0:
160,96,22551,1,0,0:0:0:0:
352,96,22620,1,8,0:0:0:0:
352,96,22688,1,8,0:0:0:0:
160,96,22756,1,8,0:0:0:0:
160,96,22824,1,8,0:0:0:0:
352,96,22892,1,8,0:0:0:0:
352,96,22960,1,8,0:0:0:0:
352,96,23029,1,8,0:0:0:0:
352,96,23097,1,8,0:0:0:0:
352,96,23165,1,8,0:0:0:0:
352,96,23233,1,8,0:0:0:0:
352,96,23301,1,8,0:0:0:0:
352,96,23370,1,8,0:0:0:0:
352,96,23438,1,8,0:0:0:0:
352,96,23506,1,8,0:0:0:0:
352,96,23574,1,8,0:0:0:0:
352,96,23642,1,8,0:0:0:0:
160,96,23710,1,0,0:0:0:0:
160,96,23779,1,0,0:0:0:0:
160,96,23847,1,0,0:0:0:0:
160,96,23915,1,0,0:0:0:0:
160,96,23983,1,0,0:0:0:0:
160,96,24051,1,0,0:0:0:0:
160,96,24120,1,0,0:0:0:0:
160,96,24188,1,0,0:0:0:0:
160,96,24256,1,0,0:0:0:0:
160,96,24324,1,0,0:0:0:0:
160,96,24392,1,0,0:0:0:0:
160,96,24460,1,0,0:0:0:0:
352,96,24529,1,8,0:0:0:0:
352,96,24597,1,8,0:0:0:0:
160,96,24665,1,0,0:0:0:0:
160,96,24733,1,0,0:0:0:0:
352,96,24801,1,8,0:0:0:0:
352,96,24870,1,8,0:0:0:0:
160,96,24938,1,0,0:0:0:0:
160,96,25006,1,0,0:0:0:0:
352,96,25074,1,8,0:0:0:0:
160,96,25210,1,0,0:0:0:0:
160,96,25279,1,0,0:0:0:0:
160,96,25347,1,0,0:0:0:0:
352,96,25483,1,8,0:0:0:0:
160,96,25620,1,0,0:0:0:0:
160,96,25688,1,0,0:0:0:0:
160,96,25756,1,0,0:0:0:0:
352,96,25892,1,8,0:0:0:0:
352,96,25960,1,8,0:0:0:0:
160,96,26029,1,0,0:0:0:0:
352,96,26165,1,8,0:0:0:0:
160,96,26233,1,0,0:0:0:0:
160,96,26301,1,0,0:0:0:0:
160,96,26369,1,0,0:0:0:0:
352,96,26437,1,8,0:0:0:0:
352,96,26505,1,8,0:0:0:0:
160,96,26574,1,0,0:0:0:0:
160,96,26642,1,0,0:0:0:0:
352,96,26710,1,8,0:0:0:0:
160,96,26778,1,0,0:0:0:0:
352,96,26846,1,8,0:0:0:0:
352,96,26983,1,8,0:0:0:0:
352,96,27119,1,8,0:0:0:0:
160,96,27255,5,0,0:0:0:0:
160,96,27323,1,0,0:0:0:0:
160,96,27391,1,0,0:0:0:0:
160,96,27459,1,0,0:0:0:0:
160,96,27527,1,0,0:0:0:0:
160,96,27595,1,0,0:0:0:0:
160,96,27664,1,0,0:0:0:0:
160,96,27732,1,0,0:0:0:0:
160,96,27800,1,0,0:0:0:0:
160,96,27868,1,0,0:0:0:0:
160,96,27936,1,0,0:0:0:0:
160,96,28005,1,0,0:0:0:0:
160,96,28073,1,0,0:0:0:0:
160,96,28141,1,0,0:0:0:0:
160,96,28209,1,0,0:0:0:0:
160,96,28277,1,0,0:0:0:0:
352,96,28345,1,8,0:0:0:0:
352,96,28414,1,8,0:0:0:0:
352,96,28482,1,8,0:0:0:0:
352,96,28550,1,8,0:0:0:0:
352,96,28618,1,8,0:0:0:0:
352,96,28686,1,8,0:0:0:0:
352,96,28755,1,8,0:0:0:0:
352,96,28823,1,8,0:0:0:0:
352,96,28891,1,8,0:0:0:0:
352,96,28959,1,8,0:0:0:0:
352,96,29027,1,8,0:0:0:0:
352,96,29095,1,8,0:0:0:0:
352,96,29164,1,8,0:0:0:0:
352,96,29232,1,8,0:0:0:0:
352,96,29300,1,8,0:0:0:0:
352,96,29368,1,8,0:0:0:0:
160,96,29436,1,0,0:0:0:0:
160,96,29505,1,0,0:0:0:0:
160,96,29573,1,0,0:0:0:0:
160,96,29641,1,0,0:0:0:0:
160,96,29709,1,0,0:0:0:0:
160,96,29777,1,0,0:0:0:0:
160,96,29845,1,0,0:0:0:0:
160,96,29914,1,0,0:0:0:0:
160,96,29982,1,0,0:0:0:0:
160,96,30050,1,0,0:0:0:0:
160,96,30118,1,0,0:0:0:0:
160,96,30186,1,0,0:0:0:0:
160,96,30255,1,0,0:0:0:0:
160,96,30323,1,0,0:0:0:0:
160,96,30391,1,0,0:0:0:0:
160,96,30459,1,0,0:0:0:0:
352,96,30527,1,8,0:0:0:0:
352,96,30595,1,8,0:0:0:0:
352,96,30664,1,8,0:0:0:0:
352,96,30732,1,8,0:0:0:0:
352,96,30800,1,8,0:0:0:0:
352,96,30868,1,8,0:0:0:0:
352,96,30936,1,8,0:0:0:0:
352,96,31005,1,8,0:0:0:0:
160,96,31073,1,0,0:0:0:0:
160,96,31141,1,0,0:0:0:0:
160,96,31209,1,0,0:0:0:0:
160,96,31277,1,0,0:0:0:0:
352,96,31345,1,8,0:0:0:0:
352,96,31414,1,8,0:0:0:0:
352,96,31482,1,8,0:0:0:0:
352,96,31550,1,8,0:0:0:0:
160,96,31618,1,0,0:0:0:0:
160,96,31686,1,0,0:0:0:0:
160,96,31755,1,0,0:0:0:0:
160,96,31823,1,0,0:0:0:0:
160,96,31891,1,0,0:0:0:0:
160,96,31959,1,0,0:0:0:0:
160,96,32027,1,0,0:0:0:0:
160,96,32095,1,0,0:0:0:0:
352,96,32164,1,8,0:0:0:0:
352,96,32232,1,8,0:0:0:0:
352,96,32300,1,8,0:0:0:0:
352,96,32368,1,8,0:0:0:0:
352,96,32436,1,8,0:0:0:0:
352,96,32505,1,8,0:0:0:0:
352,96,32573,1,8,0:0:0:0:
352,96,32641,1,8,0:0:0:0:
160,96,32709,1,0,0:0:0:0:
160,96,32777,1,0,0:0:0:0:
160,96,32845,1,0,0:0:0:0:
160,96,32914,1,0,0:0:0:0:
160,96,32982,1,0,0:0:0:0:
160,96,33050,1,0,0:0:0:0:
160,96,33118,1,0,0:0:0:0:
160,96,33186,1,0,0:0:0:0:
352,96,33255,1,8,0:0:0:0:
352,96,33323,1,8,0:0:0:0:
352,96,33391,1,8,0:0:0:0:
352,96,33459,1,8,0:0:0:0:
352,96,33527,1,8,0:0:0:0:
352,96,33595,1,8,0:0:0:0:
352,96,33664,1,8,0:0:0:0:
352,96,33732,1,8,0:0:0:0:
160,96,33800,1,0,0:0:0:0:
160,96,33868,1,0,0:0:0:0:
160,96,33936,1,0,0:0:0:0:
160,96,34005,1,0,0:0:0:0:
160,96,34073,1,0,0:0:0:0:
160,96,34141,1,0,0:0:0:0:
160,96,34209,1,0,0:0:0:0:
160,96,34277,1,0,0:0:0:0:
160,96,34345,1,0,0:0:0:0:
160,96,34414,1,0,0:0:0:0:
160,96,34482,1,0,0:0:0:0:
160,96,34550,1,0,0:0:0:0:
160,96,34618,1,0,0:0:0:0:
160,96,34686,1,0,0:0:0:0:
160,96,34755,1,0,0:0:0:0:
160,96,34823,1,0,0:0:0:0:
352,96,34891,1,8,0:0:0:0:
352,96,34959,1,8,0:0:0:0:
160,96,35027,1,0,0:0:0:0:
160,96,35095,1,0,0:0:0:0:
160,96,35164,1,0,0:0:0:0:
160,96,35232,1,0,0:0:0:0:
160,96,35300,1,0,0:0:0:0:
160,96,35368,1,0,0:0:0:0:
160,96,35436,1,0,0:0:0:0:
352,96,35573,1,8,0:0:0:0:
352,96,35845,1,8,0:0:0:0:
352,96,35914,1,0,0:0:0:0:
160,96,35983,1,8,0:0:0:0:
160,96,36050,1,0,0:0:0:0:
160,96,36118,1,0,0:0:0:0:
160,96,36186,1,0,0:0:0:0:
160,96,36255,1,8,0:0:0:0:
160,96,36323,1,0,0:0:0:0:
160,96,36391,1,0,0:0:0:0:
160,96,36459,1,0,0:0:0:0:
160,96,36527,1,8,0:0:0:0:
160,96,36595,1,0,0:0:0:0:
160,96,36664,1,0,0:0:0:0:
160,96,36732,1,0,0:0:0:0:
160,96,36800,1,8,0:0:0:0:
160,96,36868,1,0,0:0:0:0:
160,96,36936,1,0,0:0:0:0:
160,96,37005,1,0,0:0:0:0:
352,96,37073,1,8,0:0:0:0:
352,96,37141,1,8,0:0:0:0:
352,96,37209,1,0,0:0:0:0:
352,96,37277,1,0,0:0:0:0:
352,96,37345,1,8,0:0:0:0:
352,96,37414,1,8,0:0:0:0:
352,96,37482,1,0,0:0:0:0:
352,96,37550,1,0,0:0:0:0:
352,96,37618,1,8,0:0:0:0:
352,96,37686,1,8,0:0:0:0:
352,96,37755,1,0,0:0:0:0:
352,96,37823,1,0,0:0:0:0:
352,96,37891,1,8,0:0:0:0:
352,96,37959,1,0,0:0:0:0:
352,96,38027,1,8,0:0:0:0:
352,96,38096,1,0,0:0:0:0:
160,96,38164,1,8,0:0:0:0:
160,96,38232,1,0,0:0:0:0:
160,96,38300,1,0,0:0:0:0:
160,96,38368,1,0,0:0:0:0:
160,96,38436,1,8,0:0:0:0:
160,96,38505,1,0,0:0:0:0:
160,96,38573,1,0,0:0:0:0:
160,96,38641,1,0,0:0:0:0:
160,96,38709,1,8,0:0:0:0:
160,96,38777,1,0,0:0:0:0:
160,96,38845,1,0,0:0:0:0:
160,96,38914,1,0,0:0:0:0:
160,96,38982,1,8,0:0:0:0:
160,96,39050,1,0,0:0:0:0:
160,96,39118,1,0,0:0:0:0:
160,96,39186,1,0,0:0:0:0:
352,96,39255,1,8,0:0:0:0:
352,96,39323,1,8,0:0:0:0:
352,96,39391,1,8,0:0:0:0:
352,96,39459,1,8,0:0:0:0:
352,96,39527,1,0,0:0:0:0:
352,96,39595,1,0,0:0:0:0:
352,96,39664,1,0,0:0:0:0:
352,96,39732,1,0,0:0:0:0:
160,96,39800,1,8,0:0:0:0:
160,96,39868,1,0,0:0:0:0:
160,96,39936,1,0,0:0:0:0:
160,96,40005,1,0,0:0:0:0:
352,96,40073,1,8,0:0:0:0:
352,96,40141,1,0,0:0:0:0:
352,96,40209,1,8,0:0:0:0:
352,96,40277,1,0,0:0:0:0:
160,288,40345,1,12,0:0:0:0:
160,96,41164,1,0,0:0:0:0:
160,288,41436,1,4,0:0:0:0:
160,96,42323,1,0,0:0:0:0:
160,96,42391,1,0,0:0:0:0:
160,96,42459,1,0,0:0:0:0:
352,96,42527,1,8,0:0:0:0:
160,96,42664,1,0,0:0:0:0:
160,96,42732,1,0,0:0:0:0:
160,96,42800,1,0,0:0:0:0:
160,96,42936,1,0,0:0:0:0:
160,96,43073,1,0,0:0:0:0:
160,96,43141,1,0,0:0:0:0:
352,96,43209,1,8,0:0:0:0:
160,96,43345,1,0,0:0:0:0:
352,96,43482,1,8,0:0:0:0:
352,96,43618,1,8,0:0:0:0:
160,96,43686,1,0,0:0:0:0:
160,96,43755,1,0,0:0:0:0:
160,96,43823,1,0,0:0:0:0:
352,96,43891,1,8,0:0:0:0:
352,96,43959,1,8,0:0:0:0:
160,96,44027,1,0,0:0:0:0:
160,96,44095,1,0,0:0:0:0:
352,96,44164,1,8,0:0:0:0:
160,96,44232,1,0,0:0:0:0:
160,96,44300,1,0,0:0:0:0:
160,96,44368,1,0,0:0:0:0:
352,96,44436,1,8,0:0:0:0:
352,96,44505,1,8,0:0:0:0:
160,96,44573,1,0,0:0:0:0:
160,96,44641,1,0,0:0:0:0:
312,291,44709,1,12,0:0:0:0:
256,192,44983,1,0,0:0:0:0:
256,192,45119,1,8,0:0:0:0:
256,192,45187,1,8,0:0:0:0:
160,96,45255,1,0,0:0:0:0:
160,96,45324,1,0,0:0:0:0:
256,192,45392,1,0,0:0:0:0:
256,192,45460,1,0,0:0:0:0:
256,192,45528,1,8,0:0:0:0:
256,192,45596,1,8,0:0:0:0:
250,211,45664,1,0,0:0:0:0:
352,288,45801,1,12,0:0:0:0:
250,211,45937,1,0,0:0:0:0:
352,96,46346,1,8,0:0:0:0:
352,96,46414,1,8,0:0:0:0:
352,96,46483,1,8,0:0:0:0:
352,96,46551,1,8,0:0:0:0:
160,96,46619,1,0,0:0:0:0:
160,96,46687,1,0,0:0:0:0:
160,96,46755,1,0,0:0:0:0:
160,96,46824,1,0,0:0:0:0:
352,288,46892,1,12,0:0:0:0:
352,96,47028,1,8,0:0:0:0:
160,96,47164,1,0,0:0:0:0:
160,96,47233,1,0,0:0:0:0:
160,96,47301,1,0,0:0:0:0:
309,233,47369,1,0,0:0:0:0:
352,96,47437,1,8,0:0:0:0:
160,96,47574,1,0,0:0:0:0:
352,96,47710,1,8,0:0:0:0:
160,96,47778,1,0,0:0:0:0:
160,96,47846,1,0,0:0:0:0:
352,96,47983,1,8,0:0:0:0:
160,96,48051,1,0,0:0:0:0:
160,96,48119,1,0,0:0:0:0:
160,96,48187,1,0,0:0:0:0:
352,96,48255,1,8,0:0:0:0:
160,96,48324,1,0,0:0:0:0:
352,96,48392,1,8,0:0:0:0:
352,96,48460,1,8,0:0:0:0:
160,96,48528,1,0,0:0:0:0:
160,96,48596,1,0,0:0:0:0:
352,96,48664,1,8,0:0:0:0:
160,96,48733,1,0,0:0:0:0:
352,96,48801,1,8,0:0:0:0:
352,96,48869,1,8,0:0:0:0:
160,96,48937,1,0,0:0:0:0:
160,96,49005,1,0,0:0:0:0:
352,288,49074,1,12,0:0:0:0:
160,96,51119,1,0,0:0:0:0:
160,96,51187,1,0,0:0:0:0:
352,96,51255,1,8,0:0:0:0:
160,96,51324,1,0,0:0:0:0:
160,96,51392,1,0,0:0:0:0:
160,96,51460,1,0,0:0:0:0:
352,96,51528,1,8,0:0:0:0:
160,96,51596,1,0,0:0:0:0:
352,96,51664,1,8,0:0:0:0:
352,96,51733,1,8,0:0:0:0:
352,96,51801,1,8,0:0:0:0:
352,96,51869,1,8,0:0:0:0:
160,96,51937,1,0,0:0:0:0:
160,96,52005,1,0,0:0:0:0:
352,96,52074,1,8,0:0:0:0:
160,96,52142,1,0,0:0:0:0:
352,96,52210,1,8,0:0:0:0:
352,96,52278,1,8,0:0:0:0:
352,96,52346,1,8,0:0:0:0:
160,96,52414,1,0,0:0:0:0:
160,96,52483,1,0,0:0:0:0:
160,96,52551,1,0,0:0:0:0:
352,96,52619,1,8,0:0:0:0:
160,96,52687,1,0,0:0:0:0:
352,96,52755,1,8,0:0:0:0:
352,96,52824,1,8,0:0:0:0:
160,96,52892,1,0,0:0:0:0:
160,96,52960,1,0,0:0:0:0:
352,96,53028,1,8,0:0:0:0:
160,96,53096,1,0,0:0:0:0:
352,96,53164,1,8,0:0:0:0:
160,288,53437,1,4,0:0:0:0:
160,288,55346,1,4,0:0:0:0:
352,288,55619,1,12,0:0:0:0:
160,96,56574,1,0,0:0:0:0:
352,96,56710,1,8,0:0:0:0:
352,96,56778,1,8,0:0:0:0:
160,96,56846,1,0,0:0:0:0:
160,96,56914,1,0,0:0:0:0:
352,96,56983,1,0,0:0:0:0:
160,96,57051,1,0,0:0:0:0:
160,96,57119,1,0,0:0:0:0:
160,96,57187,1,0,0:0:0:0:
352,96,57255,1,8,0:0:0:0:
160,96,57324,1,8,0:0:0:0:
160,96,57392,1,0,0:0:0:0:
160,96,57460,1,0,0:0:0:0:
352,96,57528,1,8,0:0:0:0:
266,280,57801,1,12,0:0:0:0:
160,96,57937,1,0,0:0:0:0:
352,96,58074,1,8,0:0:0:0:
352,96,58142,1,8,0:0:0:0:
160,96,58210,1,0,0:0:0:0:
352,96,58346,1,8,0:0:0:0:
160,96,58483,1,0,0:0:0:0:
160,96,58551,1,0,0:0:0:0:
352,96,58619,1,8,0:0:0:0:
160,96,58755,1,0,0:0:0:0:
352,96,58892,1,8,0:0:0:0:
160,96,58960,1,0,0:0:0:0:
352,96,59028,1,8,0:0:0:0:
160,96,59164,1,0,0:0:0:0:
352,96,59301,1,8,0:0:0:0:
160,96,59369,1,8,0:0:0:0:
160,96,59437,1,0,0:0:0:0:
160,96,59574,1,0,0:0:0:0:
352,96,59710,1,8,0:0:0:0:
160,96,59778,1,0,0:0:0:0:
160,96,59846,1,0,0:0:0:0:
352,96,59983,1,8,0:0:0:0:
160,96,60119,1,0,0:0:0:0:
352,96,60255,1,8,0:0:0:0:
352,96,60324,1,8,0:0:0:0:
352,96,60392,1,0,0:0:0:0:
160,96,60528,1,8,0:0:0:0:
160,96,60665,1,0,0:0:0:0:
352,96,60801,1,8,0:0:0:0:
352,96,60869,1,0,0:0:0:0:
160,96,60937,1,0,0:0:0:0:
352,96,61074,1,8,0:0:0:0:
224,160,61210,1,8,0:0:0:0:
160,96,61346,1,0,0:0:0:0:
160,96,61414,1,0,0:0:0:0:
224,160,61483,1,8,0:0:0:0:
224,160,61619,1,8,0:0:0:0:
224,160,61755,1,0,0:0:0:0:
352,96,61892,1,8,0:0:0:0:
352,96,61960,1,0,0:0:0:0:
160,96,62028,1,8,0:0:0:0:
352,96,62164,1,0,0:0:0:0:
224,160,62233,1,0,0:0:0:0:
160,96,62301,1,0,0:0:0:0:
352,96,62437,1,8,0:0:0:0:
160,96,62710,1,0,0:0:0:0:
160,96,62778,1,0,0:0:0:0:
352,96,62846,1,8,0:0:0:0:
160,96,62983,1,0,0:0:0:0:
160,96,63051,1,0,0:0:0:0:
160,96,63119,1,0,0:0:0:0:
352,96,63255,1,8,0:0:0:0:
160,96,63528,1,0,0:0:0:0:
352,96,63664,1,8,0:0:0:0:
160,96,63801,1,0,0:0:0:0:
160,96,63937,1,0,0:0:0:0:
160,96,64005,1,0,0:0:0:0:
352,96,64074,1,8,0:0:0:0:
352,96,64210,1,8,0:0:0:0:
160,96,64346,1,0,0:0:0:0:
160,96,64414,1,0,0:0:0:0:
256,256,64483,1,0,0:0:0:0:
160,96,64551,1,0,0:0:0:0:
352,96,64619,1,8,0:0:0:0:
256,256,64687,1,8,0:0:0:0:
256,256,64755,1,0,0:0:0:0:
256,224,64824,1,0,0:0:0:0:
160,96,64892,1,0,0:0:0:0:
256,224,64960,1,0,0:0:0:0:
256,224,65028,1,8,0:0:0:0:
256,224,65096,1,0,0:0:0:0:
352,96,65164,1,8,0:0:0:0:
256,256,65233,1,8,0:0:0:0:
160,96,65301,1,0,0:0:0:0:
160,96,65369,1,0,0:0:0:0:
352,96,65437,1,8,0:0:0:0:
160,96,65574,1,0,0:0:0:0:
256,160,65642,1,0,0:0:0:0:
352,96,65710,1,8,0:0:0:0:
160,96,65846,1,0,0:0:0:0:
160,96,65914,1,0,0:0:0:0:
352,96,65983,1,8,0:0:0:0:
160,96,66051,1,0,0:0:0:0:
160,96,66119,1,0,0:0:0:0:
160,96,66187,1,0,0:0:0:0:
352,96,66255,1,8,0:0:0:0:
188,249,66528,1,4,0:0:0:0:
352,96,66664,1,8,0:0:0:0:
352,96,66801,1,8,0:0:0:0:
352,96,66869,1,8,0:0:0:0:
160,96,66937,1,0,0:0:0:0:
160,96,67074,1,0,0:0:0:0:
352,96,67210,1,8,0:0:0:0:
352,96,67278,1,8,0:0:0:0:
160,96,67346,1,0,0:0:0:0:
352,96,67483,1,8,0:0:0:0:
352,96,67619,1,8,0:0:0:0:
160,96,67687,1,0,0:0:0:0:
160,96,67755,1,0,0:0:0:0:
160,96,67892,1,0,0:0:0:0:
352,96,68028,1,8,0:0:0:0:
160,96,68096,1,0,0:0:0:0:
160,96,68164,1,0,0:0:0:0:
352,96,68301,1,8,0:0:0:0:
352,96,68437,1,8,0:0:0:0:
352,96,68505,1,8,0:0:0:0:
160,96,68574,1,0,0:0:0:0:
160,96,68710,1,0,0:0:0:0:
352,96,68846,1,8,0:0:0:0:
352,96,68983,1,8,0:0:0:0:
352,96,69052,1,8,0:0:0:0:
352,96,69120,1,0,0:0:0:0:
160,96,69256,1,8,0:0:0:0:
160,96,69393,1,0,0:0:0:0:
352,96,69529,1,8,0:0:0:0:
352,96,69597,1,0,0:0:0:0:
160,96,69665,1,0,0:0:0:0:
352,96,69802,1,8,0:0:0:0:
224,160,69938,1,8,0:0:0:0:
160,96,70074,1,0,0:0:0:0:
160,96,70142,1,0,0:0:0:0:
224,160,70211,1,8,0:0:0:0:
224,160,70347,1,8,0:0:0:0:
224,160,70483,1,0,0:0:0:0:
352,96,70620,1,8,0:0:0:0:
352,96,70688,1,0,0:0:0:0:
160,96,70756,1,8,0:0:0:0:
352,96,70892,1,8,0:0:0:0:
352,96,71028,1,0,0:0:0:0:
352,96,71164,1,8,0:0:0:0:
160,96,71301,1,0,0:0:0:0:
352,96,71437,1,8,0:0:0:0:
352,96,71574,1,8,0:0:0:0:
352,96,71642,1,8,0:0:0:0:
160,96,71710,1,0,0:0:0:0:
352,96,71846,1,8,0:0:0:0:
352,96,71983,1,8,0:0:0:0:
160,96,72051,1,0,0:0:0:0:
160,96,72119,1,0,0:0:0:0:
160,96,72255,1,0,0:0:0:0:
352,96,72392,1,8,0:0:0:0:
160,96,72460,1,0,0:0:0:0:
160,96,72528,1,0,0:0:0:0:
160,96,72664,1,0,0:0:0:0:
352,96,72801,1,8,0:0:0:0:
160,96,72869,1,0,0:0:0:0:
160,96,72937,1,0,0:0:0:0:
160,96,73005,1,0,0:0:0:0:
352,96,73074,1,8,0:0:0:0:
352,96,73210,1,8,0:0:0:0:
160,96,73346,1,0,0:0:0:0:
160,96,73414,1,0,0:0:0:0:
352,96,73483,1,8,0:0:0:0:
160,96,73619,1,0,0:0:0:0:
352,96,73755,1,8,0:0:0:0:
352,96,73892,1,8,0:0:0:0:
352,96,73960,1,8,0:0:0:0:
160,96,74028,1,0,0:0:0:0:
352,96,74164,1,8,0:0:0:0:
352,96,74233,1,8,0:0:0:0:
160,96,74301,1,0,0:0:0:0:
160,96,74369,1,0,0:0:0:0:
160,96,74437,1,0,0:0:0:0:
160,96,74505,1,0,0:0:0:0:
352,96,74574,1,8,0:0:0:0:
352,96,74642,1,8,0:0:0:0:
160,96,74710,1,0,0:0:0:0:
160,96,74778,1,0,0:0:0:0:
160,96,74846,1,0,0:0:0:0:
160,96,74914,1,0,0:0:0:0:
352,96,74983,1,8,0:0:0:0:
352,96,75051,1,8,0:0:0:0:
160,96,75119,1,0,0:0:0:0:
160,96,75187,1,0,0:0:0:0:
285,256,75255,1,12,0:0:0:0:
352,96,75528,1,8,0:0:0:0:
352,96,75596,1,8,0:0:0:0:
352,96,75664,1,8,0:0:0:0:
352,96,75732,1,8,0:0:0:0:
160,96,75800,1,0,0:0:0:0:
160,96,75868,1,0,0:0:0:0:
160,96,75937,1,0,0:0:0:0:
160,96,76005,1,0,0:0:0:0:
352,96,76073,1,8,0:0:0:0:
352,96,76141,1,8,0:0:0:0:
352,96,76209,1,8,0:0:0:0:
352,96,76278,1,8,0:0:0:0:
160,96,76346,1,0,0:0:0:0:
160,96,76414,1,0,0:0:0:0:
160,96,76482,1,0,0:0:0:0:
160,96,76550,1,0,0:0:0:0:
352,96,76618,1,8,0:0:0:0:
352,96,76687,1,8,0:0:0:0:
352,96,76755,1,8,0:0:0:0:
352,96,76823,1,8,0:0:0:0:
160,96,76891,1,0,0:0:0:0:
160,96,76959,1,0,0:0:0:0:
160,96,77028,1,0,0:0:0:0:
160,96,77096,1,0,0:0:0:0:
352,96,77164,1,8,0:0:0:0:
352,96,77232,1,8,0:0:0:0:
160,96,77300,1,0,0:0:0:0:
160,96,77368,1,0,0:0:0:0:
352,96,77437,1,8,0:0:0:0:
352,96,77505,1,8,0:0:0:0:
352,96,77573,1,8,0:0:0:0:
352,96,77641,1,8,0:0:0:0:
160,96,77709,1,0,0:0:0:0:
160,96,77778,1,0,0:0:0:0:
160,96,77846,1,0,0:0:0:0:
160,96,77914,1,0,0:0:0:0:
352,96,77982,1,8,0:0:0:0:
352,96,78050,1,8,0:0:0:0:
160,96,78118,1,0,0:0:0:0:
160,96,78187,1,0,0:0:0:0:
352,96,78255,1,8,0:0:0:0:
352,96,78323,1,8,0:0:0:0:
352,96,78392,1,8,0:0:0:0:
352,96,78459,1,8,0:0:0:0:
352,96,78528,1,8,0:0:0:0:
352,96,78596,1,8,0:0:0:0:
352,96,78664,1,8,0:0:0:0:
352,96,78732,1,8,0:0:0:0:
160,96,78800,1,0,0:0:0:0:
160,96,78868,1,0,0:0:0:0:
160,96,78937,1,0,0:0:0:0:
160,96,79005,1,0,0:0:0:0:
352,96,79073,1,8,0:0:0:0:
352,96,79141,1,8,0:0:0:0:
160,96,79209,1,0,0:0:0:0:
160,96,79278,1,0,0:0:0:0:
352,96,79346,1,8,0:0:0:0:
352,96,79414,1,8,0:0:0:0:
352,96,79482,1,8,0:0:0:0:
352,96,79550,1,8,0:0:0:0:
352,96,79618,1,8,0:0:0:0:
352,96,79687,1,8,0:0:0:0:
352,96,79755,1,8,0:0:0:0:
352,96,79823,1,8,0:0:0:0:
352,96,79891,1,8,0:0:0:0:
352,96,79959,1,8,0:0:0:0:
352,96,80028,1,8,0:0:0:0:
352,96,80096,1,8,0:0:0:0:
352,96,80164,1,8,0:0:0:0:
352,96,80232,1,8,0:0:0:0:
352,96,80300,1,8,0:0:0:0:
352,96,80368,1,8,0:0:0:0:
160,96,80437,1,0,0:0:0:0:
160,96,80505,1,0,0:0:0:0:
160,96,80573,1,0,0:0:0:0:
160,96,80641,1,0,0:0:0:0:
352,96,80710,1,8,0:0:0:0:
352,96,80778,1,8,0:0:0:0:
352,96,80846,1,8,0:0:0:0:
352,96,80914,1,8,0:0:0:0:
160,96,80982,1,0,0:0:0:0:
160,96,81050,1,0,0:0:0:0:
160,96,81118,1,0,0:0:0:0:
160,96,81187,1,0,0:0:0:0:
352,96,81255,1,8,0:0:0:0:
352,96,81323,1,8,0:0:0:0:
352,96,81391,1,8,0:0:0:0:
352,96,81459,1,8,0:0:0:0:
160,96,81528,1,0,0:0:0:0:
160,96,81596,1,0,0:0:0:0:
160,96,81664,1,0,0:0:0:0:
160,96,81732,1,0,0:0:0:0:
352,96,81800,1,8,0:0:0:0:
352,96,81868,1,8,0:0:0:0:
352,96,81937,1,8,0:0:0:0:
352,96,82005,1,8,0:0:0:0:
352,96,82073,1,8,0:0:0:0:
352,96,82141,1,8,0:0:0:0:
352,96,82209,1,8,0:0:0:0:
352,96,82278,1,8,0:0:0:0:
352,96,82346,1,8,0:0:0:0:
352,96,82414,1,8,0:0:0:0:
352,96,82482,1,8,0:0:0:0:
352,96,82550,1,8,0:0:0:0:
160,96,82618,1,0,0:0:0:0:
160,96,82687,1,0,0:0:0:0:
160,96,82755,1,0,0:0:0:0:
160,96,82823,1,0,0:0:0:0:
352,96,82891,1,8,0:0:0:0:
352,96,82959,1,8,0:0:0:0:
160,96,83028,1,0,0:0:0:0:
160,96,83096,1,0,0:0:0:0:
352,96,83164,1,8,0:0:0:0:
352,96,83232,1,8,0:0:0:0:
160,96,83300,1,0,0:0:0:0:
160,96,83368,1,0,0:0:0:0:
352,96,83437,1,8,0:0:0:0:
352,96,83505,1,8,0:0:0:0:
160,96,83574,1,0,0:0:0:0:
160,96,83641,1,0,0:0:0:0:
352,96,83709,1,8,0:0:0:0:
352,96,83778,1,8,0:0:0:0:
160,96,83846,1,0,0:0:0:0:
160,96,83914,1,0,0:0:0:0:
352,96,83983,1,8,0:0:0:0:
160,96,84051,1,0,0:0:0:0:
160,96,84119,1,0,0:0:0:0:
160,96,84187,1,0,0:0:0:0:
352,96,84255,1,8,0:0:0:0:
352,96,84324,1,8,0:0:0:0:
160,96,84392,1,0,0:0:0:0:
160,96,84460,1,0,0:0:0:0:
352,96,84528,1,8,0:0:0:0:
352,96,84596,1,8,0:0:0:0:
160,96,84664,1,0,0:0:0:0:
160,96,84733,1,0,0:0:0:0:
352,96,84801,1,8,0:0:0:0:
352,96,84869,1,8,0:0:0:0:
160,96,84937,1,0,0:0:0:0:
160,96,85005,1,0,0:0:0:0:
352,96,85074,1,8,0:0:0:0:
352,96,85142,1,8,0:0:0:0:
352,96,85210,1,8,0:0:0:0:
352,96,85278,1,8,0:0:0:0:
160,96,85346,1,0,0:0:0:0:
160,96,85414,1,0,0:0:0:0:
160,96,85483,1,0,0:0:0:0:
160,96,85551,1,0,0:0:0:0:
352,96,85619,1,8,0:0:0:0:
352,96,85687,1,8,0:0:0:0:
160,96,85755,1,0,0:0:0:0:
160,96,85824,1,0,0:0:0:0:
352,96,85892,1,8,0:0:0:0:
352,96,85960,1,8,0:0:0:0:
352,96,86028,1,8,0:0:0:0:
352,96,86096,1,8,0:0:0:0:
160,96,86164,1,0,0:0:0:0:
160,96,86233,1,0,0:0:0:0:
160,96,86301,1,0,0:0:0:0:
160,96,86369,1,0,0:0:0:0:
352,96,86437,1,8,0:0:0:0:
352,96,86505,1,8,0:0:0:0:
160,96,86574,1,0,0:0:0:0:
160,96,86642,1,0,0:0:0:0:
352,96,86710,1,8,0:0:0:0:
352,96,86778,1,8,0:0:0:0:
160,96,86846,1,0,0:0:0:0:
160,96,86914,1,0,0:0:0:0:
352,96,86983,1,8,0:0:0:0:
352,96,87051,1,8,0:0:0:0:
352,96,87119,1,0,0:0:0:0:
352,96,87187,1,0,0:0:0:0:
352,96,87255,1,8,0:0:0:0:
352,96,87324,1,8,0:0:0:0:
352,96,87392,1,8,0:0:0:0:
352,96,87460,1,8,0:0:0:0:
160,96,87528,1,0,0:0:0:0:
160,96,87596,1,0,0:0:0:0:
160,96,87664,1,0,0:0:0:0:
160,96,87733,1,0,0:0:0:0:
352,96,87801,1,8,0:0:0:0:
352,96,87869,1,8,0:0:0:0:
160,96,87937,1,0,0:0:0:0:
160,96,88005,1,0,0:0:0:0:
352,96,88074,1,8,0:0:0:0:
352,96,88142,1,8,0:0:0:0:
160,96,88210,1,0,0:0:0:0:
160,96,88278,1,0,0:0:0:0:
352,96,88346,1,8,0:0:0:0:
352,96,88414,1,8,0:0:0:0:
352,96,88483,1,8,0:0:0:0:
352,96,88551,1,8,0:0:0:0:
352,96,88619,1,8,0:0:0:0:
352,96,88687,1,8,0:0:0:0:
352,96,88755,1,8,0:0:0:0:
352,96,88824,1,8,0:0:0:0:
352,96,88892,1,8,0:0:0:0:
352,96,88960,1,8,0:0:0:0:
352,96,89028,1,8,0:0:0:0:
352,96,89096,1,8,0:0:0:0:
160,96,89164,1,0,0:0:0:0:
160,96,89233,1,0,0:0:0:0:
160,96,89301,1,0,0:0:0:0:
160,96,89369,1,0,0:0:0:0:
160,96,89437,1,8,0:0:0:0:
160,96,89505,1,8,0:0:0:0:
160,96,89574,1,8,0:0:0:0:
160,96,89642,1,8,0:0:0:0:
160,96,89710,1,0,0:0:0:0:
160,96,89778,1,0,0:0:0:0:
160,96,89846,1,0,0:0:0:0:
160,96,89914,1,0,0:0:0:0:
352,96,89983,1,8,0:0:0:0:
352,96,90051,1,8,0:0:0:0:
160,96,90119,1,0,0:0:0:0:
160,96,90187,1,0,0:0:0:0:
352,96,90255,1,8,0:0:0:0:
352,96,90324,1,8,0:0:0:0:
160,96,90392,1,0,0:0:0:0:
160,96,90460,1,0,0:0:0:0:
352,96,90528,1,8,0:0:0:0:
160,96,90664,1,0,0:0:0:0:
160,96,90733,1,0,0:0:0:0:
160,96,90801,1,0,0:0:0:0:
352,96,90937,1,8,0:0:0:0:
160,96,91074,1,0,0:0:0:0:
160,96,91142,1,0,0:0:0:0:
160,96,91210,1,0,0:0:0:0:
352,96,91346,1,8,0:0:0:0:
352,96,91414,1,8,0:0:0:0:
160,96,91483,1,0,0:0:0:0:
160,96,91619,1,0,0:0:0:0:
160,96,91892,1,0,0:0:0:0:
160,96,92164,1,0,0:0:0:0:
160,96,92437,1,0,0:0:0:0:
352,96,92710,1,12,0:0:0:0:
160,96,92846,1,0,0:0:0:0:
352,96,92983,1,8,0:0:0:0:
352,96,93051,1,8,0:0:0:0:
160,96,93119,1,0,0:0:0:0:
352,96,93255,1,8,0:0:0:0:
160,96,93392,1,0,0:0:0:0:
160,96,93460,1,0,0:0:0:0:
352,96,93528,1,8,0:0:0:0:
160,96,93664,1,0,0:0:0:0:
352,96,93801,1,8,0:0:0:0:
160,96,93869,1,0,0:0:0:0:
352,96,93937,1,8,0:0:0:0:
160,96,94073,1,0,0:0:0:0:
352,96,94210,1,8,0:0:0:0:
160,96,94278,1,0,0:0:0:0:
160,96,94346,1,0,0:0:0:0:
160,96,94483,1,0,0:0:0:0:
352,96,94619,1,8,0:0:0:0:
160,96,94755,1,0,0:0:0:0:
160,96,94823,1,0,0:0:0:0:
352,96,94892,1,8,0:0:0:0:
160,96,95028,1,0,0:0:0:0:
352,96,95164,1,8,0:0:0:0:
352,96,95233,1,8,0:0:0:0:
352,96,95301,1,0,0:0:0:0:
160,96,95437,1,8,0:0:0:0:
160,96,95574,1,0,0:0:0:0:
352,96,95710,1,8,0:0:0:0:
352,96,95778,1,0,0:0:0:0:
160,96,95846,1,0,0:0:0:0:
352,96,95983,1,8,0:0:0:0:
224,160,96119,1,8,0:0:0:0:
160,96,96255,1,0,0:0:0:0:
160,96,96323,1,0,0:0:0:0:
224,160,96392,1,8,0:0:0:0:
224,160,96528,1,8,0:0:0:0:
224,160,96664,1,0,0:0:0:0:
352,96,96801,1,8,0:0:0:0:
352,96,96869,1,0,0:0:0:0:
160,96,96937,1,8,0:0:0:0:
352,96,97073,1,8,0:0:0:0:
160,96,97210,1,0,0:0:0:0:
352,96,97346,1,8,0:0:0:0:
160,96,97414,1,0,0:0:0:0:
160,96,97483,1,0,0:0:0:0:
352,96,97619,1,8,0:0:0:0:
352,96,97755,1,8,0:0:0:0:
160,96,97824,1,0,0:0:0:0:
160,96,97892,1,0,0:0:0:0:
160,96,98028,1,0,0:0:0:0:
352,96,98164,1,8,0:0:0:0:
352,96,98233,1,8,0:0:0:0:
160,96,98301,1,0,0:0:0:0:
352,96,98437,1,8,0:0:0:0:
352,96,98573,1,8,0:0:0:0:
352,96,98642,1,8,0:0:0:0:
160,96,98710,1,0,0:0:0:0:
160,96,98846,1,0,0:0:0:0:
352,96,98983,1,8,0:0:0:0:
160,96,99051,1,0,0:0:0:0:
160,96,99119,1,0,0:0:0:0:
160,96,99255,1,0,0:0:0:0:
352,96,99392,1,8,0:0:0:0:
352,96,99528,1,8,0:0:0:0:
160,96,99664,1,0,0:0:0:0:
160,96,99733,1,0,0:0:0:0:
352,96,99801,1,8,0:0:0:0:
352,96,99937,1,8,0:0:0:0:
160,96,100074,1,0,0:0:0:0:
352,96,100210,1,8,0:0:0:0:
160,96,100278,1,0,0:0:0:0:
352,96,100346,1,8,0:0:0:0:
160,96,100483,1,0,0:0:0:0:
352,96,100619,1,8,0:0:0:0:
160,96,100755,1,0,0:0:0:0:
352,96,100892,1,8,0:0:0:0:
160,96,100960,1,0,0:0:0:0:
160,96,101028,1,0,0:0:0:0:
352,96,101164,1,8,0:0:0:0:
160,96,101301,1,0,0:0:0:0:
192,224,101437,1,4,0:0:0:0:
352,96,101573,1,8,0:0:0:0:
352,96,101710,1,8,0:0:0:0:
352,96,101778,1,8,0:0:0:0:
160,96,101846,1,0,0:0:0:0:
160,96,101983,1,0,0:0:0:0:
352,96,102119,1,8,0:0:0:0:
352,96,102187,1,8,0:0:0:0:
160,96,102255,1,0,0:0:0:0:
352,96,102392,1,8,0:0:0:0:
352,96,102528,1,8,0:0:0:0:
160,96,102596,1,0,0:0:0:0:
160,96,102664,1,0,0:0:0:0:
160,96,102801,1,0,0:0:0:0:
352,96,102937,1,8,0:0:0:0:
160,96,103005,1,0,0:0:0:0:
160,96,103073,1,0,0:0:0:0:
352,96,103210,1,8,0:0:0:0:
352,96,103346,1,8,0:0:0:0:
352,96,103414,1,8,0:0:0:0:
160,96,103483,1,0,0:0:0:0:
160,96,103619,1,0,0:0:0:0:
352,96,103755,1,8,0:0:0:0:
352,96,103892,1,0,0:0:0:0:
352,96,103961,1,0,0:0:0:0:
352,96,104029,1,8,0:0:0:0:
160,96,104165,1,8,0:0:0:0:
160,96,104302,1,0,0:0:0:0:
352,96,104438,1,8,0:0:0:0:
352,96,104506,1,0,0:0:0:0:
160,96,104574,1,0,0:0:0:0:
352,96,104711,1,8,0:0:0:0:
224,160,104847,1,0,0:0:0:0:
160,96,104983,1,8,0:0:0:0:
160,96,105051,1,8,0:0:0:0:
224,160,105120,1,0,0:0:0:0:
224,160,105256,1,8,0:0:0:0:
224,160,105392,1,8,0:0:0:0:
352,96,105529,1,0,0:0:0:0:
352,96,105597,1,0,0:0:0:0:
160,96,105665,1,8,0:0:0:0:
352,96,105801,1,0,0:0:0:0:
256,192,105937,1,8,0:0:0:0:
256,192,106074,1,0,0:0:0:0:
288,192,106142,1,0,0:0:0:0:
256,192,106210,1,8,0:0:0:0:
352,96,106346,1,8,0:0:0:0:
352,96,106483,1,8,0:0:0:0:
352,96,106551,1,8,0:0:0:0:
160,96,106619,1,0,0:0:0:0:
352,96,106755,1,8,0:0:0:0:
352,96,106892,1,8,0:0:0:0:
160,96,106960,1,0,0:0:0:0:
160,96,107028,1,0,0:0:0:0:
160,96,107164,1,0,0:0:0:0:
352,96,107301,1,8,0:0:0:0:
160,96,107369,1,0,0:0:0:0:
160,96,107437,1,0,0:0:0:0:
160,96,107573,1,0,0:0:0:0:
352,96,107710,1,8,0:0:0:0:
160,96,107778,1,0,0:0:0:0:
160,96,107846,1,0,0:0:0:0:
160,96,107914,1,0,0:0:0:0:
352,96,107983,1,8,0:0:0:0:
352,96,108119,1,8,0:0:0:0:
224,192,108187,1,0,0:0:0:0:
160,96,108255,1,0,0:0:0:0:
160,96,108323,1,0,0:0:0:0:
352,96,108392,1,8,0:0:0:0:
224,192,108460,1,8,0:0:0:0:
224,192,108528,1,0,0:0:0:0:
352,96,108664,1,8,0:0:0:0:
352,96,108801,1,8,0:0:0:0:
352,96,108869,1,8,0:0:0:0:
160,96,108937,1,0,0:0:0:0:
352,96,109073,1,12,0:0:0:0:
352,96,109483,1,8,0:0:0:0:
352,96,109892,1,0,0:0:0:0:
352,96,110164,1,8,0:0:0:0:
256,256,110233,1,0,0:0:0:0:
352,96,110301,1,0,0:0:0:0:
352,96,110369,1,0,0:0:0:0:
160,96,110437,1,8,0:0:0:0:
256,256,110505,1,8,0:0:0:0:
352,96,110574,1,0,0:0:0:0:
256,256,110642,1,0,0:0:0:0:
352,96,110710,1,8,0:0:0:0:
160,96,110778,1,8,0:0:0:0:
160,96,110846,1,8,0:0:0:0:
256,256,110914,1,8,0:0:0:0:
160,96,110983,1,0,0:0:0:0:
256,256,111051,1,0,0:0:0:0:
352,96,111119,1,8,0:0:0:0:
352,96,111187,1,8,0:0:0:0:
256,256,111255,1,0,0:0:0:0:
256,256,111324,1,0,0:0:0:0:
160,96,111392,1,0,0:0:0:0:
256,256,111460,1,0,0:0:0:0:
352,96,111528,1,8,0:0:0:0:
352,96,111596,1,8,0:0:0:0:
160,96,111664,1,0,0:0:0:0:
160,96,111733,1,0,0:0:0:0:
352,96,111801,1,8,0:0:0:0:
256,256,111869,1,8,0:0:0:0:
160,96,111937,1,0,0:0:0:0:
256,256,112005,1,0,0:0:0:0:
352,96,112074,1,8,0:0:0:0:
160,96,112142,1,8,0:0:0:0:
160,96,112210,1,0,0:0:0:0:
256,256,112278,1,0,0:0:0:0:
352,96,112346,1,8,0:0:0:0:
256,256,112414,1,8,0:0:0:0:
160,96,112483,1,8,0:0:0:0:
256,256,112551,1,8,0:0:0:0:
256,256,112619,1,0,0:0:0:0:
256,256,112687,1,0,0:0:0:0:
352,96,112755,1,0,0:0:0:0:
352,96,112824,1,0,0:0:0:0:
160,96,112892,1,8,0:0:0:0:
256,256,112960,1,8,0:0:0:0:
256,256,113028,1,0,0:0:0:0:
256,256,113096,1,0,0:0:0:0:
256,256,113164,1,8,0:0:0:0:
256,256,113233,1,0,0:0:0:0:
160,96,113301,1,8,0:0:0:0:
160,96,113369,1,8,0:0:0:0:
352,96,113437,1,0,0:0:0:0:
256,256,113505,1,0,0:0:0:0:
352,96,113574,1,8,0:0:0:0:
256,256,113642,1,0,0:0:0:0:
160,96,113710,1,8,0:0:0:0:
256,256,113778,1,8,0:0:0:0:
160,96,113846,1,0,0:0:0:0:
256,256,113914,1,0,0:0:0:0:
352,96,113983,1,8,0:0:0:0:
160,96,114051,1,8,0:0:0:0:
160,96,114119,1,8,0:0:0:0:
256,256,114187,1,8,0:0:0:0:
352,96,114255,1,0,0:0:0:0:
160,96,114324,1,0,0:0:0:0:
160,96,114392,1,0,0:0:0:0:
256,256,114460,1,0,0:0:0:0:
352,288,114528,1,12,0:0:0:0:
160,96,114664,1,0,0:0:0:0:
160,96,114733,1,0,0:0:0:0:
160,96,114801,1,0,0:0:0:0:
160,96,114869,1,0,0:0:0:0:
352,96,114937,1,8,0:0:0:0:
352,96,115005,1,8,0:0:0:0:
160,96,115074,1,0,0:0:0:0:
160,96,115210,1,0,0:0:0:0:
160,96,115346,1,0,0:0:0:0:
352,96,115483,1,8,0:0:0:0:
352,96,115619,1,8,0:0:0:0:
352,96,115687,1,8,0:0:0:0:
160,96,115755,1,0,0:0:0:0:
160,96,115824,1,0,0:0:0:0:
352,96,115892,1,8,0:0:0:0:
352,96,115960,1,8,0:0:0:0:
160,96,116028,1,0,0:0:0:0:
160,96,116096,1,0,0:0:0:0:
160,96,116164,1,0,0:0:0:0:
160,96,116233,1,0,0:0:0:0:
160,96,116301,1,0,0:0:0:0:
160,96,116369,1,0,0:0:0:0:
160,96,116437,1,0,0:0:0:0:
160,96,116505,1,0,0:0:0:0:
352,96,116574,1,8,0:0:0:0:
160,96,116846,1,0,0:0:0:0:
352,96,116983,1,8,0:0:0:0:
160,96,117187,1,0,0:0:0:0:
160,96,117255,1,0,0:0:0:0:
160,96,117392,1,0,0:0:0:0:
352,96,117528,1,8,0:0:0:0:
160,288,117664,1,4,0:0:0:0:
160,96,117801,1,0,0:0:0:0:
256,192,117869,1,0,0:0:0:0:
160,96,117937,1,0,0:0:0:0:
256,192,118005,1,0,0:0:0:0:
352,96,118074,1,8,0:0:0:0:
160,96,118210,1,0,0:0:0:0:
160,96,118278,1,0,0:0:0:0:
352,96,118346,1,8,0:0:0:0:
160,96,118414,1,0,0:0:0:0:
160,96,118483,1,0,0:0:0:0:
160,96,118551,1,0,0:0:0:0:
352,96,118619,1,8,0:0:0:0:
352,288,118892,1,12,0:0:0:0:
352,288,119028,1,12,0:0:0:0:
160,288,120801,1,4,0:0:0:0:
352,288,121074,1,12,0:0:0:0:
352,288,121210,1,12,0:0:0:0:
352,288,123255,1,12,0:0:0:0:
352,288,123392,1,12,0:0:0:0:
160,288,125164,1,4,0:0:0:0:
352,288,125437,1,12,0:0:0:0:
352,96,125574,1,8,0:0:0:0:
352,96,125642,1,8,0:0:0:0:
160,96,125710,1,0,0:0:0:0:
160,288,125983,1,4,0:0:0:0:
160,96,126255,1,0,0:0:0:0:
160,96,126392,1,0,0:0:0:0:
352,288,126528,1,12,0:0:0:0:
352,288,126801,1,12,0:0:0:0:
352,288,127074,1,4,0:0:0:0:
256,288,127619,1,12,0:0:0:0:
352,96,127755,1,8,0:0:0:0:
160,96,127892,1,0,0:0:0:0:
352,96,128028,1,8,0:0:0:0:
160,96,128164,1,0,0:0:0:0:
352,96,128301,1,8,0:0:0:0:
160,96,128437,1,0,0:0:0:0:
352,96,128574,1,8,0:0:0:0:
352,96,128710,1,8,0:0:0:0:
160,96,128846,1,0,0:0:0:0:
352,96,128983,1,8,0:0:0:0:
160,96,129119,1,0,0:0:0:0:
352,96,129255,1,8,0:0:0:0:
352,96,129392,1,8,0:0:0:0:
160,96,129528,1,0,0:0:0:0:
160,96,129664,1,0,0:0:0:0:
352,96,129801,1,8,0:0:0:0:
160,96,129937,1,0,0:0:0:0:
352,96,130074,1,8,0:0:0:0:
352,96,130210,1,8,0:0:0:0:
160,96,130346,1,0,0:0:0:0:
352,96,130483,1,8,0:0:0:0:
160,96,130619,1,0,0:0:0:0:
352,96,130755,1,8,0:0:0:0:
352,96,130892,1,8,0:0:0:0:
160,96,131028,1,0,0:0:0:0:
352,96,131164,1,8,0:0:0:0:
160,96,131301,1,0,0:0:0:0:
352,96,131437,1,8,0:0:0:0:
160,96,131574,1,0,0:0:0:0:
160,96,131710,1,0,0:0:0:0:
160,96,131846,1,0,0:0:0:0:
352,96,131983,1,8,0:0:0:0:
352,96,132255,1,8,0:0:0:0:
160,96,132392,1,0,0:0:0:0:
160,96,132664,1,0,0:0:0:0:
352,96,132801,1,8,0:0:0:0:
160,96,132937,1,0,0:0:0:0:
160,96,133210,1,0,0:0:0:0:
352,96,133346,1,8,0:0:0:0:
160,96,133619,1,0,0:0:0:0:
160,96,133755,1,0,0:0:0:0:
352,96,133892,1,8,0:0:0:0:
160,288,134164,1,4,0:0:0:0:
160,96,134437,1,0,0:0:0:0:
352,288,134574,1,12,0:0:0:0:
160,96,134846,1,0,0:0:0:0:
352,96,134983,1,8,0:0:0:0:
160,288,135119,1,4,0:0:0:0:
160,96,135392,1,0,0:0:0:0:
352,96,135528,1,8,0:0:0:0:
352,96,135664,1,8,0:0:0:0:
160,96,135733,1,0,0:0:0:0:
160,96,135801,1,0,0:0:0:0:
160,96,135937,1,0,0:0:0:0:
160,96,136005,1,0,0:0:0:0:
352,96,136074,1,8,0:0:0:0:
160,96,136210,1,0,0:0:0:0:
352,288,136346,1,12,0:0:0:0:
160,96,136483,1,0,0:0:0:0:
352,96,136619,1,8,0:0:0:0:
352,96,136755,1,8,0:0:0:0:
160,96,136892,1,0,0:0:0:0:
352,96,137028,1,8,0:0:0:0:
160,96,137164,1,0,0:0:0:0:
352,96,137301,1,8,0:0:0:0:
352,96,137437,1,8,0:0:0:0:
160,96,137574,1,0,0:0:0:0:
352,96,137710,1,8,0:0:0:0:
160,96,137846,1,0,0:0:0:0:
352,96,137983,1,8,0:0:0:0:
352,96,138119,1,8,0:0:0:0:
160,96,138255,1,0,0:0:0:0:
160,96,138392,1,0,0:0:0:0:
352,96,138528,1,8,0:0:0:0:
160,96,138664,1,0,0:0:0:0:
352,96,138801,1,8,0:0:0:0:
352,96,138937,1,8,0:0:0:0:
160,96,139074,1,0,0:0:0:0:
352,96,139210,1,8,0:0:0:0:
160,96,139346,1,0,0:0:0:0:
352,96,139483,1,8,0:0:0:0:
160,96,139619,1,0,0:0:0:0:
160,96,139755,1,0,0:0:0:0:
352,96,139892,1,8,0:0:0:0:
352,96,140028,1,8,0:0:0:0:
160,96,140164,1,0,0:0:0:0:
160,96,140301,1,0,0:0:0:0:
352,288,140437,1,12,0:0:0:0:
160,96,140574,1,0,0:0:0:0:
352,288,140710,1,12,0:0:0:0:
352,96,140983,1,8,0:0:0:0:
160,96,141119,1,0,0:0:0:0:
160,96,141392,1,0,0:0:0:0:
352,96,141528,1,8,0:0:0:0:
160,96,141664,1,0,0:0:0:0:
160,96,141937,1,0,0:0:0:0:
352,96,142074,1,8,0:0:0:0:
160,96,142346,1,0,0:0:0:0:
160,96,142483,1,0,0:0:0:0:
352,96,142619,1,8,0:0:0:0:
160,288,142892,1,4,0:0:0:0:
160,96,143164,1,0,0:0:0:0:
352,288,143301,1,12,0:0:0:0:
160,96,143574,1,0,0:0:0:0:
352,96,143710,1,8,0:0:0:0:
160,288,143846,1,4,0:0:0:0:
160,96,144119,1,0,0:0:0:0:
352,96,144255,1,8,0:0:0:0:
352,96,144392,1,8,0:0:0:0:
160,96,144460,1,0,0:0:0:0:
160,96,144528,1,0,0:0:0:0:
160,96,144664,1,0,0:0:0:0:
160,96,144733,1,0,0:0:0:0:
352,96,144801,1,8,0:0:0:0:
160,96,144937,1,0,0:0:0:0:
352,96,145074,1,12,0:0:0:0:
352,96,145210,1,8,0:0:0:0:
160,96,145346,1,0,0:0:0:0:
352,96,145483,1,8,0:0:0:0:
160,96,145619,1,0,0:0:0:0:
160,96,145755,1,0,0:0:0:0:
352,96,145892,1,8,0:0:0:0:
160,96,146028,1,0,0:0:0:0:
352,96,146164,1,8,0:0:0:0:
160,96,146301,1,0,0:0:0:0:
160,96,146437,1,0,0:0:0:0:
160,96,146574,1,0,0:0:0:0:
352,96,146710,1,8,0:0:0:0:
160,96,146846,1,0,0:0:0:0:
352,96,146983,1,8,0:0:0:0:
352,96,147119,1,8,0:0:0:0:
160,96,147255,1,0,0:0:0:0:
160,96,147392,1,0,0:0:0:0:
160,96,147528,1,0,0:0:0:0:
352,96,147664,1,8,0:0:0:0:
352,96,147801,1,8,0:0:0:0:
160,96,147937,1,0,0:0:0:0:
352,96,148074,1,8,0:0:0:0:
160,96,148210,1,0,0:0:0:0:
352,96,148346,1,8,0:0:0:0:
352,96,148483,1,8,0:0:0:0:
160,96,148619,1,0,0:0:0:0:
160,96,148755,1,0,0:0:0:0:
352,96,148892,1,8,0:0:0:0:
160,96,149028,1,0,0:0:0:0:
352,96,149164,1,8,0:0:0:0:
160,96,149301,1,0,0:0:0:0:
352,96,149437,1,8,0:0:0:0:
352,96,149574,1,8,0:0:0:0:
160,96,149710,1,0,0:0:0:0:
352,96,149846,1,8,0:0:0:0:
352,96,149983,1,8,0:0:0:0:
160,96,150119,1,0,0:0:0:0:
352,96,150255,1,8,0:0:0:0:
160,96,150392,1,0,0:0:0:0:
352,96,150528,1,8,0:0:0:0:
160,96,150664,1,0,0:0:0:0:
160,96,150801,1,0,0:0:0:0:
352,96,150937,1,8,0:0:0:0:
160,96,151074,1,0,0:0:0:0:
160,96,151210,1,0,0:0:0:0:
352,96,151346,1,8,0:0:0:0:
160,96,151483,1,0,0:0:0:0:
352,96,151619,1,8,0:0:0:0:
352,96,151755,1,8,0:0:0:0:
160,96,151892,1,0,0:0:0:0:
160,96,152028,1,0,0:0:0:0:
352,96,152164,1,8,0:0:0:0:
160,96,152301,1,0,0:0:0:0:
160,96,152369,1,0,0:0:0:0:
352,96,152437,1,8,0:0:0:0:
160,96,152505,1,0,0:0:0:0:
160,96,152574,1,0,0:0:0:0:
160,96,152642,1,0,0:0:0:0:
352,96,152710,1,8,0:0:0:0:
160,96,152778,1,0,0:0:0:0:
352,96,152846,1,8,0:0:0:0:
352,96,152914,1,8,0:0:0:0:
160,96,152983,1,0,0:0:0:0:
160,96,153119,1,0,0:0:0:0:
160,96,153255,1,0,0:0:0:0:
352,96,153392,1,8,0:0:0:0:
160,96,153528,1,0,0:0:0:0:
160,96,153596,1,0,0:0:0:0:
352,96,153664,1,8,0:0:0:0:
352,96,153733,1,8,0:0:0:0:
224,288,153801,1,4,0:0:0:0:
352,96,154074,1,8,0:0:0:0:
160,96,154483,1,0,0:0:0:0:
352,96,154619,1,8,0:0:0:0:
160,96,154892,1,0,0:0:0:0:
352,96,155164,1,8,0:0:0:0:
160,96,155301,1,0,0:0:0:0:
160,96,155574,1,0,0:0:0:0:
352,96,155710,1,8,0:0:0:0:
160,96,155983,1,0,0:0:0:0:
352,96,156255,1,8,0:0:0:0:
160,96,156664,1,0,0:0:0:0:
352,96,156801,1,8,0:0:0:0:
160,96,156937,1,0,0:0:0:0:
160,96,157210,1,0,0:0:0:0:
352,96,157346,1,8,0:0:0:0:
160,96,157619,1,0,0:0:0:0:
160,96,157755,1,0,0:0:0:0:
352,96,157892,1,8,0:0:0:0:
160,288,158164,1,4,0:0:0:0:
352,96,158437,1,8,0:0:0:0:
160,96,158710,1,0,0:0:0:0:
160,96,158846,1,0,0:0:0:0:
352,96,158983,1,8,0:0:0:0:
160,96,159255,1,0,0:0:0:0:
352,96,159528,1,8,0:0:0:0:
160,96,159664,1,0,0:0:0:0:
160,96,159937,1,0,0:0:0:0:
352,96,160074,1,8,0:0:0:0:
160,96,160210,1,0,0:0:0:0:
320,256,160346,1,12,0:0:0:0:
160,96,160483,1,0,0:0:0:0:
352,96,160619,1,8,0:0:0:0:
160,96,160755,1,0,0:0:0:0:
352,96,160892,1,8,0:0:0:0:
160,96,161028,1,0,0:0:0:0:
352,96,161164,1,8,0:0:0:0:
160,96,161301,1,0,0:0:0:0:
352,96,161437,1,8,0:0:0:0:
160,96,161574,1,0,0:0:0:0:
352,96,161710,1,8,0:0:0:0:
160,96,161846,1,0,0:0:0:0:
352,96,161983,1,8,0:0:0:0:
352,96,162051,1,8,0:0:0:0:
160,96,162119,1,0,0:0:0:0:
160,96,162392,1,0,0:0:0:0:
160,96,162528,1,0,0:0:0:0:
352,96,165801,5,8,0:0:0:0:
160,96,165892,1,0,0:0:0:0:
352,96,165983,1,8,0:0:0:0:
160,96,166074,1,0,0:0:0:0:
352,96,166164,1,8,0:0:0:0:
160,96,166255,1,0,0:0:0:0:
352,96,166346,1,8,0:0:0:0:
352,96,166437,1,8,0:0:0:0:
160,96,166528,1,0,0:0:0:0:
160,96,166619,1,0,0:0:0:0:
352,96,166710,1,8,0:0:0:0:
160,96,166801,1,0,0:0:0:0:
352,96,166892,1,8,0:0:0:0:
160,96,166983,1,0,0:0:0:0:
160,96,167074,1,0,0:0:0:0:
160,96,167164,1,0,0:0:0:0:
352,96,167255,1,8,0:0:0:0:
160,96,167346,1,0,0:0:0:0:
352,96,167437,1,8,0:0:0:0:
160,96,167528,1,0,0:0:0:0:
160,96,167619,1,0,0:0:0:0:
160,96,167710,1,0,0:0:0:0:
352,96,167801,1,8,0:0:0:0:
160,96,167892,1,0,0:0:0:0:
352,96,167983,1,8,0:0:0:0:
352,96,168074,1,8,0:0:0:0:
160,96,168164,1,0,0:0:0:0:
160,96,168255,1,0,0:0:0:0:
352,96,168346,1,8,0:0:0:0:
160,96,168437,1,0,0:0:0:0:
352,96,168528,1,8,0:0:0:0:
160,96,168619,1,0,0:0:0:0:
352,96,168710,1,8,0:0:0:0:
160,96,168801,1,0,0:0:0:0:
352,96,168892,1,8,0:0:0:0:
160,96,168983,1,0,0:0:0:0:
352,96,169074,1,8,0:0:0:0:
352,96,169164,1,8,0:0:0:0:
160,96,169255,1,0,0:0:0:0:
160,96,169346,1,0,0:0:0:0:
160,96,169437,1,0,0:0:0:0:
160,96,169528,1,0,0:0:0:0:
352,96,169619,1,8,0:0:0:0:
352,96,169710,1,8,0:0:0:0:
352,96,169801,1,8,0:0:0:0:
160,96,169892,1,0,0:0:0:0:
352,96,169983,1,8,0:0:0:0:
160,96,170074,1,0,0:0:0:0:
352,96,170164,1,8,0:0:0:0:
160,96,170255,1,0,0:0:0:0:
160,96,170346,1,0,0:0:0:0:
160,96,170437,1,0,0:0:0:0:
352,96,170528,1,8,0:0:0:0:
160,96,170619,1,0,0:0:0:0:
352,96,170710,1,8,0:0:0:0:
160,96,170801,1,0,0:0:0:0:
352,96,170892,1,8,0:0:0:0:
160,96,170983,1,0,0:0:0:0:
352,96,171074,1,8,0:0:0:0:
160,96,171164,1,0,0:0:0:0:
352,96,171255,1,8,0:0:0:0:
352,96,171346,1,8,0:0:0:0:
160,96,171437,1,0,0:0:0:0:
160,96,171528,1,0,0:0:0:0:
352,96,171619,1,8,0:0:0:0:
160,96,171710,1,0,0:0:0:0:
352,96,171801,1,8,0:0:0:0:
160,96,171892,1,0,0:0:0:0:
160,96,171983,1,0,0:0:0:0:
160,96,172074,1,0,0:0:0:0:
352,96,172164,1,8,0:0:0:0:
160,96,172255,1,0,0:0:0:0:
352,96,172346,1,8,0:0:0:0:
352,96,172437,1,8,0:0:0:0:
160,96,172528,1,0,0:0:0:0:
160,96,172619,1,0,0:0:0:0:
352,96,172710,1,8,0:0:0:0:
160,96,172801,1,0,0:0:0:0:
352,96,172892,1,8,0:0:0:0:
352,96,172983,1,8,0:0:0:0:
160,96,173074,1,0,0:0:0:0:
160,96,173164,1,0,0:0:0:0:
352,96,173255,1,8,0:0:0:0:
160,96,173346,1,0,0:0:0:0:
352,96,173437,1,8,0:0:0:0:
352,96,173528,1,8,0:0:0:0:
160,96,173619,1,0,0:0:0:0:
160,96,173710,1,0,0:0:0:0:
160,96,173801,1,0,0:0:0:0:
352,96,173846,1,8,0:0:0:0:
352,96,173892,1,8,0:0:0:0:
160,96,173983,1,0,0:0:0:0:
160,96,174074,1,0,0:0:0:0:
160,96,174164,1,0,0:0:0:0:
160,96,174255,1,0,0:0:0:0:
256,128,174346,1,8,0:0:0:0:
256,128,174437,1,0,0:0:0:0:
224,224,174528,1,8,0:0:0:0:
214,282,174619,1,0,0:0:0:0:
224,192,174710,1,0,0:0:0:0:
222,280,174801,1,0,0:0:0:0:
352,96,174892,1,8,0:0:0:0:
160,96,174983,1,0,0:0:0:0:
352,96,175074,1,8,0:0:0:0:
352,96,175164,1,8,0:0:0:0:
160,96,175255,1,0,0:0:0:0:
160,96,175346,1,0,0:0:0:0:
352,96,175437,1,8,0:0:0:0:
160,96,175528,1,0,0:0:0:0:
352,96,175619,1,8,0:0:0:0:
261,323,175710,1,0,0:0:0:0:
224,224,175801,1,0,0:0:0:0:
261,323,175983,1,0,0:0:0:0:
252,215,176074,1,0,0:0:0:0:
352,96,176164,1,8,0:0:0:0:
160,96,176255,1,0,0:0:0:0:
352,96,176346,1,8,0:0:0:0:
160,96,176437,1,0,0:0:0:0:
352,96,176528,1,8,0:0:0:0:
160,96,176619,1,0,0:0:0:0:
352,96,176710,1,8,0:0:0:0:
352,96,176801,1,8,0:0:0:0:
160,96,176892,1,0,0:0:0:0:
160,96,176983,1,0,0:0:0:0:
352,96,177074,1,8,0:0:0:0:
160,96,177164,1,0,0:0:0:0:
352,96,177255,1,8,0:0:0:0:
160,96,177346,1,0,0:0:0:0:
352,96,177437,1,8,0:0:0:0:
320,192,177528,1,8,0:0:0:0:
320,192,177619,1,0,0:0:0:0:
160,96,177710,1,0,0:0:0:0:
352,96,177801,1,8,0:0:0:0:
222,222,177892,1,0,0:0:0:0:
160,96,177983,1,0,0:0:0:0:
160,96,178164,1,0,0:0:0:0:
222,222,178255,1,0,0:0:0:0:
352,96,178346,1,8,0:0:0:0:
352,96,178437,1,8,0:0:0:0:
160,96,178528,1,0,0:0:0:0:
160,96,178619,1,0,0:0:0:0:
352,96,178710,1,8,0:0:0:0:
160,96,178801,1,0,0:0:0:0:
352,96,178892,1,8,0:0:0:0:
243,229,178983,1,0,0:0:0:0:
160,96,179074,1,0,0:0:0:0:
234,227,179164,1,0,0:0:0:0:
234,227,179255,1,0,0:0:0:0:
243,229,179346,1,0,0:0:0:0:
352,96,179437,1,8,0:0:0:0:
160,96,179528,1,0,0:0:0:0:
352,96,179619,1,8,0:0:0:0:
160,96,179710,1,0,0:0:0:0:
352,96,179801,1,8,0:0:0:0:
160,96,179892,1,0,0:0:0:0:
352,96,179983,1,8,0:0:0:0:
243,229,180074,1,0,0:0:0:0:
160,96,180164,1,0,0:0:0:0:
160,96,180346,1,0,0:0:0:0:
243,229,180437,1,0,0:0:0:0:
352,96,180528,1,8,0:0:0:0:
160,96,180619,1,0,0:0:0:0:
352,96,180710,1,8,0:0:0:0:
352,96,180801,1,8,0:0:0:0:
160,96,180892,1,0,0:0:0:0:
160,96,180983,1,0,0:0:0:0:
352,96,181074,1,8,0:0:0:0:
160,96,181164,1,0,0:0:0:0:
352,96,181255,1,8,0:0:0:0:
160,96,181346,1,0,0:0:0:0:
352,96,181437,1,8,0:0:0:0:
160,96,181528,1,0,0:0:0:0:
352,96,181619,1,8,0:0:0:0:
352,96,181710,1,8,0:0:0:0:
160,96,181801,1,0,0:0:0:0:
160,96,181892,5,0,0:0:0:0:
352,96,181983,1,8,0:0:0:0:
160,96,182074,5,0,0:0:0:0:
352,96,182164,1,8,0:0:0:0:
352,96,182255,5,8,0:0:0:0:
352,96,182346,1,8,0:0:0:0:
352,96,182437,1,8,0:0:0:0:
160,96,182528,1,0,0:0:0:0:
160,96,182619,1,0,0:0:0:0:
352,96,182710,1,8,0:0:0:0:
352,96,182801,1,8,0:0:0:0:
352,96,182892,1,8,0:0:0:0:
352,96,182983,1,8,0:0:0:0:
160,96,183074,1,0,0:0:0:0:
160,96,183164,1,0,0:0:0:0:
352,96,183255,5,12,0:0:0:0:
160,96,183528,1,0,0:0:0:0:
160,96,183664,1,0,0:0:0:0:
352,96,183801,1,8,0:0:0:0:
160,96,183937,1,0,0:0:0:0:
352,96,184074,1,8,0:0:0:0:
352,96,184210,1,8,0:0:0:0:
352,96,184346,1,8,0:0:0:0:
160,96,184619,1,0,0:0:0:0:
160,96,184755,1,0,0:0:0:0:
352,96,184892,1,8,0:0:0:0:
160,96,185028,1,0,0:0:0:0:
352,96,185164,1,8,0:0:0:0:
352,96,185301,1,8,0:0:0:0:
352,96,185437,1,8,0:0:0:0:
160,96,185710,1,0,0:0:0:0:
160,96,185846,1,0,0:0:0:0:
352,96,185983,1,8,0:0:0:0:
160,96,186119,1,0,0:0:0:0:
352,96,186255,1,8,0:0:0:0:
352,96,186392,1,8,0:0:0:0:
352,96,186528,1,8,0:0:0:0:
160,96,186619,1,0,0:0:0:0:
352,96,186710,1,8,0:0:0:0:
160,96,186892,1,0,0:0:0:0:
352,96,187074,1,8,0:0:0:0:
160,96,187255,1,0,0:0:0:0:
160,96,187437,1,0,0:0:0:0:
160,288,187619,1,4,0:0:0:0:
256,192,187755,12,0,189801,0:0:0:0:
160,96,191437,5,0,0:0:0:0:
352,96,191983,1,8,0:0:0:0:
160,96,192255,1,0,0:0:0:0:
160,96,192801,1,0,0:0:0:0:
160,96,193619,1,0,0:0:0:0:
352,96,194164,1,8,0:0:0:0:
160,96,194437,1,0,0:0:0:0:
352,96,194983,1,8,0:0:0:0:
160,96,195528,1,0,0:0:0:0:
352,96,195801,1,8,0:0:0:0:
160,96,196346,1,0,0:0:0:0:
160,96,196619,1,0,0:0:0:0:
160,96,196892,1,0,0:0:0:0:
352,96,197164,1,8,0:0:0:0:
352,96,197710,1,8,0:0:0:0:
160,96,197846,1,0,0:0:0:0:
160,96,197983,1,0,0:0:0:0:
160,96,198255,1,0,0:0:0:0:
352,96,198528,1,8,0:0:0:0:
160,96,198801,1,0,0:0:0:0:
352,96,199074,1,8,0:0:0:0:
352,96,199483,1,8,0:0:0:0:
160,96,199619,1,0,0:0:0:0:
160,96,199892,1,0,0:0:0:0:
352,96,200164,1,8,0:0:0:0:
352,96,200437,1,8,0:0:0:0:
160,96,200710,1,0,0:0:0:0:
160,96,200983,1,0,0:0:0:0:
352,96,201255,1,8,0:0:0:0:
160,96,201528,1,0,0:0:0:0:
352,96,202074,1,8,0:0:0:0:
160,96,202346,1,0,0:0:0:0:
352,96,202892,1,8,0:0:0:0:
160,96,203164,1,0,0:0:0:0:
160,96,203437,1,0,0:0:0:0:
352,96,203710,1,8,0:0:0:0:
352,96,204255,1,8,0:0:0:0:
352,96,204528,1,8,0:0:0:0:
160,96,204801,1,0,0:0:0:0:
352,96,205074,1,8,0:0:0:0:
160,96,205346,1,0,0:0:0:0:
352,96,205619,1,8,0:0:0:0:
160,96,205892,1,0,0:0:0:0:
352,96,206437,1,8,0:0:0:0:
160,96,206574,1,0,0:0:0:0:
160,96,206710,1,0,0:0:0:0:
160,96,206983,1,0,0:0:0:0:
352,96,207255,1,8,0:0:0:0:
160,96,207528,1,0,0:0:0:0:
352,96,207801,1,8,0:0:0:0:
352,96,208074,1,8,0:0:0:0:
160,288,208346,1,4,0:0:0:0:
352,96,208619,1,8,0:0:0:0:
160,96,208892,1,0,0:0:0:0:
213,173,208926,1,0,0:0:0:0:
160,96,209164,1,0,0:0:0:0:
352,96,209437,1,8,0:0:0:0:
352,96,210528,1,8,0:0:0:0:
160,96,211619,1,0,0:0:0:0:
160,96,211892,1,0,0:0:0:0:
352,96,212710,1,8,0:0:0:0:
160,96,213801,1,0,0:0:0:0:
352,96,214892,1,8,0:0:0:0:
160,96,215983,1,0,0:0:0:0:
160,96,216255,1,0,0:0:0:0:
160,96,216801,1,0,0:0:0:0:
352,96,217074,1,8,0:0:0:0:
160,96,217346,1,0,0:0:0:0:
352,96,217619,1,8,0:0:0:0:
352,96,217653,1,8,0:0:0:0:
352,96,217892,1,8,0:0:0:0:
160,96,218164,1,0,0:0:0:0:
160,96,218983,1,0,0:0:0:0:
352,96,219255,1,8,0:0:0:0:
160,96,219801,1,0,0:0:0:0:
160,96,220346,1,0,0:0:0:0:
160,96,220619,1,0,0:0:0:0:
160,96,221164,1,0,0:0:0:0:
352,96,221437,1,8,0:0:0:0:
352,96,221983,1,8,0:0:0:0:
160,96,222255,1,0,0:0:0:0:
352,96,222528,1,8,0:0:0:0:
160,96,222801,1,0,0:0:0:0:
160,96,223346,1,0,0:0:0:0:
352,96,223619,1,8,0:0:0:0:
160,96,223892,1,0,0:0:0:0:
160,96,224301,1,0,0:0:0:0:
160,96,224437,1,8,0:0:0:0:
352,96,224710,1,8,0:0:0:0:
160,96,225664,1,0,0:0:0:0:
160,96,225733,1,0,0:0:0:0:
352,96,225801,1,8,0:0:0:0:
160,96,226074,1,0,0:0:0:0:
160,96,226142,1,0,0:0:0:0:
352,96,226210,1,8,0:0:0:0:
160,96,226278,1,0,0:0:0:0:
160,96,226346,1,0,0:0:0:0:
352,96,226619,1,8,0:0:0:0:
288,256,226892,1,12,0:0:0:0:
160,96,227028,1,0,0:0:0:0:
352,96,227164,1,8,0:0:0:0:
160,96,227301,1,0,0:0:0:0:
352,96,227437,1,8,0:0:0:0:
160,96,227574,1,0,0:0:0:0:
352,96,227710,1,8,0:0:0:0:
160,96,227846,1,0,0:0:0:0:
352,96,227983,1,8,0:0:0:0:
160,96,228119,1,0,0:0:0:0:
352,96,228255,1,8,0:0:0:0:
160,96,228392,1,0,0:0:0:0:
352,96,228528,1,8,0:0:0:0:
160,96,228664,1,0,0:0:0:0:
352,96,228801,1,8,0:0:0:0:
160,96,228937,1,0,0:0:0:0:
352,96,229074,1,8,0:0:0:0:
352,96,229210,1,8,0:0:0:0:
160,96,229346,1,0,0:0:0:0:
160,96,229483,1,0,0:0:0:0:
352,96,229619,1,8,0:0:0:0:
352,96,229755,1,8,0:0:0:0:
160,96,229892,1,0,0:0:0:0:
160,96,230028,1,0,0:0:0:0:
352,96,230164,1,8,0:0:0:0:
352,96,230301,1,8,0:0:0:0:
160,96,230437,1,0,0:0:0:0:
160,96,230574,1,0,0:0:0:0:
352,96,230710,1,8,0:0:0:0:
352,96,230846,1,8,0:0:0:0:
160,96,230983,1,0,0:0:0:0:
160,96,231119,1,0,0:0:0:0:
352,96,231255,1,8,0:0:0:0:
160,96,231392,1,0,0:0:0:0:
352,96,231528,1,8,0:0:0:0:
160,96,231664,1,0,0:0:0:0:
352,96,231801,1,8,0:0:0:0:
160,96,231937,1,0,0:0:0:0:
352,96,232074,1,8,0:0:0:0:
160,96,232210,1,0,0:0:0:0:
352,96,232346,1,8,0:0:0:0:
160,96,232483,1,0,0:0:0:0:
352,96,232619,1,8,0:0:0:0:
160,96,232755,1,0,0:0:0:0:
352,96,232892,1,8,0:0:0:0:
160,96,233028,1,0,0:0:0:0:
352,96,233164,1,8,0:0:0:0:
160,96,233301,1,0,0:0:0:0:
352,96,233437,1,8,0:0:0:0:
160,96,233505,1,0,0:0:0:0:
352,96,233574,1,8,0:0:0:0:
160,96,233710,1,0,0:0:0:0:
352,96,233846,1,8,0:0:0:0:
352,96,233983,1,8,0:0:0:0:
160,96,234119,1,0,0:0:0:0:
352,96,234255,1,8,0:0:0:0:
160,96,234392,1,0,0:0:0:0:
352,96,234528,1,8,0:0:0:0:
352,96,234596,1,8,0:0:0:0:
160,96,234664,1,0,0:0:0:0:
160,96,234733,1,0,0:0:0:0:
160,96,234801,1,0,0:0:0:0:
160,96,234869,1,0,0:0:0:0:
352,96,234937,1,8,0:0:0:0:
160,96,235005,1,0,0:0:0:0:
352,96,235074,1,8,0:0:0:0:
160,96,235210,1,0,0:0:0:0:
160,96,235278,1,0,0:0:0:0:
352,96,235346,1,8,0:0:0:0:
160,96,235414,1,0,0:0:0:0:
352,96,235483,1,8,0:0:0:0:
352,96,235551,1,8,0:0:0:0:
352,96,235619,1,8,0:0:0:0:
160,96,235687,1,0,0:0:0:0:
160,96,235755,1,0,0:0:0:0:
160,96,235824,1,0,0:0:0:0:
352,96,235892,1,8,0:0:0:0:
160,96,235960,1,0,0:0:0:0:
160,96,236028,1,0,0:0:0:0:
160,96,236096,1,0,0:0:0:0:
352,96,236164,1,8,0:0:0:0:
160,96,236233,1,0,0:0:0:0:
160,96,236301,1,0,0:0:0:0:
160,96,236369,1,0,0:0:0:0:
352,96,236437,1,8,0:0:0:0:
160,96,236505,1,0,0:0:0:0:
160,96,236574,1,0,0:0:0:0:
160,96,236642,1,0,0:0:0:0:
352,96,236710,1,8,0:0:0:0:
160,96,236778,1,0,0:0:0:0:
160,96,236846,1,0,0:0:0:0:
160,96,236914,1,0,0:0:0:0:
352,96,236983,1,8,0:0:0:0:
160,96,237051,1,0,0:0:0:0:
160,96,237119,1,0,0:0:0:0:
160,96,237187,1,0,0:0:0:0:
352,96,237255,1,8,0:0:0:0:
160,96,237324,1,0,0:0:0:0:
160,96,237392,1,0,0:0:0:0:
160,96,237460,1,0,0:0:0:0:
352,96,237528,1,8,0:0:0:0:
160,96,237596,1,0,0:0:0:0:
352,96,237664,1,8,0:0:0:0:
160,96,237733,1,0,0:0:0:0:
352,96,237801,1,8,0:0:0:0:
352,96,237869,1,8,0:0:0:0:
160,96,237937,1,0,0:0:0:0:
160,96,238005,1,0,0:0:0:0:
352,96,238074,1,8,0:0:0:0:
352,96,238142,1,8,0:0:0:0:
160,96,238210,1,0,0:0:0:0:
160,96,238278,1,0,0:0:0:0:
352,96,238346,1,8,0:0:0:0:
352,96,238414,1,8,0:0:0:0:
160,96,238483,1,0,0:0:0:0:
160,96,238551,1,0,0:0:0:0:
352,96,238619,1,8,0:0:0:0:
352,96,238687,1,8,0:0:0:0:
160,96,238755,1,0,0:0:0:0:
160,96,238824,1,0,0:0:0:0:
352,96,238892,1,8,0:0:0:0:
352,96,238960,1,8,0:0:0:0:
160,96,239028,1,0,0:0:0:0:
160,96,239096,1,0,0:0:0:0:
352,96,239164,1,8,0:0:0:0:
352,96,239233,1,8,0:0:0:0:
160,96,239301,1,0,0:0:0:0:
160,96,239369,1,0,0:0:0:0:
352,96,239437,1,8,0:0:0:0:
352,96,239505,1,8,0:0:0:0:
160,96,239574,1,0,0:0:0:0:
160,96,239642,1,0,0:0:0:0:
352,96,239710,1,8,0:0:0:0:
160,96,239778,1,0,0:0:0:0:
352,96,239846,1,8,0:0:0:0:
160,96,239914,1,0,0:0:0:0:
352,96,239983,1,8,0:0:0:0:
160,96,240051,1,0,0:0:0:0:
160,96,240119,1,0,0:0:0:0:
160,96,240187,1,0,0:0:0:0:
352,96,240255,1,8,0:0:0:0:
160,96,240324,1,0,0:0:0:0:
160,96,240392,1,0,0:0:0:0:
160,96,240460,1,0,0:0:0:0:
352,96,240528,1,8,0:0:0:0:
160,96,240596,1,0,0:0:0:0:
160,96,240664,1,0,0:0:0:0:
160,96,240733,1,0,0:0:0:0:
352,96,240801,1,8,0:0:0:0:
160,96,240869,1,0,0:0:0:0:
160,96,240937,1,0,0:0:0:0:
160,96,241005,1,0,0:0:0:0:
352,96,241074,1,8,0:0:0:0:
160,96,241142,1,0,0:0:0:0:
160,96,241210,1,0,0:0:0:0:
160,96,241278,1,0,0:0:0:0:
352,96,241346,1,8,0:0:0:0:
160,96,241414,1,0,0:0:0:0:
160,96,241483,1,0,0:0:0:0:
160,96,241551,1,0,0:0:0:0:
352,96,241619,1,8,0:0:0:0:
160,96,241687,1,0,0:0:0:0:
160,96,241755,1,0,0:0:0:0:
160,96,241824,1,0,0:0:0:0:
352,96,241892,1,8,0:0:0:0:
160,96,241960,1,0,0:0:0:0:
352,96,242028,1,8,0:0:0:0:
160,96,242096,1,0,0:0:0:0:
352,96,242164,1,8,0:0:0:0:
352,96,242233,1,8,0:0:0:0:
160,96,242301,1,0,0:0:0:0:
160,96,242369,1,0,0:0:0:0:
352,96,242437,1,8,0:0:0:0:
352,96,242505,1,8,0:0:0:0:
160,96,242574,1,0,0:0:0:0:
160,96,242642,1,0,0:0:0:0:
352,96,242710,1,8,0:0:0:0:
352,96,242778,1,8,0:0:0:0:
160,96,242846,1,0,0:0:0:0:
160,96,242914,1,0,0:0:0:0:
352,96,242983,1,8,0:0:0:0:
352,96,243051,1,8,0:0:0:0:
160,96,243119,1,0,0:0:0:0:
160,96,243187,1,0,0:0:0:0:
352,96,243255,1,8,0:0:0:0:
352,96,243392,1,8,0:0:0:0:
160,96,243460,1,0,0:0:0:0:
352,96,243528,1,8,0:0:0:0:
160,96,243596,1,0,0:0:0:0:
160,96,243664,1,0,0:0:0:0:
160,96,243733,1,0,0:0:0:0:
352,96,243801,1,8,0:0:0:0:
160,96,243869,1,0,0:0:0:0:
160,96,243937,1,0,0:0:0:0:
160,96,244005,1,0,0:0:0:0:
352,96,244074,1,8,0:0:0:0:
352,96,244142,1,8,0:0:0:0:
160,96,244210,1,0,0:0:0:0:
160,96,244278,1,0,0:0:0:0:
352,96,244346,1,8,0:0:0:0:
160,96,244437,1,0,0:0:0:0:
160,96,244528,1,0,0:0:0:0:
352,96,244619,1,8,0:0:0:0:
160,96,244710,1,0,0:0:0:0:
352,96,244801,1,8,0:0:0:0:
352,96,244892,1,8,0:0:0:0:
160,96,244983,1,0,0:0:0:0:
352,96,245074,1,8,0:0:0:0:
160,96,245164,1,0,0:0:0:0:
160,96,245255,1,0,0:0:0:0:
352,96,245346,1,8,0:0:0:0:
160,96,245437,1,0,0:0:0:0:
352,96,245528,1,8,0:0:0:0:
160,96,245619,1,0,0:0:0:0:
352,96,245710,1,8,0:0:0:0:
352,96,245801,1,8,0:0:0:0:
160,96,245892,1,0,0:0:0:0:
352,96,245983,1,8,0:0:0:0:
160,96,246074,1,0,0:0:0:0:
160,96,246164,1,0,0:0:0:0:
352,96,246255,1,8,0:0:0:0:
160,96,246346,1,0,0:0:0:0:
352,96,246437,1,8,0:0:0:0:
352,96,246528,1,8,0:0:0:0:
160,96,246619,1,0,0:0:0:0:
352,96,246710,1,8,0:0:0:0:
160,96,246801,1,0,0:0:0:0:
160,96,246892,1,0,0:0:0:0:
352,96,246983,1,8,0:0:0:0:
352,96,247074,1,8,0:0:0:0:
160,96,247164,1,0,0:0:0:0:
352,96,247255,1,8,0:0:0:0:
160,96,247346,1,0,0:0:0:0:
160,96,247437,1,0,0:0:0:0:
160,96,247528,1,0,0:0:0:0:
352,96,247619,1,8,0:0:0:0:
352,96,247710,1,8,0:0:0:0:
160,96,247801,1,0,0:0:0:0:
352,96,247892,1,8,0:0:0:0:
352,96,247983,1,8,0:0:0:0:
160,96,248074,1,0,0:0:0:0:
352,96,248164,1,8,0:0:0:0:
160,96,248255,1,0,0:0:0:0:
352,96,248346,1,8,0:0:0:0:
160,96,248437,1,0,0:0:0:0:
160,96,248528,1,0,0:0:0:0:
352,96,248619,1,8,0:0:0:0:
352,96,248710,1,8,0:0:0:0:
160,96,248846,1,0,0:0:0:0:
160,96,248914,1,0,0:0:0:0:
352,96,248983,1,8,0:0:0:0:
352,96,249255,1,8,0:0:0:0:
352,96,249346,1,8,0:0:0:0:
352,96,249392,1,8,0:0:0:0:
352,96,249437,1,0,0:0:0:0:
160,96,249528,1,8,0:0:0:0:
352,96,249619,1,8,0:0:0:0:
160,96,249710,1,0,0:0:0:0:
352,96,249801,1,8,0:0:0:0:
160,96,249869,1,0,0:0:0:0:
352,96,249937,1,8,0:0:0:0:
160,96,250005,1,0,0:0:0:0:
160,96,250074,1,0,0:0:0:0:
160,96,250142,1,0,0:0:0:0:
352,96,250210,1,8,0:0:0:0:
352,96,250278,1,8,0:0:0:0:
352,96,250346,1,8,0:0:0:0:
352,96,250414,1,8,0:0:0:0:
160,96,250483,1,0,0:0:0:0:
352,96,250619,1,8,0:0:0:0:
352,96,250755,1,8,0:0:0:0:
160,96,250892,1,0,0:0:0:0:
160,96,250960,1,0,0:0:0:0:
352,96,251028,1,8,0:0:0:0:
352,96,251164,1,8,0:0:0:0:
160,96,251233,1,0,0:0:0:0:
352,96,251301,1,8,0:0:0:0:
352,96,251369,1,8,0:0:0:0:
160,96,251437,1,0,0:0:0:0:
352,96,251505,1,8,0:0:0:0:
160,96,251574,1,0,0:0:0:0:
160,96,251642,1,0,0:0:0:0:
352,96,251710,1,8,0:0:0:0:
352,96,251801,1,8,0:0:0:0:
160,96,251892,1,0,0:0:0:0:
352,96,251983,1,8,0:0:0:0:
352,96,252051,1,8,0:0:0:0:
160,96,252119,1,0,0:0:0:0:
160,96,252187,1,0,0:0:0:0:
352,96,252255,1,8,0:0:0:0:
160,96,252324,1,0,0:0:0:0:
160,96,252392,1,0,0:0:0:0:
160,96,252460,1,0,0:0:0:0:
352,96,252528,1,8,0:0:0:0:
352,96,252664,1,8,0:0:0:0:
160,96,252801,1,0,0:0:0:0:
160,96,252869,1,0,0:0:0:0:
352,96,252937,1,8,0:0:0:0:
352,96,253005,1,8,0:0:0:0:
160,288,253074,1,4,0:0:0:0:
352,96,253210,1,8,0:0:0:0:
160,96,253346,1,0,0:0:0:0:
160,96,253414,1,0,0:0:0:0:
160,96,253483,1,0,0:0:0:0:
160,96,253551,1,0,0:0:0:0:
352,96,253619,1,8,0:0:0:0:
160,96,253755,1,0,0:0:0:0:
352,96,253892,1,8,0:0:0:0:
160,96,253960,1,0,0:0:0:0:
352,96,254028,1,8,0:0:0:0:
352,96,254096,1,8,0:0:0:0:
160,96,254164,1,0,0:0:0:0:
352,96,254301,1,8,0:0:0:0:
160,96,254437,1,0,0:0:0:0:
160,96,254505,1,0,0:0:0:0:
160,96,254574,1,0,0:0:0:0:
160,96,254642,1,0,0:0:0:0:
352,96,254710,1,8,0:0:0:0:
352,96,254846,1,8,0:0:0:0:
160,96,254983,1,0,0:0:0:0:
352,96,255051,1,8,0:0:0:0:
160,96,255119,1,0,0:0:0:0:
160,96,255187,1,0,0:0:0:0:
352,96,255255,1,8,0:0:0:0:
160,96,255324,1,0,0:0:0:0:
160,96,255392,1,0,0:0:0:0:
160,96,255460,1,0,0:0:0:0:
352,96,255528,1,8,0:0:0:0:
352,96,255596,1,8,0:0:0:0:
160,96,255664,1,0,0:0:0:0:
160,96,255733,1,0,0:0:0:0:
352,96,255801,1,8,0:0:0:0:
352,96,255937,1,8,0:0:0:0:
160,96,256005,1,0,0:0:0:0:
352,96,256074,1,8,0:0:0:0:
352,96,256142,1,8,0:0:0:0:
160,96,256210,1,0,0:0:0:0:
160,96,256278,1,0,0:0:0:0:
352,96,256346,1,8,0:0:0:0:
160,96,256483,1,0,0:0:0:0:
352,96,256551,1,8,0:0:0:0:
160,96,256619,1,0,0:0:0:0:
160,96,256687,1,0,0:0:0:0:
352,96,256755,1,8,0:0:0:0:
160,96,256824,1,0,0:0:0:0:
352,96,256892,1,8,0:0:0:0:
352,96,256960,1,8,0:0:0:0:
160,96,257028,1,0,0:0:0:0:
160,96,257096,1,0,0:0:0:0:
352,96,257164,1,8,0:0:0:0:
352,96,257301,1,8,0:0:0:0:
160,96,257437,1,0,0:0:0:0:
352,96,257528,1,8,0:0:0:0:
352,96,257619,1,0,0:0:0:0:
160,96,257710,1,0,0:0:0:0:
352,96,257801,1,8,0:0:0:0:
352,96,257892,1,0,0:0:0:0:
160,96,257983,1,8,0:0:0:0:
352,96,258074,1,8,0:0:0:0:
160,96,258164,1,0,0:0:0:0:
160,96,258255,1,8,0:0:0:0:
160,96,258346,1,8,0:0:0:0:
352,96,258437,1,0,0:0:0:0:
352,96,258528,1,8,0:0:0:0:
352,96,258619,1,0,0:0:0:0:
352,96,258710,1,0,0:0:0:0:
160,96,258801,1,8,0:0:0:0:
352,96,258892,1,8,0:0:0:0:
352,96,258983,1,8,0:0:0:0:
160,96,259074,1,0,0:0:0:0:
352,96,259164,1,8,0:0:0:0:
160,96,259255,1,0,0:0:0:0:
352,96,259346,1,8,0:0:0:0:
352,96,259437,1,8,0:0:0:0:
160,96,259528,1,0,0:0:0:0:
352,96,259619,1,8,0:0:0:0:
160,96,259687,1,0,0:0:0:0:
160,96,259755,1,0,0:0:0:0:
160,96,259824,1,0,0:0:0:0:
352,96,259892,1,8,0:0:0:0:
352,96,259960,1,8,0:0:0:0:
160,96,260028,1,0,0:0:0:0:
160,96,260096,1,0,0:0:0:0:
352,96,260164,1,8,0:0:0:0:
160,96,260233,1,0,0:0:0:0:
352,96,260301,1,8,0:0:0:0:
352,96,260369,1,8,0:0:0:0:
160,96,260437,1,0,0:0:0:0:
352,96,260505,1,8,0:0:0:0:
160,96,260574,1,0,0:0:0:0:
160,96,260642,1,0,0:0:0:0:
352,96,260710,1,8,0:0:0:0:
352,96,260778,1,8,0:0:0:0:
160,96,260846,1,0,0:0:0:0:
160,96,260914,1,0,0:0:0:0:
352,96,260983,1,8,0:0:0:0:
160,96,261051,1,0,0:0:0:0:
160,96,261119,1,0,0:0:0:0:
352,96,261187,1,8,0:0:0:0:
352,96,261255,1,8,0:0:0:0:
160,96,261324,1,0,0:0:0:0:
160,96,261392,1,0,0:0:0:0:
352,96,261460,1,8,0:0:0:0:
160,96,261528,1,0,0:0:0:0:
352,96,261596,1,8,0:0:0:0:
160,96,261664,1,0,0:0:0:0:
352,288,261801,1,12,0:0:0:0:
256,192,261937,12,0,264119,0:0:0:0:
160,288,266164,5,4,0:0:0:0:
352,288,267255,1,12,0:0:0:0:
352,288,267664,1,12,0:0:0:0:
352,288,268074,1,12,0:0:0:0:
160,288,268346,1,4,0:0:0:0:
352,288,269437,1,12,0:0:0:0:
352,288,269846,1,12,0:0:0:0:
352,288,270255,1,12,0:0:0:0:
160,288,270528,1,4,0:0:0:0:
352,288,271619,1,12,0:0:0:0:
352,288,272028,1,12,0:0:0:0:
352,288,272437,1,12,0:0:0:0:
160,96,272710,1,0,0:0:0:0:
352,96,272846,1,8,0:0:0:0:
160,96,272983,1,0,0:0:0:0:
160,96,273051,1,0,0:0:0:0:
352,96,273119,1,8,0:0:0:0:
352,96,273187,1,8,0:0:0:0:
160,96,273255,1,0,0:0:0:0:
160,96,273324,1,0,0:0:0:0:
352,96,273392,1,8,0:0:0:0:
160,96,273460,1,0,0:0:0:0:
352,96,273528,1,8,0:0:0:0:
352,96,273596,1,8,0:0:0:0:
160,96,273664,1,0,0:0:0:0:
160,96,273733,1,0,0:0:0:0:
352,96,273801,1,8,0:0:0:0:
160,96,273869,1,0,0:0:0:0:
160,96,273937,1,0,0:0:0:0:
160,96,274005,1,0,0:0:0:0:
352,96,274074,1,8,0:0:0:0:
352,96,274142,1,8,0:0:0:0:
160,96,274210,1,0,0:0:0:0:
160,96,274278,1,0,0:0:0:0:
352,96,274346,1,8,0:0:0:0:
352,96,274414,1,8,0:0:0:0:
160,96,274483,1,0,0:0:0:0:
160,96,274551,1,0,0:0:0:0:
352,96,274619,1,8,0:0:0:0:
352,96,274755,1,8,0:0:0:0:
160,288,274892,1,4,0:0:0:0:
160,96,275028,1,0,0:0:0:0:
160,96,275096,1,0,0:0:0:0:
352,96,275164,1,8,0:0:0:0:
352,96,275233,1,8,0:0:0:0:
352,96,275301,1,8,0:0:0:0:
352,96,275369,1,8,0:0:0:0:
160,96,275437,1,0,0:0:0:0:
160,96,275505,1,0,0:0:0:0:
160,96,275574,1,0,0:0:0:0:
160,96,275642,1,0,0:0:0:0:
352,96,275710,1,8,0:0:0:0:
352,96,275778,1,8,0:0:0:0:
352,96,275846,1,8,0:0:0:0:
352,96,275914,1,8,0:0:0:0:
160,96,275983,1,0,0:0:0:0:
160,96,276051,1,0,0:0:0:0:
160,96,276119,1,0,0:0:0:0:
160,96,276187,1,0,0:0:0:0:
352,96,276255,1,8,0:0:0:0:
352,96,276324,1,8,0:0:0:0:
352,96,276392,1,8,0:0:0:0:
352,96,276460,1,8,0:0:0:0:
160,96,276528,1,0,0:0:0:0:
160,96,276596,1,0,0:0:0:0:
160,96,276664,1,0,0:0:0:0:
160,96,276733,1,0,0:0:0:0:
352,96,276801,1,8,0:0:0:0:
352,96,276869,1,8,0:0:0:0:
352,96,276937,1,8,0:0:0:0:
352,96,277005,1,8,0:0:0:0:
160,96,277074,1,0,0:0:0:0:
160,96,277142,1,0,0:0:0:0:
160,96,277210,1,0,0:0:0:0:
160,96,277278,1,0,0:0:0:0:
352,96,277346,1,8,0:0:0:0:
352,96,277414,1,8,0:0:0:0:
352,96,277483,1,8,0:0:0:0:
352,96,277551,1,8,0:0:0:0:
160,96,277619,1,0,0:0:0:0:
160,96,277687,1,0,0:0:0:0:
160,96,277755,1,0,0:0:0:0:
160,96,277824,1,0,0:0:0:0:
352,96,277892,1,8,0:0:0:0:
352,96,277960,1,8,0:0:0:0:
352,96,278028,1,8,0:0:0:0:
352,96,278096,1,8,0:0:0:0:
160,96,278164,1,0,0:0:0:0:
160,96,278233,1,0,0:0:0:0:
160,96,278301,1,0,0:0:0:0:
160,96,278369,1,0,0:0:0:0:
160,96,278437,1,0,0:0:0:0:
160,96,278505,1,0,0:0:0:0:
160,96,278574,1,0,0:0:0:0:
160,96,278642,1,0,0:0:0:0:
352,96,278710,1,8,0:0:0:0:
352,96,278778,1,8,0:0:0:0:
352,96,278846,1,8,0:0:0:0:
352,96,278914,1,8,0:0:0:0:
352,96,278983,1,8,0:0:0:0:
352,96,279051,1,8,0:0:0:0:
352,96,279119,1,8,0:0:0:0:
352,96,279187,1,8,0:0:0:0:
160,96,279255,1,0,0:0:0:0:
160,96,279324,1,0,0:0:0:0:
160,96,279392,1,0,0:0:0:0:
160,96,279460,1,0,0:0:0:0:
352,96,279528,1,8,0:0:0:0:
352,96,279596,1,8,0:0:0:0:
352,96,279664,1,8,0:0:0:0:
352,96,279733,1,8,0:0:0:0:
160,96,279801,1,0,0:0:0:0:
160,96,279869,1,0,0:0:0:0:
160,96,279937,1,0,0:0:0:0:
160,96,280005,1,0,0:0:0:0:
352,96,280074,1,8,0:0:0:0:
352,96,280142,1,8,0:0:0:0:
352,96,280210,1,8,0:0:0:0:
352,96,280278,1,8,0:0:0:0:
160,96,280346,1,0,0:0:0:0:
160,96,280414,1,0,0:0:0:0:
160,96,280483,1,0,0:0:0:0:
160,96,280551,1,0,0:0:0:0:
352,96,280619,1,8,0:0:0:0:
352,96,280687,1,8,0:0:0:0:
352,96,280755,1,8,0:0:0:0:
352,96,280824,1,8,0:0:0:0:
160,96,280892,1,0,0:0:0:0:
160,96,280960,1,0,0:0:0:0:
160,96,281028,1,0,0:0:0:0:
160,96,281096,1,0,0:0:0:0:
352,96,281164,1,8,0:0:0:0:
352,96,281233,1,8,0:0:0:0:
352,96,281301,1,8,0:0:0:0:
352,96,281369,1,8,0:0:0:0:
352,96,281437,1,8,0:0:0:0:
352,96,281505,1,8,0:0:0:0:
160,96,281574,1,0,0:0:0:0:
160,96,281642,1,0,0:0:0:0:
352,96,281710,1,8,0:0:0:0:
352,96,281778,1,8,0:0:0:0:
352,96,281846,1,8,0:0:0:0:
352,96,281914,1,8,0:0:0:0:
160,96,281983,1,0,0:0:0:0:
160,96,282051,1,0,0:0:0:0:
160,96,282119,1,0,0:0:0:0:
160,96,282187,1,0,0:0:0:0:
352,96,282255,1,8,0:0:0:0:
352,96,282324,1,8,0:0:0:0:
160,96,282392,1,0,0:0:0:0:
160,96,282460,1,0,0:0:0:0:
352,96,282528,1,8,0:0:0:0:
352,96,282596,1,8,0:0:0:0:
160,96,282664,1,0,0:0:0:0:
160,96,282733,1,0,0:0:0:0:
160,96,282801,1,0,0:0:0:0:
160,96,282869,1,0,0:0:0:0:
160,96,282937,1,0,0:0:0:0:
160,96,283005,1,0,0:0:0:0:
352,96,283074,1,8,0:0:0:0:
352,96,283210,1,8,0:0:0:0:
352,96,283346,1,8,0:0:0:0:
352,96,283414,1,8,0:0:0:0:
160,96,283483,1,0,0:0:0:0:
160,96,283551,1,0,0:0:0:0:
352,96,283619,1,8,0:0:0:0:
160,96,283755,1,0,0:0:0:0:
160,96,283823,1,0,0:0:0:0:
352,96,283891,1,8,0:0:0:0:
352,96,283960,1,8,0:0:0:0:
352,96,284028,1,8,0:0:0:0:
352,96,284096,1,8,0:0:0:0:
160,96,284164,1,0,0:0:0:0:
160,96,284232,1,0,0:0:0:0:
160,96,284301,1,0,0:0:0:0:
160,96,284369,1,0,0:0:0:0:
352,96,284437,1,8,0:0:0:0:
352,96,284505,1,8,0:0:0:0:
352,96,284573,1,8,0:0:0:0:
352,96,284641,1,8,0:0:0:0:
160,96,284710,1,0,0:0:0:0:
160,96,284778,1,0,0:0:0:0:
160,96,284846,1,0,0:0:0:0:
160,96,284914,1,0,0:0:0:0:
352,96,284982,1,8,0:0:0:0:
352,96,285051,1,8,0:0:0:0:
352,96,285119,1,8,0:0:0:0:
352,96,285187,1,8,0:0:0:0:
160,96,285255,1,0,0:0:0:0:
160,96,285323,1,0,0:0:0:0:
160,96,285391,1,0,0:0:0:0:
160,96,285460,1,0,0:0:0:0:
352,96,285528,1,8,0:0:0:0:
352,96,285596,1,8,0:0:0:0:
352,96,285664,1,8,0:0:0:0:
352,96,285732,1,8,0:0:0:0:
160,96,285801,1,0,0:0:0:0:
160,96,285869,1,0,0:0:0:0:
160,96,285937,1,0,0:0:0:0:
160,96,286005,1,0,0:0:0:0:
352,96,286073,1,8,0:0:0:0:
352,96,286141,1,8,0:0:0:0:
352,96,286210,1,8,0:0:0:0:
352,96,286278,1,8,0:0:0:0:
160,96,286346,1,0,0:0:0:0:
160,96,286414,1,0,0:0:0:0:
160,96,286482,1,0,0:0:0:0:
160,96,286551,1,0,0:0:0:0:
352,96,286619,1,8,0:0:0:0:
352,96,286687,1,8,0:0:0:0:
352,96,286755,1,8,0:0:0:0:
352,96,286823,1,8,0:0:0:0:
160,96,286891,1,0,0:0:0:0:
160,96,286960,1,0,0:0:0:0:
160,96,287028,1,0,0:0:0:0:
160,96,287096,1,0,0:0:0:0:
160,96,287164,1,0,0:0:0:0:
160,96,287232,1,0,0:0:0:0:
160,96,287301,1,0,0:0:0:0:
160,96,287369,1,0,0:0:0:0:
352,96,287437,1,8,0:0:0:0:
352,96,287505,1,8,0:0:0:0:
352,96,287573,1,8,0:0:0:0:
352,96,287641,1,8,0:0:0:0:
352,96,287710,1,8,0:0:0:0:
352,96,287778,1,8,0:0:0:0:
352,96,287846,1,8,0:0:0:0:
352,96,287914,1,8,0:0:0:0:
160,96,287982,1,0,0:0:0:0:
160,96,288051,1,0,0:0:0:0:
160,96,288119,1,0,0:0:0:0:
160,96,288187,1,0,0:0:0:0:
352,96,288255,1,8,0:0:0:0:
352,96,288323,1,8,0:0:0:0:
352,96,288391,1,8,0:0:0:0:
352,96,288460,1,8,0:0:0:0:
160,96,288528,1,0,0:0:0:0:
160,96,288596,1,0,0:0:0:0:
160,96,288664,1,0,0:0:0:0:
160,96,288732,1,0,0:0:0:0:
352,96,288801,1,8,0:0:0:0:
352,96,288869,1,8,0:0:0:0:
352,96,288937,1,8,0:0:0:0:
352,96,289005,1,8,0:0:0:0:
160,96,289073,1,0,0:0:0:0:
160,96,289141,1,0,0:0:0:0:
160,96,289210,1,0,0:0:0:0:
160,96,289278,1,0,0:0:0:0:
352,96,289346,1,8,0:0:0:0:
352,96,289414,1,8,0:0:0:0:
352,96,289482,1,8,0:0:0:0:
352,96,289551,1,8,0:0:0:0:
160,96,289619,1,0,0:0:0:0:
160,96,289687,1,0,0:0:0:0:
160,96,289755,1,0,0:0:0:0:
160,96,289823,1,0,0:0:0:0:
352,96,289891,1,8,0:0:0:0:
352,96,289960,1,8,0:0:0:0:
160,96,290028,1,0,0:0:0:0:
160,96,290096,1,0,0:0:0:0:
352,288,290164,1,12,0:0:0:0:
160,96,290437,1,0,0:0:0:0:
352,288,290710,1,12,0:0:0:0:
160,96,290983,1,0,0:0:0:0:
352,288,291255,1,12,0:0:0:0:
160,96,291528,1,0,0:0:0:0:
160,96,291664,1,0,0:0:0:0:
352,96,291801,1,8,0:0:0:0:
352,96,291824,1,8,0:0:0:0:
160,288,292346,1,4,0:0:0:0:
160,96,293164,1,0,0:0:0:0:
352,288,293437,1,12,0:0:0:0:
352,96,294255,1,8,0:0:0:0:
352,96,294392,1,8,0:0:0:0:
160,288,294528,1,4,0:0:0:0:
352,96,294937,1,8,0:0:0:0:
160,288,295074,1,4,0:0:0:0:
352,96,295346,1,8,0:0:0:0:
160,288,295619,1,4,0:0:0:0:
352,96,295755,1,8,0:0:0:0:
352,96,295824,1,8,0:0:0:0:
352,96,295892,1,8,0:0:0:0:
352,96,296028,1,8,0:0:0:0:
160,96,296164,1,0,0:0:0:0:
160,96,296301,1,0,0:0:0:0:
160,96,296437,1,0,0:0:0:0:
160,96,296574,1,0,0:0:0:0:
352,288,296710,1,12,0:0:0:0:
352,96,296983,1,8,0:0:0:0:
160,96,297119,1,0,0:0:0:0:
160,96,297392,1,0,0:0:0:0:
352,96,297528,1,8,0:0:0:0:
160,96,297801,1,0,0:0:0:0:
352,96,298074,1,8,0:0:0:0:
160,96,298346,1,0,0:0:0:0:
160,96,298483,1,0,0:0:0:0:
352,96,298619,1,8,0:0:0:0:
160,96,298892,1,0,0:0:0:0:
352,96,299164,1,8,0:0:0:0:
160,96,299301,1,0,0:0:0:0:
160,96,299574,1,0,0:0:0:0:
352,96,299710,1,8,0:0:0:0:
160,96,299846,1,0,0:0:0:0:
160,96,299983,1,0,0:0:0:0:
352,96,300255,1,8,0:0:0:0:
160,96,300528,1,0,0:0:0:0:
160,96,300664,1,0,0:0:0:0:
352,96,300801,1,8,0:0:0:0:
160,96,300937,1,0,0:0:0:0:
160,96,301005,1,0,0:0:0:0:
352,96,301074,1,8,0:0:0:0:
160,96,301210,1,0,0:0:0:0:
352,96,301346,1,8,0:0:0:0:
160,96,301483,1,0,0:0:0:0:
352,96,301619,1,8,0:0:0:0:
160,96,301755,1,0,0:0:0:0:
352,96,301892,1,8,0:0:0:0:
160,96,302028,1,0,0:0:0:0:
352,96,302164,1,8,0:0:0:0:
352,96,302301,1,8,0:0:0:0:
160,96,302437,1,0,0:0:0:0:
160,96,302574,1,0,0:0:0:0:
352,96,302710,1,8,0:0:0:0:
160,96,302846,1,0,0:0:0:0:
352,96,302983,1,8,0:0:0:0:
160,96,303119,1,0,0:0:0:0:
352,96,303255,1,8,0:0:0:0:
352,96,303392,1,8,0:0:0:0:
160,96,303528,1,0,0:0:0:0:
352,96,303664,1,8,0:0:0:0:
160,96,303801,1,0,0:0:0:0:
160,96,303937,1,0,0:0:0:0:
352,96,304074,1,8,0:0:0:0:
160,96,304210,1,0,0:0:0:0:
352,96,304346,1,8,0:0:0:0:
352,96,304483,1,8,0:0:0:0:
160,96,304619,1,0,0:0:0:0:
160,96,304755,1,0,0:0:0:0:
352,96,304892,1,8,0:0:0:0:
160,96,305028,1,0,0:0:0:0:
352,96,305164,1,8,0:0:0:0:
352,96,305301,1,8,0:0:0:0:
160,96,305437,1,4,0:0:0:0:
352,96,305574,1,8,0:0:0:0:
160,96,305642,1,0,0:0:0:0:
352,96,305710,1,8,0:0:0:0:
352,96,305778,1,8,0:0:0:0:
160,96,305846,1,0,0:0:0:0:
160,96,305914,1,0,0:0:0:0:
160,96,305983,1,0,0:0:0:0:
160,96,306119,1,0,0:0:0:0:
160,96,306187,1,0,0:0:0:0:
352,96,306255,1,8,0:0:0:0:
160,96,306324,1,0,0:0:0:0:
160,96,306392,1,0,0:0:0:0:
160,96,306460,1,0,0:0:0:0:
352,96,306528,1,8,0:0:0:0:
160,96,306596,1,0,0:0:0:0:
352,96,306664,1,8,0:0:0:0:
352,96,306733,1,8,0:0:0:0:
160,96,306801,1,0,0:0:0:0:
160,96,306869,1,0,0:0:0:0:
352,96,306937,1,8,0:0:0:0:
352,96,307005,1,8,0:0:0:0:
160,96,307074,1,0,0:0:0:0:
160,96,307142,1,0,0:0:0:0:
160,96,307210,1,0,0:0:0:0:
160,96,307278,1,0,0:0:0:0:
352,96,307346,1,8,0:0:0:0:
352,96,307414,1,8,0:0:0:0:
160,96,307483,1,0,0:0:0:0:
160,96,307551,1,0,0:0:0:0:
352,96,307619,1,8,0:0:0:0:
352,96,309801,1,8,0:0:0:0:
352,96,309869,1,8,0:0:0:0:
160,96,309937,1,0,0:0:0:0:
160,96,310074,1,0,0:0:0:0:
352,96,310210,1,8,0:0:0:0:
352,96,310278,1,8,0:0:0:0:
160,96,310346,1,0,0:0:0:0:
160,96,310483,1,0,0:0:0:0:
352,96,310619,1,8,0:0:0:0:
352,96,310687,1,8,0:0:0:0:
160,96,310755,1,0,0:0:0:0:
160,96,310892,1,0,0:0:0:0:
352,96,311028,1,8,0:0:0:0:
352,96,311096,1,8,0:0:0:0:
160,96,311164,1,0,0:0:0:0:
160,96,311301,1,0,0:0:0:0:
352,96,311437,1,8,0:0:0:0:
160,96,311505,1,0,0:0:0:0:
160,96,311574,1,0,0:0:0:0:
160,96,311642,1,0,0:0:0:0:
352,96,311710,1,8,0:0:0:0:
352,96,311801,1,8,0:0:0:0:
308,118,311892,1,0,0:0:0:0:
160,96,311983,1,8,0:0:0:0:
352,96,312074,1,0,0:0:0:0:
352,96,312164,1,8,0:0:0:0:
160,96,312255,1,8,0:0:0:0:
352,96,312346,1,0,0:0:0:0:
160,96,312437,1,8,0:0:0:0:
352,96,312528,1,8,0:0:0:0:
352,96,312619,1,0,0:0:0:0:
160,96,312710,1,0,0:0:0:0:
352,96,312801,1,8,0:0:0:0:
352,96,312892,1,0,0:0:0:0:
160,96,312983,1,8,0:0:0:0:
352,96,313074,1,8,0:0:0:0:
256,215,313164,1,0,0:0:0:0:
160,96,313255,1,0,0:0:0:0:
352,96,313346,1,8,0:0:0:0:
160,96,313437,1,0,0:0:0:0:
352,96,313528,1,0,0:0:0:0:
352,96,313619,1,8,0:0:0:0:
160,96,313687,1,0,0:0:0:0:
352,96,313755,1,8,0:0:0:0:
352,96,313892,1,8,0:0:0:0:
160,96,314028,1,0,0:0:0:0:
352,288,314164,1,12,0:0:0:0:
160,96,314301,1,0,0:0:0:0:
352,96,314437,1,8,0:0:0:0:
160,96,314574,1,0,0:0:0:0:
352,96,314710,1,8,0:0:0:0:
352,96,314778,1,8,0:0:0:0:
160,96,314846,1,0,0:0:0:0:
160,96,314914,1,0,0:0:0:0:
352,96,314983,1,8,0:0:0:0:
352,96,315119,1,8,0:0:0:0:
160,96,315255,1,0,0:0:0:0:
160,96,315392,1,0,0:0:0:0:
352,96,315528,1,8,0:0:0:0:
160,96,315664,1,0,0:0:0:0:
352,96,315801,1,8,0:0:0:0:
160,96,315869,1,0,0:0:0:0:
352,96,315937,1,8,0:0:0:0:
352,96,316005,1,8,0:0:0:0:
160,96,316074,1,0,0:0:0:0:
352,96,316142,1,8,0:0:0:0:
160,96,316210,1,0,0:0:0:0:
160,96,316278,1,0,0:0:0:0:
352,96,316346,1,8,0:0:0:0:
160,96,316483,1,0,0:0:0:0:
352,96,316619,1,8,0:0:0:0:
352,96,316755,1,8,0:0:0:0:
160,96,316892,1,0,0:0:0:0:
352,96,317028,1,8,0:0:0:0:
160,96,317096,1,0,0:0:0:0:
352,96,317164,1,8,0:0:0:0:
352,96,317233,1,8,0:0:0:0:
160,96,317301,1,0,0:0:0:0:
352,96,317437,1,8,0:0:0:0:
160,96,317574,1,0,0:0:0:0:
352,96,317710,1,8,0:0:0:0:
352,96,317846,1,8,0:0:0:0:
160,96,317983,1,0,0:0:0:0:
160,96,318051,1,0,0:0:0:0:
352,96,318119,1,8,0:0:0:0:
352,288,318255,1,12,0:0:0:0:
160,96,318392,1,0,0:0:0:0:
352,96,318528,1,8,0:0:0:0:
160,96,318619,1,0,0:0:0:0:
352,96,318710,1,8,0:0:0:0:
352,96,318801,1,8,0:0:0:0:
160,96,318892,1,0,0:0:0:0:
352,96,318983,1,8,0:0:0:0:
352,96,319074,1,8,0:0:0:0:
160,96,319164,1,0,0:0:0:0:
160,96,319255,1,0,0:0:0:0:
352,96,319346,1,8,0:0:0:0:
160,96,319437,1,0,0:0:0:0:
160,96,319528,1,0,0:0:0:0:
352,96,319619,1,8,0:0:0:0:
160,96,319710,1,8,0:0:0:0:
352,96,319801,1,0,0:0:0:0:
352,96,319892,1,8,0:0:0:0:
160,96,319983,1,0,0:0:0:0:
352,96,320074,1,8,0:0:0:0:
160,96,320164,1,8,0:0:0:0:
160,96,320255,1,0,0:0:0:0:
352,96,320346,1,0,0:0:0:0:
352,96,320437,1,8,0:0:0:0:
160,96,320528,1,0,0:0:0:0:
160,96,320619,1,8,0:0:0:0:
352,96,320710,1,8,0:0:0:0:
160,96,320801,1,0,0:0:0:0:
160,96,320892,1,0,0:0:0:0:
352,96,320983,1,8,0:0:0:0:
160,96,321074,1,0,0:0:0:0:
352,96,321165,1,8,0:0:0:0:
352,96,321256,1,8,0:0:0:0:
160,96,321347,1,0,0:0:0:0:
352,96,321438,1,8,0:0:0:0:
352,96,321528,1,8,0:0:0:0:
160,96,321619,1,0,0:0:0:0:
352,96,321710,1,8,0:0:0:0:
160,96,321755,1,0,0:0:0:0:
352,96,321801,1,8,0:0:0:0:
160,96,321892,1,0,0:0:0:0:
160,96,321983,1,0,0:0:0:0:
352,96,322074,1,8,0:0:0:0:
352,96,322164,1,8,0:0:0:0:
160,96,322255,1,0,0:0:0:0:
352,96,322346,1,8,0:0:0:0:
160,96,322437,1,0,0:0:0:0:
160,96,322528,1,0,0:0:0:0:
352,96,322619,1,8,0:0:0:0:
352,96,322710,1,8,0:0:0:0:
160,96,322801,1,0,0:0:0:0:
352,96,322892,1,12,0:0:0:0:
352,96,323301,1,8,0:0:0:0:
160,96,323437,1,0,0:0:0:0:
160,96,323574,1,0,0:0:0:0:
352,96,323710,1,8,0:0:0:0:
160,96,323846,1,0,0:0:0:0:
352,96,323983,1,8,0:0:0:0:
352,96,324051,1,8,0:0:0:0:
352,96,324119,1,8,0:0:0:0:
352,96,324187,1,8,0:0:0:0:
160,96,324255,1,0,0:0:0:0:
352,96,324392,1,8,0:0:0:0:
160,96,324528,1,0,0:0:0:0:
160,96,324596,1,0,0:0:0:0:
352,96,324664,1,8,0:0:0:0:
352,96,324733,1,8,0:0:0:0:
160,96,324801,1,0,0:0:0:0:
352,96,324937,1,8,0:0:0:0:
160,288,325074,1,4,0:0:0:0:
160,96,325210,1,0,0:0:0:0:
160,96,325278,1,0,0:0:0:0:
352,96,325346,1,8,0:0:0:0:
160,96,325483,1,0,0:0:0:0:
160,96,325551,1,8,0:0:0:0:
160,96,325619,1,0,0:0:0:0:
352,96,325755,1,8,0:0:0:0:
288,160,325824,1,8,0:0:0:0:
160,96,325892,1,0,0:0:0:0:
160,96,326028,1,0,0:0:0:0:
352,288,326164,1,12,0:0:0:0:
352,96,326301,1,8,0:0:0:0:
160,96,326369,1,0,0:0:0:0:
352,96,326437,1,8,0:0:0:0:
160,96,326505,1,0,0:0:0:0:
160,96,326574,1,0,0:0:0:0:
160,96,326642,1,0,0:0:0:0:
352,96,326710,1,8,0:0:0:0:
352,96,326778,1,8,0:0:0:0:
160,96,326846,1,0,0:0:0:0:
160,96,326914,1,0,0:0:0:0:
160,96,326983,1,0,0:0:0:0:
160,96,327051,1,0,0:0:0:0:
160,96,327119,1,0,0:0:0:0:
160,96,327187,1,0,0:0:0:0:
352,288,327255,1,12,0:0:0:0:
160,96,327392,1,0,0:0:0:0:
352,96,327528,1,8,0:0:0:0:
352,96,327596,1,8,0:0:0:0:
160,96,327664,1,0,0:0:0:0:
352,288,327801,1,12,0:0:0:0:
160,96,327937,1,0,0:0:0:0:
160,96,328005,1,8,0:0:0:0:
352,96,328142,1,8,0:0:0:0:
160,96,328210,1,0,0:0:0:0:
352,288,328346,1,12,0:0:0:0:
160,96,328483,1,0,0:0:0:0:
352,96,328619,1,8,0:0:0:0:
160,96,328687,1,0,0:0:0:0:
160,96,328755,1,0,0:0:0:0:
352,96,328892,1,8,0:0:0:0:
160,96,329028,1,0,0:0:0:0:
160,96,329096,1,0,0:0:0:0:
352,96,329164,1,8,0:0:0:0:
352,96,329301,1,8,0:0:0:0:
160,288,329437,1,4,0:0:0:0:
352,96,329574,1,8,0:0:0:0:
160,96,329642,1,0,0:0:0:0:
352,96,329710,1,8,0:0:0:0:
160,96,329846,1,0,0:0:0:0:
160,288,329983,1,12,0:0:0:0:
352,96,330119,1,0,0:0:0:0:
352,96,330187,1,8,0:0:0:0:
160,96,330255,1,0,0:0:0:0:
160,288,330392,1,0,0:0:0:0:
352,96,330528,1,12,0:0:0:0:
160,96,330664,1,0,0:0:0:0:
352,96,330801,1,8,0:0:0:0:
160,96,330869,1,0,0:0:0:0:
160,96,330937,1,0,0:0:0:0:
352,96,331074,1,8,0:0:0:0:
352,96,331142,1,8,0:0:0:0:
160,96,331210,1,0,0:0:0:0:
352,96,331346,1,8,0:0:0:0:
352,96,331414,1,8,0:0:0:0:
160,96,331483,1,0,0:0:0:0:
160,96,331551,1,0,0:0:0:0:
352,288,331619,1,12,0:0:0:0:
160,96,331755,1,0,0:0:0:0:
160,96,331824,1,0,0:0:0:0:
352,96,331892,1,8,0:0:0:0:
160,96,332028,1,0,0:0:0:0:
352,288,332164,1,12,0:0:0:0:
160,96,332301,1,0,0:0:0:0:
352,96,332369,1,8,0:0:0:0:
160,96,332505,1,8,0:0:0:0:
160,96,332574,1,0,0:0:0:0:
352,288,332710,1,12,0:0:0:0:
160,96,332846,1,0,0:0:0:0:
352,96,332983,1,8,0:0:0:0:
160,96,333051,1,0,0:0:0:0:
160,96,333119,1,0,0:0:0:0:
352,96,333255,1,8,0:0:0:0:
160,96,333392,1,0,0:0:0:0:
160,96,333460,1,0,0:0:0:0:
352,96,333528,1,8,0:0:0:0:
352,96,333596,1,8,0:0:0:0:
160,96,333664,1,0,0:0:0:0:
352,288,333801,1,12,0:0:0:0:
160,96,333937,1,0,0:0:0:0:
352,96,334074,1,8,0:0:0:0:
160,96,334210,1,0,0:0:0:0:
352,96,334346,1,12,0:0:0:0:
160,96,334483,1,0,0:0:0:0:
160,96,334551,1,8,0:0:0:0:
160,96,334619,1,0,0:0:0:0:
160,96,334755,1,0,0:0:0:0:
160,288,334892,1,4,0:0:0:0:
160,288,335028,1,4,0:0:0:0:
352,288,336801,1,12,0:0:0:0:
160,288,337074,1,4,0:0:0:0:
160,288,337210,1,4,0:0:0:0:
160,288,339255,1,4,0:0:0:0:
160,288,339392,1,4,0:0:0:0:
352,96,339528,1,8,0:0:0:0:
160,96,339664,1,0,0:0:0:0:
352,96,339801,1,8,0:0:0:0:
160,96,339937,1,0,0:0:0:0:
352,96,340074,1,8,0:0:0:0:
352,96,340210,1,8,0:0:0:0:
160,96,340346,1,0,0:0:0:0:
160,96,340483,1,0,0:0:0:0:
352,96,340619,1,8,0:0:0:0:
160,96,340755,1,0,0:0:0:0:
352,96,340892,1,8,0:0:0:0:
160,96,341028,1,0,0:0:0:0:
160,96,341096,1,0,0:0:0:0:
352,96,341164,1,8,0:0:0:0:
160,96,341301,1,0,0:0:0:0:
352,288,341437,1,12,0:0:0:0:
352,96,342255,1,8,0:0:0:0:
352,96,342392,1,8,0:0:0:0:
160,288,342528,1,4,0:0:0:0:
160,288,342664,1,4,0:0:0:0:
160,288,343074,1,4,0:0:0:0:
160,288,343210,1,4,0:0:0:0:
352,96,343619,1,8,0:0:0:0:
256,256,343688,1,0,0:0:0:0:
352,96,343756,1,0,0:0:0:0:
352,96,343824,1,0,0:0:0:0:
160,96,343892,1,8,0:0:0:0:
256,256,343960,1,8,0:0:0:0:
352,96,344029,1,0,0:0:0:0:
256,256,344097,1,0,0:0:0:0:
352,96,344165,1,8,0:0:0:0:
160,96,344233,1,8,0:0:0:0:
160,96,344301,1,8,0:0:0:0:
256,256,344369,1,8,0:0:0:0:
160,96,344438,1,0,0:0:0:0:
256,256,344506,1,0,0:0:0:0:
352,96,344574,1,8,0:0:0:0:
352,96,344642,1,8,0:0:0:0:
256,256,344710,1,0,0:0:0:0:
256,256,344779,1,0,0:0:0:0:
160,96,344847,1,0,0:0:0:0:
256,256,344915,1,0,0:0:0:0:
352,96,344983,1,8,0:0:0:0:
352,96,345051,1,8,0:0:0:0:
160,96,345119,1,0,0:0:0:0:
160,96,345188,1,0,0:0:0:0:
352,96,345256,1,8,0:0:0:0:
256,256,345324,1,8,0:0:0:0:
160,96,345392,1,0,0:0:0:0:
256,256,345460,1,0,0:0:0:0:
352,96,345529,1,8,0:0:0:0:
160,96,345597,1,8,0:0:0:0:
160,96,345665,1,0,0:0:0:0:
256,256,345733,1,0,0:0:0:0:
352,96,345801,1,8,0:0:0:0:
256,256,345869,1,8,0:0:0:0:
160,96,345938,1,8,0:0:0:0:
256,256,346006,1,8,0:0:0:0:
256,256,346074,1,0,0:0:0:0:
256,256,346142,1,0,0:0:0:0:
352,96,346210,1,0,0:0:0:0:
352,96,346279,1,0,0:0:0:0:
160,96,346347,1,8,0:0:0:0:
256,256,346415,1,8,0:0:0:0:
256,256,346483,1,0,0:0:0:0:
256,256,346551,1,0,0:0:0:0:
256,256,346619,1,8,0:0:0:0:
256,256,346688,1,0,0:0:0:0:
160,96,346756,1,8,0:0:0:0:
160,96,346824,1,8,0:0:0:0:
352,96,346892,1,0,0:0:0:0:
256,256,346960,1,0,0:0:0:0:
352,96,347029,1,8,0:0:0:0:
256,256,347097,1,0,0:0:0:0:
160,96,347165,1,8,0:0:0:0:
256,256,347233,1,8,0:0:0:0:
160,96,347301,1,0,0:0:0:0:
256,256,347369,1,0,0:0:0:0:
352,96,347438,1,8,0:0:0:0:
160,96,347506,1,8,0:0:0:0:
160,96,347574,1,8,0:0:0:0:
256,256,347642,1,8,0:0:0:0:
352,96,347710,1,0,0:0:0:0:
160,96,347779,1,0,0:0:0:0:
160,96,347847,1,0,0:0:0:0:
256,256,347915,1,0,0:0:0:0:
352,288,347983,1,12,0:0:0:0:
256,192,348119,1,0,0:0:0:0:
256,192,348255,1,0,0:0:0:0:
256,192,348324,1,0,0:0:0:0:
256,192,348392,1,8,0:0:0:0:
256,192,348460,1,8,0:0:0:0:
256,192,348528,1,0,0:0:0:0:
256,192,348664,1,0,0:0:0:0:
256,192,348801,1,8,0:0:0:0:
256,192,348937,1,0,0:0:0:0:
256,192,349074,1,8,0:0:0:0:
256,192,349142,1,8,0:0:0:0:
256,192,349210,1,0,0:0:0:0:
256,192,349346,1,8,0:0:0:0:
256,192,349414,1,0,0:0:0:0:
256,192,349483,1,0,0:0:0:0:
256,192,349551,1,0,0:0:0:0:
256,192,349619,1,8,0:0:0:0:
256,192,349687,1,8,0:0:0:0:
256,192,349755,1,0,0:0:0:0:
256,192,349824,1,0,0:0:0:0:
256,192,349892,1,8,0:0:0:0:
256,192,349960,1,0,0:0:0:0:
256,192,350028,1,0,0:0:0:0:
256,192,350096,1,0,0:0:0:0:
256,192,350164,1,8,0:0:0:0:
256,192,350301,1,0,0:0:0:0:
256,192,350437,1,8,0:0:0:0:
160,96,350642,5,0,0:0:0:0:
160,96,350710,1,0,0:0:0:0:
160,96,350847,1,0,0:0:0:0:
352,96,350983,1,8,0:0:0:0:
160,288,351119,1,4,0:0:0:0:
160,96,351256,1,0,0:0:0:0:
160,96,351392,1,0,0:0:0:0:
352,96,351529,1,8,0:0:0:0:
160,96,351665,1,0,0:0:0:0:
160,96,351733,1,0,0:0:0:0:
352,96,351801,1,8,0:0:0:0:
160,96,351869,1,0,0:0:0:0:
160,96,351938,1,0,0:0:0:0:
160,96,352006,1,0,0:0:0:0:
352,96,352074,1,8,0:0:0:0:
352,96,352346,1,12,0:0:0:0:
352,96,352482,1,8,0:0:0:0:
160,96,352619,1,0,0:0:0:0:
352,96,352755,1,8,0:0:0:0:
160,96,352891,1,0,0:0:0:0:
352,96,353028,1,8,0:0:0:0:
160,96,353164,1,0,0:0:0:0:
352,96,353301,1,8,0:0:0:0:
352,96,353437,1,8,0:0:0:0:
160,96,353573,1,0,0:0:0:0:
352,96,353710,1,8,0:0:0:0:
160,96,353846,1,0,0:0:0:0:
352,96,353982,1,8,0:0:0:0:
352,96,354119,1,8,0:0:0:0:
160,96,354255,1,0,0:0:0:0:
160,96,354391,1,0,0:0:0:0:
352,96,354528,1,8,0:0:0:0:
160,96,354664,1,0,0:0:0:0:
352,96,354801,1,8,0:0:0:0:
352,96,354937,1,8,0:0:0:0:
160,96,355073,1,0,0:0:0:0:
352,96,355210,1,8,0:0:0:0:
160,96,355346,1,0,0:0:0:0:
352,96,355482,1,8,0:0:0:0:
352,96,355619,1,8,0:0:0:0:
160,96,355755,1,0,0:0:0:0:
352,96,355891,1,8,0:0:0:0:
160,96,356028,1,0,0:0:0:0:
352,96,356164,1,8,0:0:0:0:
160,96,356301,1,0,0:0:0:0:
160,96,356437,1,0,0:0:0:0:
160,96,356573,1,0,0:0:0:0:
352,96,356710,1,8,0:0:0:0:
352,96,356982,1,8,0:0:0:0:
160,96,357119,1,0,0:0:0:0:
160,96,357391,1,0,0:0:0:0:
352,96,357528,1,8,0:0:0:0:
160,96,357664,1,0,0:0:0:0:
160,96,357937,1,0,0:0:0:0:
352,96,358073,1,8,0:0:0:0:
160,96,358346,1,0,0:0:0:0:
160,96,358482,1,0,0:0:0:0:
352,96,358619,1,8,0:0:0:0:
160,288,358891,1,4,0:0:0:0:
160,96,359164,1,0,0:0:0:0:
352,288,359301,1,12,0:0:0:0:
160,96,359573,1,0,0:0:0:0:
352,96,359710,1,8,0:0:0:0:
160,288,359846,1,4,0:0:0:0:
160,96,360119,1,0,0:0:0:0:
352,96,360255,1,8,0:0:0:0:
352,96,360391,1,8,0:0:0:0:
160,96,360460,1,0,0:0:0:0:
160,96,360528,1,0,0:0:0:0:
160,96,360664,1,0,0:0:0:0:
160,96,360732,1,0,0:0:0:0:
352,96,360801,1,8,0:0:0:0:
160,96,360937,1,0,0:0:0:0:
352,288,361073,1,12,0:0:0:0:
160,96,361210,1,0,0:0:0:0:
352,96,361346,1,8,0:0:0:0:
352,96,361482,1,8,0:0:0:0:
160,96,361619,1,0,0:0:0:0:
352,96,361755,1,8,0:0:0:0:
160,96,361891,1,0,0:0:0:0:
352,96,362028,1,8,0:0:0:0:
352,96,362164,1,8,0:0:0:0:
160,96,362301,1,0,0:0:0:0:
352,96,362437,1,8,0:0:0:0:
160,96,362573,1,0,0:0:0:0:
352,96,362710,1,8,0:0:0:0:
352,96,362846,1,8,0:0:0:0:
160,96,362982,1,0,0:0:0:0:
160,96,363119,1,0,0:0:0:0:
352,96,363255,1,8,0:0:0:0:
160,96,363391,1,0,0:0:0:0:
352,96,363528,1,8,0:0:0:0:
352,96,363664,1,8,0:0:0:0:
160,96,363801,1,0,0:0:0:0:
352,96,363937,1,8,0:0:0:0:
160,96,364073,1,0,0:0:0:0:
352,96,364210,1,8,0:0:0:0:
160,96,364346,1,0,0:0:0:0:
160,96,364482,1,0,0:0:0:0:
352,96,364619,1,8,0:0:0:0:
352,96,364755,1,8,0:0:0:0:
160,96,364891,1,0,0:0:0:0:
160,96,365028,1,0,0:0:0:0:
352,288,365164,1,12,0:0:0:0:
160,96,365301,1,0,0:0:0:0:
352,288,365437,1,12,0:0:0:0:
352,96,365710,1,8,0:0:0:0:
160,96,365846,1,0,0:0:0:0:
160,96,366119,1,0,0:0:0:0:
352,96,366255,1,8,0:0:0:0:
160,96,366391,1,0,0:0:0:0:
160,96,366664,1,0,0:0:0:0:
352,96,366801,1,8,0:0:0:0:
160,96,367073,1,0,0:0:0:0:
160,96,367210,1,0,0:0:0:0:
352,96,367346,1,8,0:0:0:0:
160,288,367619,1,4,0:0:0:0:
160,96,367891,1,0,0:0:0:0:
352,288,368028,1,12,0:0:0:0:
160,96,368301,1,0,0:0:0:0:
352,96,368437,1,8,0:0:0:0:
160,288,368573,1,4,0:0:0:0:
160,96,368846,1,0,0:0:0:0:
352,96,368982,1,8,0:0:0:0:
352,96,369119,1,8,0:0:0:0:
160,96,369187,1,0,0:0:0:0:
160,96,369255,1,0,0:0:0:0:
160,96,369391,1,0,0:0:0:0:
160,96,369460,1,0,0:0:0:0:
352,96,369528,1,8,0:0:0:0:
160,96,369801,1,0,0:0:0:0:
160,96,370210,1,0,0:0:0:0:
352,96,370619,1,8,0:0:0:0:
352,96,370892,1,8,0:0:0:0:
352,96,371710,1,8,0:0:0:0:
160,96,371983,1,0,0:0:0:0:
352,96,372392,1,8,0:0:0:0:
160,96,372801,1,0,0:0:0:0:
352,96,373074,1,8,0:0:0:0:
160,96,373892,1,0,0:0:0:0:
352,96,374164,1,8,0:0:0:0:
352,96,374574,1,8,0:0:0:0:
160,96,374983,1,0,0:0:0:0:
352,96,375255,1,8,0:0:0:0:
352,96,375664,1,8,0:0:0:0:
160,96,376074,1,0,0:0:0:0:
352,96,376346,1,8,0:0:0:0:
352,96,377164,1,8,0:0:0:0:
160,96,377437,1,0,0:0:0:0:
352,96,378255,1,8,0:0:0:0:
160,96,378528,1,0,0:0:0:0:
160,96,378937,1,0,0:0:0:0:
160,96,379346,1,0,0:0:0:0:
352,96,379619,1,8,0:0:0:0:
352,96,380028,1,8,0:0:0:0:
160,96,380437,1,0,0:0:0:0:
352,96,380710,1,8,0:0:0:0:
160,96,381119,1,0,0:0:0:0:
160,96,381528,1,0,0:0:0:0:
352,96,381801,1,8,0:0:0:0:
160,96,382619,1,0,0:0:0:0:
160,96,382892,1,0,0:0:0:0:
352,96,383301,1,8,0:0:0:0:
352,96,383710,1,8,0:0:0:0:
160,96,383983,1,0,0:0:0:0:
352,96,384392,1,8,0:0:0:0:
160,96,384801,1,0,0:0:0:0:
352,96,385074,1,8,0:0:0:0:
256,192,385210,12,8,387255,0:0:0:0:
352,96,389437,5,8,0:0:0:0:
160,96,389528,1,0,0:0:0:0:
352,96,389619,1,8,0:0:0:0:
160,96,389710,1,0,0:0:0:0:
352,96,389800,1,8,0:0:0:0:
160,96,389891,1,0,0:0:0:0:
352,96,389982,1,8,0:0:0:0:
352,96,390073,1,8,0:0:0:0:
160,96,390164,1,0,0:0:0:0:
160,96,390255,1,0,0:0:0:0:
352,96,390346,1,8,0:0:0:0:
160,96,390437,1,0,0:0:0:0:
352,96,390528,1,8,0:0:0:0:
160,96,390619,1,0,0:0:0:0:
160,96,390710,1,0,0:0:0:0:
160,96,390800,1,0,0:0:0:0:
352,96,390891,1,8,0:0:0:0:
160,96,390982,1,0,0:0:0:0:
352,96,391073,1,8,0:0:0:0:
160,96,391164,1,0,0:0:0:0:
160,96,391255,1,0,0:0:0:0:
160,96,391346,1,0,0:0:0:0:
352,96,391437,1,8,0:0:0:0:
160,96,391528,1,0,0:0:0:0:
352,96,391619,1,8,0:0:0:0:
352,96,391710,1,8,0:0:0:0:
160,96,391800,1,0,0:0:0:0:
160,96,391891,1,0,0:0:0:0:
352,96,391982,1,8,0:0:0:0:
160,96,392073,1,0,0:0:0:0:
352,96,392164,1,8,0:0:0:0:
160,96,392255,1,0,0:0:0:0:
352,96,392346,1,8,0:0:0:0:
160,96,392437,1,0,0:0:0:0:
352,96,392528,1,8,0:0:0:0:
160,96,392619,1,0,0:0:0:0:
352,96,392710,1,8,0:0:0:0:
352,96,392800,1,8,0:0:0:0:
160,96,392891,1,0,0:0:0:0:
160,96,392982,1,0,0:0:0:0:
160,96,393073,1,0,0:0:0:0:
160,96,393164,1,0,0:0:0:0:
352,96,393255,1,8,0:0:0:0:
352,96,393346,1,8,0:0:0:0:
352,96,393437,1,8,0:0:0:0:
160,96,393528,1,0,0:0:0:0:
352,96,393619,1,8,0:0:0:0:
160,96,393710,1,0,0:0:0:0:
352,96,393800,1,8,0:0:0:0:
160,96,393891,1,0,0:0:0:0:
160,96,393982,1,0,0:0:0:0:
160,96,394073,1,0,0:0:0:0:
352,96,394164,1,8,0:0:0:0:
160,96,394255,1,0,0:0:0:0:
352,96,394346,1,8,0:0:0:0:
160,96,394437,1,0,0:0:0:0:
352,96,394528,1,8,0:0:0:0:
160,96,394619,1,0,0:0:0:0:
352,96,394710,1,8,0:0:0:0:
160,96,394800,1,0,0:0:0:0:
352,96,394891,1,8,0:0:0:0:
352,96,394982,1,8,0:0:0:0:
160,96,395073,1,0,0:0:0:0:
160,96,395164,1,0,0:0:0:0:
352,96,395255,1,8,0:0:0:0:
160,96,395346,1,0,0:0:0:0:
352,96,395437,1,8,0:0:0:0:
352,96,395528,1,8,0:0:0:0:
160,96,395619,1,0,0:0:0:0:
160,96,395710,1,0,0:0:0:0:
160,96,395800,1,0,0:0:0:0:
160,96,395891,1,0,0:0:0:0:
352,96,395982,1,8,0:0:0:0:
160,96,396073,1,0,0:0:0:0:
352,96,396164,1,8,0:0:0:0:
160,96,396255,1,0,0:0:0:0:
352,96,396346,1,8,0:0:0:0:
160,96,396437,1,0,0:0:0:0:
352,96,396528,1,8,0:0:0:0:
352,96,396619,1,8,0:0:0:0:
160,96,396710,1,0,0:0:0:0:
160,96,396800,1,0,0:0:0:0:
352,96,396891,1,8,0:0:0:0:
160,96,396982,1,0,0:0:0:0:
352,96,397073,1,8,0:0:0:0:
352,96,397164,1,8,0:0:0:0:
160,96,397255,1,0,0:0:0:0:
160,96,397346,1,0,0:0:0:0:
160,96,397437,1,0,0:0:0:0:
352,96,397482,1,8,0:0:0:0:
352,96,397528,1,8,0:0:0:0:
160,96,397619,1,0,0:0:0:0:
160,96,397710,1,0,0:0:0:0:
160,96,397800,1,0,0:0:0:0:
160,96,397891,1,0,0:0:0:0:
256,128,397983,1,8,0:0:0:0:
256,128,398074,1,0,0:0:0:0:
224,224,398165,1,8,0:0:0:0:
324,222,398255,1,0,0:0:0:0:
224,192,398347,1,0,0:0:0:0:
349,280,398437,1,0,0:0:0:0:
352,96,398529,1,8,0:0:0:0:
160,96,398620,1,0,0:0:0:0:
352,96,398711,1,8,0:0:0:0:
352,96,398801,1,8,0:0:0:0:
160,96,398892,1,0,0:0:0:0:
160,96,398983,1,0,0:0:0:0:
352,96,399074,1,8,0:0:0:0:
160,96,399165,1,0,0:0:0:0:
352,96,399256,1,8,0:0:0:0:
275,267,399346,1,8,0:0:0:0:
224,224,399438,1,0,0:0:0:0:
224,224,399620,1,0,0:0:0:0:
275,267,399710,1,0,0:0:0:0:
352,96,399801,1,8,0:0:0:0:
160,96,399892,1,0,0:0:0:0:
352,96,399983,1,8,0:0:0:0:
160,96,400074,1,0,0:0:0:0:
352,96,400165,1,8,0:0:0:0:
160,96,400256,1,0,0:0:0:0:
352,96,400347,1,8,0:0:0:0:
352,96,400438,1,8,0:0:0:0:
160,96,400529,1,0,0:0:0:0:
160,96,400620,1,0,0:0:0:0:
352,96,400711,1,8,0:0:0:0:
160,96,400801,1,0,0:0:0:0:
352,96,400892,1,8,0:0:0:0:
160,96,400983,1,0,0:0:0:0:
352,96,401074,1,8,0:0:0:0:
320,192,401165,1,8,0:0:0:0:
320,192,401256,1,0,0:0:0:0:
160,96,401347,1,0,0:0:0:0:
352,96,401438,1,8,0:0:0:0:
268,264,401528,1,0,0:0:0:0:
160,96,401620,1,0,0:0:0:0:
268,264,401801,1,8,0:0:0:0:
268,264,401892,1,0,0:0:0:0:
352,96,401983,1,8,0:0:0:0:
352,96,402074,1,8,0:0:0:0:
160,96,402165,1,0,0:0:0:0:
160,96,402256,1,0,0:0:0:0:
352,96,402347,1,8,0:0:0:0:
160,96,402438,1,0,0:0:0:0:
352,96,402529,1,8,0:0:0:0:
288,256,402619,1,8,0:0:0:0:
160,96,402711,1,0,0:0:0:0:
288,256,402801,1,0,0:0:0:0:
268,264,402892,1,0,0:0:0:0:
268,264,402983,1,0,0:0:0:0:
352,96,403074,1,8,0:0:0:0:
160,96,403165,1,0,0:0:0:0:
352,96,403256,1,8,0:0:0:0:
160,96,403347,1,0,0:0:0:0:
352,96,403438,1,8,0:0:0:0:
160,96,403529,1,0,0:0:0:0:
352,96,403620,1,8,0:0:0:0:
256,256,403710,1,8,0:0:0:0:
160,96,403801,1,0,0:0:0:0:
160,96,403983,1,0,0:0:0:0:
256,256,404074,1,0,0:0:0:0:
352,96,404165,1,8,0:0:0:0:
160,96,404256,1,0,0:0:0:0:
352,96,404347,1,8,0:0:0:0:
352,96,404438,1,8,0:0:0:0:
160,96,404529,1,0,0:0:0:0:
160,96,404620,1,0,0:0:0:0:
352,96,404711,1,8,0:0:0:0:
160,96,404801,1,0,0:0:0:0:
352,96,404892,1,8,0:0:0:0:
160,96,404983,1,0,0:0:0:0:
352,96,405074,1,8,0:0:0:0:
160,96,405165,1,0,0:0:0:0:
352,96,405256,1,8,0:0:0:0:
352,96,405347,1,8,0:0:0:0:
160,96,405438,1,0,0:0:0:0:
160,96,405529,5,0,0:0:0:0:
352,96,405620,1,8,0:0:0:0:
160,96,405711,5,0,0:0:0:0:
352,96,405801,1,8,0:0:0:0:
352,96,405891,5,8,0:0:0:0:
352,96,405982,1,0,0:0:0:0:
352,96,406073,1,8,0:0:0:0:
160,96,406164,1,0,0:0:0:0:
160,96,406255,1,0,0:0:0:0:
352,96,406346,1,8,0:0:0:0:
160,96,406437,1,0,0:0:0:0:
352,96,406528,1,8,0:0:0:0:
352,96,406619,1,8,0:0:0:0:
160,96,406710,1,0,0:0:0:0:
160,96,406801,1,0,0:0:0:0:
352,96,406891,1,8,0:0:0:0:
160,96,406983,1,0,0:0:0:0:
352,96,407074,1,8,0:0:0:0:
352,96,407164,1,8,0:0:0:0:
160,96,407255,1,0,0:0:0:0:
160,96,407346,1,0,0:0:0:0:
352,96,407437,1,8,0:0:0:0:
160,96,407528,1,0,0:0:0:0:
352,96,407619,1,8,0:0:0:0:
160,96,407710,1,0,0:0:0:0:
352,96,407801,1,8,0:0:0:0:
160,96,407892,1,0,0:0:0:0:
352,96,407983,1,8,0:0:0:0:
352,96,408074,1,8,0:0:0:0:
160,96,408164,1,0,0:0:0:0:
160,96,408255,1,0,0:0:0:0:
352,96,408346,1,8,0:0:0:0:
160,96,408437,1,0,0:0:0:0:
352,96,408528,1,8,0:0:0:0:
352,96,408619,1,8,0:0:0:0:
160,96,408710,1,0,0:0:0:0:
160,96,408801,1,0,0:0:0:0:
352,96,408892,1,8,0:0:0:0:
160,96,408983,1,0,0:0:0:0:
352,96,409074,1,8,0:0:0:0:
160,96,409164,1,0,0:0:0:0:
352,96,409255,1,8,0:0:0:0:
160,96,409346,1,0,0:0:0:0:
352,96,409437,1,8,0:0:0:0:
160,96,409528,1,0,0:0:0:0:
352,96,409619,1,8,0:0:0:0:
352,96,409710,1,8,0:0:0:0:
160,96,409801,1,0,0:0:0:0:
160,96,409892,1,0,0:0:0:0:
352,96,409983,1,8,0:0:0:0:
160,96,410074,1,0,0:0:0:0:
352,96,410164,1,8,0:0:0:0:
352,96,410255,1,8,0:0:0:0:
160,96,410346,1,0,0:0:0:0:
160,96,410437,1,0,0:0:0:0:
160,96,410528,1,0,0:0:0:0:
160,96,410619,1,0,0:0:0:0:
352,96,410710,1,8,0:0:0:0:
352,96,410801,1,8,0:0:0:0:
352,96,410892,1,8,0:0:0:0:
160,96,410983,1,0,0:0:0:0:
352,96,411074,1,8,0:0:0:0:
160,96,411164,1,0,0:0:0:0:
352,96,411255,1,8,0:0:0:0:
160,96,411346,1,0,0:0:0:0:
160,96,411437,1,0,0:0:0:0:
160,96,411528,1,0,0:0:0:0:
352,96,411619,1,8,0:0:0:0:
160,96,411710,1,0,0:0:0:0:
352,96,411801,1,8,0:0:0:0:
160,96,411892,1,0,0:0:0:0:
352,96,411983,1,8,0:0:0:0:
160,96,412074,1,0,0:0:0:0:
352,96,412164,1,8,0:0:0:0:
160,96,412255,1,0,0:0:0:0:
352,96,412346,1,8,0:0:0:0:
352,96,412437,1,8,0:0:0:0:
160,96,412528,1,0,0:0:0:0:
160,96,412619,1,0,0:0:0:0:
352,96,412710,1,8,0:0:0:0:
160,96,412801,1,0,0:0:0:0:
352,96,412892,1,8,0:0:0:0:
352,96,412983,1,8,0:0:0:0:
352,96,413074,1,8,0:0:0:0:
352,96,413164,1,8,0:0:0:0:
160,96,413255,1,0,0:0:0:0:
160,96,413346,1,0,0:0:0:0:
352,96,413437,1,8,0:0:0:0:
160,96,413528,1,0,0:0:0:0:
352,96,413619,1,8,0:0:0:0:
160,96,413710,1,0,0:0:0:0:
352,96,413801,1,8,0:0:0:0:
160,96,413892,1,0,0:0:0:0:
352,96,413983,1,8,0:0:0:0:
352,96,414074,1,8,0:0:0:0:
160,96,414164,1,0,0:0:0:0:
160,96,414255,1,0,0:0:0:0:
352,96,414346,1,8,0:0:0:0:
160,96,414437,1,0,0:0:0:0:
352,96,414528,1,8,0:0:0:0:
352,96,414619,1,8,0:0:0:0:
160,96,414710,1,0,0:0:0:0:
160,96,414892,1,0,0:0:0:0:
352,96,414937,1,8,0:0:0:0:
352,96,415074,1,8,0:0:0:0:
352,96,415164,1,8,0:0:0:0:
160,96,415255,1,0,0:0:0:0:
160,96,415346,1,0,0:0:0:0:
256,128,415437,1,8,0:0:0:0:
256,128,415528,1,0,0:0:0:0:
224,224,415619,1,8,0:0:0:0:
256,224,415710,1,8,0:0:0:0:
224,192,415801,1,0,0:0:0:0:
256,192,415892,1,0,0:0:0:0:
352,96,415983,1,8,0:0:0:0:
160,96,416074,1,0,0:0:0:0:
352,96,416165,1,8,0:0:0:0:
352,96,416255,1,8,0:0:0:0:
160,96,416346,1,0,0:0:0:0:
160,96,416437,1,0,0:0:0:0:
352,96,416528,1,8,0:0:0:0:
160,96,416619,1,0,0:0:0:0:
352,96,416710,1,8,0:0:0:0:
256,224,416801,1,8,0:0:0:0:
224,224,416892,1,0,0:0:0:0:
224,224,417074,1,0,0:0:0:0:
256,224,417164,1,0,0:0:0:0:
352,96,417255,1,8,0:0:0:0:
256,192,417346,1,8,0:0:0:0:
256,192,417437,1,0,0:0:0:0:
160,96,417528,1,0,0:0:0:0:
352,96,417619,1,8,0:0:0:0:
160,96,417710,1,0,0:0:0:0:
352,96,417801,1,8,0:0:0:0:
352,96,417892,1,8,0:0:0:0:
160,96,417983,1,0,0:0:0:0:
160,96,418074,1,0,0:0:0:0:
352,96,418165,1,8,0:0:0:0:
160,96,418255,1,0,0:0:0:0:
352,96,418346,1,8,0:0:0:0:
256,192,418437,1,0,0:0:0:0:
256,192,418528,1,8,0:0:0:0:
256,192,418619,1,8,0:0:0:0:
320,192,418710,1,0,0:0:0:0:
160,96,418801,1,0,0:0:0:0:
352,96,418892,1,8,0:0:0:0:
256,192,418983,1,0,0:0:0:0:
160,96,419074,1,0,0:0:0:0:
160,96,419255,1,0,0:0:0:0:
256,192,419346,1,0,0:0:0:0:
352,96,419437,1,8,0:0:0:0:
352,96,419528,1,8,0:0:0:0:
160,96,419619,1,0,0:0:0:0:
160,96,419710,1,0,0:0:0:0:
352,96,419801,1,8,0:0:0:0:
160,96,419892,1,0,0:0:0:0:
352,96,419983,1,8,0:0:0:0:
256,192,420074,1,8,0:0:0:0:
160,96,420165,1,0,0:0:0:0:
256,192,420255,1,0,0:0:0:0:
160,96,420346,1,0,0:0:0:0:
256,192,420437,1,0,0:0:0:0:
352,96,420528,1,8,0:0:0:0:
160,96,420619,1,0,0:0:0:0:
352,96,420710,1,8,0:0:0:0:
160,96,420801,1,0,0:0:0:0:
352,96,420892,1,8,0:0:0:0:
160,96,420983,1,0,0:0:0:0:
352,96,421074,1,8,0:0:0:0:
256,192,421164,1,8,0:0:0:0:
160,96,421255,1,0,0:0:0:0:
256,192,421437,1,8,0:0:0:0:
256,192,421528,1,0,0:0:0:0:
352,96,421619,1,8,0:0:0:0:
160,96,421710,1,0,0:0:0:0:
352,96,421801,1,8,0:0:0:0:
352,96,421892,1,8,0:0:0:0:
160,96,421983,1,0,0:0:0:0:
160,96,422074,1,0,0:0:0:0:
352,96,422165,1,8,0:0:0:0:
160,96,422255,1,0,0:0:0:0:
352,96,422346,1,8,0:0:0:0:
160,96,422437,1,0,0:0:0:0:
352,96,422528,1,8,0:0:0:0:
160,96,422619,1,0,0:0:0:0:
352,96,422710,1,8,0:0:0:0:
352,96,422801,1,8,0:0:0:0:
160,96,422892,1,0,0:0:0:0:
160,96,422983,1,0,0:0:0:0:
352,96,423074,1,8,0:0:0:0:
160,96,423165,5,0,0:0:0:0:
352,96,423255,1,8,0:0:0:0:
352,96,423346,1,8,0:0:0:0:
352,96,423437,1,8,0:0:0:0:
352,96,423528,1,8,0:0:0:0:
160,96,423619,1,0,0:0:0:0:
160,96,423710,1,0,0:0:0:0:
352,96,423801,1,8,0:0:0:0:
352,96,423892,1,8,0:0:0:0:
352,96,423983,1,8,0:0:0:0:
352,96,424074,1,8,0:0:0:0:
160,96,424164,1,0,0:0:0:0:
160,96,424255,1,0,0:0:0:0:
352,288,424346,5,12,0:0:0:0:
160,96,424619,1,0,0:0:0:0:
160,96,424755,1,0,0:0:0:0:
352,96,424892,1,8,0:0:0:0:
160,96,425028,1,0,0:0:0:0:
352,96,425165,1,8,0:0:0:0:
352,96,425301,1,8,0:0:0:0:
352,96,425437,1,8,0:0:0:0:
160,96,425710,1,0,0:0:0:0:
160,96,425846,1,0,0:0:0:0:
352,96,425983,1,8,0:0:0:0:
160,96,426119,1,0,0:0:0:0:
352,96,426255,1,8,0:0:0:0:
352,96,426392,1,8,0:0:0:0:
352,96,426528,1,8,0:0:0:0:
160,96,426801,1,0,0:0:0:0:
160,96,426937,1,0,0:0:0:0:
352,96,427074,1,8,0:0:0:0:
160,96,427210,1,0,0:0:0:0:
352,96,427346,1,8,0:0:0:0:
352,96,427483,1,8,0:0:0:0:
352,96,427619,1,8,0:0:0:0:
160,96,427710,1,0,0:0:0:0:
352,96,427801,1,8,0:0:0:0:
160,96,427983,1,0,0:0:0:0:
352,96,428165,1,8,0:0:0:0:
160,96,428346,1,0,0:0:0:0:
160,96,428528,1,0,0:0:0:0:
160,288,428710,1,4,0:0:0:0:
160,96,429528,1,0,0:0:0:0:
352,96,429801,1,8,0:0:0:0:
160,96,430892,1,0,0:0:0:0:
160,96,431301,1,0,0:0:0:0:
160,96,431710,1,0,0:0:0:0:
352,96,431983,1,8,0:0:0:0:
160,96,433074,1,0,0:0:0:0:
160,96,433892,1,0,0:0:0:0:
352,96,434164,1,8,0:0:0:0:
160,96,435255,1,0,0:0:0:0:
160,96,435664,1,0,0:0:0:0:
160,96,436074,1,0,0:0:0:0:
352,96,436346,1,8,0:0:0:0:
160,96,436619,1,0,0:0:0:0:
160,96,437437,1,0,0:0:0:0:
160,96,438255,1,0,0:0:0:0:
352,96,438528,1,8,0:0:0:0:
160,96,439619,1,0,0:0:0:0:
160,96,440028,1,0,0:0:0:0:
160,96,440437,1,0,0:0:0:0:
352,96,440710,1,8,0:0:0:0:
160,96,441801,1,0,0:0:0:0:
160,96,442619,1,0,0:0:0:0:
352,96,442892,1,8,0:0:0:0:
160,96,443983,1,0,0:0:0:0:
160,96,444392,1,0,0:0:0:0:
160,96,444801,1,0,0:0:0:0:
352,96,445074,1,8,0:0:0:0:
352,96,445619,1,8,0:0:0:0:
256,192,445653,1,8,0:0:0:0:
352,96,445892,1,8,0:0:0:0:
160,288,446164,1,4,0:0:0:0:
160,96,446983,1,0,0:0:0:0:
352,96,447255,1,8,0:0:0:0:
160,96,448346,1,0,0:0:0:0:
160,96,449164,1,0,0:0:0:0:
352,96,449437,1,8,0:0:0:0:
160,96,449710,1,0,0:0:0:0:
160,96,450528,1,0,0:0:0:0:
160,96,451346,1,0,0:0:0:0:
352,96,451619,1,8,0:0:0:0:
160,96,452437,1,0,0:0:0:0:
352,96,452710,1,8,0:0:0:0:
160,96,453119,1,0,0:0:0:0:
160,96,453528,1,0,0:0:0:0:
352,96,453801,1,8,0:0:0:0:
160,96,454074,1,0,0:0:0:0:
160,96,454619,1,0,0:0:0:0:
352,288,454892,1,12,0:0:0:0:
160,96,455710,1,0,0:0:0:0:
352,96,455983,1,8,0:0:0:0:
160,288,457074,1,4,0:0:0:0:
160,96,457974,1,0,0:0:0:0:
352,288,458274,1,12,0:0:0:0:
256,192,458438,12,0,460911,0:0:0:0:
160,96,463548,5,0,0:0:0:0:
160,96,463616,1,0,0:0:0:0:
160,96,463684,1,0,0:0:0:0:
160,96,463752,1,0,0:0:0:0:
160,96,463820,1,0,0:0:0:0:
160,96,463888,1,0,0:0:0:0:
160,96,463957,1,0,0:0:0:0:
160,96,464025,1,0,0:0:0:0:
160,96,464093,1,0,0:0:0:0:
160,96,464161,1,0,0:0:0:0:
160,96,464229,1,0,0:0:0:0:
160,96,464298,1,0,0:0:0:0:
160,96,464366,1,0,0:0:0:0:
160,96,464434,1,0,0:0:0:0:
160,96,464502,1,0,0:0:0:0:
160,96,464570,1,0,0:0:0:0:
352,96,464638,1,8,0:0:0:0:
352,96,464707,1,8,0:0:0:0:
352,96,464775,1,8,0:0:0:0:
352,96,464843,1,8,0:0:0:0:
352,96,464911,1,8,0:0:0:0:
352,96,464979,1,8,0:0:0:0:
352,96,465048,1,8,0:0:0:0:
352,96,465116,1,8,0:0:0:0:
352,96,465184,1,8,0:0:0:0:
352,96,465252,1,8,0:0:0:0:
352,96,465320,1,8,0:0:0:0:
352,96,465388,1,8,0:0:0:0:
352,96,465457,1,8,0:0:0:0:
352,96,465525,1,8,0:0:0:0:
352,96,465593,1,8,0:0:0:0:
352,96,465661,1,8,0:0:0:0:
160,96,465729,1,0,0:0:0:0:
160,96,465798,1,0,0:0:0:0:
160,96,465866,1,0,0:0:0:0:
160,96,465934,1,0,0:0:0:0:
160,96,466002,1,0,0:0:0:0:
160,96,466070,1,0,0:0:0:0:
160,96,466138,1,0,0:0:0:0:
160,96,466207,1,0,0:0:0:0:
160,96,466275,1,0,0:0:0:0:
160,96,466343,1,0,0:0:0:0:
160,96,466411,1,0,0:0:0:0:
160,96,466479,1,0,0:0:0:0:
160,96,466548,1,0,0:0:0:0:
160,96,466616,1,0,0:0:0:0:
160,96,466684,1,0,0:0:0:0:
160,96,466752,1,0,0:0:0:0:
352,96,466820,1,8,0:0:0:0:
352,96,466888,1,8,0:0:0:0:
352,96,466957,1,8,0:0:0:0:
352,96,467025,1,8,0:0:0:0:
352,96,467093,1,8,0:0:0:0:
352,96,467161,1,8,0:0:0:0:
352,96,467229,1,8,0:0:0:0:
352,96,467298,1,8,0:0:0:0:
160,96,467366,1,0,0:0:0:0:
160,96,467434,1,0,0:0:0:0:
160,96,467502,1,0,0:0:0:0:
160,96,467570,1,0,0:0:0:0:
352,96,467638,1,8,0:0:0:0:
352,96,467707,1,8,0:0:0:0:
352,96,467775,1,8,0:0:0:0:
352,96,467843,1,8,0:0:0:0:
160,96,467911,1,0,0:0:0:0:
160,96,467979,1,0,0:0:0:0:
160,96,468048,1,0,0:0:0:0:
160,96,468116,1,0,0:0:0:0:
160,96,468184,1,0,0:0:0:0:
160,96,468252,1,0,0:0:0:0:
160,96,468320,1,0,0:0:0:0:
160,96,468388,1,0,0:0:0:0:
352,96,468457,1,8,0:0:0:0:
352,96,468525,1,8,0:0:0:0:
352,96,468593,1,8,0:0:0:0:
352,96,468661,1,8,0:0:0:0:
352,96,468729,1,8,0:0:0:0:
352,96,468798,1,8,0:0:0:0:
352,96,468866,1,8,0:0:0:0:
352,96,468934,1,8,0:0:0:0:
160,96,469002,1,0,0:0:0:0:
160,96,469070,1,0,0:0:0:0:
160,96,469138,1,0,0:0:0:0:
160,96,469207,1,0,0:0:0:0:
160,96,469275,1,0,0:0:0:0:
160,96,469343,1,0,0:0:0:0:
160,96,469411,1,0,0:0:0:0:
160,96,469479,1,0,0:0:0:0:
352,96,469548,1,8,0:0:0:0:
352,96,469616,1,8,0:0:0:0:
352,96,469684,1,8,0:0:0:0:
352,96,469752,1,8,0:0:0:0:
352,96,469820,1,8,0:0:0:0:
352,96,469888,1,8,0:0:0:0:
352,96,469957,1,8,0:0:0:0:
352,96,470025,1,8,0:0:0:0:
160,96,470093,1,0,0:0:0:0:
160,96,470161,1,0,0:0:0:0:
160,96,470229,1,0,0:0:0:0:
160,96,470298,1,0,0:0:0:0:
160,96,470366,1,0,0:0:0:0:
160,96,470434,1,0,0:0:0:0:
160,96,470502,1,0,0:0:0:0:
160,96,470570,1,0,0:0:0:0:
160,96,470638,1,0,0:0:0:0:
160,96,470707,1,0,0:0:0:0:
160,96,470775,1,0,0:0:0:0:
160,96,470843,1,0,0:0:0:0:
160,96,470911,1,0,0:0:0:0:
160,96,470979,1,0,0:0:0:0:
160,96,471048,1,0,0:0:0:0:
160,96,471116,1,0,0:0:0:0:
352,96,471184,1,8,0:0:0:0:
352,96,471252,1,8,0:0:0:0:
160,96,471320,1,0,0:0:0:0:
160,96,471388,1,0,0:0:0:0:
160,96,471457,1,0,0:0:0:0:
160,96,471525,1,0,0:0:0:0:
160,96,471593,1,0,0:0:0:0:
160,96,471661,1,0,0:0:0:0:
160,96,471729,1,0,0:0:0:0:
352,96,471866,1,8,0:0:0:0:
352,96,472138,1,8,0:0:0:0:
352,96,472207,1,0,0:0:0:0:
160,96,472276,1,8,0:0:0:0:
160,96,472343,1,0,0:0:0:0:
160,96,472411,1,0,0:0:0:0:
160,96,472479,1,0,0:0:0:0:
160,96,472548,1,8,0:0:0:0:
160,96,472616,1,0,0:0:0:0:
160,96,472684,1,0,0:0:0:0:
160,96,472752,1,0,0:0:0:0:
160,96,472820,1,8,0:0:0:0:
160,96,472888,1,0,0:0:0:0:
160,96,472957,1,0,0:0:0:0:
160,96,473025,1,0,0:0:0:0:
160,96,473093,1,8,0:0:0:0:
160,96,473161,1,0,0:0:0:0:
160,96,473229,1,0,0:0:0:0:
160,96,473298,1,0,0:0:0:0:
352,96,473366,1,8,0:0:0:0:
352,96,473434,1,8,0:0:0:0:
352,96,473502,1,0,0:0:0:0:
352,96,473570,1,0,0:0:0:0:
352,96,473638,1,8,0:0:0:0:
352,96,473707,1,8,0:0:0:0:
352,96,473775,1,0,0:0:0:0:
352,96,473843,1,0,0:0:0:0:
352,96,473911,1,8,0:0:0:0:
352,96,473979,1,8,0:0:0:0:
352,96,474048,1,0,0:0:0:0:
352,96,474116,1,0,0:0:0:0:
352,96,474184,1,8,0:0:0:0:
352,96,474252,1,0,0:0:0:0:
352,96,474320,1,8,0:0:0:0:
352,96,474389,1,0,0:0:0:0:
160,96,474457,1,8,0:0:0:0:
160,96,474525,1,0,0:0:0:0:
160,96,474593,1,0,0:0:0:0:
160,96,474661,1,0,0:0:0:0:
160,96,474729,1,8,0:0:0:0:
160,96,474798,1,0,0:0:0:0:
160,96,474866,1,0,0:0:0:0:
160,96,474934,1,0,0:0:0:0:
160,96,475002,1,8,0:0:0:0:
160,96,475070,1,0,0:0:0:0:
160,96,475138,1,0,0:0:0:0:
160,96,475207,1,0,0:0:0:0:
160,96,475275,1,8,0:0:0:0:
160,96,475343,1,0,0:0:0:0:
160,96,475411,1,0,0:0:0:0:
160,96,475479,1,0,0:0:0:0:
352,96,475548,1,8,0:0:0:0:
352,96,475616,1,8,0:0:0:0:
352,96,475684,1,8,0:0:0:0:
352,96,475752,1,8,0:0:0:0:
352,96,475820,1,0,0:0:0:0:
352,96,475888,1,0,0:0:0:0:
352,96,475957,1,0,0:0:0:0:
352,96,476025,1,0,0:0:0:0:
160,96,476093,1,8,0:0:0:0:
160,96,476161,1,0,0:0:0:0:
160,96,476229,1,0,0:0:0:0:
160,96,476298,1,0,0:0:0:0:
352,96,476366,1,8,0:0:0:0:
352,96,476434,1,0,0:0:0:0:
352,96,476502,1,8,0:0:0:0:
352,96,476570,1,0,0:0:0:0:
160,288,476638,1,12,0:0:0:0:
160,96,477457,5,0,0:0:0:0:
160,288,477729,1,4,0:0:0:0:
160,96,478616,1,0,0:0:0:0:
160,96,478684,1,0,0:0:0:0:
160,96,478752,1,0,0:0:0:0:
352,96,478820,1,8,0:0:0:0:
160,96,478957,1,0,0:0:0:0:
160,96,479025,1,0,0:0:0:0:
160,96,479093,1,0,0:0:0:0:
160,96,479229,1,0,0:0:0:0:
160,96,479366,1,0,0:0:0:0:
160,96,479434,1,0,0:0:0:0:
352,96,479502,1,8,0:0:0:0:
160,96,479638,1,0,0:0:0:0:
352,96,479775,1,8,0:0:0:0:
352,96,479911,1,8,0:0:0:0:
160,96,479979,1,0,0:0:0:0:
160,96,480048,1,0,0:0:0:0:
160,96,480116,1,0,0:0:0:0:
352,96,480184,1,8,0:0:0:0:
352,96,480252,1,8,0:0:0:0:
160,96,480320,1,0,0:0:0:0:
160,96,480388,1,0,0:0:0:0:
352,96,480457,1,8,0:0:0:0:
160,96,480525,1,0,0:0:0:0:
160,96,480593,1,0,0:0:0:0:
160,96,480661,1,0,0:0:0:0:
352,96,480729,1,8,0:0:0:0:
352,96,480798,1,8,0:0:0:0:
160,96,480866,1,0,0:0:0:0:
160,96,480934,1,0,0:0:0:0:
352,96,481002,1,8,0:0:0:0:
256,192,481275,1,0,0:0:0:0:
256,192,481411,1,8,0:0:0:0:
256,192,481479,1,8,0:0:0:0:
160,96,481547,1,0,0:0:0:0:
160,96,481616,1,0,0:0:0:0:
256,192,481684,1,0,0:0:0:0:
256,192,481752,1,0,0:0:0:0:
256,192,481820,1,8,0:0:0:0:
256,192,481888,1,8,0:0:0:0:
250,211,481956,1,0,0:0:0:0:
352,288,482093,1,12,0:0:0:0:
250,211,482229,1,0,0:0:0:0:
352,96,482638,1,8,0:0:0:0:
352,96,482706,1,8,0:0:0:0:
352,96,482775,1,8,0:0:0:0:
352,96,482843,1,8,0:0:0:0:
160,96,482911,1,0,0:0:0:0:
160,96,482979,1,0,0:0:0:0:
160,96,483047,1,0,0:0:0:0:
160,96,483116,1,0,0:0:0:0:
352,288,483184,1,12,0:0:0:0:
256,192,483320,1,8,0:0:0:0:
160,96,483456,1,0,0:0:0:0:
160,96,483525,1,0,0:0:0:0:
160,96,483593,1,0,0:0:0:0:
352,96,483729,1,8,0:0:0:0:
160,96,483866,1,0,0:0:0:0:
352,96,484002,1,8,0:0:0:0:
160,96,484070,1,0,0:0:0:0:
160,96,484138,1,0,0:0:0:0:
352,96,484275,1,8,0:0:0:0:
160,96,484343,1,0,0:0:0:0:
160,96,484411,1,0,0:0:0:0:
160,96,484479,1,0,0:0:0:0:
352,96,484547,1,8,0:0:0:0:
160,96,484616,1,0,0:0:0:0:
352,96,484684,1,8,0:0:0:0:
352,96,484752,1,8,0:0:0:0:
160,96,484820,1,0,0:0:0:0:
160,96,484888,1,0,0:0:0:0:
352,96,484956,1,8,0:0:0:0:
160,96,485025,1,0,0:0:0:0:
352,96,485093,1,8,0:0:0:0:
352,96,485161,1,8,0:0:0:0:
160,96,485229,1,0,0:0:0:0:
160,96,485297,1,0,0:0:0:0:
352,288,485366,1,12,0:0:0:0:
256,192,485502,12,0,487275,0:0:0:0:
256,192,487548,12,0,489457,0:0:0:0:
256,192,489729,12,0,491638,0:0:0:0:
352,96,491911,5,8,0:0:0:0:
352,96,494093,1,8,0:0:0:0:
