osu file format v14

[General]
AudioFilename: audio.mp3
AudioLeadIn: 0
PreviewTime: 57539
Countdown: 0
SampleSet: None
StackLeniency: 0.3
Mode: 0
LetterboxInBreaks: 0
WidescreenStoryboard: 1

[Editor]
DistanceSpacing: 1.1
BeatDivisor: 4
GridSize: 4
TimelineZoom: 2.899999

[Metadata]
Title:Yomi yori Kikoyu, Koukoku n
TitleUnicode:黄泉より聴こゆ、皇国の燈と焔の少女。
Artist:Imperial Circus Dead Decadence
ArtistUnicode:Imperial Circus Dead Decadence
Creator:T r i s t a n
Version:The Girl with the Flame of the Empire
Source:
Tags:Rib:y(uhki) KIMI ICDD Hull KIM marathon deathstream stream jumpstream spacestream jump
BeatmapID:1306086
BeatmapSetID:563058

[Difficulty]
HPDrainRate:6
CircleSize:4
OverallDifficulty:8
ApproachRate:10
SliderMultiplier:1.7
SliderTickRate:1

[Events]
//Background and Video events
0,0,"7721948_p0.jpg",0,0
//Break Periods
2,53665,54895
2,119256,120350
2,121438,122804
2,123620,124713
2,192211,207895
2,307847,309379
2,335120,336379
2,337438,338833
2,370029,387924
//Storyboard Layer 0 (Background)
//Storyboard Layer 1 (Fail)
//Storyboard Layer 2 (Pass)
//Storyboard Layer 3 (Foreground)
//Storyboard Sound Samples

[TimingPoints]
1102,272.727272727273,4,3,1,80,1,0
1185,-100,4,3,1,80,0,0
2207,-100,4,3,1,80,0,0
3162,-100,4,3,1,60,0,0
3298,-100,4,3,1,80,0,0
3367,-100,4,3,1,30,0,0
4389,-100,4,3,1,80,0,0
5548,-100,4,3,1,30,0,0
5957,-100,4,3,1,20,0,0
6162,-100,4,3,1,30,0,0
7647,-100,4,3,1,80,0,0
7662,-100,4,3,1,65,0,0
9829,-90.9090909090909,4,3,1,64,0,0
17465,-100,4,3,1,62,0,0
18556,-76.9230769230769,4,3,1,65,0,0
18829,-90.9090909090909,4,3,1,65,0,0
26192,-100,4,3,1,65,0,0
43647,-66.6666666666667,4,3,1,65,0,0
44738,-111.111111111111,4,3,1,65,0,0
45556,-111.111111111111,4,3,1,5,0,0
45829,-111.111111111111,4,3,1,65,0,0
46374,-100,4,3,1,65,0,0
46920,-100,4,3,1,56,0,0
49102,-100,4,3,1,5,0,0
51147,-100,4,3,1,65,0,0
52783,-133.333333333333,4,3,1,65,0,0
56738,-100,4,3,1,65,0,0
56738,-100,4,3,1,45,0,0
57829,-100,4,3,1,65,0,0
60215,-100,4,3,1,5,0,0
60283,-100,4,3,1,65,0,0
60488,-100,4,3,1,5,0,0
60556,-100,4,3,1,65,0,0
60761,-100,4,3,1,5,0,0
60829,-100,4,3,1,65,0,0
62465,-100,4,3,1,65,0,0
74192,-100,4,3,1,50,0,0
74465,-100,4,3,1,60,0,0
75283,-100,4,3,1,65,0,0
84283,-100,4,3,1,65,0,0
84556,-100,4,3,1,65,0,0
87488,-100,4,3,1,5,0,0
87556,-100,4,3,1,65,0,0
87761,-100,4,3,1,5,0,0
87829,-100,4,3,1,65,0,0
88033,-100,4,3,1,5,0,0
88102,-100,4,3,1,65,0,0
88306,-100,4,3,1,5,0,0
88374,-66.6666666666667,4,3,1,65,0,0
88647,-100,4,3,1,65,0,0
91852,-100,4,3,1,5,0,0
91920,-100,4,3,1,65,0,0
92124,-100,4,3,1,5,0,0
92192,-100,4,3,1,60,0,0
92397,-100,4,3,1,5,0,0
92465,-100,4,3,1,55,0,0
92670,-100,4,3,1,5,0,0
92738,-100,4,3,1,65,0,0
95124,-100,4,3,1,5,0,0
95192,-100,4,3,1,65,0,0
95397,-100,4,3,1,5,0,0
95465,-100,4,3,1,65,0,0
95670,-100,4,3,1,5,0,0
95738,-100,4,3,1,65,0,0
95942,-100,4,3,1,5,0,0
96011,-100,4,3,1,65,0,0
96215,-100,4,3,1,5,0,0
96283,-100,4,3,1,65,0,0
96488,-100,4,3,1,5,0,0
96556,-100,4,3,1,65,0,0
96761,-100,4,3,1,5,0,0
96829,-100,4,3,1,65,0,0
100579,-100,4,3,1,5,0,0
100647,-100,4,3,1,65,0,0
100852,-100,4,3,1,5,0,0
100920,-100,4,3,1,65,0,0
101124,-100,4,3,1,5,0,0
101192,-100,4,3,1,65,0,0
110192,-83.3333333333333,4,3,1,65,0,1
119056,-83.3333333333333,4,3,1,65,0,0
127647,-90.9090909090909,4,3,1,65,0,0
132011,-100,4,3,1,60,0,0
135420,-100,4,3,1,55,0,0
136374,-90.9090909090909,4,3,1,65,0,0
140738,-90.9090909090909,4,3,1,55,0,0
143874,-90.9090909090909,4,3,1,45,0,0
145102,-90.9090909090909,4,3,1,60,0,0
153829,-90.9090909090909,4,3,1,55,0,0
162147,-90.9090909090909,4,3,1,30,0,0
164670,-90.9090909090909,4,3,1,5,0,0
164738,-100,4,3,1,30,0,0
165761,-100,4,3,1,5,0,0
165829,-100,4,3,1,70,0,1
174556,-90.9090909090909,4,3,1,70,0,1
182192,-133.333333333333,4,3,1,70,0,1
183215,-133.333333333333,4,3,1,5,0,1
183283,-100,4,3,1,70,0,0
187715,-100,4,3,1,5,0,0
208374,-166.666666666667,4,3,1,50,0,0
225624,-111.111111111111,4,3,1,55,0,0
226920,-83.3333333333333,4,3,1,70,0,1
231011,-125,4,3,1,70,0,1
231283,-83.3333333333333,4,3,1,70,0,1
244374,-76.9230769230769,4,3,1,70,0,0
244647,-76.9230769230769,4,3,1,55,0,0
245192,-76.9230769230769,4,3,1,70,0,0
251207,-76.9230769230769,4,3,1,60,0,0
252026,-76.9230769230769,4,3,1,65,0,0
253102,-100,4,3,1,55,0,0
259662,-83.3333333333333,4,3,1,60,0,0
261829,-100,4,3,1,40,0,0
274920,-83.3333333333333,4,3,1,70,0,1
290670,-83.3333333333333,4,3,1,5,0,1
290738,-83.3333333333333,4,3,1,70,0,1
292374,-100,4,3,1,70,0,0
295783,-83.3333333333333,4,3,1,55,0,0
296192,-83.3333333333333,4,3,1,52,0,0
296329,-83.3333333333333,4,3,1,48,0,0
296465,-83.3333333333333,4,3,1,45,0,0
296602,-83.3333333333333,4,3,1,42,0,0
296738,-100,4,3,1,60,0,0
301102,-90.9090909090909,4,3,1,60,0,0
309761,-66.6666666666667,4,3,1,65,0,0
318556,-90.9090909090909,4,3,1,60,0,0
327011,-90.9090909090909,4,3,1,5,0,0
327283,-76.9230769230769,4,3,1,70,0,0
330556,-66.6666666666667,4,3,1,70,0,0
330965,-76.9230769230769,4,3,1,5,0,0
331102,-76.9230769230769,4,3,1,70,0,0
334920,-83.3333333333333,4,3,1,70,0,0
339283,-100,4,3,1,80,0,0
341480,-200,4,3,1,50,0,0
342298,-100,4,3,1,60,0,0
343647,-83.3333333333333,4,3,1,70,0,0
352374,-90.9090909090909,4,3,1,60,0,1
361102,-83.3333333333333,4,3,1,60,0,1
365465,-90.9090909090909,4,3,1,60,0,0
369829,-90.9090909090909,4,3,1,20,0,0
388374,-90.9090909090909,4,3,1,75,0,0
388852,-90.9090909090909,4,3,1,5,0,0
388920,-90.9090909090909,4,3,1,75,0,0
389465,-100,4,3,1,70,0,1
405829,-133.333333333333,4,3,1,70,0,1
406374,-111.111111111111,4,3,1,70,0,1
406920,-90.9090909090909,4,3,1,70,0,1
423761,-90.9090909090909,4,3,1,5,0,1
423829,-90.9090909090909,4,3,1,75,0,1
424374,-100,4,3,1,60,0,0
428738,-153.846153846154,4,3,1,55,0,0
462829,-200,4,3,1,55,0,0
462844,-200,4,3,1,5,0,0
463511,272.727272727273,4,3,1,5,1,0
463511,-83.3333333333333,4,3,1,70,0,1
464738,-83.3333333333333,4,3,1,70,0,1
472306,-90.9090909090909,4,3,1,70,0,0
481045,-111.111111111111,4,3,1,60,0,0
485409,-111.111111111111,4,1,1,60,0,0
485478,-83.3333333333333,4,1,2,50,0,0
487591,-83.3333333333333,4,1,3,40,0,0
489772,-83.3333333333333,4,1,4,30,0,0
491954,-83.3333333333333,4,1,4,20,0,0

[Colours]
Combo1 : 67,79,107
Combo2 : 255,0,6
Combo3 : 91,0,0
Combo4 : 128,128,128
Combo5 : 78,78,78
Combo6 : 219,219,219

[HitObjects]
72,64,1102,5,0,3:3:0:0:
76,112,1170,1,0,3:3:0:0:
84,152,1238,1,0,3:3:0:0:
104,188,1306,1,0,3:3:0:0:
132,220,1374,1,0,3:3:0:0:
168,240,1442,1,0,3:3:0:0:
212,248,1511,1,0,3:3:0:0:
256,240,1579,1,0,3:3:0:0:
292,208,1647,1,0,3:3:0:0:
312,168,1715,1,0,3:3:0:0:
344,132,1783,1,0,3:3:0:0:
388,112,1852,1,0,3:3:0:0:
432,124,1920,1,0,3:3:0:0:
464,164,1988,1,0,3:3:0:0:
464,216,2056,1,0,3:3:0:0:
436,256,2124,1,0,0:0:0:0:
392,268,2192,6,8,P|312:264|192:220,1,170,8|0,0:0|0:0,0:0:0:0:
100,184,2738,2,8,P|196:156|272:160,1,170,8|0,0:0|0:0,0:0:0:0:
448,48,3283,5,0,0:0:0:0:
460,96,3352,1,0,0:0:0:0:
468,144,3420,1,0,0:0:0:0:
468,192,3488,1,0,0:0:0:0:
452,240,3556,1,0,0:0:0:0:
424,280,3624,1,0,0:0:0:0:
380,312,3692,1,0,0:0:0:0:
328,328,3761,1,0,0:0:0:0:
276,328,3829,2,0,P|256:328|232:324,3,42.5
224,252,4102,2,0,P|204:252|180:256,3,42.5
168,352,4374,6,8,P|100:292|96:208,1,170
200,244,4920,2,8,P|276:268|372:208,1,170
204,92,5465,5,0,0:0:0:0:
160,132,5533,1,0,0:0:0:0:
136,184,5602,1,0,0:0:0:0:
128,240,5670,1,0,0:0:0:0:
140,292,5738,1,0,0:0:0:0:
180,336,5806,1,0,0:0:0:0:
236,360,5874,1,0,0:0:0:0:
292,360,5942,1,0,0:0:0:0:
348,336,6011,1,0,0:0:0:0:
392,296,6079,1,0,0:0:0:0:
420,244,6147,1,0,0:0:0:0:
436,184,6215,1,0,0:0:0:0:
440,132,6283,2,0,P|440:108|428:84,3,42.5
368,40,6556,6,0,P|296:112|300:200,1,170,8|0,0:0|0:0,0:0:0:0:
412,156,7102,2,0,P|484:228|480:316,1,170,8|0,0:0|0:0,0:0:0:0:
344,344,7647,5,8,0:0:0:0:
216,284,7920,2,0,P|180:264|160:244,3,42.5,0|0|0|0,0:2|0:2|0:0|0:0,0:0:0:0:
212,200,8192,2,0,P|194:188|175:179,3,42.5,0|0|0|0,0:2|0:2|0:0|0:0,0:0:0:0:
136,172,8465,1,0,0:2:0:0:
92,160,8533,1,0,0:0:0:0:
60,136,8602,1,0,0:0:0:0:
36,104,8670,1,0,0:0:0:0:
32,60,8738,2,0,P|92:56|200:96,1,170,2|0,0:3|0:0,0:0:0:0:
272,164,9147,1,0,0:0:0:0:
88,176,9283,1,0,0:2:0:0:
368,56,9556,1,8,2:2:0:0:
108,44,9829,6,8,P|92:104|176:180,1,187.000005706787,10|8,0:0|0:0,0:0:0:0:
168,96,10170,1,0,0:0:0:0:
208,72,10238,1,0,0:0:0:0:
253,60,10306,1,0,0:0:0:0:
300,60,10374,1,8,0:0:0:0:
345,72,10442,1,0,0:0:0:0:
385,95,10510,1,0,0:0:0:0:
418,128,10579,1,0,0:0:0:0:
442,168,10647,1,8,0:0:0:0:
455,213,10715,1,0,0:0:0:0:
455,259,10783,1,0,0:0:0:0:
444,305,10852,2,0,L|416:348,1,46.7500014266968,0|8,0:0|0:0,0:0:0:0:
364,296,10988,5,0,0:0:0:0:
324,321,11056,1,0,0:0:0:0:
280,333,11124,1,0,0:0:0:0:
233,331,11193,1,8,0:0:0:0:
189,315,11260,1,0,0:0:0:0:
153,287,11328,1,0,0:0:0:0:
126,248,11397,1,0,0:0:0:0:
112,204,11466,1,8,0:0:0:0:
114,157,11533,1,0,0:0:0:0:
129,113,11601,1,0,0:0:0:0:
157,76,11669,1,0,0:0:0:0:
195,49,11738,1,8,0:0:0:0:
239,34,11806,1,0,0:0:0:0:
286,34,11874,1,0,0:0:0:0:
330,49,11942,1,0,0:0:0:0:
344,80,12011,5,8,0:0:0:0:
314,89,12079,1,0,0:0:0:0:
288,106,12147,1,0,0:0:0:0:
267,129,12215,1,0,0:0:0:0:
253,157,12283,1,8,0:0:0:0:
248,188,12351,1,0,0:0:0:0:
251,219,12420,1,0,0:0:0:0:
262,248,12488,1,0,0:0:0:0:
280,272,12556,6,0,L|312:312,3,46.7500014266968,8|0|0|0,0:0|0:0|0:0|0:0,0:0:0:0:
324,208,12829,2,0,L|294:171,3,46.7500014266968,8|0|0|0,0:0|0:0|0:0|0:0,0:0:0:0:
400,184,13102,2,0,L|429:220,3,46.7500014266968,8|0|0|0,0:0|0:0|0:0|0:0,0:0:0:0:
444,112,13374,2,0,L|414:75,3,46.7500014266968,8|0|0|0,0:0|0:0|0:0|0:0,0:0:0:0:
392,48,13647,1,8,0:0:0:0:
349,28,13715,1,0,0:0:0:0:
303,23,13783,1,0,0:0:0:0:
257,32,13851,1,0,0:0:0:0:
216,54,13920,1,8,0:0:0:0:
184,88,13987,1,0,0:0:0:0:
164,130,14056,1,0,0:0:0:0:
157,176,14124,1,0,0:0:0:0:
168,220,14192,5,8,0:0:0:0:
217,179,14260,1,0,0:0:0:0:
282,176,14328,1,8,0:0:0:0:
335,213,14396,1,0,0:0:0:0:
352,272,14465,5,8,0:0:0:0:
287,263,14533,1,0,0:0:0:0:
239,221,14601,1,8,0:0:0:0:
222,159,14669,1,0,0:0:0:0:
242,98,14737,1,8,0:0:0:0:
293,58,14805,1,0,0:0:0:0:
356,44,14874,1,8,0:0:0:0:
416,56,14942,1,0,0:0:0:0:
460,96,15011,1,8,0:0:0:0:
453,161,15079,1,0,0:0:0:0:
447,226,15147,1,8,0:0:0:0:
441,291,15215,1,0,0:0:0:0:
436,348,15283,5,8,0:0:0:0:
371,340,15351,1,0,0:0:0:0:
307,323,15419,1,8,0:0:0:0:
247,298,15487,1,0,0:0:0:0:
191,265,15555,1,8,0:0:0:0:
139,224,15623,1,0,0:0:0:0:
94,177,15692,1,8,0:0:0:0:
55,124,15760,1,0,0:0:0:0:
36,72,15829,5,8,0:0:0:0:
36,126,15897,1,0,0:0:0:0:
50,179,15965,1,8,0:0:0:0:
78,227,16033,1,0,0:0:0:0:
117,266,16101,1,8,0:0:0:0:
165,292,16169,1,0,0:0:0:0:
220,305,16238,2,0,L|285:312,1,46.7500014266968,8|0,0:0|0:0,0:0:0:0:
241,228,16374,1,8,0:0:0:0:
264,232,16442,1,0,0:0:0:0:
286,230,16511,1,0,0:0:0:0:
307,223,16578,1,0,0:0:0:0:
326,210,16646,1,0,0:0:0:0:
340,193,16714,1,0,0:0:0:0:
350,173,16783,1,8,0:0:0:0:
353,151,16852,1,0,0:0:0:0:
352,129,16919,1,0,0:0:0:0:
344,107,16987,1,0,0:0:0:0:
331,89,17055,1,0,0:0:0:0:
314,75,17124,1,0,0:0:0:0:
294,66,17192,1,8,0:0:0:0:
271,62,17260,1,0,0:0:0:0:
249,65,17328,1,0,0:0:0:0:
228,73,17396,1,0,0:0:0:0:
211,83,17465,6,10,P|159:140|159:238,1,170
312,296,18011,2,10,L|312:112,1,170,8|8,0:0|0:0,0:0:0:0:
236,216,18556,2,0,L|468:216,1,220.999989883423,10|8,0:0|0:0,0:0:0:0:
480,216,18897,5,0,0:0:0:0:
459,188,18965,1,0,0:0:0:0:
435,164,19033,1,0,0:0:0:0:
407,145,19102,1,8,0:0:0:0:
376,130,19169,1,0,0:0:0:0:
344,120,19237,1,0,0:0:0:0:
310,116,19306,1,0,0:0:0:0:
276,117,19375,1,8,0:0:0:0:
242,123,19442,1,0,0:0:0:0:
212,136,19511,2,0,P|180:156|160:168,1,46.7500014266968
128,88,19648,5,8,0:0:0:0:
102,110,19715,1,0,0:0:0:0:
84,139,19783,1,0,0:0:0:0:
73,171,19851,1,0,0:0:0:0:
70,205,19920,1,8,0:0:0:0:
76,238,19987,1,0,0:0:0:0:
91,269,20056,1,0,0:0:0:0:
112,295,20124,1,0,0:0:0:0:
140,315,20192,1,8,0:0:0:0:
172,327,20260,1,0,0:0:0:0:
206,331,20328,1,0,0:0:0:0:
239,326,20397,1,0,0:0:0:0:
271,313,20465,1,8,0:0:0:0:
298,293,20533,1,0,0:0:0:0:
319,266,20601,1,0,0:0:0:0:
332,234,20670,1,0,0:0:0:0:
336,200,20738,5,8,0:0:0:0:
340,164,20806,1,0,0:0:0:0:
341,130,20874,1,0,0:0:0:0:
352,97,20942,1,0,0:0:0:0:
372,69,21011,1,8,0:0:0:0:
398,47,21078,1,0,0:0:0:0:
429,33,21146,1,0,0:0:0:0:
462,28,21215,1,0,0:0:0:0:
496,28,21283,5,8,0:0:0:0:
497,74,21351,1,0,0:0:0:0:
482,118,21419,1,0,0:0:0:0:
452,154,21487,1,0,0:0:0:0:
424,192,21556,1,8,0:0:0:0:
402,233,21624,1,0,0:0:0:0:
400,279,21692,1,0,0:0:0:0:
417,322,21760,1,0,0:0:0:0:
452,360,21829,5,8,0:0:0:0:
480,323,21897,1,0,0:0:0:0:
495,279,21965,1,0,0:0:0:0:
495,232,22033,1,0,0:0:0:0:
488,188,22102,1,8,0:0:0:0:
472,144,22170,1,0,0:0:0:0:
443,107,22238,1,0,0:0:0:0:
403,83,22306,1,0,0:0:0:0:
356,72,22374,6,0,L|300:64,3,46.7500014266968,8|0|0|0,0:0|0:0|0:0|0:0,0:0:0:0:
296,136,22647,2,0,L|240:128,3,46.7500014266968,8|0|0|0,0:0|0:0|0:0|0:0,0:0:0:0:
192,176,22921,5,8,0:0:0:0:
132,175,22988,1,0,0:0:0:0:
83,210,23057,1,8,0:0:0:0:
66,267,23124,1,0,0:0:0:0:
86,323,23193,1,8,0:0:0:0:
136,356,23260,1,0,0:0:0:0:
195,353,23330,1,8,0:0:0:0:
241,314,23397,1,0,0:0:0:0:
256,256,23466,1,8,0:0:0:0:
266,191,23533,1,0,0:0:0:0:
277,126,23602,1,8,0:0:0:0:
288,62,23669,1,0,0:0:0:0:
338,25,23738,1,8,0:0:0:0:
400,39,23805,1,0,0:0:0:0:
426,96,23874,1,8,0:0:0:0:
400,152,23942,1,0,0:0:0:0:
348,172,24011,5,8,0:0:0:0:
282,172,24079,1,0,0:0:0:0:
217,172,24147,1,8,0:0:0:0:
152,172,24215,1,0,0:0:0:0:
84,172,24283,1,8,0:0:0:0:
47,224,24351,1,0,0:0:0:0:
60,287,24419,1,8,0:0:0:0:
113,321,24487,1,0,0:0:0:0:
176,296,24556,5,8,0:0:0:0:
230,328,24624,1,0,0:0:0:0:
290,308,24692,1,8,0:0:0:0:
312,248,24760,1,0,0:0:0:0:
280,193,24828,1,8,0:0:0:0:
218,183,24896,1,0,0:0:0:0:
170,224,24965,1,8,0:0:0:0:
108,232,25033,1,0,0:0:0:0:
56,208,25102,5,8,0:0:0:0:
46,177,25170,1,0,0:0:0:0:
45,146,25238,1,0,0:0:0:0:
54,116,25306,1,0,0:0:0:0:
72,91,25374,1,0,0:0:0:0:
98,73,25442,1,0,0:0:0:0:
127,62,25511,1,8,0:0:0:0:
158,63,25579,1,0,0:0:0:0:
188,72,25647,1,0,0:0:0:0:
216,84,25715,1,0,0:0:0:0:
235,94,25783,1,0,0:0:0:0:
255,104,25851,1,0,0:0:0:0:
275,114,25920,1,8,0:0:0:0:
295,125,25987,1,0,0:0:0:0:
315,135,26055,1,0,0:0:0:0:
335,145,26124,1,0,0:0:0:0:
352,156,26192,6,10,P|412:220|396:308,1,170,10|0,0:0|0:0,0:0:0:0:
162,282,26738,2,10,L|328:244,1,170
144,80,27283,5,0,0:0:0:0:
56,264,27420,1,0,0:0:0:0:
284,316,27556,1,0,0:0:0:0:
48,112,27692,1,0,0:0:0:0:
324,196,27829,1,0,0:0:0:0:
68,192,27965,1,0,0:0:0:0:
336,292,28102,1,0,0:0:0:0:
168,68,28238,1,0,0:0:0:0:
328,96,28374,5,0,0:0:0:0:
104,224,28511,1,0,0:0:0:0:
384,200,28647,1,0,0:0:0:0:
304,32,28783,1,0,0:0:0:0:
280,332,28920,1,0,0:0:0:0:
156,40,29056,1,0,0:0:0:0:
348,164,29192,1,0,0:0:0:0:
72,124,29329,1,0,0:0:0:0:
144,304,29465,6,0,P|192:332|232:336,1,85
384,96,29738,1,0,0:0:0:0:
120,92,29874,1,0,0:0:0:0:
336,32,30011,1,0,0:0:0:0:
224,232,30147,1,0,0:0:0:0:
196,28,30283,1,0,0:0:0:0:
136,224,30420,1,0,0:0:0:0:
388,112,30556,5,0,0:0:0:0:
448,304,30692,1,0,0:0:0:0:
280,136,30829,1,0,0:0:0:0:
320,332,30965,1,0,0:0:0:0:
188,224,31102,1,0,0:0:0:0:
384,192,31238,1,0,0:0:0:0:
228,312,31374,1,0,0:0:0:0:
276,128,31511,1,0,0:0:0:0:
108,296,31647,6,0,P|140:332|188:344,1,85
432,128,31920,1,0,0:0:0:0:
244,136,32056,1,0,0:0:0:0:
360,328,32192,1,0,0:0:0:0:
472,200,32329,1,0,0:0:0:0:
212,260,32465,1,0,0:0:0:0:
60,88,32602,1,0,0:0:0:0:
240,40,32738,6,0,P|280:92|288:128,1,85
196,328,33011,1,0,0:0:0:0:
408,228,33147,1,0,0:0:0:0:
160,212,33283,1,0,0:0:0:0:
360,52,33420,1,0,0:0:0:0:
260,216,33556,1,0,0:0:0:0:
136,40,33692,1,0,0:0:0:0:
368,44,33829,6,0,P|436:40|472:44,1,85
280,336,34102,1,0,0:0:0:0:
184,272,34238,1,0,0:0:0:0:
460,112,34374,1,0,0:0:0:0:
416,240,34511,1,0,0:0:0:0:
148,88,34647,1,0,0:0:0:0:
304,292,34783,1,0,0:0:0:0:
416,96,34920,6,0,P|415:54|428:0,1,85
328,116,35192,2,0,P|336:157|335:199,1,85
252,168,35465,2,0,P|208:160|164:160,1,85
80,160,35738,2,0,P|84:208|108:240,1,85
292,312,36011,5,0,0:0:0:0:
321,323,36079,1,0,0:0:0:0:
352,326,36147,1,0,0:0:0:0:
383,322,36215,1,0,0:0:0:0:
412,310,36283,1,0,0:0:0:0:
437,291,36351,1,0,0:0:0:0:
457,267,36420,1,0,0:0:0:0:
469,238,36488,1,0,0:0:0:0:
475,207,36556,1,0,0:0:0:0:
472,176,36624,1,0,0:0:0:0:
462,146,36692,1,0,0:0:0:0:
444,120,36760,1,0,0:0:0:0:
421,99,36829,1,0,0:0:0:0:
393,85,36897,1,0,0:0:0:0:
362,78,36965,1,0,0:0:0:0:
331,79,37033,1,0,0:0:0:0:
304,80,37102,5,0,0:0:0:0:
283,81,37170,1,0,0:0:0:0:
263,84,37238,1,0,0:0:0:0:
244,91,37306,1,0,0:0:0:0:
225,100,37374,1,0,0:0:0:0:
208,111,37442,1,0,0:0:0:0:
193,124,37511,1,0,0:0:0:0:
180,140,37579,1,0,0:0:0:0:
169,157,37647,1,0,0:0:0:0:
160,175,37715,1,0,0:0:0:0:
154,195,37783,1,0,0:0:0:0:
150,215,37851,1,0,0:0:0:0:
149,235,37920,1,0,0:0:0:0:
151,255,37988,1,0,0:0:0:0:
156,275,38056,1,0,0:0:0:0:
163,294,38124,1,0,0:0:0:0:
176,320,38192,5,0,0:0:0:0:
192,314,38260,1,0,0:0:0:0:
207,307,38328,1,0,0:0:0:0:
221,298,38396,1,0,0:0:0:0:
235,288,38464,1,0,0:0:0:0:
248,276,38532,1,0,0:0:0:0:
259,264,38601,1,0,0:0:0:0:
269,250,38669,1,0,0:0:0:0:
278,236,38737,1,0,0:0:0:0:
286,220,38805,1,0,0:0:0:0:
292,204,38873,1,0,0:0:0:0:
296,188,38941,1,0,0:0:0:0:
298,171,39010,1,0,0:0:0:0:
299,154,39078,1,0,0:0:0:0:
299,137,39146,1,0,0:0:0:0:
296,120,39214,1,0,0:0:0:0:
292,104,39283,5,0,0:0:0:0:
261,110,39351,1,0,0:0:0:0:
232,122,39419,1,0,0:0:0:0:
206,140,39487,1,0,0:0:0:0:
185,163,39555,1,0,0:0:0:0:
169,190,39623,1,0,0:0:0:0:
159,220,39692,1,0,0:0:0:0:
155,251,39760,1,0,0:0:0:0:
158,282,39828,1,0,0:0:0:0:
164,312,39897,1,0,0:0:0:0:
206,312,39965,1,0,0:0:0:0:
249,312,40033,1,0,0:0:0:0:
291,312,40101,1,0,0:0:0:0:
334,312,40169,1,0,0:0:0:0:
376,312,40237,1,0,0:0:0:0:
419,312,40306,1,0,0:0:0:0:
452,312,40374,6,0,B|476:232|464:176|432:124|432:124|384:168|324:200|240:204|176:160|144:116|136:80|136:80,1,510
136,88,41261,1,0,0:0:0:0:
116,60,41329,1,0,0:0:0:0:
100,32,41397,1,0,0:0:0:0:
80,0,41465,6,0,B|24:168|140:288|140:288|148:216|236:200|268:220|296:248|296:248|280:204|304:156,1,595
312,136,42488,1,0,0:0:0:0:
328,108,42556,5,0,0:0:0:0:
368,121,42624,1,0,0:0:0:0:
401,148,42692,1,0,0:0:0:0:
423,184,42760,1,0,0:0:0:0:
431,225,42828,1,0,0:0:0:0:
425,267,42896,1,0,0:0:0:0:
405,304,42965,1,0,0:0:0:0:
374,333,43033,1,0,0:0:0:0:
335,349,43101,1,0,0:0:0:0:
288,356,43170,1,0,0:0:0:0:
305,317,43238,1,0,0:0:0:0:
312,275,43306,1,0,0:0:0:0:
307,233,43374,1,0,0:0:0:0:
291,194,43442,1,0,0:0:0:0:
265,161,43510,1,0,0:0:0:0:
230,136,43579,1,0,0:0:0:0:
192,120,43647,6,0,P|128:216|204:328,1,255.000009727478
239,222,44192,2,0,B|448:232|448:232|480:228|496:200|488:160,1,255.000009727478
352,80,44738,2,0,B|308:52|308:52|272:112|272:112|216:60|216:60|180:132|180:132|132:72|132:72|96:152|76:192,1,458.999985992432
32,312,45829,5,14,0:0:0:0:
288,200,46374,2,0,B|344:180|380:164|380:164|412:148|432:112|424:64|400:44|400:44|312:80,1,297.5
320,80,46920,5,0,0:0:0:0:
280,96,46988,1,0,0:0:0:0:
241,112,47056,1,0,0:0:0:0:
202,129,47124,1,0,0:0:0:0:
163,145,47192,1,0,0:0:0:0:
124,162,47260,1,0,0:0:0:0:
88,180,47329,1,0,0:0:0:0:
56,208,47397,1,0,0:0:0:0:
46,248,47465,1,0,0:0:0:0:
63,286,47533,1,0,0:0:0:0:
98,308,47601,1,0,0:0:0:0:
140,304,47669,1,0,0:0:0:0:
180,288,47738,1,0,0:0:0:0:
215,264,47806,1,0,0:0:0:0:
250,240,47874,1,0,0:0:0:0:
286,217,47942,1,0,0:0:0:0:
320,192,48011,5,0,0:0:0:0:
349,220,48079,1,0,0:0:0:0:
353,262,48147,1,0,0:0:0:0:
329,295,48215,1,0,0:0:0:0:
288,305,48283,1,0,0:0:0:0:
252,285,48351,1,0,0:0:0:0:
224,252,48420,1,0,0:0:0:0:
200,216,48488,1,0,0:0:0:0:
177,180,48556,1,0,0:0:0:0:
154,145,48624,1,0,0:0:0:0:
130,109,48692,1,0,0:0:0:0:
129,68,48760,1,0,0:0:0:0:
153,34,48828,1,0,0:0:0:0:
193,21,48896,1,0,0:0:0:0:
232,36,48964,1,0,0:0:0:0:
253,72,49032,1,0,0:0:0:0:
248,113,49101,5,0,0:0:0:0:
256,192,49170,12,0,50874,0:0:0:0:
312,176,51147,6,8,L|356:152,3,42.5
380,136,51420,1,0,0:0:0:0:
400,104,51488,1,0,0:0:0:0:
408,56,51556,1,0,0:0:0:0:
396,16,51624,1,0,0:0:0:0:
432,28,51692,5,0,0:0:0:0:
456,52,51761,1,0,0:0:0:0:
468,84,51829,1,0,0:0:0:0:
472,112,51897,1,0,0:0:0:0:
468,144,51965,1,0,0:0:0:0:
456,176,52033,1,0,0:0:0:0:
444,200,52102,2,0,P|428:232|416:244,3,42.5,0|0|8|8,0:0|0:0|0:0|0:0,0:0:0:0:
340,284,52374,2,0,P|327:266|319:247,3,42.5,8|8|0|0,0:0|0:0|0:0|0:0,0:0:0:0:
312,224,52647,1,0,0:0:0:0:
304,196,52715,1,0,0:0:0:0:
296,168,52783,2,0,P|292:120|300:80,2,63.7500024318696,0|8|0,0:0|0:0|0:0,0:0:0:0:
376,312,53192,1,8,0:0:0:0:
184,108,53465,5,14,0:0:0:0:
116,168,55374,5,0,0:0:0:0:
408,304,55647,1,0,0:0:0:0:
256,192,55715,12,0,56602,0:0:0:0:
176,148,56738,6,8,L|136:184,3,42.5
228,208,57011,2,4,L|259:179,3,42.5
268,272,57283,2,8,L|236:300,3,42.5
344,200,57556,1,0,0:0:0:0:
320,72,57829,6,0,P|272:60|232:64,1,85
56,208,58102,1,8,0:0:0:0:
284,324,58238,1,0,0:0:0:0:
200,144,58374,2,0,P|164:92|112:68,1,85
56,328,58647,1,8,0:0:0:0:
292,184,58783,1,0,0:0:0:0:
460,40,58920,6,0,P|484:80|460:144,1,85
324,324,59192,1,8,0:0:0:0:
336,88,59329,1,0,0:0:0:0:
200,280,59465,1,0,0:0:0:0:
192,28,59602,1,0,0:0:0:0:
80,152,59738,1,8,0:0:0:0:
348,159,59874,1,8,0:0:0:0:
432,112,60011,6,0,P|364:64|304:72,1,127.5
322,65,60283,2,0,P|290:101|214:113,1,127.5,8|0,0:0|0:0,0:0:0:0:
214,113,60556,2,0,P|156:168|168:220,1,127.5
161,208,60829,2,0,P|202:239|208:328,1,127.5,8|0,0:0|0:0,0:0:0:0:
140,288,61102,5,0,0:0:0:0:
360,136,61238,1,0,0:0:0:0:
136,48,61374,2,0,P|80:40|36:52,1,85,8|0,0:0|0:0,0:0:0:0:
214,310,61647,1,0,0:0:0:0:
412,60,61783,1,0,0:0:0:0:
152,184,61920,1,8,0:0:0:0:
436,244,62056,1,0,0:0:0:0:
244,44,62192,5,0,0:0:0:0:
244,44,62261,1,0,0:0:0:0:
244,44,62329,1,0,0:0:0:0:
160,204,62465,2,0,L|108:312,1,85,8|0,0:0|0:0,0:0:0:0:
124,100,62738,1,0,0:0:0:0:
124,100,62807,1,0,0:0:0:0:
124,100,62875,1,0,0:0:0:0:
228,292,63011,1,8,0:0:0:0:
428,192,63147,1,0,0:0:0:0:
276,37,63283,6,0,P|196:51|164:128,1,170,14|8,0:2|0:0,0:0:0:0:
244,116,63692,2,0,P|230:196|152:260,1,170,14|0,0:2|0:0,0:0:0:0:
132,144,64102,1,8,0:0:0:0:
424,72,64374,5,0,0:0:0:0:
427,92,64442,1,0,0:0:0:0:
428,114,64510,1,0,0:0:0:0:
426,135,64578,1,0,0:0:0:0:
420,155,64646,1,8,0:0:0:0:
411,174,64714,1,8,0:0:0:0:
399,192,64783,1,8,0:0:0:0:
384,207,64851,1,8,0:0:0:0:
367,220,64919,1,0,0:0:0:0:
349,230,64987,1,0,0:0:0:0:
329,237,65055,1,0,0:0:0:0:
308,241,65123,1,0,0:0:0:0:
287,242,65192,1,8,0:0:0:0:
266,239,65260,1,8,0:0:0:0:
245,233,65328,1,8,0:0:0:0:
226,224,65396,1,8,0:0:0:0:
209,212,65464,5,8,0:0:0:0:
40,52,65602,1,0,0:0:0:0:
240,200,65738,5,8,0:0:0:0:
120,20,65874,1,0,0:0:0:0:
280,196,66011,5,8,0:0:0:0:
216,4,66147,1,0,0:0:0:0:
300,88,66283,6,0,B|236:88|192:172|124:144,1,170,8|0,0:0|0:0,0:0:0:0:
352,304,66692,1,0,0:0:0:0:
464,88,66829,2,0,P|480:44|480:0,1,85,8|0,0:0|0:0,0:0:0:0:
188,72,67102,1,0,0:0:0:0:
424,216,67238,1,0,0:0:0:0:
168,272,67374,1,8,0:0:0:0:
384,96,67511,1,0,0:0:0:0:
172,44,67647,6,0,P|120:72|100:196,1,170,0|8,0:0|0:0,0:0:0:0:
224,352,68056,1,0,0:0:0:0:
376,160,68192,1,0,0:0:0:0:
104,312,68329,1,0,0:0:0:0:
392,272,68465,2,0,P|452:260|480:240,1,85,8|0,0:0|0:0,0:0:0:0:
256,72,68738,6,0,P|192:80|132:164,1,170,0|8,0:0|0:0,0:0:0:0:
316,332,69147,1,0,0:0:0:0:
278,74,69283,2,0,P|214:69|139:140,1,170,0|8,0:0|0:0,0:0:0:0:
288,340,69692,1,0,0:0:0:0:
310,85,69829,6,0,P|249:63|158:110,1,170,0|8,0:0|0:0,0:0:0:0:
245,343,70238,1,0,0:0:0:0:
336,102,70374,2,0,P|283:65|182:88,1,170,0|8,0:0|0:0,0:0:0:0:
206,336,70783,1,0,0:0:0:0:
428,144,70920,5,0,0:0:0:0:
144,224,71056,1,0,0:0:0:0:
392,332,71192,2,0,P|436:312|456:272,1,85,8|0,0:0|0:0,0:0:0:0:
216,80,71465,1,0,0:0:0:0:
156,340,71602,1,8,0:0:0:0:
340,156,71738,1,0,0:0:0:0:
48,124,71874,1,8,0:0:0:0:
224,64,72011,6,0,P|296:60|336:72,1,85,8|0,0:0|0:0,0:0:0:0:
440,268,72283,1,0,0:0:0:0:
200,292,72420,1,0,0:0:0:0:
440,140,72556,1,0,0:0:0:0:
200,88,72692,2,0,P|136:80|112:88,1,85,0|8,0:0|0:0,0:0:0:0:
224,304,72965,1,0,0:0:0:0:
484,148,73102,5,0,0:0:0:0:
264,24,73238,1,0,0:0:0:0:
408,236,73374,2,0,P|416:284|368:324,1,85,8|0,0:0|0:0,0:0:0:0:
132,240,73647,1,0,0:0:0:0:
396,128,73783,1,0,0:0:0:0:
252,324,73920,1,8,0:0:0:0:
112,56,74056,1,0,0:0:0:0:
248,48,74192,5,8,0:0:0:0:
290,47,74260,1,8,0:0:0:0:
330,61,74328,1,8,0:0:0:0:
362,88,74396,1,8,0:0:0:0:
384,132,74465,1,8,0:0:0:0:
384,174,74533,1,0,0:0:0:0:
370,214,74601,1,0,0:0:0:0:
343,246,74669,1,0,0:0:0:0:
304,256,74738,5,0,0:0:0:0:
283,246,74806,1,0,0:0:0:0:
264,232,74874,1,0,0:0:0:0:
249,214,74942,1,0,0:0:0:0:
239,194,75010,1,8,0:0:0:0:
234,171,75078,1,8,0:0:0:0:
234,147,75147,1,8,0:0:0:0:
240,125,75215,1,8,0:0:0:0:
248,104,75283,1,14,0:0:0:0:
404,64,75556,5,8,0:0:0:0:
352,312,75692,1,8,0:0:0:0:
168,152,75829,1,8,0:0:0:0:
452,196,75965,1,8,0:0:0:0:
212,344,76102,1,8,0:0:0:0:
272,40,76238,1,8,0:0:0:0:
272,40,76306,1,0,0:0:0:0:
272,40,76374,6,8,P|204:84|188:120,1,85
304,324,76647,1,8,0:0:0:0:
420,84,76783,1,8,0:0:0:0:
172,320,76920,1,8,0:0:0:0:
264,56,77056,1,8,0:0:0:0:
380,316,77192,1,8,0:0:0:0:
116,88,77329,1,8,0:0:0:0:
272,312,77465,5,8,0:0:0:0:
376,76,77602,2,8,P|408:112|412:156,1,85
356,316,77874,1,8,0:0:0:0:
200,120,78011,1,8,0:0:0:0:
124,320,78147,1,8,0:0:0:0:
328,152,78283,1,8,0:0:0:0:
76,232,78420,1,8,0:0:0:0:
76,232,78488,1,8,0:0:0:0:
76,232,78556,6,8,P|128:252|168:244,1,85
388,128,78829,1,8,0:0:0:0:
248,264,78965,1,8,0:0:0:0:
460,236,79102,1,8,0:0:0:0:
300,96,79238,2,8,P|236:72|204:68,2,85
464,300,79647,5,8,0:0:0:0:
180,252,79783,1,8,0:0:0:0:
448,172,79920,1,8,0:0:0:0:
176,116,80056,1,8,0:0:0:0:
364,320,80192,1,8,0:0:0:0:
280,52,80329,1,8,0:0:0:0:
440,152,80465,1,8,0:0:0:0:
208,232,80602,1,8,0:0:0:0:
208,232,80670,1,0,0:0:0:0:
208,232,80738,5,8,0:0:0:0:
356,352,80874,1,8,0:0:0:0:
264,152,81011,1,8,0:0:0:0:
392,216,81147,1,8,0:0:0:0:
148,292,81283,1,8,0:0:0:0:
272,124,81420,1,8,0:0:0:0:
308,312,81556,1,8,0:0:0:0:
404,140,81692,1,8,0:0:0:0:
264,56,81829,5,8,0:0:0:0:
226,75,81897,1,8,0:0:0:0:
197,105,81965,1,8,0:0:0:0:
179,144,82033,1,8,0:0:0:0:
176,186,82101,1,8,0:0:0:0:
187,227,82169,1,8,0:0:0:0:
211,262,82238,1,0,0:0:0:0:
245,287,82306,1,0,0:0:0:0:
284,296,82374,5,0,0:0:0:0:
274,254,82442,1,0,0:0:0:0:
281,213,82510,1,0,0:0:0:0:
302,176,82578,1,0,0:0:0:0:
335,150,82646,1,8,0:0:0:0:
376,138,82714,1,8,0:0:0:0:
418,141,82783,1,8,0:0:0:0:
455,160,82851,1,8,0:0:0:0:
484,196,82920,21,0,0:3:0:0:
468,228,82988,1,0,0:3:0:0:
440,248,83056,1,0,0:3:0:0:
408,252,83124,1,0,0:3:0:0:
372,244,83192,1,8,0:3:0:0:
348,220,83261,1,0,0:3:0:0:
316,212,83329,1,8,0:3:0:0:
280,240,83397,1,0,0:3:0:0:
276,200,83465,21,8,0:3:0:0:
292,168,83533,1,8,0:3:0:0:
316,144,83602,1,8,0:3:0:0:
348,128,83670,1,8,0:3:0:0:
380,124,83738,1,8,0:3:0:0:
412,128,83806,1,8,0:0:0:0:
444,140,83874,1,8,0:0:0:0:
472,160,83942,1,0,0:0:0:0:
484,192,84011,1,12,0:0:0:0:
168,80,84283,6,0,B|112:132|164:176|108:248,1,170,8|0,0:0|0:0,0:0:0:0:
280,340,84692,1,0,0:0:0:0:
416,260,84829,2,0,P|452:212|452:184,1,85,8|0,0:0|0:0,0:0:0:0:
300,72,85102,1,0,0:0:0:0:
172,248,85238,1,0,0:0:0:0:
372,152,85374,1,8,0:0:0:0:
120,124,85511,1,0,0:0:0:0:
424,56,85647,2,0,P|456:120|444:224,1,170,0|8,0:0|0:0,0:0:0:0:
348,312,86056,1,0,0:0:0:0:
152,148,86192,5,0,0:0:0:0:
72,312,86329,2,0,P|144:336|188:328,1,85,0|8,0:0|0:0,0:0:0:0:
344,232,86602,1,0,0:0:0:0:
448,80,86738,2,0,P|472:40|476:0,2,85,0|0|8,0:0|0:0|0:0,0:0:0:0:
344,232,87147,1,0,0:0:0:0:
216,296,87283,6,8,P|144:276|144:216,1,127.5
137,232,87556,2,8,P|192:200|200:132,1,127.5
202,140,87829,2,8,P|242:100|298:140,1,127.5
295,131,88102,2,8,P|344:192|396:172,1,127.5
384,182,88374,6,8,P|376:312|248:340,1,255.000009727478,6|8,0:0|0:0,0:0:0:0:
108,224,88783,1,0,0:0:0:0:
288,120,88920,1,0,0:0:0:0:
152,344,89056,1,0,0:0:0:0:
100,104,89192,1,8,0:0:0:0:
368,88,89329,1,0,0:0:0:0:
228,216,89465,6,0,P|176:252|136:264,1,85
128,100,89738,1,8,0:0:0:0:
320,88,89874,1,0,0:0:0:0:
216,316,90011,2,0,P|280:348|320:344,1,85
452,224,90283,1,8,0:0:0:0:
456,198,90351,1,0,0:0:0:0:
455,172,90419,1,0,0:0:0:0:
449,147,90487,1,0,0:0:0:0:
438,123,90555,5,8,0:0:0:0:
276,44,90692,1,0,0:0:0:0:
184,132,90829,1,0,0:0:0:0:
448,56,90965,1,8,0:0:0:0:
336,28,91102,1,0,0:0:0:0:
280,280,91238,1,0,0:0:0:0:
388,260,91374,1,8,0:0:0:0:
160,60,91511,1,0,0:0:0:0:
264,52,91647,6,8,P|280:104|240:176,1,127.5
250,167,91920,2,8,P|252:252|316:272,1,127.5
281,271,92192,2,8,P|336:232|404:260,1,127.5
390,246,92465,2,8,P|452:216|428:144,1,127.5
248,48,92738,5,0,0:0:0:0:
144,148,92874,1,0,0:0:0:0:
236,264,93011,2,0,P|296:256|328:228,1,85,8|0,0:0|0:0,0:0:0:0:
428,76,93283,1,0,0:0:0:0:
480,232,93420,1,0,0:0:0:0:
268,64,93556,1,8,0:0:0:0:
260,192,93692,1,0,0:0:0:0:
360,40,93829,6,0,P|416:36|456:60,1,85
404,208,94102,1,8,0:0:0:0:
276,92,94238,2,0,P|232:108|204:148,1,85
340,280,94511,1,0,0:0:0:0:
172,296,94647,2,0,P|112:284|76:240,1,85,8|0,0:0|0:0,0:0:0:0:
284,59,94920,6,0,P|308:114|375:134,1,127.5
368,136,95192,2,0,P|348:192|368:272,1,127.5,8|0,0:0|0:0,0:0:0:0:
359,257,95465,2,0,P|284:320|228:308,1,127.5
260,319,95738,2,0,B|194:293|223:239|165:194,1,127.5,8|0,0:0|0:0,0:0:0:0:
92,96,96011,5,0,0:0:0:0:
336,108,96147,1,0,0:0:0:0:
104,312,96283,2,0,P|66:269|52:225,1,85,8|0,0:0|0:0,0:0:0:0:
192,60,96556,1,0,0:0:0:0:
376,200,96692,1,0,0:0:0:0:
160,216,96829,1,8,0:0:0:0:
372,3,96965,1,0,0:0:0:0:
456,132,97102,2,0,P|472:200|416:312,1,170
92,320,97511,6,0,P|148:344|188:340,1,85
352,220,97783,1,0,0:0:0:0:
224,48,97920,2,0,P|280:32|320:44,1,85,8|0,0:0|0:0,0:0:0:0:
472,192,98192,5,0,0:0:0:0:
272,320,98329,1,0,0:0:0:0:
328,128,98465,1,8,0:0:0:0:
408,280,98602,1,0,0:0:0:0:
108,88,98738,1,0,0:0:0:0:
380,64,98874,1,0,0:0:0:0:
180,268,99011,1,8,0:0:0:0:
184,36,99147,1,0,0:0:0:0:
420,48,99283,6,0,P|448:96|440:128,1,85
212,292,99556,2,0,L|172:348,2,42.5,8|0|0,0:0|0:0|0:0,0:0:0:0:
296,68,99829,1,0,0:0:0:0:
360,236,99965,1,0,0:0:0:0:
152,68,100102,1,8,0:0:0:0:
80,224,100238,1,0,0:0:0:0:
384,52,100374,6,8,P|424:76|440:160,1,127.5
442,150,100647,2,8,L|296:144,1,127.5
315,144,100920,2,8,P|336:204|288:260,1,127.5
301,253,101192,2,8,P|368:320|432:256,1,170
440,188,101602,5,0,0:0:0:0:
168,184,101738,1,8,0:0:0:0:
236,276,101874,1,0,0:0:0:0:
436,76,102011,2,0,L|476:40,2,42.5
168,96,102283,1,8,0:0:0:0:
408,184,102420,1,0,0:0:0:0:
360,32,102556,5,0,0:0:0:0:
232,68,102692,1,0,0:0:0:0:
404,284,102829,2,0,L|460:352,1,85,8|0,0:0|0:0,0:0:0:0:
180,220,103102,1,0,0:0:0:0:
272,344,103238,1,0,0:0:0:0:
376,172,103374,2,0,L|432:88,1,85,8|0,0:0|0:0,0:0:0:0:
184,84,103647,6,0,L|72:64,2,85,0|0|8,0:0|0:0|0:0,0:0:0:0:
380,300,104056,2,0,L|412:336,2,42.5
264,164,104329,1,0,0:0:0:0:
208,312,104465,1,8,0:0:0:0:
376,172,104602,1,0,0:0:0:0:
264,52,104738,5,0,0:0:0:0:
112,160,104874,1,0,0:0:0:0:
280,264,105011,1,8,0:0:0:0:
160,68,105147,1,0,0:0:0:0:
96,296,105283,1,0,0:0:0:0:
308,164,105420,1,0,0:0:0:0:
60,88,105556,2,0,P|32:128|44:192,1,85,8|0,0:0|0:0,0:0:0:0:
288,64,105829,5,0,0:0:0:0:
484,28,105965,1,0,0:0:0:0:
296,140,106102,5,8,0:0:0:0:
500,136,106238,1,0,0:0:0:0:
280,216,106374,5,0,0:0:0:0:
496,240,106511,1,0,0:0:0:0:
240,276,106647,5,8,0:0:0:0:
464,340,106783,1,0,0:0:0:0:
436,176,106920,6,0,P|380:188|332:188,1,85
88,140,107192,1,8,0:0:0:0:
208,260,107329,1,0,0:0:0:0:
44,316,107465,2,0,P|84:344|124:352,1,85
360,148,107738,1,8,0:0:0:0:
332,284,107874,1,0,0:0:0:0:
208,64,108011,5,0,0:0:0:0:
198,88,108079,1,0,0:0:0:0:
189,112,108147,1,0,0:0:0:0:
180,136,108215,1,0,0:0:0:0:
124,152,108283,5,8,0:0:0:0:
133,176,108351,1,8,0:0:0:0:
142,200,108419,1,8,0:0:0:0:
151,224,108487,1,8,0:0:0:0:
88,252,108556,5,0,0:0:0:0:
90,294,108624,1,0,0:0:0:0:
111,330,108692,1,0,0:0:0:0:
145,355,108760,1,0,0:0:0:0:
186,363,108828,1,8,0:0:0:0:
227,352,108896,1,8,0:0:0:0:
259,325,108965,1,8,0:0:0:0:
277,287,109033,1,8,0:0:0:0:
288,240,109102,1,14,0:0:0:0:
128,228,110192,5,0,0:0:0:0:
432,88,110329,1,0,0:0:0:0:
216,36,110465,5,0,0:0:0:0:
344,328,110602,1,0,0:0:0:0:
400,44,110738,5,0,0:0:0:0:
184,304,110874,1,0,0:0:0:0:
432,232,111011,5,0,0:0:0:0:
88,124,111147,1,0,0:0:0:0:
284,344,111283,5,0,0:0:0:0:
208,40,111420,1,0,0:0:0:0:
96,300,111556,5,0,0:0:0:0:
400,56,111692,1,0,0:0:0:0:
416,216,111829,5,0,0:0:0:0:
60,60,111965,1,0,0:0:0:0:
176,324,112102,5,0,0:0:0:0:
396,48,112238,1,0,0:0:0:0:
396,48,112306,1,0,0:0:0:0:
396,48,112374,5,0,0:0:0:0:
252,236,112511,1,0,0:0:0:0:
100,48,112647,1,0,0:0:0:0:
316,232,112783,1,0,0:0:0:0:
48,136,112920,1,0,0:0:0:0:
272,304,113056,1,0,0:0:0:0:
320,40,113192,1,0,0:0:0:0:
408,288,113329,1,0,0:0:0:0:
192,116,113465,5,0,0:0:0:0:
80,276,113602,1,0,0:0:0:0:
388,184,113738,1,0,0:0:0:0:
288,352,113874,1,0,0:0:0:0:
220,36,114011,1,0,0:0:0:0:
440,128,114147,1,0,0:0:0:0:
96,180,114283,1,0,0:0:0:0:
188,320,114420,1,0,0:0:0:0:
188,320,114488,1,0,0:0:0:0:
188,320,114556,5,0,0:0:0:0:
236,335,114624,1,0,0:0:0:0:
287,334,114692,1,0,0:0:0:0:
335,317,114760,1,0,0:0:0:0:
374,285,114828,1,0,0:0:0:0:
402,243,114896,1,0,0:0:0:0:
415,194,114965,1,0,0:0:0:0:
411,143,115033,1,0,0:0:0:0:
392,96,115102,5,0,0:0:0:0:
387,137,115170,1,0,0:0:0:0:
372,175,115238,1,0,0:0:0:0:
349,208,115306,1,0,0:0:0:0:
319,236,115374,1,0,0:0:0:0:
283,255,115442,1,0,0:0:0:0:
244,266,115511,1,0,0:0:0:0:
203,267,115579,1,0,0:0:0:0:
160,252,115647,5,0,0:0:0:0:
148,223,115715,1,0,0:0:0:0:
136,194,115783,1,0,0:0:0:0:
124,165,115851,1,0,0:0:0:0:
184,164,115920,5,0,0:0:0:0:
195,135,115988,1,0,0:0:0:0:
207,106,116056,1,0,0:0:0:0:
219,77,116124,1,0,0:0:0:0:
168,24,116192,5,0,0:0:0:0:
216,10,116260,1,0,0:0:0:0:
267,12,116328,1,0,0:0:0:0:
315,28,116396,1,0,0:0:0:0:
356,59,116464,1,0,0:0:0:0:
385,100,116532,1,0,0:0:0:0:
401,148,116601,1,0,0:0:0:0:
402,199,116669,1,0,0:0:0:0:
384,248,116738,6,0,P|352:292|300:308,1,101.999996887207
68,192,117011,1,8,0:0:0:0:
176,328,117147,1,0,0:0:0:0:
256,48,117283,2,0,P|328:84|344:124,1,101.999996887207
312,352,117556,1,0,0:0:0:0:
216,220,117692,1,0,0:0:0:0:
488,224,117829,1,0,0:0:0:0:
337,99,117965,1,0,0:0:0:0:
384,264,118102,1,0,0:3:0:0:
336,292,118170,1,0,0:3:0:0:
280,296,118238,1,0,0:3:0:0:
228,272,118306,1,0,0:3:0:0:
192,236,118374,1,0,0:3:0:0:
116,56,118511,1,0,0:3:0:0:
116,56,118579,1,0,0:3:0:0:
116,56,118647,1,2,0:3:0:0:
464,196,118920,1,4,0:0:0:0:
300,296,119056,1,0,0:0:0:0:
360,84,120829,5,0,0:0:0:0:
120,248,121102,1,0,0:0:0:0:
200,328,121238,1,0,0:0:0:0:
400,96,123283,5,0,0:0:0:0:
416,260,123420,1,0,0:0:0:0:
96,300,125192,5,2,0:3:0:0:
268,56,125465,1,4,0:0:0:0:
268,56,125533,1,0,0:0:0:0:
268,56,125602,1,0,0:0:0:0:
448,336,125738,1,0,0:0:0:0:
468,232,125874,1,0,0:0:0:0:
176,348,126011,1,4,0:0:0:0:
176,348,126079,1,0,0:0:0:0:
176,348,126147,1,0,0:0:0:0:
340,100,126283,1,0,0:0:0:0:
384,196,126420,1,0,0:0:0:0:
64,152,126556,1,4,0:0:0:0:
400,32,126829,1,4,0:0:0:0:
300,344,127102,1,4,0:0:0:0:
152,48,127647,6,4,P|68:112|68:216,1,187.000005706787
200,332,128192,1,4,0:0:0:0:
256,176,128329,1,4,0:0:0:0:
384,292,128465,1,4,0:0:0:0:
436,152,128602,1,4,0:0:0:0:
436,152,128670,1,4,0:0:0:0:
436,152,128738,5,4,0:0:0:0:
304,32,128874,1,4,0:0:0:0:
240,236,129011,1,4,0:0:0:0:
88,92,129147,1,4,0:0:0:0:
40,304,129283,2,4,P|80:336|132:328,1,93.5000028533936
244,168,129556,2,4,P|252:122|243:76,1,93.5000028533936
440,80,129829,1,4,0:0:0:0:
440,244,129965,1,4,0:0:0:0:
340,332,130102,1,4,0:0:0:0:
237,230,130238,1,4,0:0:0:0:
340,168,130374,1,4,0:0:0:0:
399,227,130511,1,4,0:0:0:0:
340,287,130647,1,4,0:0:0:0:
280,227,130783,1,4,0:0:0:0:
113,227,130920,6,4,P|61:139|113:39,1,187.000005706787
188,128,131465,1,4,0:0:0:0:
392,56,131738,1,4,0:0:0:0:
376,172,131874,1,4,0:0:0:0:
376,172,131942,1,4,0:0:0:0:
376,172,132011,6,0,P|404:264|324:288,1,170,0|8,0:0|0:0,0:0:0:0:
216,272,132420,1,0,0:0:0:0:
88,40,132692,1,0,0:0:0:0:
44,128,132829,1,8,0:0:0:0:
364,64,132965,1,0,0:0:0:0:
136,288,133238,5,0,0:0:0:0:
136,288,133306,1,0,0:0:0:0:
136,288,133374,1,8,0:0:0:0:
416,212,133647,1,0,0:0:0:0:
432,320,133783,1,0,0:0:0:0:
104,216,133920,1,8,0:0:0:0:
204,300,134056,1,0,0:0:0:0:
200,68,134192,5,0,0:0:0:0:
280,140,134329,1,0,0:0:0:0:
88,324,134465,1,8,0:0:0:0:
72,224,134602,1,0,0:0:0:0:
372,344,134874,1,0,0:0:0:0:
380,244,135011,1,8,0:0:0:0:
96,328,135147,1,0,0:0:0:0:
456,124,135420,5,12,0:3:0:0:
448,168,135488,1,12,0:3:0:0:
420,208,135556,1,12,0:3:0:0:
376,232,135624,1,12,0:3:0:0:
324,228,135692,1,4,0:3:0:0:
284,196,135761,1,4,0:3:0:0:
252,156,135829,1,4,0:3:0:0:
204,136,135897,1,4,0:3:0:0:
156,144,135965,1,12,0:3:0:0:
116,168,136033,1,12,0:3:0:0:
92,212,136102,1,14,0:3:0:0:
356,116,136374,5,8,0:0:0:0:
208,336,136511,1,0,0:0:0:0:
384,256,136647,1,8,0:0:0:0:
188,48,136783,1,0,0:0:0:0:
108,216,136920,1,8,0:0:0:0:
436,84,137056,1,0,0:0:0:0:
276,44,137192,1,8,0:0:0:0:
336,332,137329,1,0,0:0:0:0:
428,176,137465,5,8,0:0:0:0:
112,152,137602,1,0,0:0:0:0:
204,312,137738,1,8,0:0:0:0:
264,44,137874,2,0,P|320:48|352:80,1,93.5000028533936,0|8,0:0|0:0,0:0:0:0:
60,212,138147,1,0,0:0:0:0:
136,72,138283,1,8,0:0:0:0:
264,296,138420,1,0,0:0:0:0:
160,224,138556,5,8,0:0:0:0:
460,92,138692,2,8,P|432:48|380:40,1,93.5000028533936,0|8,0:0|0:0,0:0:0:0:
192,92,138965,1,0,0:0:0:0:
408,256,139102,1,8,0:0:0:0:
92,248,139238,1,0,0:0:0:0:
288,100,139374,1,8,0:0:0:0:
280,344,139511,1,0,0:0:0:0:
432,276,139647,5,8,0:0:0:0:
132,132,139783,1,0,0:0:0:0:
232,336,139920,1,8,0:0:0:0:
424,108,140056,1,0,0:0:0:0:
120,48,140192,1,8,0:0:0:0:
480,344,140465,1,14,0:0:0:0:
204,296,140738,6,0,P|132:256|108:144,1,187.000005706787,0|8,0:0|0:0,0:0:0:0:
240,168,141147,1,0,0:0:0:0:
400,336,141420,1,0,0:0:0:0:
476,240,141556,1,8,0:0:0:0:
396,144,141692,1,0,0:0:0:0:
176,64,141965,5,0,0:0:0:0:
96,188,142102,1,8,0:0:0:0:
264,320,142374,1,0,0:0:0:0:
344,264,142511,1,0,0:0:0:0:
72,268,142647,1,8,0:0:0:0:
264,108,142920,5,0,0:0:0:0:
352,184,143056,1,0,0:0:0:0:
104,328,143192,1,8,0:0:0:0:
132,244,143329,1,0,0:0:0:0:
440,336,143465,1,0,0:0:0:0:
320,348,143602,1,0,0:0:0:0:
412,132,143738,1,8,0:3:0:0:
272,80,143874,1,8,0:3:0:0:
272,80,143942,1,8,0:3:0:0:
272,80,144010,6,0,L|228:120,3,46.7500014266968,8|8|8|8,0:3|0:3|0:3|0:3,0:3:0:0:
144,84,144283,1,0,0:0:0:0:
138,130,144351,1,0,0:0:0:0:
157,173,144419,1,0,0:0:0:0:
195,199,144487,1,0,0:0:0:0:
288,204,144555,2,8,L|344:204,3,46.7500014266968
404,92,144829,1,0,0:0:0:0:
292,300,145102,5,0,0:0:0:0:
460,212,145238,1,0,0:0:0:0:
312,152,145374,2,0,P|256:148|200:172,1,93.5000028533936,8|0,0:0|0:0,0:0:0:0:
336,300,145647,1,0,0:0:0:0:
416,116,145783,1,0,0:0:0:0:
176,84,145920,1,8,0:0:0:0:
360,28,146056,1,0,0:0:0:0:
312,260,146192,6,0,P|284:324|256:344,1,93.5000028533936
36,224,146465,1,8,0:0:0:0:
244,80,146602,1,0,0:0:0:0:
24,152,146738,1,0,0:0:0:0:
168,288,146874,1,0,0:0:0:0:
380,64,147011,2,0,P|384:144|368:168,1,93.5000028533936,8|0,0:0|0:0,0:0:0:0:
236,276,147283,5,0,0:0:0:0:
84,168,147420,1,0,0:0:0:0:
232,124,147556,1,8,0:0:0:0:
144,284,147692,1,0,0:0:0:0:
152,80,147829,2,0,P|192:32|240:20,1,93.5000028533936
344,236,148102,1,8,0:0:0:0:
336,56,148238,1,0,0:0:0:0:
220,248,148374,5,0,0:0:0:0:
396,328,148511,1,0,0:0:0:0:
328,164,148647,1,8,0:0:0:0:
292,328,148783,1,0,0:0:0:0:
440,228,148920,1,0,0:0:0:0:
236,204,149056,2,0,P|184:192|136:184,1,93.5000028533936,0|8,0:0|0:0,0:0:0:0:
360,108,149329,1,0,0:0:0:0:
248,80,149465,5,0,0:0:0:0:
396,224,149602,1,0,0:0:0:0:
216,288,149738,1,8,0:0:0:0:
320,136,149874,1,0,0:0:0:0:
340,312,150011,1,0,0:0:0:0:
140,136,150147,1,0,0:0:0:0:
236,144,150283,1,8,0:0:0:0:
100,296,150420,1,0,0:0:0:0:
52,192,150556,6,0,P|40:128|48:96,1,93.5000028533936
228,40,150829,1,8,0:0:0:0:
360,172,150965,1,0,0:0:0:0:
252,232,151102,1,0,0:0:0:0:
328,40,151238,1,0,0:0:0:0:
344,304,151374,1,8,0:0:0:0:
448,136,151511,1,0,0:0:0:0:
280,76,151647,5,8,0:0:0:0:
247,73,151715,1,0,0:0:0:0:
215,78,151783,1,8,0:0:0:0:
185,92,151851,1,0,0:0:0:0:
161,114,151919,1,8,0:0:0:0:
142,141,151987,1,0,0:0:0:0:
132,171,152056,1,8,0:0:0:0:
130,204,152124,1,0,0:0:0:0:
136,236,152192,5,8,0:0:0:0:
172,224,152260,1,0,0:0:0:0:
207,213,152328,1,8,0:0:0:0:
243,201,152396,1,0,0:0:0:0:
278,190,152464,1,8,0:0:0:0:
314,178,152532,1,0,0:0:0:0:
349,166,152602,1,8,0:0:0:0:
385,155,152669,1,0,0:0:0:0:
416,144,152738,5,8,0:0:0:0:
430,188,152806,1,8,0:0:0:0:
429,234,152874,1,8,0:0:0:0:
411,277,152942,1,8,0:0:0:0:
379,311,153010,1,0,0:0:0:0:
337,331,153078,1,0,0:0:0:0:
291,336,153147,1,8,0:0:0:0:
246,324,153215,1,8,0:0:0:0:
209,297,153283,5,8,0:0:0:0:
116,128,153420,1,8,0:0:0:0:
116,128,153488,1,8,0:0:0:0:
116,128,153556,1,8,0:0:0:0:
64,292,153692,1,0,0:0:0:0:
440,208,153829,6,0,P|428:284|300:336,1,187.000005706787,4|8,0:0|0:0,0:0:0:0:
324,216,154238,2,0,L|156:108,1,187.000005706787
124,288,154647,1,8,0:0:0:0:
124,288,154783,1,0,0:3:0:0:
124,288,154920,6,0,B|204:248|248:328|328:256,1,187.000005706787,0|8,0:3|0:0,0:0:0:0:
377,182,155329,1,0,0:0:0:0:
104,64,155602,1,0,0:3:0:0:
283,69,155738,2,0,B|252:172|149:181,1,187.000005706787,8|0,0:3|0:0,0:0:0:0:
92,252,156147,1,0,0:3:0:0:
176,316,156283,1,8,0:3:0:0:
284,328,156420,2,0,P|375:318|444:258,1,187.000005706787,0|0,0:3|0:0,0:0:0:0:
112,184,156829,1,8,0:3:0:0:
256,96,156965,2,0,B|320:64|384:120|448:56,1,187.000005706787,0|0,0:3|0:0,0:0:0:0:
264,288,157374,1,8,0:0:0:0:
72,88,157647,1,0,0:3:0:0:
64,208,157783,1,0,0:3:0:0:
228,60,157920,1,8,0:0:0:0:
360,168,158192,22,0,P|368:257|297:312,1,187.000005706787,4|8,0:2|0:0,0:0:0:0:
224,136,158602,1,0,0:3:0:0:
148,88,158738,1,0,0:3:0:0:
68,128,158874,2,0,P|40:164|24:212,1,93.5000028533936,0|8,0:3|0:0,0:0:0:0:
232,316,159283,2,0,P|288:320|356:288,1,93.5000028533936
272,232,159556,2,0,P|312:140|404:124,1,187.000005706787,8|0,0:0|0:0,0:0:0:0:
472,212,159965,1,0,0:0:0:0:
348,280,160102,1,8,0:0:0:0:
224,284,160238,1,0,0:0:0:0:
224,284,160374,6,0,B|120:296|60:216,1,187.000005706787,12|8,0:0|0:0,0:0:0:0:
208,108,160920,2,0,B|276:32|382:47,1,187.000005706787,8|8,0:0|0:0,0:0:0:0:
428,240,161465,5,8,0:0:0:0:
104,312,161738,1,8,0:0:0:0:
168,112,162011,1,0,0:0:0:0:
212,123,162079,1,0,0:0:0:0:
239,160,162147,1,0,0:0:0:0:
236,206,162215,1,0,0:0:0:0:
205,240,162283,1,0,0:0:0:0:
202,285,162351,1,0,0:0:0:0:
228,323,162419,1,0,0:0:0:0:
272,336,162487,1,0,0:0:0:0:
315,318,162555,5,0,0:0:0:0:
256,192,162624,12,0,164670,0:0:0:0:
36,132,164738,6,0,P|236:356|436:136,1,637.5
436,144,165829,5,0,0:0:0:0:
300,60,166011,1,4,0:0:0:0:
284,256,166192,1,4,0:0:0:0:
112,176,166374,1,6,0:2:0:0:
364,120,166556,1,4,0:0:0:0:
156,280,166738,1,4,0:0:0:0:
392,208,166920,2,0,P|444:160|456:112,1,113.333333333333
268,80,167283,1,0,0:0:0:0:
92,124,167465,2,0,P|56:200|68:260,1,113.333333333333
172,208,167829,1,0,0:0:0:0:
300,284,168011,22,4,P|356:324|432:356,2,113.333333333333,12|4|4,0:0|0:0|0:0,0:0:0:0:
156,92,168556,1,4,0:0:0:0:
180,312,168738,1,4,0:0:0:0:
300,116,168920,1,4,0:0:0:0:
96,280,169102,2,4,B|32:204|116:128|28:48,1,226.666666666667,4|4,0:2|0:0,0:0:0:0:
220,84,169647,2,4,P|304:92|440:164,1,226.666666666667
336,264,170192,5,4,0:0:0:0:
116,132,170556,2,4,P|68:112|4:64,2,113.333333333333,4|6|4,0:0|0:2|0:0,0:0:0:0:
432,292,171102,1,4,0:0:0:0:
124,240,171283,2,4,B|104:272|104:272|72:280|72:280|49:317,2,113.333333333333,4|12|4,0:0|0:3|0:0,0:0:0:0:
348,144,171829,2,4,B|368:112|368:112|400:104|400:104|424:64,2,113.333333333333,4|12|4,0:0|0:3|0:0,0:0:0:0:
132,344,172374,5,6,0:3:0:0:
84,184,172556,1,4,0:0:0:0:
212,256,172738,1,4,0:0:0:0:
40,284,172920,1,12,3:0:0:0:
176,172,173102,1,4,0:0:0:0:
212,336,173283,1,4,0:0:0:0:
36,316,173465,2,0,P|32:240|84:168,1,113.333333333333,4|0,0:2|0:0,0:0:0:0:
152,96,173829,1,0,0:0:0:0:
336,160,174011,1,0,0:0:0:0:
248,276,174192,1,0,0:0:0:0:
256,72,174374,1,8,0:3:0:0:
112,56,174556,5,8,0:0:0:0:
83,96,174646,1,0,0:0:0:0:
68,144,174737,1,0,0:0:0:0:
66,193,174828,1,0,0:0:0:0:
79,241,174919,1,0,0:0:0:0:
105,284,175010,1,0,0:0:0:0:
141,318,175101,1,8,0:0:0:0:
186,339,175192,1,0,0:0:0:0:
235,348,175283,1,0,0:0:0:0:
284,342,175374,1,0,0:0:0:0:
330,323,175465,1,0,0:0:0:0:
368,291,175555,1,0,0:0:0:0:
392,244,175647,5,8,0:0:0:0:
355,234,175737,1,0,0:0:0:0:
321,218,175828,1,0,0:0:0:0:
291,194,175919,1,0,0:0:0:0:
267,165,176010,1,0,0:0:0:0:
249,131,176101,1,0,0:0:0:0:
239,94,176192,5,8,0:0:0:0:
214,137,176282,1,0,0:0:0:0:
174,166,176373,1,0,0:0:0:0:
126,177,176464,1,0,0:0:0:0:
77,168,176555,1,0,0:0:0:0:
36,140,176646,1,0,0:0:0:0:
10,98,176738,5,8,0:0:0:0:
3,160,176828,1,0,0:0:0:0:
15,221,176919,1,0,0:0:0:0:
43,276,177010,1,0,0:0:0:0:
86,321,177101,1,0,0:0:0:0:
140,352,177192,1,0,0:0:0:0:
200,366,177283,1,8,0:0:0:0:
262,362,177374,1,0,0:0:0:0:
320,340,177465,1,0,0:0:0:0:
370,303,177556,1,0,0:0:0:0:
407,253,177647,1,0,0:0:0:0:
427,194,177737,1,0,0:0:0:0:
436,140,177829,5,8,0:0:0:0:
406,140,177919,1,0,0:0:0:0:
377,140,178010,1,0,0:0:0:0:
348,140,178101,1,0,0:0:0:0:
318,140,178192,1,0,0:0:0:0:
289,140,178283,1,0,0:0:0:0:
260,140,178374,1,8,0:0:0:0:
230,140,178465,1,0,0:0:0:0:
201,140,178556,1,0,0:0:0:0:
172,140,178647,1,0,0:0:0:0:
143,140,178738,1,0,0:0:0:0:
113,140,178828,1,0,0:0:0:0:
84,140,178921,5,8,0:0:0:0:
103,81,179010,1,0,0:0:0:0:
147,38,179103,1,0,0:0:0:0:
206,20,179192,1,0,0:0:0:0:
267,32,179284,1,0,0:0:0:0:
314,71,179374,1,0,0:0:0:0:
338,128,179465,1,8,0:0:0:0:
278,117,179555,1,0,0:0:0:0:
219,136,179647,1,0,0:0:0:0:
176,181,179737,1,0,0:0:0:0:
160,240,179828,1,0,0:0:0:0:
174,300,179919,1,0,0:0:0:0:
216,336,180011,5,8,0:0:0:0:
213,304,180101,1,0,0:0:0:0:
218,274,180192,1,0,0:0:0:0:
229,245,180283,1,0,0:0:0:0:
245,218,180374,1,0,0:0:0:0:
267,196,180465,1,0,0:0:0:0:
293,179,180556,1,8,0:0:0:0:
323,168,180647,1,0,0:0:0:0:
353,164,180738,1,0,0:0:0:0:
384,166,180829,1,0,0:0:0:0:
414,174,180920,1,0,0:0:0:0:
442,189,181010,1,0,0:0:0:0:
465,209,181102,5,8,0:0:0:0:
446,248,181192,1,0,0:0:0:0:
418,281,181283,1,0,0:0:0:0:
384,308,181374,1,0,0:0:0:0:
344,326,181465,1,0,0:0:0:0:
302,336,181556,1,0,0:0:0:0:
258,336,181647,1,8,0:0:0:0:
216,326,181738,1,0,0:0:0:0:
177,307,181829,1,0,0:0:0:0:
142,280,181920,1,0,0:0:0:0:
115,246,182011,1,0,0:0:0:0:
95,207,182101,1,0,0:0:0:0:
88,156,182192,6,0,B|224:244|304:172|304:172|292:244|360:286|360:286|384:176|412:168,1,478.125018239022,8|10,0:0|0:0,0:0:0:0:
416,156,183283,5,8,0:0:0:0:
232,64,183556,1,8,0:0:0:0:
116,232,183829,1,8,0:0:0:0:
232,188,183965,1,8,0:0:0:0:
132,140,184102,1,8,0:0:0:0:
196,272,184238,1,8,0:0:0:0:
360,236,184374,6,8,P|416:178|420:88,1,170
256,56,184920,1,8,0:0:0:0:
164,136,185056,1,8,0:0:0:0:
260,180,185192,1,8,0:0:0:0:
168,56,185329,1,8,0:0:0:0:
104,272,185465,6,8,P|164:312|276:316,1,170
356,260,186011,1,8,0:0:0:0:
368,220,186147,1,8,0:0:0:0:
248,192,186283,5,8,0:0:0:0:
236,152,186419,1,8,0:0:0:0:
384,176,186556,5,8,0:0:0:0:
396,136,186692,1,8,0:0:0:0:
224,100,186829,5,8,0:0:0:0:
212,60,186965,1,8,0:0:0:0:
324,60,187102,6,8,P|312:136|272:172,1,113.333333333333
160,216,187465,2,8,P|140:276|156:356,1,113.333333333333
256,192,187715,12,0,192011,0:0:0:0:
380,64,208374,6,0,P|364:212|336:212,1,203.999993774414
172,112,209192,1,8,3:0:0:0:
172,264,209465,2,0,P|52:264|40:184,1,203.999993774414
140,52,210283,1,0,0:0:0:0:
112,208,210556,2,0,P|168:172|304:204,1,203.999993774414
208,268,211374,2,0,P|230:313|288:328,1,101.999996887207
388,324,211919,5,0,0:1:0:0:
244,96,212465,2,0,P|204:128|184:174,2,101.999996887207
336,136,213283,1,0,0:0:0:0:
288,220,213556,1,0,0:0:0:0:
196,200,213828,1,0,0:0:0:0:
156,280,214101,2,0,P|112:208|156:120,1,178.499994552612,0|0,0:1|0:0,0:0:0:0:
356,132,214919,1,0,0:0:0:0:
356,132,215192,21,8,0:1:0:0:
304,192,215464,2,0,P|352:212|404:196,1,101.999996887207
284,92,216010,2,0,P|332:92|356:136,1,101.999996887207,0|0,0:0|0:1,0:0:0:0:
360,212,216555,1,0,0:1:0:0:
328,284,216828,1,0,0:0:0:0:
260,324,217101,1,0,0:1:0:0:
184,300,217374,1,8,0:1:0:0:
152,228,217646,1,0,0:1:0:0:
152,152,217919,1,0,0:1:0:0:
184,80,218192,1,0,0:1:0:0:
312,204,218464,5,12,0:1:0:0:
64,56,219011,2,0,P|52:104|56:176,1,101.999996887207
352,124,219829,1,0,0:0:0:0:
396,40,220102,2,0,P|440:80|444:132,1,101.999996887207
324,208,220646,1,0,0:0:0:0:
152,184,220919,2,0,P|92:120|84:88,2,101.999996887207,0|0|0,0:0|0:1|0:0,0:0:0:0:
372,140,221874,2,4,P|372:168|352:244,1,101.999996887207,4|4,0:0|0:0,0:0:0:0:
336,264,222214,1,4,0:3:0:0:
308,288,222283,1,4,0:0:0:0:
76,300,222556,5,0,0:0:0:0:
288,188,222829,1,4,0:1:0:0:
160,40,223374,2,0,P|116:72|112:132,1,101.999996887207
320,136,223919,1,8,0:1:0:0:
224,264,224192,1,0,0:0:0:0:
168,92,224464,1,0,0:0:0:0:
276,176,224601,1,0,0:3:0:0:
276,176,224669,1,0,0:3:0:0:
276,176,224737,1,8,0:3:0:0:
56,200,225010,1,4,0:0:0:0:
296,48,225556,5,0,0:0:0:0:
317,62,225624,1,0,0:0:0:0:
333,81,225692,1,0,0:0:0:0:
342,105,225760,1,0,0:0:0:0:
345,130,225828,1,0,0:0:0:0:
296,264,226102,2,0,P|280:284|260:300,3,38.2499988327027
240,304,226374,1,12,0:3:0:0:
200,304,226442,1,8,0:3:0:0:
160,288,226510,2,0,P|140:276|120:264,2,38.2499988327027,8|0|0,0:3|0:3|0:3,0:3:0:0:
228,164,226783,1,0,0:0:0:0:
352,48,226920,6,0,P|400:84|420:136,1,101.999996887207
160,336,227192,2,0,P|112:300|92:248,1,101.999996887207
284,88,227465,6,0,P|332:124|352:176,1,101.999996887207
228,296,227738,2,0,P|180:260|160:208,1,101.999996887207
216,132,228011,1,0,0:0:0:0:
304,216,228147,1,0,0:0:0:0:
404,144,228283,2,0,P|436:96|436:48,1,101.999996887207
264,32,228556,2,0,P|220:72|204:120,1,101.999996887207
236,228,228829,1,0,0:0:0:0:
336,268,228965,1,0,0:0:0:0:
168,320,229102,6,0,P|100:308|56:280,1,101.999996887207
116,192,229374,2,0,P|140:144|180:104,1,101.999996887207
284,84,229647,1,0,0:0:0:0:
424,128,229783,1,0,0:0:0:0:
312,204,229920,1,0,0:0:0:0:
360,40,230056,1,0,0:0:0:0:
456,48,230192,2,0,P|472:104|468:160,1,101.999996887207
424,240,230465,1,0,0:0:0:0:
328,280,230602,1,0,0:0:0:0:
216,260,230738,2,0,P|172:220|152:176,1,101.999996887207
248,164,231011,6,0,P|296:188|384:168,1,136
436,72,231420,1,0,0:0:0:0:
296,32,231556,1,0,0:0:0:0:
368,292,231692,1,0,0:0:0:0:
452,184,231829,1,0,0:0:0:0:
96,216,231965,1,0,0:0:0:0:
124,311,232101,1,0,0:0:0:0:
264,88,232238,1,0,0:0:0:0:
256,104,232374,6,0,P|248:176|340:280,1,203.999993774414
364,160,232920,2,0,P|288:208|168:240,1,203.999993774414
68,204,233465,1,4,0:0:0:0:
69,153,233533,1,4,0:0:0:0:
86,105,233601,1,4,0:0:0:0:
117,65,233670,1,4,0:0:0:0:
159,37,233738,1,4,0:0:0:0:
208,23,233806,1,4,0:0:0:0:
259,26,233874,1,4,0:0:0:0:
306,45,233942,1,4,0:0:0:0:
336,72,234011,5,4,0:0:0:0:
312,81,234079,1,4,0:0:0:0:
291,96,234147,1,4,0:0:0:0:
274,115,234215,1,4,0:0:0:0:
262,137,234283,1,4,0:0:0:0:
255,162,234351,1,4,0:0:0:0:
255,187,234420,1,4,0:0:0:0:
260,212,234488,1,4,0:0:0:0:
270,235,234556,5,4,0:0:0:0:
287,198,234624,1,4,0:0:0:0:
316,170,234692,1,4,0:0:0:0:
353,154,234760,1,4,0:0:0:0:
394,152,234828,1,4,0:0:0:0:
432,166,234896,1,4,0:0:0:0:
463,192,234965,1,4,0:0:0:0:
482,228,235033,1,4,0:0:0:0:
488,264,235102,5,4,0:0:0:0:
440,246,235170,1,4,0:0:0:0:
390,234,235238,1,4,0:0:0:0:
339,229,235306,1,4,0:0:0:0:
288,230,235374,1,4,0:0:0:0:
238,236,235442,1,4,0:0:0:0:
189,249,235511,1,4,0:0:0:0:
141,268,235579,1,4,0:0:0:0:
96,292,235647,5,4,0:0:0:0:
83,271,235715,1,4,0:0:0:0:
73,248,235783,1,4,0:0:0:0:
67,223,235851,1,4,0:0:0:0:
67,197,235919,1,4,0:0:0:0:
71,172,235987,1,4,0:0:0:0:
79,148,236056,1,4,0:0:0:0:
91,126,236124,1,4,0:0:0:0:
108,106,236192,1,4,0:0:0:0:
128,90,236260,1,4,0:0:0:0:
150,78,236328,1,4,0:0:0:0:
174,70,236397,1,4,0:0:0:0:
199,66,236465,1,4,0:0:0:0:
225,68,236533,1,4,0:0:0:0:
250,73,236601,1,4,0:0:0:0:
273,83,236669,1,4,0:0:0:0:
292,96,236738,5,4,0:0:0:0:
276,128,236806,1,4,0:0:0:0:
276,163,236874,1,4,0:0:0:0:
290,195,236942,1,4,0:0:0:0:
317,219,237010,1,4,0:0:0:0:
351,229,237078,1,4,0:0:0:0:
386,224,237147,1,4,0:0:0:0:
416,205,237215,1,4,0:0:0:0:
435,175,237283,5,4,0:0:0:0:
456,221,237351,1,4,0:0:0:0:
458,271,237419,1,4,0:0:0:0:
438,318,237487,1,4,0:0:0:0:
401,352,237555,1,4,0:0:0:0:
353,368,237623,1,4,0:0:0:0:
302,363,237692,1,4,0:0:0:0:
259,338,237760,1,4,0:0:0:0:
236,296,237829,5,4,0:0:0:0:
218,314,237897,1,4,0:0:0:0:
197,328,237965,1,4,0:0:0:0:
173,337,238033,1,4,0:0:0:0:
148,342,238101,1,4,0:0:0:0:
123,341,238169,1,4,0:0:0:0:
98,335,238238,1,4,0:0:0:0:
75,324,238306,1,4,0:0:0:0:
55,308,238374,1,4,0:0:0:0:
38,289,238442,1,4,0:0:0:0:
26,266,238510,1,4,0:0:0:0:
19,242,238579,1,4,0:0:0:0:
17,217,238647,1,4,0:0:0:0:
21,191,238715,1,4,0:0:0:0:
29,167,238783,1,4,0:0:0:0:
43,146,238851,1,4,0:0:0:0:
60,128,238920,5,4,0:0:0:0:
71,150,238988,1,4,0:0:0:0:
85,171,239056,1,4,0:0:0:0:
102,190,239124,1,4,0:0:0:0:
122,207,239192,1,4,0:0:0:0:
143,221,239260,1,4,0:0:0:0:
166,232,239329,1,4,0:0:0:0:
190,240,239397,1,4,0:0:0:0:
215,244,239465,1,4,0:0:0:0:
241,246,239533,1,4,0:0:0:0:
266,243,239601,1,4,0:0:0:0:
291,238,239670,1,4,0:0:0:0:
315,229,239738,1,4,0:0:0:0:
337,218,239806,1,4,0:0:0:0:
358,203,239874,1,4,0:0:0:0:
377,186,239942,1,4,0:0:0:0:
393,166,240011,5,4,0:0:0:0:
373,137,240079,1,4,0:0:0:0:
347,112,240147,1,4,0:0:0:0:
316,94,240215,1,4,0:0:0:0:
282,84,240283,1,4,0:0:0:0:
247,81,240351,1,4,0:0:0:0:
212,87,240420,1,4,0:0:0:0:
179,100,240488,1,4,0:0:0:0:
149,120,240556,5,4,0:0:0:0:
175,145,240624,1,4,0:0:0:0:
188,178,240692,1,4,0:0:0:0:
187,213,240760,1,4,0:0:0:0:
172,245,240828,1,4,0:0:0:0:
145,269,240896,1,4,0:0:0:0:
111,279,240965,1,4,0:0:0:0:
76,275,241033,1,4,0:0:0:0:
45,257,241102,5,4,0:0:0:0:
62,232,241170,1,4,0:0:0:0:
82,209,241238,1,4,0:0:0:0:
105,188,241306,1,4,0:0:0:0:
130,171,241374,1,4,0:0:0:0:
157,157,241442,1,4,0:0:0:0:
186,147,241511,1,4,0:0:0:0:
216,140,241579,1,4,0:0:0:0:
246,138,241647,1,4,0:0:0:0:
277,139,241715,1,4,0:0:0:0:
307,144,241783,1,4,0:0:0:0:
336,153,241852,1,4,0:0:0:0:
364,166,241920,1,4,0:0:0:0:
390,182,241988,1,4,0:0:0:0:
413,202,242056,1,4,0:0:0:0:
434,224,242124,1,4,0:0:0:0:
452,249,242192,5,4,0:0:0:0:
416,285,242260,1,4,0:0:0:0:
372,311,242328,1,4,0:0:0:0:
324,326,242396,1,4,0:0:0:0:
273,330,242464,1,4,0:0:0:0:
223,322,242532,1,4,0:0:0:0:
176,302,242601,1,4,0:0:0:0:
135,271,242669,1,4,0:0:0:0:
103,232,242738,5,4,0:0:0:0:
150,250,242806,1,4,0:0:0:0:
199,240,242874,1,4,0:0:0:0:
237,207,242942,1,4,0:0:0:0:
253,159,243010,1,4,0:0:0:0:
242,110,243078,1,4,0:0:0:0:
208,73,243147,1,4,0:0:0:0:
160,59,243215,1,4,0:0:0:0:
111,72,243283,5,4,0:0:0:0:
97,121,243351,1,4,0:0:0:0:
98,171,243419,1,4,0:0:0:0:
115,219,243487,1,4,0:0:0:0:
146,260,243555,1,4,0:0:0:0:
187,289,243623,1,4,0:0:0:0:
236,303,243692,1,4,0:0:0:0:
287,303,243760,1,4,0:0:0:0:
335,286,243828,1,4,0:0:0:0:
376,256,243896,1,4,0:0:0:0:
405,214,243964,1,4,0:0:0:0:
420,166,244033,1,4,0:0:0:0:
420,112,244102,5,4,0:0:0:0:
381,145,244170,1,4,0:0:0:0:
335,166,244238,1,4,0:0:0:0:
284,172,244306,1,4,0:0:0:0:
232,156,244374,5,0,0:0:0:0:
212,206,244442,1,0,0:0:0:0:
162,225,244510,1,0,0:0:0:0:
114,200,244578,1,0,0:0:0:0:
96,148,244647,2,0,L|84:80,3,55.2499974708558
192,100,244920,2,0,L|168:36,3,55.2499974708558
276,80,245192,1,0,0:0:0:0:
330,44,245260,1,0,0:0:0:0:
396,42,245328,1,0,0:0:0:0:
453,74,245396,1,0,0:0:0:0:
485,131,245464,1,0,0:0:0:0:
483,197,245532,1,0,0:0:0:0:
447,251,245601,1,0,0:0:0:0:
388,280,245669,1,0,0:0:0:0:
320,276,245738,5,0,0:0:0:0:
274,323,245806,1,0,0:0:0:0:
212,343,245874,1,0,0:0:0:0:
147,330,245942,1,0,0:0:0:0:
97,288,246010,1,0,0:0:0:0:
74,226,246078,1,0,0:0:0:0:
82,161,246147,1,0,0:0:0:0:
122,109,246215,1,0,0:0:0:0:
184,80,246283,2,0,P|216:68|244:64,3,55.2499974708558
316,64,246556,5,0,0:0:0:0:
379,99,246624,1,0,0:0:0:0:
416,161,246692,1,0,0:0:0:0:
417,234,246760,1,0,0:0:0:0:
380,297,246828,1,0,0:0:0:0:
316,333,246896,1,0,0:0:0:0:
244,331,246965,1,0,0:0:0:0:
188,288,247033,1,0,0:0:0:0:
152,226,247102,5,0,0:0:0:0:
113,245,247170,1,0,0:0:0:0:
69,241,247238,1,0,0:0:0:0:
35,215,247306,1,0,0:0:0:0:
20,174,247374,1,0,0:0:0:0:
29,131,247442,1,0,0:0:0:0:
60,100,247511,1,0,0:0:0:0:
102,90,247579,1,0,0:0:0:0:
143,107,247647,5,0,0:0:0:0:
116,155,247715,1,0,0:0:0:0:
111,209,247783,1,0,0:0:0:0:
127,262,247851,1,0,0:0:0:0:
162,304,247919,1,0,0:0:0:0:
211,328,247987,1,0,0:0:0:0:
266,332,248056,1,0,0:0:0:0:
318,314,248124,1,0,0:0:0:0:
347,259,248192,5,0,0:0:0:0:
333,222,248260,1,0,0:0:0:0:
312,190,248328,1,0,0:0:0:0:
285,163,248396,1,0,0:0:0:0:
253,142,248464,1,0,0:0:0:0:
217,128,248532,1,0,0:0:0:0:
179,122,248601,1,0,0:0:0:0:
140,124,248669,1,0,0:0:0:0:
91,143,248738,5,0,0:0:0:0:
97,214,248806,1,0,0:0:0:0:
130,277,248874,1,0,0:0:0:0:
185,323,248942,1,0,0:0:0:0:
253,344,249010,1,0,0:0:0:0:
324,339,249078,1,0,0:0:0:0:
388,306,249147,1,0,0:0:0:0:
434,252,249215,1,0,0:0:0:0:
459,191,249283,5,0,0:0:0:0:
396,223,249351,1,0,0:0:0:0:
327,240,249419,1,0,0:0:0:0:
256,239,249487,1,0,0:0:0:0:
187,221,249555,1,0,0:0:0:0:
125,187,249623,1,0,0:0:0:0:
73,139,249692,1,0,0:0:0:0:
35,79,249760,1,0,0:0:0:0:
64,109,249829,5,0,0:0:0:0:
83,128,249897,1,0,0:0:0:0:
105,145,249965,1,0,0:0:0:0:
128,160,250033,1,0,0:0:0:0:
153,172,250101,1,0,0:0:0:0:
179,181,250169,1,0,0:0:0:0:
206,186,250238,1,0,0:0:0:0:
234,189,250306,1,0,0:0:0:0:
307,189,250374,5,0,0:0:0:0:
250,129,250442,1,0,0:0:0:0:
229,218,250510,1,0,0:0:0:0:
275,297,250578,1,0,0:0:0:0:
363,322,250647,1,0,0:0:0:0:
438,270,250715,1,0,0:0:0:0:
448,179,250783,1,0,0:0:0:0:
386,112,250851,1,0,0:0:0:0:
307,91,250920,5,0,0:0:0:0:
279,87,250988,1,0,0:0:0:0:
252,90,251056,1,0,0:0:0:0:
226,99,251124,1,0,0:0:0:0:
202,114,251192,1,0,0:0:0:0:
183,133,251260,1,0,0:0:0:0:
168,157,251329,1,0,0:0:0:0:
158,182,251397,1,0,0:0:0:0:
155,210,251465,1,0,0:0:0:0:
158,237,251533,1,0,0:0:0:0:
167,263,251601,1,0,0:0:0:0:
181,287,251670,1,0,0:0:0:0:
200,307,251738,1,0,0:0:0:0:
224,322,251806,1,0,0:0:0:0:
249,331,251874,1,0,0:0:0:0:
277,335,251942,1,0,0:0:0:0:
304,332,252011,5,0,0:0:0:0:
265,293,252079,1,0,0:0:0:0:
249,241,252147,1,0,0:0:0:0:
262,187,252215,1,0,0:0:0:0:
298,147,252283,1,0,0:0:0:0:
350,129,252351,1,0,0:0:0:0:
404,139,252420,1,0,0:0:0:0:
446,174,252488,1,0,0:0:0:0:
467,227,252556,5,0,0:0:0:0:
411,228,252624,1,0,0:0:0:0:
356,230,252692,1,0,0:0:0:0:
301,231,252760,1,0,0:0:0:0:
246,233,252828,1,0,0:0:0:0:
190,235,252896,1,0,0:0:0:0:
135,236,252965,1,0,0:0:0:0:
80,238,253033,1,0,0:0:0:0:
30,237,253102,5,0,0:0:0:0:
99,100,253238,1,0,0:0:0:0:
240,90,253374,2,0,P|299:118|325:154,1,85
256,241,253647,2,0,P|197:213|171:177,1,85
128,96,253920,1,0,0:0:0:0:
117,234,254056,1,0,0:0:0:0:
30,158,254192,5,0,0:0:0:0:
232,113,254329,1,0,0:0:0:0:
42,276,254465,1,0,0:0:0:0:
322,193,254602,1,0,0:0:0:0:
33,31,254738,1,0,0:0:0:0:
159,299,254874,2,0,P|202:329|242:335,1,85
459,147,255147,1,0,0:0:0:0:
186,75,255283,6,0,P|156:107|146:155,1,85
402,330,255556,1,0,0:0:0:0:
66,237,255692,1,0,0:0:0:0:
417,145,255829,1,0,0:0:0:0:
132,320,255965,1,0,0:0:0:0:
330,73,256102,1,0,0:0:0:0:
279,344,256238,1,0,0:0:0:0:
73,125,256374,6,0,P|99:92|137:73,1,85
349,37,256647,1,0,0:0:0:0:
145,261,256783,1,0,0:0:0:0:
424,328,256920,2,0,P|452:261|439:219,1,85
264,74,257192,1,0,0:0:0:0:
82,302,257329,1,0,0:0:0:0:
411,44,257465,5,0,0:0:0:0:
410,60,257533,1,0,0:0:0:0:
410,77,257601,1,0,0:0:0:0:
410,94,257669,1,0,0:0:0:0:
410,111,257737,1,0,0:0:0:0:
409,128,257805,1,0,0:0:0:0:
409,145,257874,1,0,0:0:0:0:
409,162,257942,1,0,0:0:0:0:
409,179,258010,1,0,0:0:0:0:
408,196,258078,1,0,0:0:0:0:
408,213,258146,1,0,0:0:0:0:
408,230,258215,1,0,0:0:0:0:
408,247,258283,1,0,0:0:0:0:
408,264,258351,1,0,0:0:0:0:
407,281,258419,1,0,0:0:0:0:
407,298,258487,1,0,0:0:0:0:
306,317,258556,5,0,0:0:0:0:
306,300,258624,1,0,0:0:0:0:
306,283,258692,1,0,0:0:0:0:
306,266,258760,1,0,0:0:0:0:
306,249,258828,1,0,0:0:0:0:
307,232,258896,1,0,0:0:0:0:
307,215,258965,1,0,0:0:0:0:
307,198,259033,1,0,0:0:0:0:
307,181,259101,1,0,0:0:0:0:
308,164,259169,1,0,0:0:0:0:
308,147,259237,1,0,0:0:0:0:
308,130,259306,1,0,0:0:0:0:
308,113,259374,1,0,0:0:0:0:
308,96,259442,1,0,0:0:0:0:
309,79,259510,1,0,0:0:0:0:
309,62,259578,1,0,0:0:0:0:
213,55,259647,5,0,0:0:0:0:
163,66,259715,1,0,0:0:0:0:
122,95,259783,1,0,0:0:0:0:
94,138,259851,1,0,0:0:0:0:
85,188,259919,1,0,0:0:0:0:
94,237,259987,1,0,0:0:0:0:
122,280,260056,1,0,0:0:0:0:
163,309,260124,1,0,0:0:0:0:
213,321,260192,5,0,0:0:0:0:
190,276,260260,1,0,0:0:0:0:
193,225,260328,1,0,0:0:0:0:
220,183,260396,1,0,0:0:0:0:
265,160,260464,1,0,0:0:0:0:
316,162,260532,1,0,0:0:0:0:
358,189,260601,1,0,0:0:0:0:
382,234,260669,1,0,0:0:0:0:
380,284,260738,5,0,0:0:0:0:
334,307,260806,1,0,0:0:0:0:
284,304,260874,1,0,0:0:0:0:
242,277,260942,1,0,0:0:0:0:
219,232,261010,1,0,0:0:0:0:
221,182,261078,1,0,0:0:0:0:
248,139,261147,1,0,0:0:0:0:
293,116,261215,1,0,0:0:0:0:
343,112,261283,5,0,0:0:0:0:
321,158,261351,1,0,0:0:0:0:
324,208,261419,1,0,0:0:0:0:
351,250,261487,1,0,0:0:0:0:
396,273,261555,1,0,0:0:0:0:
446,271,261623,1,0,0:0:0:0:
489,244,261692,1,0,0:0:0:0:
512,199,261760,1,0,0:0:0:0:
511,149,261828,1,0,0:0:0:0:
256,192,261897,12,0,265102,0:0:0:0:
100,101,266192,5,0,0:0:0:0:
411,62,267283,5,0,0:0:0:0:
303,306,267692,5,0,0:0:0:0:
106,123,268102,5,0,0:0:0:0:
402,231,268374,5,0,0:0:0:0:
83,323,269465,5,0,0:0:0:0:
311,66,269874,5,0,0:0:0:0:
417,312,270283,5,0,0:0:0:0:
96,73,270556,5,0,0:0:0:0:
230,335,271647,5,0,0:0:0:0:
446,96,272056,5,0,0:0:0:0:
66,118,272465,5,0,0:0:0:0:
270,338,272738,5,0,0:0:0:0:
396,214,272874,1,0,0:0:0:0:
311,72,273011,1,4,0:0:0:0:
272,54,273079,1,4,0:0:0:0:
230,54,273147,1,4,0:0:0:0:
193,74,273215,1,4,0:0:0:0:
168,108,273283,5,6,0:0:0:0:
160,149,273351,1,6,0:0:0:0:
152,191,273419,1,6,0:0:0:0:
144,233,273487,1,4,0:0:0:0:
211,237,273556,5,12,0:0:0:0:
218,278,273624,1,12,0:0:0:0:
226,320,273692,1,12,0:0:0:0:
234,362,273760,1,12,0:0:0:0:
328,371,273829,5,6,0:0:0:0:
335,329,273897,1,6,0:0:0:0:
343,287,273965,1,6,0:0:0:0:
351,245,274033,1,4,0:0:0:0:
285,242,274102,5,12,0:0:0:0:
278,201,274170,1,12,0:0:0:0:
270,159,274238,1,12,0:0:0:0:
262,117,274306,1,12,0:0:0:0:
364,54,274374,5,4,0:0:0:0:
338,32,274442,1,4,0:0:0:0:
307,17,274510,1,4,0:0:0:0:
274,11,274578,1,4,0:0:0:0:
240,15,274646,1,12,0:0:0:0:
208,27,274714,1,12,0:0:0:0:
181,47,274783,1,12,0:0:0:0:
160,74,274851,1,14,0:0:0:0:
147,105,274920,5,14,0:0:0:0:
256,295,275056,1,0,0:0:0:0:
409,198,275192,2,0,P|424:129|414:88,1,101.999996887207
206,66,275465,2,0,P|191:135|201:176,1,101.999996887207
345,317,275738,1,0,0:0:0:0:
108,319,275874,1,0,0:0:0:0:
348,215,276011,1,0,0:0:0:0:
100,151,276147,1,0,0:0:0:0:
271,341,276283,1,0,0:0:0:0:
420,210,276420,2,0,P|450:161|458:115,1,101.999996887207
116,150,276692,2,0,P|86:199|78:245,1,101.999996887207
257,343,276965,1,0,0:0:0:0:
346,126,277102,6,0,P|393:60|454:35,2,101.999996887207
230,344,277511,1,0,0:0:0:0:
112,118,277647,1,0,0:0:0:0:
130,346,277783,1,0,0:0:0:0:
192,108,277920,2,0,P|258:65|311:55,1,101.999996887207
363,285,278192,2,0,P|323:316|276:335,1,101.999996887207
26,184,278465,1,0,0:0:0:0:
277,102,278602,1,0,0:0:0:0:
121,316,278738,1,0,0:0:0:0:
121,51,278874,1,0,0:0:0:0:
277,265,279011,1,0,0:0:0:0:
26,184,279147,1,0,0:0:0:0:
277,102,279283,6,0,P|345:94|397:110,1,101.999996887207
464,304,279556,1,0,0:0:0:0:
228,220,279692,1,0,0:0:0:0:
472,136,279829,1,0,0:0:0:0:
288,332,279965,1,0,0:0:0:0:
112,180,280102,2,0,P|76:132|64:84,1,101.999996887207
260,28,280374,1,0,0:0:0:0:
380,220,280511,1,0,0:0:0:0:
148,124,280647,1,0,0:0:0:0:
408,64,280783,1,0,0:0:0:0:
276,288,280920,2,0,P|224:332|160:352,1,101.999996887207
72,152,281192,2,0,P|124:108|188:88,1,101.999996887207
440,104,281465,6,4,P|440:228|384:296,1,203.999993774414,12|12,0:0|0:0,0:0:0:0:
232,340,281874,1,4,0:0:0:0:
68,200,282011,2,4,P|147:139|246:150,1,203.999993774414,12|12,0:0|0:0,0:0:0:0:
424,300,282420,1,0,0:0:0:0:
424,308,282556,1,8,0:0:0:0:
192,240,282692,1,8,0:3:0:0:
179,238,282761,1,8,0:3:0:0:
164,236,282829,2,8,P|119:237|59:262,1,101.999996887207,8|8,0:3|0:0,0:0:0:0:
136,344,283102,1,12,0:0:0:0:
408,132,283238,1,12,0:0:0:0:
128,132,283374,1,12,0:0:0:0:
388,288,283511,1,8,0:0:0:0:
308,88,283647,6,4,P|272:68|244:68,3,50.9999984436036
236,64,283920,1,4,0:0:0:0:
205,65,283988,1,4,0:0:0:0:
177,77,284056,1,4,0:0:0:0:
154,97,284124,1,4,0:0:0:0:
136,128,284192,2,4,P|126:154|127:185,3,50.9999984436036
204,184,284465,2,4,P|213:210|212:241,3,50.9999984436036
136,252,284738,2,4,P|126:278|127:309,3,50.9999984436036
188,344,285011,1,4,0:0:0:0:
220,357,285079,1,4,0:0:0:0:
256,359,285147,1,4,0:0:0:0:
290,349,285215,1,4,0:0:0:0:
318,328,285283,1,4,0:0:0:0:
337,298,285351,1,4,0:0:0:0:
345,263,285420,1,4,0:0:0:0:
340,228,285488,1,4,0:0:0:0:
324,196,285556,1,4,0:0:0:0:
297,173,285624,1,4,0:0:0:0:
265,159,285692,1,4,0:0:0:0:
229,158,285761,1,4,0:0:0:0:
112,160,285829,6,4,P|104:196|112:232,3,50.9999984436036
176,232,286102,2,4,P|184:268|176:304,3,50.9999984436036
112,292,286374,2,4,P|104:328|112:364,3,50.9999984436036
184,324,286647,1,4,0:0:0:0:
233,329,286715,1,4,0:0:0:0:
277,304,286783,1,4,0:0:0:0:
296,258,286851,1,4,0:0:0:0:
285,209,286920,2,4,P|272:184|244:168,3,50.9999984436036
188,220,287192,2,4,P|201:245|229:261,3,50.9999984436036
288,292,287465,1,4,0:0:0:0:
335,275,287533,1,4,0:0:0:0:
365,235,287601,1,4,0:0:0:0:
368,185,287669,1,4,0:0:0:0:
342,142,287738,1,4,0:0:0:0:
316,184,287806,1,4,0:0:0:0:
267,195,287874,1,4,0:0:0:0:
226,168,287942,1,4,0:0:0:0:
216,119,288011,5,4,0:0:0:0:
169,62,288079,1,4,0:0:0:0:
96,67,288147,1,4,0:0:0:0:
58,130,288215,1,4,0:0:0:0:
87,198,288283,1,4,0:0:0:0:
64,248,288351,1,4,0:0:0:0:
74,302,288419,1,4,0:0:0:0:
113,342,288487,1,4,0:0:0:0:
167,352,288555,1,4,0:0:0:0:
217,330,288623,1,4,0:0:0:0:
246,283,288692,1,4,0:0:0:0:
243,227,288760,1,4,0:0:0:0:
216,184,288829,1,4,0:0:0:0:
175,211,288897,1,4,0:0:0:0:
128,195,288965,1,4,0:0:0:0:
114,148,289033,1,4,0:0:0:0:
140,108,289102,5,4,0:0:0:0:
179,139,289170,1,4,0:0:0:0:
229,149,289238,1,4,0:0:0:0:
278,137,289306,1,4,0:0:0:0:
317,105,289374,1,4,0:0:0:0:
360,131,289442,1,4,0:0:0:0:
379,177,289510,1,4,0:0:0:0:
367,226,289578,1,4,0:0:0:0:
328,258,289647,1,4,0:0:0:0:
344,305,289715,1,4,0:0:0:0:
388,329,289783,1,4,0:0:0:0:
436,317,289851,1,4,0:0:0:0:
462,275,289919,1,12,0:0:0:0:
448,192,290192,6,0,P|390:245|201:96,1,356.999989105225,2|0,0:0|0:0,0:0:0:0:
198,118,290738,2,0,P|123:276|297:296,1,407.999987548829,2|2,0:0|0:0,0:0:0:0:
264,48,291556,1,8,0:0:0:0:
302,80,291624,1,8,0:0:0:0:
318,128,291692,1,8,0:0:0:0:
306,177,291760,1,8,0:0:0:0:
270,212,291828,1,8,0:0:0:0:
136,332,292374,6,0,B|172:372|204:292|184:340|268:396|348:320|348:320|276:268|309:213|309:213|224:268|152:192,1,510,6|0,0:0|0:0,0:0:0:0:
240,128,293465,2,0,B|276:88|308:168|288:120|372:64|452:140|452:140|380:192|416:256,1,340,6|0,0:0|0:0,0:0:0:0:
344,320,294283,1,0,0:0:0:0:
276,236,294556,5,0,0:0:0:0:
76,304,295102,5,0,0:0:0:0:
100,52,295647,5,0,0:0:0:0:
148,152,295783,1,8,0:3:0:0:
148,152,295852,1,8,0:3:0:0:
148,152,295920,2,0,P|184:184|240:176,1,101.999996887207
316,148,296192,1,8,0:3:0:0:
384,200,296329,1,8,0:3:0:0:
376,296,296465,1,8,0:3:0:0:
304,336,296602,1,8,0:3:0:0:
188,136,296738,6,0,P|120:168|104:256,1,170,0|8,0:0|0:0,0:0:0:0:
272,320,297147,1,0,0:0:0:0:
396,176,297420,2,0,P|385:135|357:103,1,85,0|8,0:0|0:0,0:0:0:0:
200,44,297829,2,0,P|144:96|144:208,1,170,0|8,0:0|0:0,0:0:0:0:
248,300,298374,1,0,0:0:0:0:
327,322,298510,1,0,0:0:0:0:
396,278,298646,1,8,0:0:0:0:
384,128,298920,6,0,P|352:72|248:84,1,170,0|8,0:0|0:0,0:0:0:0:
160,280,299329,1,0,0:0:0:0:
364,332,299602,2,0,P|412:320|456:288,2,85,0|8|0,0:0|0:0|0:0,0:0:0:0:
160,280,300011,1,0,0:0:0:0:
256,76,300283,2,0,P|335:63|384:128,1,170,8|0,0:0|0:0,0:0:0:0:
376,224,300692,1,8,0:0:0:0:
352,258,300760,1,8,0:0:0:0:
314,278,300829,2,0,P|244:296|208:280,1,85,0|8,0:0|0:0,0:0:0:0:
80,140,301102,5,8,0:0:0:0:
292,44,301238,1,8,0:0:0:0:
140,228,301374,1,8,0:0:0:0:
340,108,301511,1,8,0:0:0:0:
88,136,301647,1,8,0:0:0:0:
352,240,301783,1,8,0:0:0:0:
128,340,301920,2,8,P|64:296|60:260,1,93.5000028533936
212,64,302192,5,8,0:0:0:0:
336,264,302329,1,8,0:0:0:0:
116,148,302465,1,8,0:0:0:0:
340,116,302602,1,8,0:0:0:0:
144,320,302738,1,8,0:0:0:0:
252,60,302874,1,0,0:0:0:0:
388,328,303011,1,0,0:0:0:0:
456,180,303147,1,8,0:0:0:0:
176,132,303283,6,8,P|120:140|96:188,1,93.5000028533936
256,336,303556,1,8,0:0:0:0:
436,160,303692,1,8,0:0:0:0:
184,220,303829,1,8,0:0:0:0:
436,240,303965,1,8,0:0:0:0:
176,132,304102,1,8,0:0:0:0:
432,248,304238,1,8,0:0:0:0:
168,324,304374,6,8,P|112:296|84:248,1,93.5000028533936
240,44,304647,1,8,0:0:0:0:
340,288,304783,1,8,0:0:0:0:
112,100,304920,1,8,0:0:0:0:
352,240,305056,1,8,0:0:0:0:
92,144,305192,1,8,0:0:0:0:
364,96,305329,1,8,0:0:0:0:
228,304,305465,5,0,0:0:0:0:
192,313,305533,1,0,0:0:0:0:
154,311,305601,1,0,0:0:0:0:
120,297,305669,1,0,0:0:0:0:
92,273,305737,1,0,0:0:0:0:
72,241,305805,1,0,0:0:0:0:
65,205,305874,1,0,0:0:0:0:
69,168,305942,1,0,0:0:0:0:
85,134,306011,5,0,0:0:0:0:
98,164,306079,1,0,0:0:0:0:
120,188,306147,1,0,0:0:0:0:
149,203,306215,1,0,0:0:0:0:
181,207,306283,1,0,0:0:0:0:
213,200,306351,1,0,0:0:0:0:
240,182,306420,1,0,0:0:0:0:
261,157,306488,1,0,0:0:0:0:
271,126,306556,5,0,0:0:0:0:
202,119,306624,1,0,0:0:0:0:
141,150,306692,1,0,0:0:0:0:
107,211,306760,1,0,0:0:0:0:
112,280,306828,1,0,0:0:0:0:
154,334,306896,1,0,0:0:0:0:
220,356,306965,1,0,0:0:0:0:
287,339,307033,1,0,0:0:0:0:
336,288,307102,5,0,0:0:0:0:
265,267,307170,1,0,0:0:0:0:
222,208,307238,1,0,0:0:0:0:
224,135,307306,1,0,0:0:0:0:
271,78,307374,1,0,0:0:0:0:
343,63,307442,1,0,0:0:0:0:
409,95,307511,1,0,0:0:0:0:
441,161,307579,1,0,0:0:0:0:
426,232,307647,1,14,0:0:0:0:
380,88,309829,6,2,P|428:176|292:236,1,255.000009727478,2|0,0:0|0:0,0:0:0:0:
160,56,310238,1,8,0:0:0:0:
80,224,310374,1,0,0:0:0:0:
380,88,310511,2,8,P|424:136|408:220,1,127.500004863739,8|0,0:0|0:0,0:0:0:0:
148,304,310783,1,8,0:0:0:0:
296,80,310920,1,0,0:0:0:0:
316,324,311056,1,8,0:0:0:0:
104,96,311192,1,0,0:0:0:0:
360,144,311329,2,0,P|408:212|368:288,1,127.500004863739,8|0,0:0|0:0,0:0:0:0:
152,160,311602,1,8,0:0:0:0:
300,80,311738,1,0,0:0:0:0:
92,276,311874,2,0,P|40:184|44:132,1,127.500004863739,8|0,0:0|0:0,0:0:0:0:
76,48,312079,5,0,0:0:0:0:
113,28,312147,1,8,0:0:0:0:
155,21,312215,1,0,0:0:0:0:
196,31,312283,1,0,0:0:0:0:
232,56,312351,1,0,0:0:0:0:
253,91,312420,1,8,0:0:0:0:
262,132,312488,1,0,0:0:0:0:
254,174,312556,1,0,0:0:0:0:
231,228,312624,1,0,0:0:0:0:
241,286,312692,1,8,0:0:0:0:
280,329,312760,1,0,0:0:0:0:
337,345,312828,1,0,0:0:0:0:
393,328,312896,1,0,0:0:0:0:
431,284,312965,1,8,0:0:0:0:
440,226,313033,1,0,0:0:0:0:
417,172,313102,5,0,0:0:0:0:
409,205,313170,1,0,0:0:0:0:
393,235,313238,1,8,0:0:0:0:
370,260,313306,1,0,0:0:0:0:
342,279,313374,1,0,0:0:0:0:
311,292,313442,1,0,0:0:0:0:
277,296,313511,1,8,0:0:0:0:
243,292,313579,1,0,0:0:0:0:
208,272,313647,2,14,P|136:276|136:108,1,255.000009727478,6|0,0:0|0:0,0:0:0:0:
192,32,314192,5,0,0:0:0:0:
320,64,314327,1,8,0:0:0:0:
192,128,314465,1,0,0:0:0:0:
320,160,314600,1,8,0:0:0:0:
192,224,314738,1,0,0:0:0:0:
320,256,314873,1,8,0:0:0:0:
192,320,315011,1,0,0:0:0:0:
320,352,315147,1,8,0:0:0:0:
160,352,315283,5,0,0:0:0:0:
352,320,315419,1,8,0:0:0:0:
160,256,315556,1,0,0:0:0:0:
352,224,315692,1,8,0:0:0:0:
160,160,315829,1,0,0:0:0:0:
352,128,315965,1,8,0:0:0:0:
160,64,316102,1,0,0:0:0:0:
352,32,316238,1,8,0:0:0:0:
128,32,316374,5,0,0:0:0:0:
384,64,316510,1,8,0:0:0:0:
128,128,316647,1,0,0:0:0:0:
384,160,316782,1,8,0:0:0:0:
128,224,316920,1,0,0:0:0:0:
384,256,317056,1,8,0:0:0:0:
128,320,317193,1,0,0:0:0:0:
384,352,317329,1,8,0:0:0:0:
184,248,317465,5,0,0:0:0:0:
369,114,317602,1,8,0:0:0:0:
142,114,317738,1,0,0:0:0:0:
326,247,317874,1,8,0:0:0:0:
255,32,318011,1,0,0:0:0:0:
184,248,318147,1,8,0:0:0:0:
369,114,318283,1,0,0:0:0:0:
142,114,318420,1,8,0:0:0:0:
326,247,318556,6,0,L|368:280,2,46.7500014266968,0|0|8,0:0|0:0|0:0,0:0:0:0:
128,212,318829,2,0,L|86:245,2,46.7500014266968,0|0|8,0:0|0:0|0:0,0:0:0:0:
344,80,319102,2,0,L|386:113,2,46.7500014266968,0|0|8,0:0|0:0|0:0,0:0:0:0:
148,40,319374,2,0,L|106:73,2,46.7500014266968,0|0|8,0:0|0:0|0:0,0:0:0:0:
272,168,319647,5,0,0:0:0:0:
272,168,319715,1,0,0:0:0:0:
272,168,319783,1,8,0:0:0:0:
124,288,319920,2,0,L|82:321,2,46.7500014266968,0|0|8,0:0|0:0|0:0,0:0:0:0:
272,168,320192,1,0,0:0:0:0:
272,168,320261,1,0,0:0:0:0:
272,168,320329,1,8,0:0:0:0:
408,60,320465,2,0,L|450:27,2,46.7500014266968,0|0|8,0:0|0:0|0:0,0:0:0:0:
272,168,320738,5,0,0:0:0:0:
246,188,320806,1,0,0:0:0:0:
229,216,320874,1,8,0:0:0:0:
221,247,320942,1,0,0:0:0:0:
220,280,321011,2,0,P|223:323|235:343,3,46.7500014266968,0|0|8|0,0:0|0:0|0:0|0:0,0:0:0:0:
344,228,321283,2,0,P|387:224|407:212,3,46.7500014266968,0|0|8|0,0:0|0:0|0:0|0:0,0:0:0:0:
292,104,321556,2,0,P|288:60|276:40,3,46.7500014266968,0|0|8|0,0:0|0:0|0:0|0:0,0:0:0:0:
168,156,321829,5,0,0:0:0:0:
144,171,321897,1,0,0:0:0:0:
128,193,321965,1,8,0:0:0:0:
120,220,322033,1,0,0:0:0:0:
124,248,322101,1,0,0:0:0:0:
136,272,322169,1,0,0:0:0:0:
157,291,322238,1,8,0:0:0:0:
184,300,322306,1,0,0:0:0:0:
212,304,322374,1,0,0:0:0:0:
244,300,322442,1,0,0:0:0:0:
277,296,322510,1,8,0:0:0:0:
309,293,322578,1,0,0:0:0:0:
336,288,322647,1,0,0:0:0:0:
376,268,322715,1,0,0:0:0:0:
385,224,322783,1,8,0:0:0:0:
355,190,322851,1,0,0:0:0:0:
310,194,322920,6,0,P|232:228|96:188,1,187.000005706787,2|0,0:0|0:0,0:0:0:0:
60,124,323329,1,8,0:0:0:0:
140,60,323465,2,0,P|192:44|248:56,1,93.5000028533936,0|8,0:0|0:0,0:0:0:0:
316,120,323738,1,0,0:0:0:0:
388,60,323874,1,8,0:0:0:0:
456,128,324011,6,0,P|460:192|364:268,1,187.000005706787
288,176,324420,1,8,0:0:0:0:
212,264,324556,2,0,P|174:296|112:280,1,93.5000028533936,0|8,0:0|0:0,0:0:0:0:
72,216,324829,1,0,0:0:0:0:
140,144,324965,1,8,0:0:0:0:
208,68,325102,5,4,0:0:0:0:
279,54,325170,1,4,0:0:0:0:
334,101,325238,1,4,0:0:0:0:
332,173,325306,1,4,0:0:0:0:
274,217,325374,1,6,0:0:0:0:
204,200,325442,1,2,0:0:0:0:
136,168,325511,1,2,0:0:0:0:
64,154,325579,1,2,0:0:0:0:
9,201,325647,1,10,0:0:0:0:
11,273,325715,1,8,0:0:0:0:
69,317,325783,1,8,0:0:0:0:
139,300,325851,1,8,0:0:0:0:
156,224,325920,1,12,0:0:0:0:
213,274,325988,1,4,0:0:0:0:
287,258,326056,1,4,0:0:0:0:
317,187,326124,1,4,0:0:0:0:
277,122,326192,6,8,P|176:140|120:52,1,187.000005706787
212,52,326602,1,0,0:0:0:0:
370,54,326738,2,0,P|370:126|274:118,1,187.000005706787,8|6,0:0|0:0,0:0:0:0:
124,83,327283,6,0,P|68:136|88:192,1,110.499994941712
156,256,327556,1,8,0:0:0:0:
240,124,327692,1,0,0:0:0:0:
312,256,327829,2,0,B|380:288|380:288|485:266,2,165.749992412568
92,228,328374,6,0,P|56:168|48:96,1,110.499994941712,8|0,0:0|0:0,0:0:0:0:
124,168,328647,2,0,P|140:69|164:40,1,110.499994941712,8|0,0:0|0:0,0:0:0:0:
180,136,328920,2,0,P|226:84|292:68,1,110.499994941712,8|0,0:0|0:0,0:0:0:0:
244,148,329192,2,0,P|320:132|360:144,1,110.499994941712,8|0,0:0|0:0,0:0:0:0:
196,276,329465,6,0,P|124:288|76:156,1,220.999989883423,0|8,0:0|0:0,0:0:0:0:
236,52,330011,2,0,B|272:40|272:40|417:54,2,165.749992412568
67,172,330556,2,0,P|67:252|291:220,1,382.500014591218,10|8,0:0|0:0,0:0:0:0:
288,28,331102,5,8,0:0:0:0:
480,60,331239,1,8,0:0:0:0:
288,124,331374,1,8,0:0:0:0:
480,156,331512,1,8,0:0:0:0:
289,233,331647,6,0,B|195:233|195:233|170:208|170:208|68:208,1,220.999989883423,2|8,0:0|0:0,0:0:0:0:
160,340,332056,1,0,0:0:0:0:
196,132,332192,2,0,B|224:156|224:156|336:44,2,165.749992412568
76,64,332738,6,0,P|40:124|32:196,1,110.499994941712,8|0,0:0|0:0,0:0:0:0:
112,160,333011,2,0,P|128:259|152:288,1,110.499994941712,8|0,0:0|0:0,0:0:0:0:
192,220,333283,2,0,P|238:272|304:288,1,110.499994941712,8|0,0:0|0:0,0:0:0:0:
288,216,333556,2,0,P|364:232|404:220,1,110.499994941712,8|0,0:0|0:0,0:0:0:0:
392,96,333829,6,0,B|296:56|296:152|164:80,1,220.999989883423,10|0,0:0|0:0,0:0:0:0:
256,180,334374,2,8,B|212:184|152:156|152:156|128:240,2,165.749992412568
348,164,334920,1,14,0:0:0:0:
380,60,336829,5,8,0:0:0:0:
96,228,337102,1,8,0:0:0:0:
208,296,337238,1,8,0:0:0:0:
336,192,339283,6,0,P|316:244|276:260,1,85,8|0,0:0|0:0,0:0:0:0:
192,192,339556,2,0,P|212:140|256:120,1,85,8|0,0:0|0:0,0:0:0:0:
400,216,339829,2,0,P|380:268|332:292,1,85,8|0,0:0|0:0,0:0:0:0:
124,160,340102,2,0,P|144:108|188:84,1,85,8|0,0:0|0:0,0:0:0:0:
384,192,340374,5,8,0:0:0:0:
160,320,340511,1,0,0:0:0:0:
256,96,340647,1,8,0:0:0:0:
352,320,340783,1,0,0:0:0:0:
128,192,340920,1,8,0:0:0:0:
384,192,341056,1,0,0:0:0:0:
128,180,341192,1,8,0:0:0:0:
328,156,341465,6,6,B|296:176|268:168|172:184|240:72|176:104|60:16|4:84|-12:236|44:276|168:296|192:216,1,510,6|8,0:0|0:0,0:0:0:0:
128,180,342420,1,0,0:0:0:0:
128,180,342556,1,0,0:0:0:0:
72,268,342692,1,8,0:0:0:0:
128,180,343102,5,0,0:0:0:0:
184,264,343238,1,8,0:0:0:0:
184,264,343647,5,8,0:0:0:0:
252,68,343783,1,0,0:0:0:0:
400,196,343920,2,0,P|380:252|336:280,1,101.999996887207,8|0,0:0|0:0,0:0:0:0:
112,172,344192,1,8,0:0:0:0:
292,48,344329,1,0,0:0:0:0:
136,240,344465,1,8,0:0:0:0:
352,148,344602,6,0,P|380:220|280:300,1,203.999993774414
136,200,345011,1,8,0:0:0:0:
276,72,345147,1,0,0:0:0:0:
196,304,345283,1,8,0:0:0:0:
236,64,345420,1,0,0:0:0:0:
60,180,345556,1,8,0:0:0:0:
52,214,345624,1,0,0:0:0:0:
60,249,345692,1,0,0:0:0:0:
82,277,345760,1,0,0:0:0:0:
108,292,345829,6,0,P|163:299|224:252,1,101.999996887207,8|0,0:0|0:0,0:0:0:0:
296,128,346102,2,0,P|241:121|180:168,1,101.999996887207,8|0,0:0|0:0,0:0:0:0:
216,344,346374,1,8,0:0:0:0:
352,292,346511,2,0,P|396:244|400:188,1,101.999996887207,0|8,0:0|0:0,0:0:0:0:
296,128,346783,6,0,P|280:79|287:29,2,101.999996887207,4|8|4,0:0|0:0|0:0,0:0:0:0:
464,296,347192,1,8,0:0:0:0:
384,68,347329,1,0,0:0:0:0:
192,175,347465,2,0,P|222:294|293:330,1,203.999993774414,12|8,0:0|0:0,0:0:0:0:
464,164,347874,1,0,0:0:0:0:
408,56,348011,5,8,0:0:0:0:
364,30,348079,1,8,0:0:0:0:
314,29,348147,1,8,0:0:0:0:
269,54,348215,1,8,0:0:0:0:
243,96,348283,1,0,0:0:0:0:
241,147,348351,1,0,0:0:0:0:
264,192,348419,1,0,0:0:0:0:
287,236,348488,1,0,0:0:0:0:
285,287,348556,1,0,0:0:0:0:
258,330,348624,1,0,0:0:0:0:
214,354,348692,1,0,0:0:0:0:
163,353,348760,1,0,0:0:0:0:
120,328,348829,2,8,P|96:300|88:272,3,50.9999984436036
68,212,349102,5,0,0:0:0:0:
55,163,349170,1,0,0:0:0:0:
67,114,349238,1,0,0:0:0:0:
103,78,349306,1,0,0:0:0:0:
151,64,349374,1,8,0:0:0:0:
200,76,349442,1,8,0:0:0:0:
237,110,349511,1,8,0:0:0:0:
252,158,349579,1,8,0:0:0:0:
241,208,349647,5,0,0:0:0:0:
228,159,349715,1,0,0:0:0:0:
240,110,349783,1,0,0:0:0:0:
276,74,349851,1,0,0:0:0:0:
324,60,349919,1,0,0:0:0:0:
373,72,349987,1,0,0:0:0:0:
410,106,350056,1,0,0:0:0:0:
425,154,350124,1,0,0:0:0:0:
414,204,350192,5,8,0:0:0:0:
367,158,350260,1,8,0:0:0:0:
302,148,350328,1,8,0:0:0:0:
244,177,350397,1,8,0:0:0:0:
208,236,350465,5,0,0:0:0:0:
200,300,350533,1,0,0:0:0:0:
156,349,350602,1,0,0:0:0:0:
92,363,350670,1,0,0:0:0:0:
32,337,350738,5,0,0:0:0:0:
116,244,350875,1,8,0:0:0:0:
32,172,351011,1,0,0:0:0:0:
120,104,351147,1,0,0:0:0:0:
137,122,351215,1,0,0:0:0:0:
158,136,351283,1,0,0:0:0:0:
182,145,351351,1,0,0:0:0:0:
207,148,351419,1,0,0:0:0:0:
232,145,351487,1,0,0:0:0:0:
256,136,351556,1,0,0:0:0:0:
277,122,351624,1,0,0:0:0:0:
292,112,351693,1,8,0:3:0:0:
284,156,351761,1,8,0:3:0:0:
312,192,351829,1,8,0:3:0:0:
352,212,351897,1,8,0:3:0:0:
400,208,351965,2,0,P|448:184|456:160,1,50.9999984436036,8|0,0:0|0:0,0:0:0:0:
464,104,352102,5,0,0:0:0:0:
208,48,352374,2,0,P|167:70|144:110,1,93.5000028533936
200,288,352647,1,8,0:0:0:0:
276,144,352783,1,0,0:0:0:0:
128,208,352920,1,0,0:0:0:0:
292,168,353056,1,0,0:0:0:0:
100,144,353192,2,0,P|44:108|32:60,1,93.5000028533936,8|0,0:0|0:0,0:0:0:0:
184,24,353465,6,0,P|240:60|252:108,1,93.5000028533936
128,288,353738,1,8,0:0:0:0:
296,172,353874,1,0,0:0:0:0:
104,264,354011,1,0,0:0:0:0:
312,224,354147,1,0,0:0:0:0:
128,288,354283,2,0,P|172:328|232:336,1,93.5000028533936,8|0,0:0|0:0,0:0:0:0:
296,172,354556,6,0,P|339:187|371:220,1,93.5000028533936
268,340,354829,1,8,0:0:0:0:
200,212,354965,1,0,0:0:0:0:
280,256,355102,1,0,0:0:0:0:
100,296,355238,1,0,0:0:0:0:
172,108,355374,1,8,0:0:0:0:
280,256,355511,1,0,0:0:0:0:
336,104,355647,6,0,P|372:64|424:56,1,93.5000028533936
408,204,355920,2,0,P|372:244|320:264,1,93.5000028533936,8|0,0:0|0:0,0:0:0:0:
236,136,356192,2,0,P|191:122|144:120,1,93.5000028533936
84,260,356465,1,10,0:0:0:0:
224,324,356738,6,0,B|292:296|328:340|408:316,1,187.000005706787,8|0,0:0|0:0,0:0:0:0:
476,132,357147,1,0,0:0:0:0:
136,24,357420,1,0,0:0:0:0:
196,216,357556,1,8,0:0:0:0:
260,100,357692,2,0,P|180:88|72:164,1,187.000005706787
92,320,358102,1,8,0:0:0:0:
196,216,358374,1,0,0:0:0:0:
276,320,358511,2,0,P|328:336|400:312,1,93.5000028533936,0|8,0:0|0:0,0:0:0:0:
388,136,358920,5,8,0:0:0:0:
244,228,359056,1,8,0:0:0:0:
412,256,359192,1,8,0:0:0:0:
228,184,359329,1,8,0:0:0:0:
228,184,359602,1,0,0:0:0:0:
164,64,359738,1,8,0:0:0:0:
116,208,359874,1,0,0:0:0:0:
48,56,360147,5,0,0:0:0:0:
116,56,360283,1,0,0:0:0:0:
184,56,360420,1,0,0:0:0:0:
252,56,360556,1,0,0:0:0:0:
320,56,360692,1,0,0:0:0:0:
388,56,360829,1,8,0:0:0:0:
372,224,361102,5,8,0:0:0:0:
132,304,361238,1,0,0:0:0:0:
412,288,361374,1,8,0:0:0:0:
136,192,361511,2,0,P|72:148|44:100,2,101.999996887207,0|8|0,0:0|0:0|0:0,0:0:0:0:
392,172,361920,1,8,0:0:0:0:
172,324,362056,1,0,0:0:0:0:
372,156,362192,1,8,0:0:0:0:
316,340,362329,1,0,0:0:0:0:
176,144,362465,1,8,0:0:0:0:
420,312,362602,1,0,0:0:0:0:
168,208,362738,2,0,P|100:208|40:220,2,101.999996887207,8|0|8,0:0|0:0|0:0,0:0:0:0:
452,156,363147,1,0,0:0:0:0:
204,80,363283,6,0,L|92:44,2,101.999996887207,8|0|8,0:0|0:0|0:0,0:0:0:0:
376,296,363692,1,0,0:0:0:0:
92,184,363829,1,8,0:0:0:0:
388,140,363965,1,0,0:0:0:0:
140,316,364102,1,8,0:0:0:0:
376,120,364238,1,0,0:0:0:0:
100,228,364374,1,8,0:0:0:0:
384,264,364511,1,0,0:0:0:0:
180,92,364647,2,0,P|128:64|72:52,2,101.999996887207,8|0|8,0:0|0:0|0:0,0:0:0:0:
416,200,365192,1,14,0:0:0:0:
220,304,365465,6,0,B|192:312|192:312|100:288,1,93.5000028533936,4|0,0:0|0:0,0:0:0:0:
52,172,365738,1,8,0:0:0:0:
176,96,365874,2,0,B|248:64|248:64|352:108,1,187.000005706787
244,192,366283,1,8,0:0:0:0:
108,272,366420,2,0,B|144:308|144:308|272:352,1,187.000005706787
444,272,366829,1,8,0:0:0:0:
224,176,367102,1,8,0:3:0:0:
436,96,367238,2,8,P|456:152|448:192,1,93.5000028533936
236,272,367647,5,4,0:0:0:0:
304,136,367783,1,0,0:0:0:0:
184,168,367920,1,8,0:0:0:0:
420,252,368056,2,0,P|376:320|268:340,1,187.000005706787,4|0,0:0|0:0,0:0:0:0:
184,168,368465,1,8,0:0:0:0:
320,72,368602,1,4,0:0:0:0:
256,192,368670,12,14,369829,0:0:0:0:
64,180,388374,6,0,P|208:96|240:236,1,327.250009986878,8|0,0:0|0:0,0:0:0:0:
254,203,388920,2,0,P|398:287|428:136,1,374.000011413575,8|0,0:0|0:0,0:0:0:0:
212,60,389647,5,4,0:0:0:0:
228,256,389828,1,4,0:0:0:0:
400,176,390010,1,6,0:2:0:0:
148,120,390192,1,4,0:0:0:0:
356,280,390374,1,4,0:0:0:0:
120,208,390556,2,0,P|68:160|56:112,1,113.333333333333
244,80,390919,1,0,0:0:0:0:
420,124,391101,2,0,P|456:200|444:260,1,113.333333333333
340,208,391465,1,0,0:0:0:0:
212,284,391647,22,4,P|156:324|80:356,2,113.333333333333,12|4|4,0:0|0:0|0:0,0:0:0:0:
356,92,392192,1,4,0:0:0:0:
332,312,392374,1,4,0:0:0:0:
212,116,392556,1,4,0:0:0:0:
416,280,392738,2,4,B|480:204|396:128|484:48,1,226.666666666667,4|4,0:2|0:0,0:0:0:0:
292,84,393283,2,4,P|208:92|72:164,1,226.666666666667
176,264,393828,5,4,0:0:0:0:
396,132,394192,2,4,P|444:112|508:64,2,113.333333333333,4|6|4,0:0|0:2|0:0,0:0:0:0:
120,200,394738,1,4,0:0:0:0:
392,276,394919,2,4,B|424:296|424:296|432:328|432:328|469:351,2,113.333333333333,4|12|4,0:0|0:3|0:0,0:0:0:0:
212,120,395465,2,4,B|192:88|192:88|160:80|160:80|136:40,2,113.333333333333,4|12|4,0:0|0:3|0:0,0:0:0:0:
300,260,396011,5,0,0:0:0:0:
365,338,396192,1,0,0:0:0:0:
466,320,396374,1,0,0:0:0:0:
500,224,396556,1,0,0:0:0:0:
435,146,396738,1,0,0:0:0:0:
334,164,396920,1,0,0:0:0:0:
476,316,397101,2,0,P|480:240|428:168,1,113.333333333333,4|0,0:2|0:0,0:0:0:0:
360,96,397465,1,0,0:0:0:0:
360,96,397556,1,0,0:0:0:0:
360,96,397647,1,0,0:0:0:0:
264,276,397828,1,0,0:0:0:0:
256,72,398010,1,8,0:3:0:0:
400,56,398192,5,8,0:0:0:0:
429,96,398282,1,0,0:0:0:0:
444,144,398373,1,0,0:0:0:0:
446,193,398464,1,0,0:0:0:0:
433,241,398555,1,0,0:0:0:0:
407,284,398646,1,0,0:0:0:0:
371,318,398737,1,8,0:0:0:0:
326,339,398828,1,0,0:0:0:0:
277,348,398919,1,0,0:0:0:0:
228,342,399010,1,0,0:0:0:0:
182,323,399101,1,0,0:0:0:0:
144,291,399191,1,0,0:0:0:0:
120,244,399283,5,8,0:0:0:0:
157,234,399373,1,0,0:0:0:0:
191,218,399464,1,0,0:0:0:0:
221,194,399555,1,0,0:0:0:0:
245,165,399646,1,0,0:0:0:0:
263,131,399737,1,0,0:0:0:0:
273,94,399828,5,8,0:0:0:0:
298,137,399918,1,0,0:0:0:0:
338,166,400009,1,0,0:0:0:0:
386,177,400100,1,0,0:0:0:0:
435,168,400191,1,0,0:0:0:0:
476,140,400282,1,0,0:0:0:0:
502,98,400374,5,8,0:0:0:0:
509,160,400464,1,0,0:0:0:0:
497,221,400555,1,0,0:0:0:0:
469,276,400646,1,0,0:0:0:0:
426,321,400737,1,0,0:0:0:0:
372,352,400828,1,0,0:0:0:0:
312,366,400919,1,8,0:0:0:0:
250,362,401010,1,0,0:0:0:0:
192,340,401101,1,0,0:0:0:0:
142,303,401192,1,0,0:0:0:0:
105,253,401283,1,0,0:0:0:0:
85,194,401373,1,0,0:0:0:0:
76,140,401465,5,8,0:0:0:0:
106,140,401555,1,0,0:0:0:0:
135,140,401646,1,0,0:0:0:0:
164,140,401737,1,0,0:0:0:0:
194,140,401828,1,0,0:0:0:0:
223,140,401919,1,0,0:0:0:0:
252,140,402010,1,8,0:0:0:0:
282,140,402101,1,0,0:0:0:0:
311,140,402192,1,0,0:0:0:0:
340,140,402283,1,0,0:0:0:0:
369,140,402374,1,0,0:0:0:0:
399,140,402464,1,0,0:0:0:0:
428,140,402557,5,8,0:0:0:0:
409,81,402646,1,0,0:0:0:0:
365,38,402739,1,0,0:0:0:0:
306,20,402828,1,0,0:0:0:0:
245,32,402920,1,0,0:0:0:0:
198,71,403010,1,0,0:0:0:0:
174,128,403101,1,8,0:0:0:0:
234,117,403191,1,0,0:0:0:0:
293,136,403283,1,0,0:0:0:0:
336,181,403373,1,0,0:0:0:0:
352,240,403464,1,0,0:0:0:0:
338,300,403555,1,0,0:0:0:0:
296,336,403647,5,8,0:0:0:0:
299,304,403737,1,0,0:0:0:0:
294,274,403828,1,0,0:0:0:0:
283,245,403919,1,0,0:0:0:0:
267,218,404010,1,0,0:0:0:0:
245,196,404101,1,0,0:0:0:0:
219,179,404192,1,8,0:0:0:0:
189,168,404283,1,0,0:0:0:0:
159,164,404374,1,0,0:0:0:0:
128,166,404465,1,0,0:0:0:0:
98,174,404556,1,0,0:0:0:0:
70,189,404646,1,0,0:0:0:0:
47,209,404738,5,8,0:0:0:0:
66,248,404828,1,0,0:0:0:0:
94,281,404919,1,0,0:0:0:0:
128,308,405010,1,0,0:0:0:0:
168,326,405101,1,0,0:0:0:0:
210,336,405192,1,0,0:0:0:0:
254,336,405283,1,8,0:0:0:0:
296,326,405374,1,0,0:0:0:0:
335,307,405465,1,0,0:0:0:0:
370,280,405556,1,0,0:0:0:0:
397,246,405647,1,0,0:0:0:0:
416,208,405737,1,0,0:0:0:0:
424,156,405828,6,0,B|376:156|376:156|376:104|376:104|256:220|256:220|256:164|256:164|204:164|204:164,1,340,8|10,0:0|0:0,0:0:0:0:
108,76,406920,5,8,0:0:0:0:
74,128,407010,1,0,0:0:0:0:
67,189,407101,1,8,0:0:0:0:
88,247,407192,1,0,0:0:0:0:
132,290,407283,1,8,0:0:0:0:
191,309,407374,1,0,0:0:0:0:
252,300,407465,5,8,0:0:0:0:
243,238,407556,1,0,0:0:0:0:
262,180,407647,1,8,0:0:0:0:
305,135,407738,1,0,0:0:0:0:
363,114,407829,1,8,0:0:0:0:
424,121,407920,1,0,0:0:0:0:
476,155,408011,5,8,0:0:0:0:
435,201,408101,1,0,0:0:0:0:
381,233,408192,1,8,0:0:0:0:
321,246,408283,1,0,0:0:0:0:
259,239,408374,1,8,0:0:0:0:
203,212,408465,1,0,0:0:0:0:
158,169,408556,5,8,0:0:0:0:
116,213,408646,1,0,0:0:0:0:
116,274,408737,1,8,0:0:0:0:
157,319,408828,1,0,0:0:0:0:
218,322,408919,1,8,0:0:0:0:
264,283,409010,1,0,0:0:0:0:
271,223,409102,5,8,0:0:0:0:
294,279,409192,1,0,0:0:0:0:
348,307,409283,1,8,0:0:0:0:
407,291,409374,1,0,0:0:0:0:
441,241,409465,1,8,0:0:0:0:
433,180,409556,1,0,0:0:0:0:
386,141,409648,5,8,0:0:0:0:
363,197,409738,1,0,0:0:0:0:
309,225,409829,1,8,0:0:0:0:
250,209,409920,1,0,0:0:0:0:
216,158,410011,1,8,0:0:0:0:
224,98,410102,1,0,0:0:0:0:
271,58,410192,5,8,0:0:0:0:
315,100,410282,1,0,0:0:0:0:
332,159,410373,1,0,0:0:0:0:
314,218,410464,1,0,0:0:0:0:
269,259,410555,1,0,0:0:0:0:
208,270,410646,1,0,0:0:0:0:
151,247,410739,5,8,0:0:0:0:
219,208,410829,1,0,0:0:0:0:
241,132,410920,1,0,0:0:0:0:
204,62,411011,1,0,0:0:0:0:
129,37,411102,1,0,0:0:0:0:
58,71,411193,1,0,0:0:0:0:
30,145,411283,5,8,0:0:0:0:
85,121,411373,1,0,0:0:0:0:
139,148,411464,1,0,0:0:0:0:
152,207,411555,1,0,0:0:0:0:
132,264,411647,1,0,0:0:0:0:
145,322,411738,1,0,0:0:0:0:
199,349,411829,5,8,0:0:0:0:
194,287,411919,1,0,0:0:0:0:
223,233,412010,1,0,0:0:0:0:
276,203,412101,1,0,0:0:0:0:
338,206,412192,1,0,0:0:0:0:
387,242,412283,1,0,0:0:0:0:
410,299,412374,5,8,0:0:0:0:
359,333,412464,1,0,0:0:0:0:
297,337,412555,1,0,0:0:0:0:
243,308,412646,1,0,0:0:0:0:
211,256,412737,1,0,0:0:0:0:
210,194,412828,1,0,0:0:0:0:
241,141,412921,5,8,0:0:0:0:
295,168,413011,1,0,0:0:0:0:
329,220,413102,1,0,0:0:0:0:
332,281,413193,1,0,0:0:0:0:
302,336,413284,1,0,0:0:0:0:
250,366,413375,1,0,0:0:0:0:
188,367,413465,5,8,0:0:0:0:
221,315,413555,1,0,0:0:0:0:
217,254,413646,1,0,0:0:0:0:
178,206,413737,1,0,0:0:0:0:
119,191,413828,1,0,0:0:0:0:
62,214,413919,1,0,0:0:0:0:
24,268,414011,5,8,0:0:0:0:
86,268,414101,1,0,0:0:0:0:
148,268,414192,1,0,0:0:0:0:
211,268,414283,1,0,0:0:0:0:
253,222,414373,1,0,0:0:0:0:
296,177,414464,1,0,0:0:0:0:
339,132,414555,1,8,0:0:0:0:
398,268,414738,1,8,0:0:0:0:
211,268,414921,5,8,0:0:0:0:
148,268,415012,1,0,0:0:0:0:
86,268,415103,1,8,0:0:0:0:
24,268,415192,1,0,0:0:0:0:
52,208,415283,1,8,0:0:0:0:
114,208,415373,1,8,0:0:0:0:
176,208,415464,1,8,0:0:0:0:
239,208,415555,1,8,0:0:0:0:
308,208,415647,5,8,0:0:0:0:
333,151,415737,1,0,0:0:0:0:
325,90,415828,1,0,0:0:0:0:
288,41,415919,1,0,0:0:0:0:
231,19,416010,1,0,0:0:0:0:
176,48,416101,1,0,0:0:0:0:
216,84,416192,5,8,0:0:0:0:
244,148,416283,1,0,0:0:0:0:
239,208,416374,1,0,0:0:0:0:
196,253,416465,1,0,0:0:0:0:
138,274,416556,1,0,0:0:0:0:
77,267,416647,1,0,0:0:0:0:
25,233,416738,5,8,0:0:0:0:
66,187,416828,1,0,0:0:0:0:
120,155,416919,1,0,0:0:0:0:
180,142,417010,1,0,0:0:0:0:
242,149,417101,1,0,0:0:0:0:
298,176,417192,1,0,0:0:0:0:
343,219,417283,5,8,0:0:0:0:
385,175,417373,1,0,0:0:0:0:
385,114,417464,1,0,0:0:0:0:
344,69,417555,1,0,0:0:0:0:
283,66,417646,1,0,0:0:0:0:
237,105,417737,1,0,0:0:0:0:
230,165,417829,5,8,0:0:0:0:
207,109,417919,1,0,0:0:0:0:
153,81,418010,1,0,0:0:0:0:
94,97,418101,1,0,0:0:0:0:
60,147,418192,1,0,0:0:0:0:
68,208,418283,1,0,0:0:0:0:
115,247,418375,5,8,0:0:0:0:
138,191,418465,1,0,0:0:0:0:
192,163,418556,1,0,0:0:0:0:
251,179,418647,1,0,0:0:0:0:
285,230,418738,1,0,0:0:0:0:
277,290,418829,1,0,0:0:0:0:
264,352,418920,5,8,0:0:0:0:
204,334,419010,1,0,0:0:0:0:
144,317,419101,1,0,0:0:0:0:
84,300,419192,1,0,0:0:0:0:
59,251,419283,1,0,0:0:0:0:
48,189,419374,1,0,0:0:0:0:
36,128,419465,5,8,0:0:0:0:
70,179,419555,1,0,0:0:0:0:
129,194,419646,1,0,0:0:0:0:
184,166,419737,1,0,0:0:0:0:
206,110,419828,1,0,0:0:0:0:
185,52,419919,1,0,0:0:0:0:
132,23,420011,5,8,0:0:0:0:
132,85,420101,1,0,0:0:0:0:
132,147,420192,1,0,0:0:0:0:
132,210,420283,1,0,0:0:0:0:
132,272,420374,1,0,0:0:0:0:
152,322,420465,1,0,0:0:0:0:
207,351,420556,5,8,0:0:0:0:
260,319,420646,1,0,0:0:0:0:
285,263,420737,1,0,0:0:0:0:
274,203,420828,1,0,0:0:0:0:
231,159,420919,1,0,0:0:0:0:
171,148,421010,1,0,0:0:0:0:
115,173,421102,5,8,0:0:0:0:
116,111,421192,1,0,0:0:0:0:
146,57,421283,1,0,0:0:0:0:
198,24,421374,1,0,0:0:0:0:
259,19,421465,1,0,0:0:0:0:
316,44,421556,1,0,0:0:0:0:
354,93,421647,5,8,0:0:0:0:
302,125,421737,1,0,0:0:0:0:
285,183,421828,1,0,0:0:0:0:
311,238,421919,1,0,0:0:0:0:
367,262,422010,1,0,0:0:0:0:
424,243,422101,1,0,0:0:0:0:
455,190,422192,5,8,0:0:0:0:
482,245,422282,1,0,0:0:0:0:
473,305,422373,1,0,0:0:0:0:
430,349,422464,1,0,0:0:0:0:
369,360,422555,1,0,0:0:0:0:
314,334,422646,1,0,0:0:0:0:
284,281,422738,5,8,0:0:0:0:
249,332,422828,1,0,0:0:0:0:
191,350,422919,1,0,0:0:0:0:
133,329,423010,1,0,0:0:0:0:
101,277,423101,1,0,0:0:0:0:
108,216,423192,1,0,0:0:0:0:
151,172,423283,6,0,P|200:264|272:120,1,327.250009986878,8|0,0:0|0:0,0:0:0:0:
291,136,423829,6,0,P|242:227|184:72,1,374.000011413575,8|8,0:0|0:0,0:0:0:0:
208,148,424647,5,8,0:0:0:0:
148,232,424920,1,8,0:0:0:0:
264,188,425056,1,8,0:0:0:0:
164,140,425193,1,8,0:0:0:0:
228,272,425329,1,8,0:0:0:0:
148,232,425465,6,8,P|92:174|88:84,1,170
216,32,426011,1,8,0:0:0:0:
196,124,426147,1,8,0:0:0:0:
284,92,426283,1,8,0:0:0:0:
140,72,426420,1,8,0:0:0:0:
88,196,426556,6,8,P|148:236|260:240,1,170
324,200,427102,1,8,0:0:0:0:
312,160,427238,1,8,0:0:0:0:
384,164,427374,5,8,0:0:0:0:
396,124,427510,1,8,0:0:0:0:
296,116,427647,5,8,0:0:0:0:
284,76,427783,1,8,0:0:0:0:
408,72,427920,5,8,0:0:0:0:
420,32,428056,1,8,0:0:0:0:
480,140,428193,6,8,P|468:216|428:252,1,113.333333333333
348,128,428556,1,0,0:0:0:0:
256,192,428738,6,0,B|284:260|220:276|256:368,1,170,4|0,0:0|0:0,0:0:0:0:
152,228,429556,5,0,0:0:0:0:
236,68,429829,1,8,0:0:0:0:
440,312,430374,1,0,0:0:0:0:
168,276,430920,2,0,B|132:208|132:208|184:132,1,147.333326588949,8|0,3:0|0:0,0:0:0:0:
256,40,431738,1,0,0:0:0:0:
340,149,432011,1,8,0:0:0:0:
168,276,432556,1,0,0:0:0:0:
72,200,433102,6,0,B|72:132|128:132|128:132|128:132|224:132,1,184.166658236186,8|0,3:0|0:0,0:0:0:0:
276,36,433920,1,0,0:0:0:0:
340,124,434192,2,0,P|336:184|272:272,1,165.749992412568,8|0,0:0|0:0,0:0:0:0:
276,268,434738,2,0,P|360:200|420:200,1,165.749992412568
380,308,435283,5,8,0:3:0:0:
248,164,435692,1,0,0:3:0:0:
136,320,436102,1,0,0:3:0:0:
64,160,436374,2,0,P|52:92|88:52,1,110.499994941712,8|0,3:0|0:0,0:0:0:0:
320,64,437192,1,0,0:0:0:0:
216,148,437465,22,0,B|277:201|160:260|197:321,1,184.166658236186,4|0,0:0|0:0,0:0:0:0:
404,200,438283,1,0,0:0:0:0:
256,73,438556,2,0,P|169:50|91:94,1,184.166658236186,8|0,1:0|0:0,0:0:0:0:
48,224,439374,1,0,0:0:0:0:
160,288,439647,2,0,P|206:231|229:162,1,147.333326588949,8|8,0:3|0:3,0:0:0:0:
232,32,440465,1,8,0:3:0:0:
352,204,440738,2,0,P|308:228|248:208,1,110.499994941712,8|0,1:0|0:0,0:0:0:0:
100,268,441556,1,0,0:0:0:0:
340,48,441829,22,0,P|392:88|352:232,1,220.999989883423,8|0,3:0|0:0,0:0:0:0:
176,280,442647,1,0,0:0:0:0:
460,340,442920,1,8,0:0:0:0:
300,64,443465,1,0,0:0:0:0:
88,296,444011,1,8,0:3:0:0:
364,336,444420,1,8,0:3:0:0:
176,124,444829,1,8,0:3:0:0:
176,124,445102,1,0,0:0:0:0:
346,303,445647,2,0,L|366:339,3,36.8333316472372,8|8|8|0,0:3|0:3|0:3|0:0,0:0:0:0:
172,328,446192,6,0,P|140:236|136:148,1,184.166658236186,4|0,0:0|0:0,0:0:0:0:
288,196,447011,1,0,0:0:0:0:
88,208,447283,2,0,P|172:144|184:56,1,184.166658236186,8|0,0:0|0:0,0:0:0:0:
279,304,448102,1,0,0:0:0:0:
387,76,448374,2,0,B|295:92|295:92|196:76,1,184.166658236186,8|0,0:0|0:0,0:0:0:0:
48,48,449192,1,0,0:0:0:0:
236,216,449465,1,8,0:0:0:0:
236,216,449738,2,0,B|292:260|304:312|304:312|388:284,1,202.583324059805,0|0,0:0|0:0,0:0:0:0:
408,224,450556,6,0,B|352:180|340:128|340:128|260:164,1,202.583324059805,4|0,0:0|0:0,0:0:0:0:
104,236,451374,1,8,0:0:0:0:
283,154,451647,2,0,P|303:242|232:208,1,202.583324059805,8|0,0:0|0:0,0:0:0:0:
160,96,452465,1,0,0:0:0:0:
120,236,452738,2,0,B|128:296|128:296|248:332,2,165.749992412568,8|0|0,0:0|0:0|0:0,0:0:0:0:
224,96,453829,1,0,0:0:0:0:
284,188,454102,1,0,0:0:0:0:
112,328,454647,1,0,0:0:0:0:
216,356,454920,6,0,P|187:261|96:228,1,202.583324059805,4|0,0:0|0:0,0:0:0:0:
376,344,455738,1,0,0:0:0:0:
224,256,456011,2,0,P|158:190|156:116,1,165.749992412568,8|0,0:0|0:0,0:0:0:0:
244,80,456556,2,0,P|316:120|340:200,1,165.749992412568,0|0,0:0|0:0,0:0:0:0:
248,172,457102,2,0,B|104:124|104:124|72:144|68:188,1,220.999989883423,0|0,0:0|0:0,0:0:0:0:
64,344,458011,21,0,0:0:0:0:
140,236,458283,1,8,0:0:0:0:
256,192,458374,12,0,462829,0:0:0:0:
212,108,463511,6,8,P|244:104|312:124,1,101.999996887207,12|8,0:0|0:0,0:0:0:0:
432,328,463783,1,12,0:0:0:0:
108,280,463920,1,8,0:0:0:0:
408,136,464056,1,8,0:0:0:0:
228,340,464193,1,8,0:0:0:0:
200,40,464329,2,8,P|148:48|108:76,1,101.999996887207
352,340,464602,2,8,P|400:328|428:272,1,101.999996887207,12|8,0:0|0:0,0:0:0:0:
420,52,464874,1,8,0:0:0:0:
160,292,465011,1,8,0:0:0:0:
312,36,465147,1,8,0:0:0:0:
436,304,465283,1,8,0:0:0:0:
140,100,465420,1,8,0:0:0:0:
288,328,465556,1,8,0:0:0:0:
392,124,465692,6,8,P|344:40|328:40,1,101.999996887207,12|8,0:0|0:0,0:0:0:0:
44,240,465965,1,8,0:0:0:0:
164,32,466102,1,8,0:0:0:0:
180,296,466238,2,8,P|236:308|292:296,1,101.999996887207
440,88,466511,1,8,0:0:0:0:
436,344,466647,1,8,0:0:0:0:
192,124,466783,2,8,P|220:72|276:52,1,101.999996887207
464,276,467056,1,8,0:0:0:0:
256,256,467192,1,8,0:0:0:0:
448,76,467329,1,8,0:0:0:0:
228,216,467465,1,8,0:0:0:0:
464,316,467602,1,10,0:3:0:0:
340,56,467874,6,0,P|240:40|136:56,1,203.999993774414,4|8,0:0|0:0,0:0:0:0:
56,288,468283,1,0,0:0:0:0:
280,192,468420,1,8,0:0:0:0:
32,244,468556,1,0,0:0:0:0:
132,52,468692,2,0,P|184:20|234:32,1,101.999996887207,8|0,0:0|0:0,0:0:0:0:
352,72,468965,2,0,P|432:168|408:236,1,203.999993774414,2|8,0:3|0:0,0:0:0:0:
248,120,469374,1,0,0:0:0:0:
104,288,469511,2,0,P|172:324|280:256,1,203.999993774414,8|8,0:0|0:0,0:0:0:0:
440,72,470056,22,0,P|395:48|344:45,1,101.999996887207,4|0,0:0|0:0,0:0:0:0:
104,160,470329,1,8,0:0:0:0:
332,296,470465,1,0,0:0:0:0:
80,284,470602,2,0,P|120:212|168:196,1,101.999996887207,8|0,0:0|0:0,0:0:0:0:
312,332,470874,1,8,0:0:0:0:
416,72,471011,1,0,0:0:0:0:
168,24,471147,2,0,P|140:68|180:136,1,101.999996887207,4|0,0:0|0:0,0:0:0:0:
292,308,471420,1,8,0:3:0:0:
292,308,471488,1,8,0:3:0:0:
292,308,471556,1,8,0:3:0:0:
416,72,471692,1,0,0:0:0:0:
240,132,471829,1,8,3:0:0:0:
436,216,471965,1,0,0:0:0:0:
264,312,472101,5,8,0:0:0:0:
218,335,472169,1,8,0:0:0:0:
168,339,472237,1,8,0:0:0:0:
120,323,472305,5,8,0:0:0:0:
81,291,472373,1,0,0:0:0:0:
58,246,472441,1,0,0:0:0:0:
54,195,472510,1,0,0:0:0:0:
69,147,472578,1,8,0:0:0:0:
102,108,472646,1,0,0:0:0:0:
147,85,472714,1,0,0:0:0:0:
197,81,472782,1,0,0:0:0:0:
246,96,472851,5,8,0:0:0:0:
208,123,472919,1,0,0:0:0:0:
185,163,472987,1,0,0:0:0:0:
184,210,473055,1,0,0:0:0:0:
204,252,473123,1,8,0:0:0:0:
240,280,473191,1,0,0:0:0:0:
286,289,473260,1,0,0:0:0:0:
330,277,473328,1,0,0:0:0:0:
364,245,473397,5,8,0:0:0:0:
357,272,473465,1,0,0:0:0:0:
344,297,473533,1,0,0:0:0:0:
327,320,473601,1,0,0:0:0:0:
306,338,473669,1,8,0:0:0:0:
282,352,473737,1,0,0:0:0:0:
256,361,473806,1,0,0:0:0:0:
228,365,473874,1,0,0:0:0:0:
200,364,473942,1,8,0:0:0:0:
173,357,474010,1,0,0:0:0:0:
148,345,474078,1,0,0:0:0:0:
125,328,474147,1,0,0:0:0:0:
106,308,474215,1,8,0:0:0:0:
92,284,474283,1,0,0:0:0:0:
82,257,474351,1,0,0:0:0:0:
78,230,474419,1,0,0:0:0:0:
79,202,474487,5,8,0:0:0:0:
105,261,474556,1,0,0:0:0:0:
155,302,474624,1,0,0:0:0:0:
218,315,474692,1,0,0:0:0:0:
281,297,474760,1,8,0:0:0:0:
328,253,474828,1,0,0:0:0:0:
350,192,474897,1,0,0:0:0:0:
303,192,474965,1,0,0:0:0:0:
256,192,475033,1,8,0:0:0:0:
209,192,475101,1,0,0:0:0:0:
163,192,475169,1,0,0:0:0:0:
116,192,475237,1,0,0:0:0:0:
152,172,475306,1,8,0:0:0:0:
195,149,475374,1,0,0:0:0:0:
234,126,475442,1,0,0:0:0:0:
275,103,475510,1,0,0:0:0:0:
316,80,475579,5,8,0:0:0:0:
277,125,475647,1,0,0:0:0:0:
279,171,475715,1,0,0:0:0:0:
304,210,475783,1,0,0:0:0:0:
345,232,475851,1,8,0:0:0:0:
391,231,475919,1,0,0:0:0:0:
431,208,475988,1,0,0:0:0:0:
455,168,476056,1,0,0:0:0:0:
456,122,476124,6,0,L|456:64,3,46.7500014266968,8|0|0|0,0:0|0:0|0:0|0:0,0:0:0:0:
388,76,476397,2,0,L|388:122,3,46.7500014266968,8|0|0|0,0:0|0:0|0:0|0:0,0:0:0:0:
316,120,476670,6,0,B|316:192|316:192|268:232|268:232|268:332|268:332|180:332|180:332|144:272,1,374.000011413575,10|0,0:0|0:0,0:0:0:0:
153,287,477760,2,0,B|153:215|153:215|201:175|201:175|201:75|201:75|288:74|288:74|325:135,1,374.000011413575,10|0,0:0|0:0,0:0:0:0:
416,120,478579,1,0,0:0:0:0:
416,143,478647,1,0,0:0:0:0:
416,166,478714,1,4,0:0:0:0:
416,190,478782,1,4,0:0:0:0:
416,216,478851,5,12,0:0:0:0:
384,282,478919,1,0,0:0:0:0:
323,324,478987,1,0,0:0:0:0:
249,330,479056,1,0,0:0:0:0:
182,298,479123,1,0,0:0:0:0:
140,238,479191,1,0,0:0:0:0:
134,164,479260,1,8,0:0:0:0:
165,97,479328,1,0,0:0:0:0:
226,55,479397,5,0,0:0:0:0:
204,120,479465,1,0,0:0:0:0:
221,187,479533,1,8,0:0:0:0:
271,234,479601,1,0,0:0:0:0:
340,246,479669,1,0,0:0:0:0:
403,219,479737,1,0,0:0:0:0:
442,162,479806,1,0,0:0:0:0:
444,93,479874,1,0,0:0:0:0:
407,34,479942,5,8,0:0:0:0:
361,110,480010,1,0,0:0:0:0:
314,185,480078,1,0,0:0:0:0:
267,261,480146,1,0,0:0:0:0:
221,336,480215,5,8,0:0:0:0:
174,260,480283,1,0,0:0:0:0:
127,184,480351,1,0,0:0:0:0:
81,109,480419,1,0,0:0:0:0:
34,33,480488,5,8,0:0:0:0:
131,29,480556,1,0,0:0:0:0:
220,68,480624,1,0,0:0:0:0:
284,141,480692,1,0,0:0:0:0:
310,235,480760,5,8,0:0:0:0:
390,192,480828,1,0,0:0:0:0:
407,103,480896,1,0,0:0:0:0:
351,32,480964,1,0,0:0:0:0:
260,30,481032,1,8,0:0:0:0:
292,232,481851,5,0,0:0:0:0:
152,48,482124,1,10,0:0:0:0:
72,268,482670,2,0,B|176:284|228:232|308:240,1,229.499992996216,8|8,0:0|0:0,0:0:0:0:
400,256,483215,5,4,0:0:0:0:
456,160,483351,1,0,0:0:0:0:
380,84,483488,1,0,0:0:0:0:
248,104,483624,1,0,0:0:0:0:
220,136,483692,1,0,0:0:0:0:
216,180,483760,1,0,0:0:0:0:
340,260,483897,1,0,0:0:0:0:
224,336,484033,1,0,0:0:0:0:
116,260,484170,1,0,0:0:0:0:
116,112,484306,22,0,L|76:68,3,38.2499988327027,0|0|0|0,0:0|0:0|0:0|0:0,0:0:0:0:
224,112,484579,2,0,L|264:152,4,38.2499988327027,0|0|0|0|0,0:0|0:0|0:0|0:0|0:0,0:0:0:0:
220,216,484988,1,0,0:0:0:0:
92,264,485124,1,12,0:0:0:0:
128,116,485261,1,0,0:0:0:0:
112,264,485397,1,2,0:0:0:0:
256,192,485465,12,2,487579,0:0:0:0:
256,192,487647,12,2,489760,0:0:0:0:
256,192,489829,12,2,491942,0:0:0:0:
256,192,492010,12,2,494124,0:0:0:0:
