osu file format v14

[General]
AudioFilename: audio.mp3
AudioLeadIn: 0
PreviewTime: 292337
Countdown: 0
SampleSet: None
StackLeniency: 0.7
Mode: 1
LetterboxInBreaks: 0
WidescreenStoryboard: 1

[Editor]
Bookmarks: 327246
DistanceSpacing: 1.1
BeatDivisor: 4
GridSize: 32
TimelineZoom: 2.200001

[Metadata]
Title:Yomi yori Kikoyu, Koukoku No Hi To Honoo No Syoujo.
TitleUnicode:黄泉より聴こゆ、皇国の燈と焔の少女。
Artist:Imperial Circus Dead Decadence
ArtistUnicode:Imperial Circus Dead Decadence
Creator:Serial Dreemurr
Version:Stamina Heaven noSV
Source:
Tags:
BeatmapID:2165576
BeatmapSetID:1025104

[Difficulty]
HPDrainRate:4
CircleSize:5
OverallDifficulty:7.5
ApproachRate:5
SliderMultiplier:1.4
SliderTickRate:1

[Events]
//Background and Video events
0,0,"idk.jpg",0,45
//Break Periods
2,191974,207137
2,458594,462339
//Storyboard Layer 0 (Background)
//Storyboard Layer 1 (Fail)
//Storyboard Layer 2 (Pass)
//Storyboard Layer 3 (Foreground)
//Storyboard Layer 4 (Overlay)
//Storyboard Sound Samples

[TimingPoints]
1065,272.727272727273,4,1,0,80,1,0
9792,-100,4,1,0,80,0,1
18383,-100,4,1,0,80,0,0
26974,-100,4,1,0,80,0,1
40337,-100,4,1,0,80,0,0
75246,-100,4,1,0,80,0,1
90519,-100,4,1,0,80,0,0
127610,-100,4,1,0,80,0,1
131974,-100,4,1,0,80,0,0
165792,-100,4,1,0,80,0,1
183246,-100,4,1,0,80,0,0
274883,-100,4,1,0,80,0,1
290155,-100,4,1,0,80,0,0
318519,-100,4,1,0,80,0,1
322883,-100,4,1,0,80,0,0
327246,-100,4,1,0,80,0,1
334883,-100,4,1,0,80,0,0
352337,-100,4,1,0,80,0,1
356428,-100,4,1,0,80,0,0
361065,-100,4,1,0,80,0,1
365155,-100,4,1,0,80,0,1
365155,-100,4,1,0,80,0,0
365292,-100,4,1,0,80,0,0
389428,-100,4,1,0,80,0,1
424337,-100,4,1,0,80,0,0
457065,300,4,1,0,80,1,0
458265,329.67032967033,4,1,0,80,1,0
463539,272.727272727273,4,1,0,80,1,0
463539,-100,4,1,0,80,0,1
476629,-100,4,1,0,80,0,0
480993,-100,4,1,0,80,0,1
485357,-100,4,1,0,80,0,0

[HitObjects]
256,192,1065,5,8,0:0:0:0:
256,192,1133,1,8,0:0:0:0:
256,192,1201,1,0,0:0:0:0:
256,192,1269,1,0,0:0:0:0:
256,192,1337,1,8,0:0:0:0:
256,192,1405,1,0,0:0:0:0:
256,192,1474,1,8,0:0:0:0:
256,192,1542,1,8,0:0:0:0:
256,192,1610,1,0,0:0:0:0:
256,192,1678,1,0,0:0:0:0:
256,192,1746,1,8,0:0:0:0:
256,192,1815,1,8,0:0:0:0:
256,192,1883,1,0,0:0:0:0:
256,192,1951,1,0,0:0:0:0:
256,192,2019,1,8,0:0:0:0:
256,192,2087,1,0,0:0:0:0:
256,192,2155,1,8,0:0:0:0:
256,192,2224,1,8,0:0:0:0:
256,192,2292,1,0,0:0:0:0:
256,192,2360,1,0,0:0:0:0:
256,192,2428,1,8,0:0:0:0:
256,192,2496,1,8,0:0:0:0:
256,192,2565,1,0,0:0:0:0:
256,192,2633,1,0,0:0:0:0:
256,192,2701,1,8,0:0:0:0:
256,192,2769,1,8,0:0:0:0:
256,192,2837,1,8,0:0:0:0:
256,192,2905,1,0,0:0:0:0:
256,192,2974,1,8,0:0:0:0:
256,192,3042,1,0,0:0:0:0:
256,192,3110,1,0,0:0:0:0:
256,192,3178,1,0,0:0:0:0:
256,192,3246,1,8,0:0:0:0:
256,192,3315,1,8,0:0:0:0:
256,192,3383,1,0,0:0:0:0:
256,192,3451,1,0,0:0:0:0:
256,192,3519,1,8,0:0:0:0:
256,192,3587,1,0,0:0:0:0:
256,192,3655,1,8,0:0:0:0:
256,192,3724,1,0,0:0:0:0:
256,192,3792,1,8,0:0:0:0:
256,192,3860,1,8,0:0:0:0:
256,192,3928,1,0,0:0:0:0:
256,192,3996,1,0,0:0:0:0:
256,192,4065,1,8,0:0:0:0:
256,192,4133,1,0,0:0:0:0:
256,192,4201,1,8,0:0:0:0:
256,192,4337,1,4,0:0:0:0:
256,192,4610,1,4,0:0:0:0:
256,192,4883,1,4,0:0:0:0:
256,192,5155,1,4,0:0:0:0:
256,192,5428,1,8,0:0:0:0:
256,192,5496,1,0,0:0:0:0:
256,192,5565,1,8,0:0:0:0:
256,192,5633,1,8,0:0:0:0:
256,192,5701,1,0,0:0:0:0:
256,192,5769,1,0,0:0:0:0:
256,192,5837,1,0,0:0:0:0:
256,192,5905,1,0,0:0:0:0:
256,192,5974,1,8,0:0:0:0:
256,192,6042,1,8,0:0:0:0:
256,192,6110,1,0,0:0:0:0:
256,192,6178,1,0,0:0:0:0:
256,192,6246,1,8,0:0:0:0:
256,192,6315,1,0,0:0:0:0:
256,192,6383,1,0,0:0:0:0:
256,192,6451,1,0,0:0:0:0:
256,192,6519,1,8,0:0:0:0:
256,192,6587,1,8,0:0:0:0:
256,192,6655,1,8,0:0:0:0:
256,192,6724,1,0,0:0:0:0:
256,192,6792,1,8,0:0:0:0:
256,192,6860,1,0,0:0:0:0:
256,192,6928,1,0,0:0:0:0:
256,192,6996,1,0,0:0:0:0:
256,192,7065,1,8,0:0:0:0:
256,192,7133,1,8,0:0:0:0:
256,192,7201,1,8,0:0:0:0:
256,192,7269,1,0,0:0:0:0:
256,192,7337,1,8,0:0:0:0:
256,192,7405,1,0,0:0:0:0:
256,192,7474,1,0,0:0:0:0:
256,192,7542,1,0,0:0:0:0:
256,192,7610,1,8,0:0:0:0:
256,192,7678,1,8,0:0:0:0:
256,192,7746,1,0,0:0:0:0:
256,192,7815,1,8,0:0:0:0:
256,192,7883,1,0,0:0:0:0:
256,192,7951,1,0,0:0:0:0:
256,192,8019,1,8,0:0:0:0:
256,192,8087,1,0,0:0:0:0:
256,192,8155,1,8,0:0:0:0:
256,192,8224,1,8,0:0:0:0:
256,192,8292,1,0,0:0:0:0:
256,192,8360,1,0,0:0:0:0:
256,192,8428,1,8,0:0:0:0:
256,192,8496,1,0,0:0:0:0:
256,192,8565,1,0,0:0:0:0:
256,192,8633,1,0,0:0:0:0:
256,192,8701,1,8,0:0:0:0:
256,192,8769,1,8,0:0:0:0:
256,192,8837,1,8,0:0:0:0:
256,192,8905,1,8,0:0:0:0:
256,192,8974,1,0,0:0:0:0:
256,192,9042,1,0,0:0:0:0:
256,192,9110,1,8,0:0:0:0:
256,192,9178,1,8,0:0:0:0:
256,192,9246,1,0,0:0:0:0:
256,192,9315,1,8,0:0:0:0:
256,192,9383,1,0,0:0:0:0:
256,192,9451,1,0,0:0:0:0:
256,192,9519,1,8,0:0:0:0:
256,192,9587,1,8,0:0:0:0:
256,192,9655,1,0,0:0:0:0:
256,192,9724,1,0,0:0:0:0:
256,192,9792,1,8,0:0:0:0:
256,192,9860,1,8,0:0:0:0:
256,192,9928,1,8,0:0:0:0:
256,192,9996,1,8,0:0:0:0:
256,192,10065,1,0,0:0:0:0:
256,192,10133,1,0,0:0:0:0:
256,192,10201,1,8,0:0:0:0:
256,192,10269,1,0,0:0:0:0:
256,192,10337,1,8,0:0:0:0:
256,192,10405,1,0,0:0:0:0:
256,192,10474,1,8,0:0:0:0:
256,192,10542,1,0,0:0:0:0:
256,192,10610,1,8,0:0:0:0:
256,192,10678,1,8,0:0:0:0:
256,192,10746,1,8,0:0:0:0:
256,192,10815,1,0,0:0:0:0:
256,192,10883,1,8,0:0:0:0:
256,192,10951,1,8,0:0:0:0:
256,192,11019,1,0,0:0:0:0:
256,192,11087,1,0,0:0:0:0:
256,192,11155,1,8,0:0:0:0:
256,192,11224,1,0,0:0:0:0:
256,192,11292,1,8,0:0:0:0:
256,192,11360,1,0,0:0:0:0:
256,192,11428,1,8,0:0:0:0:
256,192,11496,1,0,0:0:0:0:
256,192,11565,1,8,0:0:0:0:
256,192,11633,1,0,0:0:0:0:
256,192,11701,1,8,0:0:0:0:
256,192,11769,1,8,0:0:0:0:
256,192,11837,1,0,0:0:0:0:
256,192,11905,1,0,0:0:0:0:
256,192,11974,1,8,0:0:0:0:
256,192,12042,1,8,0:0:0:0:
256,192,12110,1,0,0:0:0:0:
256,192,12178,1,0,0:0:0:0:
256,192,12246,1,8,0:0:0:0:
256,192,12315,1,8,0:0:0:0:
256,192,12383,1,0,0:0:0:0:
256,192,12451,1,0,0:0:0:0:
256,192,12519,1,8,0:0:0:0:
256,192,12587,1,0,0:0:0:0:
256,192,12655,1,8,0:0:0:0:
256,192,12724,1,0,0:0:0:0:
256,192,12792,1,0,0:0:0:0:
256,192,12860,1,0,0:0:0:0:
256,192,12928,1,8,0:0:0:0:
256,192,12996,1,8,0:0:0:0:
256,192,13065,1,8,0:0:0:0:
256,192,13133,1,0,0:0:0:0:
256,192,13201,1,8,0:0:0:0:
256,192,13269,1,0,0:0:0:0:
256,192,13337,1,8,0:0:0:0:
256,192,13405,1,8,0:0:0:0:
256,192,13474,1,0,0:0:0:0:
256,192,13542,1,0,0:0:0:0:
256,192,13610,1,8,0:0:0:0:
256,192,13678,1,0,0:0:0:0:
256,192,13746,1,8,0:0:0:0:
256,192,13815,1,8,0:0:0:0:
256,192,13883,1,0,0:0:0:0:
256,192,13951,1,0,0:0:0:0:
256,192,14019,1,0,0:0:0:0:
256,192,14087,1,0,0:0:0:0:
256,192,14155,1,8,0:0:0:0:
256,192,14224,1,0,0:0:0:0:
256,192,14292,1,8,0:0:0:0:
256,192,14360,1,8,0:0:0:0:
256,192,14428,1,0,0:0:0:0:
256,192,14496,1,0,0:0:0:0:
256,192,14565,1,8,0:0:0:0:
256,192,14633,1,0,0:0:0:0:
256,192,14701,1,8,0:0:0:0:
256,192,14769,1,0,0:0:0:0:
256,192,14837,1,0,0:0:0:0:
256,192,14905,1,0,0:0:0:0:
256,192,14974,1,8,0:0:0:0:
256,192,15042,1,8,0:0:0:0:
256,192,15110,1,0,0:0:0:0:
256,192,15178,1,0,0:0:0:0:
256,192,15246,1,8,0:0:0:0:
256,192,15315,1,8,0:0:0:0:
256,192,15383,1,8,0:0:0:0:
256,192,15451,1,0,0:0:0:0:
256,192,15519,1,8,0:0:0:0:
256,192,15587,1,8,0:0:0:0:
256,192,15655,1,0,0:0:0:0:
256,192,15724,1,0,0:0:0:0:
256,192,15792,1,8,0:0:0:0:
256,192,15860,1,0,0:0:0:0:
256,192,15928,1,0,0:0:0:0:
256,192,15996,1,0,0:0:0:0:
256,192,16065,1,8,0:0:0:0:
256,192,16133,1,0,0:0:0:0:
256,192,16201,1,0,0:0:0:0:
256,192,16269,1,0,0:0:0:0:
256,192,16337,1,8,0:0:0:0:
256,192,16405,1,8,0:0:0:0:
256,192,16474,1,8,0:0:0:0:
256,192,16542,1,0,0:0:0:0:
256,192,16610,1,8,0:0:0:0:
256,192,16678,1,8,0:0:0:0:
256,192,16746,1,0,0:0:0:0:
256,192,16815,1,0,0:0:0:0:
256,192,16883,1,8,0:0:0:0:
256,192,16951,1,0,0:0:0:0:
256,192,17019,1,8,0:0:0:0:
256,192,17087,1,8,0:0:0:0:
256,192,17155,1,0,0:0:0:0:
256,192,17224,1,0,0:0:0:0:
256,192,17292,1,8,0:0:0:0:
256,192,17360,1,0,0:0:0:0:
256,192,17428,1,8,0:0:0:0:
256,192,17496,1,8,0:0:0:0:
256,192,17565,1,8,0:0:0:0:
256,192,17633,1,8,0:0:0:0:
256,192,17701,1,0,0:0:0:0:
256,192,17769,1,8,0:0:0:0:
256,192,17837,1,0,0:0:0:0:
256,192,17905,1,0,0:0:0:0:
256,192,17974,1,8,0:0:0:0:
256,192,18042,1,8,0:0:0:0:
256,192,18110,1,0,0:0:0:0:
256,192,18178,1,8,0:0:0:0:
256,192,18246,1,0,0:0:0:0:
256,192,18315,1,0,0:0:0:0:
256,192,18383,1,8,0:0:0:0:
256,192,18519,1,0,0:0:0:0:
256,192,18587,1,0,0:0:0:0:
256,192,18655,1,8,0:0:0:0:
256,192,18724,1,8,0:0:0:0:
256,192,18792,1,0,0:0:0:0:
256,192,18860,1,0,0:0:0:0:
256,192,18928,1,8,0:0:0:0:
256,192,18996,1,0,0:0:0:0:
256,192,19065,1,8,0:0:0:0:
256,192,19133,1,8,0:0:0:0:
256,192,19201,1,0,0:0:0:0:
256,192,19269,1,8,0:0:0:0:
256,192,19337,1,0,0:0:0:0:
256,192,19405,1,0,0:0:0:0:
256,192,19474,1,8,0:0:0:0:
256,192,19542,1,0,0:0:0:0:
256,192,19610,1,0,0:0:0:0:
256,192,19678,1,0,0:0:0:0:
256,192,19746,1,8,0:0:0:0:
256,192,19815,1,8,0:0:0:0:
256,192,19883,1,0,0:0:0:0:
256,192,19951,1,0,0:0:0:0:
256,192,20019,1,8,0:0:0:0:
256,192,20087,1,0,0:0:0:0:
256,192,20155,1,8,0:0:0:0:
256,192,20224,1,8,0:0:0:0:
256,192,20292,1,0,0:0:0:0:
256,192,20360,1,0,0:0:0:0:
256,192,20428,1,8,0:0:0:0:
256,192,20496,1,0,0:0:0:0:
256,192,20565,1,0,0:0:0:0:
256,192,20633,1,0,0:0:0:0:
256,192,20701,1,8,0:0:0:0:
256,192,20769,1,8,0:0:0:0:
256,192,20837,1,8,0:0:0:0:
256,192,20905,1,8,0:0:0:0:
256,192,20974,1,0,0:0:0:0:
256,192,21042,1,0,0:0:0:0:
256,192,21110,1,8,0:0:0:0:
256,192,21178,1,0,0:0:0:0:
256,192,21246,1,8,0:0:0:0:
256,192,21315,1,8,0:0:0:0:
256,192,21383,1,0,0:0:0:0:
256,192,21451,1,0,0:0:0:0:
256,192,21519,1,8,0:0:0:0:
256,192,21587,1,8,0:0:0:0:
256,192,21655,1,0,0:0:0:0:
256,192,21724,1,0,0:0:0:0:
256,192,21792,1,8,0:0:0:0:
256,192,21860,1,8,0:0:0:0:
256,192,21928,1,8,0:0:0:0:
256,192,21996,1,8,0:0:0:0:
256,192,22065,1,0,0:0:0:0:
256,192,22133,1,0,0:0:0:0:
256,192,22201,1,8,0:0:0:0:
256,192,22269,1,8,0:0:0:0:
256,192,22337,1,0,0:0:0:0:
256,192,22405,1,8,0:0:0:0:
256,192,22474,1,0,0:0:0:0:
256,192,22542,1,0,0:0:0:0:
256,192,22610,1,8,0:0:0:0:
256,192,22678,1,0,0:0:0:0:
256,192,22746,1,0,0:0:0:0:
256,192,22815,1,0,0:0:0:0:
256,192,22883,1,8,0:0:0:0:
256,192,22951,1,8,0:0:0:0:
256,192,23019,1,8,0:0:0:0:
256,192,23087,1,8,0:0:0:0:
256,192,23155,1,0,0:0:0:0:
256,192,23224,1,0,0:0:0:0:
256,192,23292,1,8,0:0:0:0:
256,192,23360,1,0,0:0:0:0:
256,192,23428,1,8,0:0:0:0:
256,192,23496,1,8,0:0:0:0:
256,192,23565,1,0,0:0:0:0:
256,192,23633,1,8,0:0:0:0:
256,192,23701,1,0,0:0:0:0:
256,192,23769,1,0,0:0:0:0:
256,192,23837,1,8,0:0:0:0:
256,192,23905,1,0,0:0:0:0:
256,192,23974,1,8,0:0:0:0:
256,192,24042,1,8,0:0:0:0:
256,192,24110,1,0,0:0:0:0:
256,192,24178,1,0,0:0:0:0:
256,192,24246,1,8,0:0:0:0:
256,192,24315,1,8,0:0:0:0:
256,192,24383,1,0,0:0:0:0:
256,192,24451,1,0,0:0:0:0:
256,192,24519,1,8,0:0:0:0:
256,192,24587,1,8,0:0:0:0:
256,192,24655,1,8,0:0:0:0:
256,192,24724,1,0,0:0:0:0:
256,192,24792,1,8,0:0:0:0:
256,192,24860,1,8,0:0:0:0:
256,192,24928,1,0,0:0:0:0:
256,192,25065,1,12,0:0:0:0:
256,192,25201,1,0,0:0:0:0:
256,192,25269,1,0,0:0:0:0:
256,192,25337,1,0,0:0:0:0:
256,192,25474,1,12,0:0:0:0:
256,192,25610,1,0,0:0:0:0:
256,192,25678,1,8,0:0:0:0:
256,192,25746,1,0,0:0:0:0:
256,192,25815,1,0,0:0:0:0:
256,192,25883,1,8,0:0:0:0:
256,192,26019,1,8,0:0:0:0:
256,192,26087,1,8,0:0:0:0:
256,192,26155,1,0,0:0:0:0:
256,192,26224,1,0,0:0:0:0:
256,192,26292,1,8,0:0:0:0:
256,192,26360,1,0,0:0:0:0:
256,192,26428,1,8,0:0:0:0:
256,192,26565,1,8,0:0:0:0:
256,192,26633,1,0,0:0:0:0:
256,192,26701,1,8,0:0:0:0:
256,192,26769,1,0,0:0:0:0:
256,192,26837,1,8,0:0:0:0:
256,192,26905,1,0,0:0:0:0:
256,192,26974,1,8,0:0:0:0:
256,192,27042,1,8,0:0:0:0:
256,192,27110,1,8,0:0:0:0:
256,192,27178,1,0,0:0:0:0:
256,192,27246,1,8,0:0:0:0:
256,192,27315,1,8,0:0:0:0:
256,192,27383,1,0,0:0:0:0:
256,192,27451,1,0,0:0:0:0:
256,192,27519,1,8,0:0:0:0:
256,192,27587,1,8,0:0:0:0:
256,192,27655,1,8,0:0:0:0:
256,192,27724,1,8,0:0:0:0:
256,192,27792,1,0,0:0:0:0:
224,224,27860,1,0,0:0:0:0:
224,224,27928,1,0,0:0:0:0:
224,224,27996,1,0,0:0:0:0:
224,224,28065,1,8,0:0:0:0:
224,224,28133,1,8,0:0:0:0:
224,224,28201,1,0,0:0:0:0:
224,224,28269,1,0,0:0:0:0:
224,224,28337,1,8,0:0:0:0:
224,224,28405,1,8,0:0:0:0:
224,224,28474,1,8,0:0:0:0:
224,224,28542,1,8,0:0:0:0:
224,224,28610,1,0,0:0:0:0:
224,224,28678,1,0,0:0:0:0:
224,224,28746,1,8,0:0:0:0:
224,224,28815,1,8,0:0:0:0:
224,224,28883,1,0,0:0:0:0:
224,224,28951,1,0,0:0:0:0:
224,224,29019,1,0,0:0:0:0:
224,224,29087,1,0,0:0:0:0:
224,224,29155,1,8,0:0:0:0:
224,224,29224,1,0,0:0:0:0:
224,224,29292,1,0,0:0:0:0:
224,224,29360,1,0,0:0:0:0:
224,224,29428,1,8,0:0:0:0:
224,224,29496,1,8,0:0:0:0:
224,224,29565,1,8,0:0:0:0:
224,224,29633,1,8,0:0:0:0:
224,224,29701,1,0,0:0:0:0:
224,224,29769,1,8,0:0:0:0:
224,224,29837,1,0,0:0:0:0:
224,224,29905,1,0,0:0:0:0:
224,224,29974,1,8,0:0:0:0:
224,224,30042,1,0,0:0:0:0:
224,224,30110,1,0,0:0:0:0:
224,224,30178,1,0,0:0:0:0:
224,224,30246,1,8,0:0:0:0:
224,224,30315,1,8,0:0:0:0:
224,224,30383,1,0,0:0:0:0:
224,224,30451,1,0,0:0:0:0:
224,224,30519,1,0,0:0:0:0:
224,224,30587,1,0,0:0:0:0:
224,224,30655,1,8,0:0:0:0:
224,224,30724,1,8,0:0:0:0:
224,224,30792,1,0,0:0:0:0:
224,224,30860,1,0,0:0:0:0:
224,224,30928,1,0,0:0:0:0:
224,224,30996,1,0,0:0:0:0:
224,224,31065,1,8,0:0:0:0:
224,224,31133,1,8,0:0:0:0:
224,224,31201,1,8,0:0:0:0:
224,224,31269,1,0,0:0:0:0:
224,224,31337,1,8,0:0:0:0:
224,224,31405,1,8,0:0:0:0:
224,224,31474,1,0,0:0:0:0:
224,224,31542,1,0,0:0:0:0:
224,224,31610,1,8,0:0:0:0:
224,224,31678,1,0,0:0:0:0:
224,224,31746,1,8,0:0:0:0:
224,224,31815,1,8,0:0:0:0:
224,224,31883,1,8,0:0:0:0:
224,224,31951,1,8,0:0:0:0:
224,224,32019,1,0,0:0:0:0:
224,224,32087,1,0,0:0:0:0:
224,224,32155,1,8,0:0:0:0:
224,224,32224,1,8,0:0:0:0:
224,224,32292,1,8,0:0:0:0:
224,224,32360,1,8,0:0:0:0:
224,224,32428,1,0,0:0:0:0:
224,224,32496,1,0,0:0:0:0:
224,224,32565,1,0,0:0:0:0:
224,224,32633,1,0,0:0:0:0:
224,224,32701,1,8,0:0:0:0:
224,224,32769,1,8,0:0:0:0:
224,224,32837,1,0,0:0:0:0:
224,224,32905,1,0,0:0:0:0:
224,224,32974,1,8,0:0:0:0:
224,224,33042,1,0,0:0:0:0:
224,224,33110,1,0,0:0:0:0:
224,224,33178,1,0,0:0:0:0:
224,224,33246,1,8,0:0:0:0:
224,224,33315,1,0,0:0:0:0:
224,224,33383,1,8,0:0:0:0:
224,224,33451,1,0,0:0:0:0:
224,224,33519,1,8,0:0:0:0:
224,224,33587,1,8,0:0:0:0:
224,224,33655,1,0,0:0:0:0:
224,224,33724,1,0,0:0:0:0:
224,224,33792,1,8,0:0:0:0:
224,224,33860,1,8,0:0:0:0:
224,224,33928,1,0,0:0:0:0:
224,224,33996,1,0,0:0:0:0:
224,224,34065,1,8,0:0:0:0:
224,224,34133,1,0,0:0:0:0:
224,224,34201,1,8,0:0:0:0:
224,224,34269,1,8,0:0:0:0:
224,224,34337,1,0,0:0:0:0:
224,224,34405,1,0,0:0:0:0:
224,224,34474,1,0,0:0:0:0:
224,224,34542,1,0,0:0:0:0:
224,224,34610,1,8,0:0:0:0:
224,224,34678,1,8,0:0:0:0:
224,224,34746,1,8,0:0:0:0:
224,224,34815,1,8,0:0:0:0:
224,224,34883,1,0,0:0:0:0:
224,224,34951,1,0,0:0:0:0:
224,224,35019,1,8,0:0:0:0:
224,224,35087,1,8,0:0:0:0:
224,224,35155,1,0,0:0:0:0:
224,224,35224,1,0,0:0:0:0:
224,224,35292,1,8,0:0:0:0:
224,224,35360,1,0,0:0:0:0:
224,224,35428,1,0,0:0:0:0:
224,224,35496,1,0,0:0:0:0:
224,224,35565,1,8,0:0:0:0:
224,224,35633,1,0,0:0:0:0:
224,224,35701,1,8,0:0:0:0:
224,224,35769,1,8,0:0:0:0:
224,224,35837,1,8,0:0:0:0:
224,224,35905,1,0,0:0:0:0:
224,224,35974,1,8,0:0:0:0:
224,224,36042,1,0,0:0:0:0:
224,224,36110,1,0,0:0:0:0:
224,224,36178,1,0,0:0:0:0:
224,224,36246,1,8,0:0:0:0:
224,224,36315,1,0,0:0:0:0:
224,224,36383,1,0,0:0:0:0:
224,224,36451,1,0,0:0:0:0:
224,224,36519,1,8,0:0:0:0:
224,224,36587,1,0,0:0:0:0:
224,224,36655,1,0,0:0:0:0:
224,224,36724,1,0,0:0:0:0:
224,224,36792,1,8,0:0:0:0:
224,224,36860,1,8,0:0:0:0:
224,224,36928,1,0,0:0:0:0:
224,224,36996,1,0,0:0:0:0:
224,224,37065,1,8,0:0:0:0:
224,224,37133,1,0,0:0:0:0:
224,224,37201,1,0,0:0:0:0:
224,224,37269,1,0,0:0:0:0:
224,224,37337,1,8,0:0:0:0:
224,224,37405,1,0,0:0:0:0:
224,224,37474,1,8,0:0:0:0:
224,224,37542,1,0,0:0:0:0:
224,224,37610,1,8,0:0:0:0:
224,224,37678,1,0,0:0:0:0:
224,224,37746,1,0,0:0:0:0:
224,224,37815,1,0,0:0:0:0:
224,224,37883,1,8,0:0:0:0:
224,224,37951,1,0,0:0:0:0:
224,224,38019,1,0,0:0:0:0:
224,224,38087,1,0,0:0:0:0:
224,224,38155,1,8,0:0:0:0:
224,224,38224,1,8,0:0:0:0:
224,224,38292,1,8,0:0:0:0:
224,224,38360,1,0,0:0:0:0:
224,224,38428,1,8,0:0:0:0:
224,224,38496,1,0,0:0:0:0:
224,224,38565,1,0,0:0:0:0:
224,224,38633,1,0,0:0:0:0:
224,224,38701,1,8,0:0:0:0:
224,224,38769,1,0,0:0:0:0:
224,224,38837,1,0,0:0:0:0:
224,224,38905,1,0,0:0:0:0:
224,224,38974,1,8,0:0:0:0:
224,224,39042,1,0,0:0:0:0:
224,224,39110,1,0,0:0:0:0:
224,224,39178,1,0,0:0:0:0:
224,224,39246,1,8,0:0:0:0:
224,224,39315,1,8,0:0:0:0:
224,224,39383,1,0,0:0:0:0:
224,224,39451,1,0,0:0:0:0:
224,224,39519,1,8,0:0:0:0:
224,224,39587,1,0,0:0:0:0:
224,224,39655,1,0,0:0:0:0:
224,224,39724,1,0,0:0:0:0:
224,224,39792,1,8,0:0:0:0:
224,224,39860,1,8,0:0:0:0:
224,224,39928,1,8,0:0:0:0:
224,224,39996,1,0,0:0:0:0:
224,224,40065,1,8,0:0:0:0:
224,224,40133,1,8,0:0:0:0:
224,224,40201,1,0,0:0:0:0:
224,224,40269,1,0,0:0:0:0:
256,192,40337,1,8,0:0:0:0:
256,192,40610,1,0,0:0:0:0:
256,192,40883,1,8,0:0:0:0:
256,192,41155,1,4,0:0:0:0:
256,192,41428,1,12,0:0:0:0:
256,192,41701,1,0,0:0:0:0:
256,192,41974,1,8,0:0:0:0:
256,192,42110,1,0,0:0:0:0:
253,186,42246,1,0,0:0:0:0:
254,186,42315,1,8,0:0:0:0:
254,186,42383,1,0,0:0:0:0:
254,186,42451,1,0,0:0:0:0:
254,186,42519,1,8,0:0:0:0:
254,186,42655,1,0,0:0:0:0:
254,186,42724,1,0,0:0:0:0:
254,186,42792,1,0,0:0:0:0:
262,194,42928,1,0,0:0:0:0:
261,193,43065,1,8,0:0:0:0:
261,193,43133,1,0,0:0:0:0:
261,193,43201,1,8,0:0:0:0:
261,193,43269,1,8,0:0:0:0:
261,193,43337,1,0,0:0:0:0:
260,193,43405,1,8,0:0:0:0:
260,193,43474,1,0,0:0:0:0:
260,193,43542,1,0,0:0:0:0:
262,194,43610,1,8,0:0:0:0:
262,194,43678,1,8,0:0:0:0:
262,194,43746,1,8,0:0:0:0:
261,193,43815,1,0,0:0:0:0:
261,193,43883,1,8,0:0:0:0:
261,193,44019,1,0,0:0:0:0:
261,193,44087,1,0,0:0:0:0:
260,193,44155,1,8,0:0:0:0:
265,196,44292,1,8,0:0:0:0:
262,194,44360,1,0,0:0:0:0:
266,197,44428,1,8,0:0:0:0:
265,195,44565,1,0,0:0:0:0:
265,195,44633,1,0,0:0:0:0:
266,197,44701,1,8,0:0:0:0:
261,193,44769,1,8,0:0:0:0:
261,193,44837,1,8,0:0:0:0:
260,193,44905,1,0,0:0:0:0:
265,196,44974,1,8,0:0:0:0:
265,196,45042,1,0,0:0:0:0:
262,194,45110,1,0,0:0:0:0:
261,193,45178,1,0,0:0:0:0:
265,195,45246,1,8,0:0:0:0:
265,195,45315,1,0,0:0:0:0:
265,195,45383,1,8,0:0:0:0:
261,193,45451,1,8,0:0:0:0:
261,193,45519,1,0,0:0:0:0:
261,193,45587,1,0,0:0:0:0:
260,193,45655,1,8,0:0:0:0:
265,196,45724,1,8,0:0:0:0:
265,196,45792,1,8,0:0:0:0:
262,194,45860,1,0,0:0:0:0:
261,193,45928,1,8,0:0:0:0:
265,195,45996,1,0,0:0:0:0:
265,195,46065,1,0,0:0:0:0:
265,195,46133,1,0,0:0:0:0:
261,193,46201,1,0,0:0:0:0:
261,193,46269,1,0,0:0:0:0:
261,193,46337,1,8,0:0:0:0:
260,193,46405,1,8,0:0:0:0:
265,196,46474,1,8,0:0:0:0:
265,196,46542,1,0,0:0:0:0:
262,194,46610,1,8,0:0:0:0:
261,193,46678,1,8,0:0:0:0:
265,195,46746,1,0,0:0:0:0:
265,195,46815,1,0,0:0:0:0:
261,196,46883,1,8,0:0:0:0:
266,203,47019,1,0,0:0:0:0:
266,203,47155,1,8,0:0:0:0:
261,196,47292,1,8,0:0:0:0:
261,196,47360,1,8,0:0:0:0:
261,196,47428,1,0,0:0:0:0:
265,195,47565,1,0,0:0:0:0:
264,190,47701,1,8,0:0:0:0:
264,190,47769,1,0,0:0:0:0:
264,190,47837,1,0,0:0:0:0:
264,190,47905,1,8,0:0:0:0:
264,190,47974,1,0,0:0:0:0:
264,190,48042,1,0,0:0:0:0:
264,190,48110,1,8,0:0:0:0:
253,194,48178,1,0,0:0:0:0:
253,194,48246,1,8,0:0:0:0:
253,194,48315,1,8,0:0:0:0:
253,194,48383,1,0,0:0:0:0:
253,194,48451,1,8,0:0:0:0:
253,194,48519,1,8,0:0:0:0:
253,194,48587,1,0,0:0:0:0:
254,193,48655,1,8,0:0:0:0:
253,193,48724,1,0,0:0:0:0:
253,193,48792,1,8,0:0:0:0:
253,193,48860,1,8,0:0:0:0:
253,194,48928,1,0,0:0:0:0:
253,194,48996,1,0,0:0:0:0:
253,194,49065,1,8,0:0:0:0:
256,192,49133,8,0,50974,0:0:0:0:
257,193,51110,5,0,0:0:0:0:
257,193,51178,1,8,0:0:0:0:
257,193,51246,1,0,0:0:0:0:
257,193,51315,1,0,0:0:0:0:
257,193,51383,1,8,0:0:0:0:
257,193,51451,1,8,0:0:0:0:
257,193,51519,1,0,0:0:0:0:
257,193,51587,1,0,0:0:0:0:
257,193,51655,1,8,0:0:0:0:
257,193,51724,1,8,0:0:0:0:
257,193,51792,1,0,0:0:0:0:
257,193,51860,1,0,0:0:0:0:
257,193,51928,1,8,0:0:0:0:
257,193,51996,1,0,0:0:0:0:
257,193,52065,1,8,0:0:0:0:
257,193,52133,1,8,0:0:0:0:
257,193,52201,1,0,0:0:0:0:
257,193,52269,1,0,0:0:0:0:
257,193,52337,1,8,0:0:0:0:
257,193,52405,1,0,0:0:0:0:
257,193,52474,1,8,0:0:0:0:
257,193,52542,1,8,0:0:0:0:
257,193,52610,1,0,0:0:0:0:
257,193,52678,1,0,0:0:0:0:
257,193,52746,1,8,0:0:0:0:
257,193,52815,1,0,0:0:0:0:
257,193,52883,1,8,0:0:0:0:
257,193,52951,1,8,0:0:0:0:
257,193,53019,1,0,0:0:0:0:
257,193,53087,1,0,0:0:0:0:
253,196,53155,1,8,0:0:0:0:
253,196,53428,1,4,0:0:0:0:
255,192,55337,1,4,0:0:0:0:
255,192,55610,1,4,0:0:0:0:
255,192,56565,1,0,0:0:0:0:
255,192,56701,1,8,0:0:0:0:
255,192,56769,1,8,0:0:0:0:
255,192,56837,1,0,0:0:0:0:
255,192,56905,1,8,0:0:0:0:
255,192,56974,1,0,0:0:0:0:
255,192,57042,1,0,0:0:0:0:
255,192,57110,1,8,0:0:0:0:
255,192,57178,1,0,0:0:0:0:
255,192,57246,1,8,0:0:0:0:
255,192,57315,1,8,0:0:0:0:
255,192,57383,1,8,0:0:0:0:
255,192,57451,1,0,0:0:0:0:
255,192,57519,1,8,0:0:0:0:
259,195,57792,1,0,0:0:0:0:
255,192,57929,1,8,0:0:0:0:
246,192,58065,1,0,0:0:0:0:
247,192,58133,1,0,0:0:0:0:
247,192,58201,1,8,0:0:0:0:
255,192,58337,1,0,0:0:0:0:
252,192,58474,1,8,0:0:0:0:
252,192,58542,1,8,0:0:0:0:
255,192,58610,1,0,0:0:0:0:
255,192,58678,1,8,0:0:0:0:
252,192,58746,1,0,0:0:0:0:
252,192,58883,1,8,0:0:0:0:
252,192,59019,1,0,0:0:0:0:
252,192,59155,1,8,0:0:0:0:
252,192,59224,1,0,0:0:0:0:
252,192,59292,1,8,0:0:0:0:
255,192,59360,1,8,0:0:0:0:
255,192,59428,1,0,0:0:0:0:
252,192,59496,1,0,0:0:0:0:
252,192,59565,1,8,0:0:0:0:
252,192,59701,1,0,0:0:0:0:
252,192,59837,1,8,0:0:0:0:
252,192,59974,1,0,0:0:0:0:
255,192,60110,1,8,0:0:0:0:
255,192,60178,1,8,0:0:0:0:
252,192,60246,1,0,0:0:0:0:
252,192,60383,1,8,0:0:0:0:
252,192,60519,1,0,0:0:0:0:
252,192,60587,1,0,0:0:0:0:
252,192,60655,1,8,0:0:0:0:
255,192,60792,1,8,0:0:0:0:
255,192,60928,1,0,0:0:0:0:
252,192,61065,1,8,0:0:0:0:
252,192,61133,1,0,0:0:0:0:
252,192,61201,1,8,0:0:0:0:
252,192,61269,1,8,0:0:0:0:
252,192,61337,1,8,0:0:0:0:
252,192,61405,1,8,0:0:0:0:
255,192,61474,1,0,0:0:0:0:
255,192,61610,1,8,0:0:0:0:
252,192,61746,1,8,0:0:0:0:
252,192,61815,1,8,0:0:0:0:
252,192,61883,1,0,0:0:0:0:
252,192,61951,1,0,0:0:0:0:
252,192,62019,1,8,0:0:0:0:
252,192,62087,1,8,0:0:0:0:
252,192,62155,1,8,0:0:0:0:
245,191,62224,1,0,0:0:0:0:
245,191,62292,1,8,0:0:0:0:
252,192,62428,1,12,0:0:0:0:
252,192,62565,1,0,0:0:0:0:
252,192,62633,1,0,0:0:0:0:
252,192,62701,1,0,0:0:0:0:
258,190,62837,1,12,0:0:0:0:
256,194,62974,1,0,0:0:0:0:
256,194,63042,1,0,0:0:0:0:
252,192,63110,1,0,0:0:0:0:
242,194,63246,1,12,0:0:0:0:
252,192,63383,1,0,0:0:0:0:
240,189,63451,1,0,0:0:0:0:
240,189,63519,1,0,0:0:0:0:
251,187,63655,1,12,0:0:0:0:
242,190,63792,1,0,0:0:0:0:
242,194,63928,1,8,0:0:0:0:
242,194,63996,1,0,0:0:0:0:
242,190,64065,1,8,0:0:0:0:
242,190,64133,1,8,0:0:0:0:
240,189,64201,1,0,0:0:0:0:
251,187,64337,1,8,0:0:0:0:
251,187,64405,1,8,0:0:0:0:
251,187,64474,1,8,0:0:0:0:
251,187,64542,1,8,0:0:0:0:
251,187,64610,1,0,0:0:0:0:
251,187,64678,1,0,0:0:0:0:
251,187,64746,1,8,0:0:0:0:
251,187,64815,1,0,0:0:0:0:
251,187,64883,1,8,0:0:0:0:
251,187,64951,1,8,0:0:0:0:
251,187,65019,1,0,0:0:0:0:
251,187,65087,1,0,0:0:0:0:
251,187,65155,1,0,0:0:0:0:
251,187,65224,1,0,0:0:0:0:
251,187,65292,1,8,0:0:0:0:
251,187,65360,1,0,0:0:0:0:
251,187,65428,1,8,0:0:0:0:
251,187,65565,1,0,0:0:0:0:
251,187,65633,1,0,0:0:0:0:
251,187,65701,1,8,0:0:0:0:
251,187,65837,1,8,0:0:0:0:
251,187,65905,1,0,0:0:0:0:
251,187,65974,1,8,0:0:0:0:
251,187,66042,1,8,0:0:0:0:
251,187,66110,1,0,0:0:0:0:
251,187,66246,1,12,0:0:0:0:
267,181,66519,1,0,0:0:0:0:
259,182,66655,1,8,0:0:0:0:
259,182,66724,1,8,0:0:0:0:
259,182,66792,1,0,0:0:0:0:
251,187,66928,1,0,0:0:0:0:
253,184,67065,1,8,0:0:0:0:
253,184,67201,1,0,0:0:0:0:
253,184,67337,1,8,0:0:0:0:
253,184,67405,1,8,0:0:0:0:
253,184,67474,1,0,0:0:0:0:
253,184,67542,1,0,0:0:0:0:
251,187,67610,1,8,0:0:0:0:
253,184,67746,1,8,0:0:0:0:
253,184,67815,1,0,0:0:0:0:
253,184,67883,1,8,0:0:0:0:
253,184,67951,1,8,0:0:0:0:
253,184,68019,1,0,0:0:0:0:
253,184,68087,1,0,0:0:0:0:
253,184,68155,1,8,0:0:0:0:
253,184,68224,1,8,0:0:0:0:
253,184,68292,1,8,0:0:0:0:
254,183,68360,1,0,0:0:0:0:
253,184,68428,1,8,0:0:0:0:
253,184,68496,1,8,0:0:0:0:
253,184,68565,1,0,0:0:0:0:
253,184,68633,1,0,0:0:0:0:
253,184,68701,1,8,0:0:0:0:
253,184,68837,1,0,0:0:0:0:
253,184,68974,1,0,0:0:0:0:
253,184,69042,1,8,0:0:0:0:
254,183,69110,1,0,0:0:0:0:
253,184,69178,1,0,0:0:0:0:
253,184,69246,1,8,0:0:0:0:
253,184,69383,1,0,0:0:0:0:
247,183,69519,1,8,0:0:0:0:
247,183,69587,1,0,0:0:0:0:
247,183,69655,1,8,0:0:0:0:
247,183,69724,1,8,0:0:0:0:
247,183,69792,1,0,0:0:0:0:
247,182,69928,1,0,0:0:0:0:
247,182,69996,1,0,0:0:0:0:
247,182,70065,1,8,0:0:0:0:
247,182,70133,1,0,0:0:0:0:
247,183,70201,1,8,0:0:0:0:
247,183,70269,1,8,0:0:0:0:
247,183,70337,1,0,0:0:0:0:
247,183,70474,1,0,0:0:0:0:
247,182,70610,1,0,0:0:0:0:
247,182,70678,1,0,0:0:0:0:
247,182,70746,1,8,0:0:0:0:
247,182,70883,1,8,0:0:0:0:
247,183,71019,1,0,0:0:0:0:
247,183,71155,1,8,0:0:0:0:
247,183,71224,1,0,0:0:0:0:
247,182,71292,1,8,0:0:0:0:
260,191,71428,1,0,0:0:0:0:
260,191,71565,1,8,0:0:0:0:
260,190,71701,1,0,0:0:0:0:
260,190,71769,1,0,0:0:0:0:
260,190,71837,1,8,0:0:0:0:
260,190,71905,1,0,0:0:0:0:
260,190,71974,1,8,0:0:0:0:
256,194,72110,1,8,0:0:0:0:
260,191,72246,1,8,0:0:0:0:
260,191,72315,1,0,0:0:0:0:
258,194,72383,1,8,0:0:0:0:
258,194,72451,1,8,0:0:0:0:
258,194,72519,1,0,0:0:0:0:
255,192,72655,1,0,0:0:0:0:
244,183,72792,1,8,0:0:0:0:
252,189,72928,1,8,0:0:0:0:
252,189,72996,1,8,0:0:0:0:
252,189,73065,1,8,0:0:0:0:
252,189,73133,1,0,0:0:0:0:
252,189,73201,1,8,0:0:0:0:
243,183,73269,1,8,0:0:0:0:
243,183,73337,1,0,0:0:0:0:
243,183,73405,1,0,0:0:0:0:
244,183,73474,1,8,0:0:0:0:
252,189,73610,1,0,0:0:0:0:
256,160,73746,1,8,0:0:0:0:
256,160,73883,1,0,0:0:0:0:
256,160,73951,1,0,0:0:0:0:
256,160,74019,1,8,0:0:0:0:
256,160,74087,1,0,0:0:0:0:
256,160,74155,1,8,0:0:0:0:
256,160,74292,1,8,0:0:0:0:
256,160,74360,1,8,0:0:0:0:
256,160,74428,1,0,0:0:0:0:
256,160,74496,1,0,0:0:0:0:
256,160,74565,1,8,0:0:0:0:
256,160,74633,1,0,0:0:0:0:
256,160,74701,1,8,0:0:0:0:
256,160,74769,1,8,0:0:0:0:
256,160,74837,1,0,0:0:0:0:
256,160,74974,1,8,0:0:0:0:
256,192,75246,1,8,0:0:0:0:
256,192,75315,1,0,0:0:0:0:
256,192,75383,1,0,0:0:0:0:
256,192,75451,1,0,0:0:0:0:
256,192,75519,1,8,0:0:0:0:
256,192,75587,1,8,0:0:0:0:
256,192,75655,1,0,0:0:0:0:
256,192,75724,1,8,0:0:0:0:
256,192,75792,1,0,0:0:0:0:
256,192,75860,1,0,0:0:0:0:
256,192,75928,1,8,0:0:0:0:
256,192,75996,1,0,0:0:0:0:
256,192,76065,1,0,0:0:0:0:
256,192,76133,1,0,0:0:0:0:
256,192,76201,1,8,0:0:0:0:
256,192,76269,1,8,0:0:0:0:
256,192,76337,1,0,0:0:0:0:
256,192,76405,1,0,0:0:0:0:
256,192,76474,1,8,0:0:0:0:
256,192,76542,1,8,0:0:0:0:
256,192,76610,1,0,0:0:0:0:
256,192,76678,1,0,0:0:0:0:
256,192,76746,1,8,0:0:0:0:
256,192,76815,1,0,0:0:0:0:
256,192,76883,1,8,0:0:0:0:
256,192,76951,1,8,0:0:0:0:
256,192,77019,1,8,0:0:0:0:
256,192,77087,1,0,0:0:0:0:
256,192,77155,1,8,0:0:0:0:
256,192,77224,1,0,0:0:0:0:
256,192,77292,1,0,0:0:0:0:
256,192,77360,1,0,0:0:0:0:
256,192,77428,1,8,0:0:0:0:
256,192,77496,1,0,0:0:0:0:
256,192,77565,1,8,0:0:0:0:
256,192,77633,1,8,0:0:0:0:
256,192,77701,1,0,0:0:0:0:
256,192,77769,1,0,0:0:0:0:
256,192,77837,1,8,0:0:0:0:
256,192,77905,1,0,0:0:0:0:
256,192,77974,1,8,0:0:0:0:
256,192,78042,1,8,0:0:0:0:
256,192,78110,1,0,0:0:0:0:
256,192,78178,1,0,0:0:0:0:
256,192,78246,1,8,0:0:0:0:
256,192,78315,1,8,0:0:0:0:
256,192,78383,1,0,0:0:0:0:
256,192,78451,1,0,0:0:0:0:
256,192,78519,1,8,0:0:0:0:
256,192,78587,1,8,0:0:0:0:
256,192,78655,1,8,0:0:0:0:
256,192,78724,1,8,0:0:0:0:
256,192,78792,1,0,0:0:0:0:
256,192,78860,1,0,0:0:0:0:
256,192,78928,1,8,0:0:0:0:
256,192,78996,1,8,0:0:0:0:
256,192,79065,1,0,0:0:0:0:
256,192,79133,1,8,0:0:0:0:
256,192,79201,1,0,0:0:0:0:
256,192,79269,1,8,0:0:0:0:
256,192,79337,1,0,0:0:0:0:
256,192,79405,1,0,0:0:0:0:
256,192,79474,1,0,0:0:0:0:
256,192,79542,1,0,0:0:0:0:
256,192,79610,1,8,0:0:0:0:
256,192,79678,1,8,0:0:0:0:
256,192,79746,1,0,0:0:0:0:
256,192,79815,1,0,0:0:0:0:
256,192,79883,1,8,0:0:0:0:
256,192,79951,1,0,0:0:0:0:
256,192,80019,1,8,0:0:0:0:
256,192,80087,1,0,0:0:0:0:
256,192,80155,1,8,0:0:0:0:
256,192,80224,1,0,0:0:0:0:
256,192,80292,1,0,0:0:0:0:
256,192,80360,1,0,0:0:0:0:
256,192,80428,1,8,0:0:0:0:
256,192,80496,1,0,0:0:0:0:
256,192,80565,1,8,0:0:0:0:
256,192,80633,1,0,0:0:0:0:
256,192,80701,1,8,0:0:0:0:
256,192,80769,1,8,0:0:0:0:
256,192,80837,1,0,0:0:0:0:
256,192,80905,1,0,0:0:0:0:
256,192,80974,1,8,0:0:0:0:
256,192,81042,1,0,0:0:0:0:
256,192,81110,1,0,0:0:0:0:
256,192,81178,1,0,0:0:0:0:
256,192,81246,1,8,0:0:0:0:
256,192,81315,1,0,0:0:0:0:
256,192,81383,1,8,0:0:0:0:
256,192,81451,1,0,0:0:0:0:
256,192,81519,1,8,0:0:0:0:
256,192,81587,1,0,0:0:0:0:
256,192,81655,1,0,0:0:0:0:
256,192,81724,1,0,0:0:0:0:
256,192,81792,1,8,0:0:0:0:
256,192,81860,1,8,0:0:0:0:
256,192,81928,1,8,0:0:0:0:
256,192,81996,1,8,0:0:0:0:
256,192,82065,1,0,0:0:0:0:
256,192,82133,1,0,0:0:0:0:
256,192,82201,1,8,0:0:0:0:
256,192,82269,1,8,0:0:0:0:
256,192,82337,1,0,0:0:0:0:
256,192,82405,1,0,0:0:0:0:
256,192,82474,1,8,0:0:0:0:
256,192,82542,1,0,0:0:0:0:
256,192,82610,1,8,0:0:0:0:
256,192,82678,1,0,0:0:0:0:
256,192,82746,1,0,0:0:0:0:
256,192,82815,1,0,0:0:0:0:
256,192,82883,1,8,0:0:0:0:
256,192,82951,1,8,0:0:0:0:
256,192,83019,1,8,0:0:0:0:
256,192,83087,1,0,0:0:0:0:
256,192,83155,1,8,0:0:0:0:
256,192,83224,1,0,0:0:0:0:
256,192,83292,1,0,0:0:0:0:
256,192,83360,1,0,0:0:0:0:
256,192,83428,1,8,0:0:0:0:
256,192,83496,1,8,0:0:0:0:
256,192,83565,1,8,0:0:0:0:
256,192,83633,1,0,0:0:0:0:
256,192,83701,1,8,0:0:0:0:
256,192,83769,1,0,0:0:0:0:
256,192,83837,1,0,0:0:0:0:
256,192,83905,1,0,0:0:0:0:
256,192,83974,1,8,0:0:0:0:
256,192,84042,1,0,0:0:0:0:
256,192,84110,1,0,0:0:0:0:
256,192,84178,1,0,0:0:0:0:
256,192,84246,1,8,0:0:0:0:
256,192,84315,1,8,0:0:0:0:
256,192,84383,1,0,0:0:0:0:
256,192,84451,1,0,0:0:0:0:
256,192,84519,1,8,0:0:0:0:
256,192,84587,1,8,0:0:0:0:
256,192,84655,1,0,0:0:0:0:
256,192,84724,1,0,0:0:0:0:
256,192,84792,1,8,0:0:0:0:
256,192,84860,1,0,0:0:0:0:
256,192,84928,1,0,0:0:0:0:
256,192,84996,1,0,0:0:0:0:
256,192,85065,1,8,0:0:0:0:
256,192,85133,1,0,0:0:0:0:
256,192,85201,1,8,0:0:0:0:
256,192,85269,1,8,0:0:0:0:
256,192,85337,1,0,0:0:0:0:
256,192,85405,1,0,0:0:0:0:
256,192,85474,1,8,0:0:0:0:
256,192,85542,1,0,0:0:0:0:
256,192,85610,1,8,0:0:0:0:
256,192,85678,1,8,0:0:0:0:
256,192,85746,1,8,0:0:0:0:
256,192,85815,1,0,0:0:0:0:
256,192,85883,1,8,0:0:0:0:
256,192,85951,1,8,0:0:0:0:
256,192,86019,1,8,0:0:0:0:
256,192,86087,1,0,0:0:0:0:
256,192,86155,1,8,0:0:0:0:
256,192,86224,1,8,0:0:0:0:
256,192,86292,1,0,0:0:0:0:
256,192,86360,1,8,0:0:0:0:
256,192,86428,1,0,0:0:0:0:
256,192,86496,1,8,0:0:0:0:
256,192,86565,1,0,0:0:0:0:
256,192,86633,1,0,0:0:0:0:
256,192,86701,1,8,0:0:0:0:
256,192,86769,1,8,0:0:0:0:
256,192,86837,1,0,0:0:0:0:
256,192,86905,1,0,0:0:0:0:
256,192,86974,1,8,0:0:0:0:
256,192,87042,1,0,0:0:0:0:
256,192,87110,1,0,0:0:0:0:
256,192,87178,1,0,0:0:0:0:
256,192,87246,1,8,0:0:0:0:
256,192,87315,1,0,0:0:0:0:
256,192,87383,1,0,0:0:0:0:
256,192,87451,1,0,0:0:0:0:
256,192,87519,1,8,0:0:0:0:
256,192,87587,1,8,0:0:0:0:
256,192,87655,1,0,0:0:0:0:
256,192,87724,1,0,0:0:0:0:
256,192,87792,1,8,0:0:0:0:
256,192,87860,1,8,0:0:0:0:
256,192,87928,1,0,0:0:0:0:
256,192,87996,1,0,0:0:0:0:
256,192,88065,1,8,0:0:0:0:
256,192,88133,1,8,0:0:0:0:
256,192,88201,1,8,0:0:0:0:
256,192,88269,1,0,0:0:0:0:
256,192,88337,1,8,0:0:0:0:
256,192,88405,1,0,0:0:0:0:
256,192,88474,1,0,0:0:0:0:
256,192,88542,1,0,0:0:0:0:
256,192,88610,1,8,0:0:0:0:
256,192,88678,1,8,0:0:0:0:
256,192,88746,1,0,0:0:0:0:
256,192,88815,1,0,0:0:0:0:
256,192,88883,1,8,0:0:0:0:
256,192,88951,1,0,0:0:0:0:
256,192,89019,1,8,0:0:0:0:
256,192,89087,1,0,0:0:0:0:
256,192,89155,1,8,0:0:0:0:
256,192,89224,1,8,0:0:0:0:
256,192,89292,1,0,0:0:0:0:
256,192,89360,1,0,0:0:0:0:
256,192,89428,1,8,0:0:0:0:
256,192,89496,1,8,0:0:0:0:
256,192,89565,1,0,0:0:0:0:
256,192,89633,1,0,0:0:0:0:
256,192,89701,1,8,0:0:0:0:
256,192,89769,1,0,0:0:0:0:
256,192,89837,1,0,0:0:0:0:
256,192,89905,1,0,0:0:0:0:
256,192,89974,1,8,0:0:0:0:
256,192,90042,1,0,0:0:0:0:
256,192,90110,1,8,0:0:0:0:
256,192,90178,1,8,0:0:0:0:
256,192,90246,1,0,0:0:0:0:
256,192,90315,1,8,0:0:0:0:
256,192,90383,1,0,0:0:0:0:
256,192,90451,1,0,0:0:0:0:
256,192,90519,1,8,0:0:0:0:
256,192,90655,1,0,0:0:0:0:
256,192,90724,1,0,0:0:0:0:
256,192,90792,1,0,0:0:0:0:
256,192,90928,1,12,0:0:0:0:
256,192,91065,1,0,0:0:0:0:
256,192,91133,1,0,0:0:0:0:
256,192,91201,1,8,0:0:0:0:
256,192,91337,1,0,0:0:0:0:
256,192,91474,1,8,0:0:0:0:
256,192,91542,1,8,0:0:0:0:
256,192,91610,1,0,0:0:0:0:
256,192,91883,1,0,0:0:0:0:
256,192,92155,1,0,0:0:0:0:
256,192,92428,1,0,0:0:0:0:
256,192,92565,1,0,0:0:0:0:
256,192,92633,1,0,0:0:0:0:
256,192,92701,1,8,0:0:0:0:
256,192,92837,1,0,0:0:0:0:
256,192,92974,1,8,0:0:0:0:
256,192,93110,1,8,0:0:0:0:
256,192,93178,1,0,0:0:0:0:
256,192,93246,1,8,0:0:0:0:
256,192,93315,1,8,0:0:0:0:
256,192,93383,1,0,0:0:0:0:
256,192,93451,1,0,0:0:0:0:
256,192,93519,1,8,0:0:0:0:
256,192,93655,1,0,0:0:0:0:
256,192,93792,1,8,0:0:0:0:
256,192,93928,1,0,0:0:0:0:
256,192,93996,1,0,0:0:0:0:
256,192,94065,1,0,0:0:0:0:
256,192,94201,1,8,0:0:0:0:
256,192,94337,1,0,0:0:0:0:
256,192,94405,1,8,0:0:0:0:
256,192,94474,1,0,0:0:0:0:
256,192,94542,1,0,0:0:0:0:
256,192,94610,1,8,0:0:0:0:
256,192,94746,1,0,0:0:0:0:
256,192,94883,1,8,0:0:0:0:
256,192,95019,1,0,0:0:0:0:
256,192,95087,1,0,0:0:0:0:
256,192,95155,1,0,0:0:0:0:
256,192,95292,1,8,0:0:0:0:
256,192,95360,1,0,0:0:0:0:
256,192,95428,1,8,0:0:0:0:
256,192,95496,1,8,0:0:0:0:
256,192,95565,1,0,0:0:0:0:
256,192,95701,1,0,0:0:0:0:
256,192,95837,1,8,0:0:0:0:
256,192,95905,1,0,0:0:0:0:
256,192,95974,1,8,0:0:0:0:
256,192,96042,1,8,0:0:0:0:
256,192,96110,1,0,0:0:0:0:
256,192,96178,1,0,0:0:0:0:
256,192,96246,1,0,0:0:0:0:
256,192,96315,1,0,0:0:0:0:
256,192,96383,1,8,0:0:0:0:
256,192,96519,1,0,0:0:0:0:
256,192,96655,1,8,0:0:0:0:
256,192,96792,1,0,0:0:0:0:
256,192,96860,1,8,0:0:0:0:
256,192,96928,1,0,0:0:0:0:
256,192,96996,1,0,0:0:0:0:
256,192,97065,1,8,0:0:0:0:
256,192,97201,1,0,0:0:0:0:
256,192,97337,1,8,0:0:0:0:
256,192,97405,1,8,0:0:0:0:
256,192,97474,1,8,0:0:0:0:
256,192,97542,1,0,0:0:0:0:
256,192,97610,1,8,0:0:0:0:
256,192,97746,1,0,0:0:0:0:
256,192,97883,1,8,0:0:0:0:
256,192,97951,1,0,0:0:0:0:
256,192,98019,1,8,0:0:0:0:
256,192,98155,1,8,0:0:0:0:
256,192,98292,1,0,0:0:0:0:
256,192,98428,1,0,0:0:0:0:
256,192,98496,1,0,0:0:0:0:
256,192,98565,1,8,0:0:0:0:
256,192,98633,1,8,0:0:0:0:
256,192,98701,1,0,0:0:0:0:
256,192,98837,1,8,0:0:0:0:
256,192,98974,1,0,0:0:0:0:
256,192,99042,1,0,0:0:0:0:
256,192,99110,1,0,0:0:0:0:
256,192,99246,1,0,0:0:0:0:
256,192,99383,1,8,0:0:0:0:
256,192,99519,1,0,0:0:0:0:
256,192,99587,1,0,0:0:0:0:
256,192,99655,1,8,0:0:0:0:
256,192,99724,1,0,0:0:0:0:
256,192,99792,1,8,0:0:0:0:
256,192,99860,1,8,0:0:0:0:
256,192,99928,1,0,0:0:0:0:
256,192,99996,1,0,0:0:0:0:
256,192,100065,1,8,0:0:0:0:
256,192,100201,1,0,0:0:0:0:
256,192,100337,1,8,0:0:0:0:
256,192,100405,1,8,0:0:0:0:
256,192,100474,1,8,0:0:0:0:
256,192,100542,1,8,0:0:0:0:
256,192,100610,1,0,0:0:0:0:
256,192,100678,1,0,0:0:0:0:
256,192,100746,1,8,0:0:0:0:
256,192,100815,1,0,0:0:0:0:
256,192,100883,1,8,0:0:0:0:
256,192,100951,1,8,0:0:0:0:
256,192,101019,1,0,0:0:0:0:
256,192,101087,1,0,0:0:0:0:
256,192,101155,1,0,0:0:0:0:
256,192,101224,1,0,0:0:0:0:
256,192,101292,1,8,0:0:0:0:
256,192,101428,1,0,0:0:0:0:
256,192,101565,1,8,0:0:0:0:
256,192,101633,1,8,0:0:0:0:
256,192,101701,1,0,0:0:0:0:
256,192,101837,1,8,0:0:0:0:
256,192,101974,1,0,0:0:0:0:
256,192,102110,1,8,0:0:0:0:
256,192,102246,1,8,0:0:0:0:
256,192,102315,1,0,0:0:0:0:
256,192,102383,1,8,0:0:0:0:
256,192,102451,1,8,0:0:0:0:
256,192,102519,1,0,0:0:0:0:
256,192,102655,1,0,0:0:0:0:
256,192,102792,1,8,0:0:0:0:
256,192,102860,1,8,0:0:0:0:
256,192,102928,1,0,0:0:0:0:
256,192,102996,1,0,0:0:0:0:
256,192,103065,1,8,0:0:0:0:
256,192,103201,1,0,0:0:0:0:
256,192,103337,1,0,0:0:0:0:
256,192,103405,1,0,0:0:0:0:
256,192,103474,1,8,0:0:0:0:
256,192,103542,1,0,0:0:0:0:
256,192,103610,1,8,0:0:0:0:
256,192,103678,1,8,0:0:0:0:
256,192,103746,1,0,0:0:0:0:
256,192,103883,1,0,0:0:0:0:
256,192,104019,1,8,0:0:0:0:
256,192,104155,1,8,0:0:0:0:
256,192,104224,1,0,0:0:0:0:
256,192,104292,1,0,0:0:0:0:
256,192,104360,1,8,0:0:0:0:
256,192,104428,1,0,0:0:0:0:
256,192,104565,1,8,0:0:0:0:
256,192,104701,1,8,0:0:0:0:
256,192,104769,1,8,0:0:0:0:
256,192,104837,1,0,0:0:0:0:
256,192,104905,1,0,0:0:0:0:
256,192,104974,1,8,0:0:0:0:
256,192,105110,1,8,0:0:0:0:
256,192,105178,1,0,0:0:0:0:
256,192,105246,1,8,0:0:0:0:
256,192,105315,1,8,0:0:0:0:
256,192,105383,1,0,0:0:0:0:
256,192,105451,1,0,0:0:0:0:
256,192,105519,1,8,0:0:0:0:
256,192,105655,1,0,0:0:0:0:
256,192,105792,1,0,0:0:0:0:
256,192,105860,1,0,0:0:0:0:
256,192,105928,1,8,0:0:0:0:
256,192,106065,1,8,0:0:0:0:
256,192,106133,1,0,0:0:0:0:
256,192,106201,1,0,0:0:0:0:
256,192,106269,1,8,0:0:0:0:
256,192,106337,1,0,0:0:0:0:
256,192,106405,1,0,0:0:0:0:
256,192,106474,1,8,0:0:0:0:
256,192,106610,1,0,0:0:0:0:
256,192,106746,1,8,0:0:0:0:
256,192,106815,1,0,0:0:0:0:
256,192,106883,1,8,0:0:0:0:
256,192,106951,1,8,0:0:0:0:
256,192,107019,1,0,0:0:0:0:
256,192,107155,1,8,0:0:0:0:
256,192,107292,1,0,0:0:0:0:
256,192,107360,1,0,0:0:0:0:
256,192,107428,1,0,0:0:0:0:
256,192,107496,1,8,0:0:0:0:
256,192,107565,1,0,0:0:0:0:
256,192,107701,1,8,0:0:0:0:
256,192,107837,1,0,0:0:0:0:
256,192,107974,1,8,0:0:0:0:
256,192,108042,1,8,0:0:0:0:
256,192,108110,1,0,0:0:0:0:
256,192,108178,1,0,0:0:0:0:
256,192,108246,1,8,0:0:0:0:
256,192,108315,1,0,0:0:0:0:
256,192,108383,1,8,0:0:0:0:
256,192,108451,1,0,0:0:0:0:
256,192,108519,1,0,0:0:0:0:
256,192,108655,1,0,0:0:0:0:
256,192,108792,1,8,0:0:0:0:
256,192,108860,1,8,0:0:0:0:
256,192,108928,1,0,0:0:0:0:
256,192,109065,1,0,0:0:0:0:
256,192,109474,1,0,0:0:0:0:
256,192,109883,1,8,0:0:0:0:
256,192,110155,1,8,0:0:0:0:
256,192,110224,1,8,0:0:0:0:
256,192,110292,1,0,0:0:0:0:
256,192,110360,1,0,0:0:0:0:
256,192,110428,1,8,0:0:0:0:
256,192,110496,1,0,0:0:0:0:
256,192,110565,1,8,0:0:0:0:
256,192,110633,1,8,0:0:0:0:
256,192,110701,1,0,0:0:0:0:
256,192,110769,1,0,0:0:0:0:
256,192,110837,1,8,0:0:0:0:
256,192,110905,1,0,0:0:0:0:
256,192,110974,1,8,0:0:0:0:
256,192,111042,1,0,0:0:0:0:
256,192,111110,1,8,0:0:0:0:
256,192,111178,1,8,0:0:0:0:
256,192,111246,1,0,0:0:0:0:
256,192,111315,1,0,0:0:0:0:
256,192,111383,1,8,0:0:0:0:
256,192,111451,1,0,0:0:0:0:
256,192,111519,1,8,0:0:0:0:
256,192,111587,1,8,0:0:0:0:
256,192,111655,1,0,0:0:0:0:
256,192,111724,1,8,0:0:0:0:
256,192,111792,1,0,0:0:0:0:
256,192,111860,1,0,0:0:0:0:
256,192,111928,1,8,0:0:0:0:
256,192,111996,1,0,0:0:0:0:
256,192,112065,1,0,0:0:0:0:
256,192,112133,1,0,0:0:0:0:
256,192,112201,1,8,0:0:0:0:
256,192,112269,1,8,0:0:0:0:
256,192,112337,1,8,0:0:0:0:
256,192,112405,1,8,0:0:0:0:
256,192,112474,1,0,0:0:0:0:
256,192,112542,1,0,0:0:0:0:
256,192,112610,1,8,0:0:0:0:
256,192,112678,1,8,0:0:0:0:
256,192,112746,1,0,0:0:0:0:
256,192,112815,1,0,0:0:0:0:
256,192,112883,1,8,0:0:0:0:
256,192,112951,1,0,0:0:0:0:
256,192,113019,1,8,0:0:0:0:
256,192,113087,1,8,0:0:0:0:
256,192,113155,1,0,0:0:0:0:
256,192,113224,1,0,0:0:0:0:
256,192,113292,1,8,0:0:0:0:
256,192,113360,1,0,0:0:0:0:
256,192,113428,1,8,0:0:0:0:
256,192,113496,1,0,0:0:0:0:
256,192,113565,1,0,0:0:0:0:
256,192,113633,1,0,0:0:0:0:
256,192,113701,1,8,0:0:0:0:
256,192,113769,1,8,0:0:0:0:
256,192,113837,1,0,0:0:0:0:
256,192,113905,1,0,0:0:0:0:
256,192,113974,1,8,0:0:0:0:
256,192,114042,1,8,0:0:0:0:
256,192,114110,1,8,0:0:0:0:
256,192,114178,1,0,0:0:0:0:
256,192,114246,1,8,0:0:0:0:
256,192,114315,1,0,0:0:0:0:
256,192,114383,1,0,0:0:0:0:
256,192,114451,1,0,0:0:0:0:
256,192,114519,1,8,0:0:0:0:
256,192,114587,1,8,0:0:0:0:
256,192,114655,1,0,0:0:0:0:
256,192,114724,1,0,0:0:0:0:
256,192,114792,1,8,0:0:0:0:
256,192,114860,1,8,0:0:0:0:
256,192,114928,1,8,0:0:0:0:
256,192,114996,1,8,0:0:0:0:
256,192,115065,1,0,0:0:0:0:
256,192,115201,1,0,0:0:0:0:
256,192,115337,1,0,0:0:0:0:
256,192,115405,1,0,0:0:0:0:
256,192,115474,1,8,0:0:0:0:
256,192,115542,1,8,0:0:0:0:
256,192,115610,1,0,0:0:0:0:
256,192,115746,1,0,0:0:0:0:
256,192,115883,1,8,0:0:0:0:
256,192,115951,1,8,0:0:0:0:
256,192,116019,1,0,0:0:0:0:
256,192,116155,1,8,0:0:0:0:
256,192,116223,1,8,0:0:0:0:
256,192,116291,1,0,0:0:0:0:
256,192,116428,1,0,0:0:0:0:
256,192,116565,1,0,0:0:0:0:
256,192,116633,1,0,0:0:0:0:
256,192,116701,1,8,0:0:0:0:
256,192,116837,1,0,0:0:0:0:
256,192,116974,1,0,0:0:0:0:
256,192,117042,1,8,0:0:0:0:
256,192,117110,1,0,0:0:0:0:
256,192,117178,1,0,0:0:0:0:
256,192,117246,1,8,0:0:0:0:
256,192,117383,1,0,0:0:0:0:
256,192,117519,1,8,0:0:0:0:
256,192,117655,1,0,0:0:0:0:
256,192,117792,1,8,0:0:0:0:
256,192,117860,1,0,0:0:0:0:
256,192,117928,1,0,0:0:0:0:
256,192,117996,1,8,0:0:0:0:
256,192,118065,1,0,0:0:0:0:
256,192,118133,1,0,0:0:0:0:
256,192,118201,1,8,0:0:0:0:
256,192,118269,1,0,0:0:0:0:
256,192,118337,1,8,0:0:0:0:
256,192,118405,1,8,0:0:0:0:
256,192,118474,1,0,0:0:0:0:
256,192,118542,1,0,0:0:0:0:
256,192,118610,1,8,0:0:0:0:
256,192,118678,1,0,0:0:0:0:
256,192,118746,1,8,0:0:0:0:
256,192,118815,1,8,0:0:0:0:
256,192,118883,1,0,0:0:0:0:
256,192,119019,1,4,0:0:0:0:
256,192,120792,1,4,0:0:0:0:
256,192,121065,1,4,0:0:0:0:
256,192,121201,1,4,0:0:0:0:
256,192,123246,1,4,0:0:0:0:
256,192,123383,1,4,0:0:0:0:
256,192,125155,1,4,0:0:0:0:
256,192,125428,1,8,0:0:0:0:
256,192,125496,1,0,0:0:0:0:
256,192,125565,1,8,0:0:0:0:
256,192,125633,1,8,0:0:0:0:
256,192,125701,1,0,0:0:0:0:
256,192,125769,1,0,0:0:0:0:
256,192,125837,1,8,0:0:0:0:
256,192,125974,1,0,0:0:0:0:
256,192,126110,1,8,0:0:0:0:
256,192,126246,1,0,0:0:0:0:
256,192,126315,1,0,0:0:0:0:
256,192,126383,1,8,0:0:0:0:
256,192,126519,1,4,0:0:0:0:
256,192,126792,1,4,0:0:0:0:
256,192,127065,1,4,0:0:0:0:
256,192,127610,1,8,0:0:0:0:
256,192,127678,1,0,0:0:0:0:
256,192,127746,1,0,0:0:0:0:
256,192,127815,1,0,0:0:0:0:
256,192,127883,1,8,0:0:0:0:
256,192,127951,1,8,0:0:0:0:
256,192,128019,1,0,0:0:0:0:
256,192,128087,1,0,0:0:0:0:
256,192,128155,1,8,0:0:0:0:
256,192,128224,1,0,0:0:0:0:
256,192,128292,1,8,0:0:0:0:
256,192,128360,1,8,0:0:0:0:
256,192,128428,1,8,0:0:0:0:
256,192,128496,1,0,0:0:0:0:
256,192,128565,1,8,0:0:0:0:
256,192,128633,1,8,0:0:0:0:
256,192,128701,1,0,0:0:0:0:
256,192,128769,1,0,0:0:0:0:
256,192,128837,1,8,0:0:0:0:
256,192,128905,1,0,0:0:0:0:
256,192,128974,1,8,0:0:0:0:
256,192,129042,1,8,0:0:0:0:
256,192,129110,1,0,0:0:0:0:
256,192,129178,1,0,0:0:0:0:
256,192,129246,1,8,0:0:0:0:
256,192,129315,1,0,0:0:0:0:
256,192,129383,1,0,0:0:0:0:
256,192,129451,1,0,0:0:0:0:
256,192,129519,1,8,0:0:0:0:
256,192,129587,1,0,0:0:0:0:
256,192,129655,1,8,0:0:0:0:
256,192,129724,1,8,0:0:0:0:
256,192,129792,1,8,0:0:0:0:
256,192,129860,1,0,0:0:0:0:
256,192,129928,1,8,0:0:0:0:
256,192,129996,1,0,0:0:0:0:
256,192,130065,1,8,0:0:0:0:
256,192,130133,1,8,0:0:0:0:
256,192,130201,1,0,0:0:0:0:
256,192,130269,1,0,0:0:0:0:
256,192,130337,1,8,0:0:0:0:
256,192,130405,1,0,0:0:0:0:
256,192,130474,1,0,0:0:0:0:
256,192,130542,1,0,0:0:0:0:
256,192,130610,1,8,0:0:0:0:
256,192,130678,1,0,0:0:0:0:
256,192,130746,1,8,0:0:0:0:
256,192,130815,1,0,0:0:0:0:
256,192,130883,1,0,0:0:0:0:
256,192,130951,1,0,0:0:0:0:
256,192,131019,1,8,0:0:0:0:
256,192,131087,1,8,0:0:0:0:
256,192,131155,1,0,0:0:0:0:
256,192,131224,1,0,0:0:0:0:
256,192,131292,1,8,0:0:0:0:
256,192,131360,1,0,0:0:0:0:
256,192,131428,1,8,0:0:0:0:
256,192,131496,1,8,0:0:0:0:
256,192,131565,1,8,0:0:0:0:
256,192,131633,1,0,0:0:0:0:
256,192,131701,1,8,0:0:0:0:
256,192,131769,1,8,0:0:0:0:
256,192,131837,1,0,0:0:0:0:
256,192,131905,1,0,0:0:0:0:
256,192,131974,1,8,0:0:0:0:
256,192,132246,1,8,0:0:0:0:
256,192,132383,1,0,0:0:0:0:
256,192,132655,1,0,0:0:0:0:
256,192,132792,1,8,0:0:0:0:
256,192,132928,1,0,0:0:0:0:
256,192,133201,1,0,0:0:0:0:
256,192,133337,1,8,0:0:0:0:
256,192,133610,1,0,0:0:0:0:
256,192,133746,1,0,0:0:0:0:
256,192,133883,1,8,0:0:0:0:
256,192,134155,1,0,0:0:0:0:
256,192,134292,1,0,0:0:0:0:
256,192,134428,1,0,0:0:0:0:
256,192,134565,1,8,0:0:0:0:
256,192,134837,1,8,0:0:0:0:
256,192,134974,1,0,0:0:0:0:
256,192,135110,1,8,0:0:0:0:
224,192,135519,1,0,0:0:0:0:
224,192,135587,1,0,0:0:0:0:
224,192,135655,1,0,0:0:0:0:
224,192,135724,1,0,0:0:0:0:
224,192,135792,1,8,0:0:0:0:
224,192,135860,1,0,0:0:0:0:
224,192,135928,1,0,0:0:0:0:
224,192,135996,1,0,0:0:0:0:
224,192,136065,1,8,0:0:0:0:
256,192,136337,1,8,0:0:0:0:
256,192,136405,1,0,0:0:0:0:
256,192,136474,1,0,0:0:0:0:
256,192,136542,1,0,0:0:0:0:
256,192,136610,1,8,0:0:0:0:
256,192,136678,1,8,0:0:0:0:
256,192,136746,1,0,0:0:0:0:
256,192,136815,1,0,0:0:0:0:
256,192,136883,1,8,0:0:0:0:
256,192,136951,1,8,0:0:0:0:
256,192,137019,1,0,0:0:0:0:
256,192,137087,1,8,0:0:0:0:
256,192,137155,1,0,0:0:0:0:
256,192,137224,1,0,0:0:0:0:
256,192,137292,1,8,0:0:0:0:
256,192,137360,1,0,0:0:0:0:
256,192,137428,1,8,0:0:0:0:
256,192,137496,1,0,0:0:0:0:
256,192,137565,1,0,0:0:0:0:
256,192,137633,1,0,0:0:0:0:
256,192,137701,1,8,0:0:0:0:
256,192,137769,1,8,0:0:0:0:
256,192,137837,1,8,0:0:0:0:
256,192,137905,1,0,0:0:0:0:
256,192,137974,1,8,0:0:0:0:
256,192,138042,1,0,0:0:0:0:
256,192,138110,1,0,0:0:0:0:
256,192,138178,1,0,0:0:0:0:
256,192,138246,1,8,0:0:0:0:
256,192,138315,1,0,0:0:0:0:
256,192,138383,1,0,0:0:0:0:
256,192,138451,1,0,0:0:0:0:
256,192,138519,1,8,0:0:0:0:
256,192,138587,1,8,0:0:0:0:
256,192,138655,1,8,0:0:0:0:
256,192,138724,1,8,0:0:0:0:
256,192,138792,1,0,0:0:0:0:
256,192,138860,1,0,0:0:0:0:
256,192,138928,1,8,0:0:0:0:
256,192,138996,1,8,0:0:0:0:
256,192,139065,1,8,0:0:0:0:
256,192,139133,1,0,0:0:0:0:
256,192,139201,1,8,0:0:0:0:
256,192,139269,1,0,0:0:0:0:
256,192,139337,1,8,0:0:0:0:
256,192,139405,1,8,0:0:0:0:
256,192,139474,1,0,0:0:0:0:
256,192,139542,1,0,0:0:0:0:
256,192,139610,1,8,0:0:0:0:
256,192,139678,1,8,0:0:0:0:
256,192,139746,1,0,0:0:0:0:
256,192,139815,1,0,0:0:0:0:
256,192,139883,1,8,0:0:0:0:
256,192,139951,1,8,0:0:0:0:
256,192,140019,1,8,0:0:0:0:
256,192,140087,1,8,0:0:0:0:
256,192,140155,1,0,0:0:0:0:
256,192,140224,1,0,0:0:0:0:
256,192,140292,1,8,0:0:0:0:
256,192,140360,1,0,0:0:0:0:
256,192,140428,1,8,0:0:0:0:
256,192,140496,1,8,0:0:0:0:
256,192,140565,1,0,0:0:0:0:
256,192,140633,1,0,0:0:0:0:
256,192,140701,1,8,0:0:0:0:
256,192,140837,1,0,0:0:0:0:
256,192,140974,1,0,0:0:0:0:
256,192,141110,1,8,0:0:0:0:
256,192,141383,1,0,0:0:0:0:
256,192,141519,1,8,0:0:0:0:
256,192,141655,1,0,0:0:0:0:
256,192,141928,1,0,0:0:0:0:
256,192,142065,1,8,0:0:0:0:
256,192,142337,1,0,0:0:0:0:
256,192,142474,1,0,0:0:0:0:
256,192,142610,1,8,0:0:0:0:
256,192,142883,1,8,0:0:0:0:
256,192,143019,1,0,0:0:0:0:
256,192,143155,1,0,0:0:0:0:
256,192,143292,1,8,0:0:0:0:
256,192,143565,1,0,0:0:0:0:
256,192,143701,1,8,0:0:0:0:
256,192,143837,1,0,0:0:0:0:
256,192,143974,1,0,0:0:0:0:
256,192,144042,1,0,0:0:0:0:
256,192,144110,1,0,0:0:0:0:
256,192,144178,1,0,0:0:0:0:
256,192,144246,1,8,0:0:0:0:
256,192,144315,1,0,0:0:0:0:
256,192,144383,1,0,0:0:0:0:
256,192,144451,1,0,0:0:0:0:
256,192,144519,1,8,0:0:0:0:
256,192,144655,1,0,0:0:0:0:
256,192,144724,1,0,0:0:0:0:
256,192,144792,1,8,0:0:0:0:
256,192,145065,1,0,0:0:0:0:
256,192,145201,1,8,0:0:0:0:
256,192,145269,1,8,0:0:0:0:
256,192,145337,1,0,0:0:0:0:
256,192,145474,1,0,0:0:0:0:
256,192,145610,1,8,0:0:0:0:
256,192,145746,1,0,0:0:0:0:
256,192,145815,1,8,0:0:0:0:
256,192,145883,1,0,0:0:0:0:
256,192,145951,1,0,0:0:0:0:
256,192,146019,1,8,0:0:0:0:
256,192,146155,1,8,0:0:0:0:
256,192,146292,1,0,0:0:0:0:
256,192,146428,1,8,0:0:0:0:
256,192,146496,1,8,0:0:0:0:
256,192,146565,1,0,0:0:0:0:
256,192,146633,1,0,0:0:0:0:
256,192,146701,1,8,0:0:0:0:
256,192,146837,1,0,0:0:0:0:
256,192,146905,1,0,0:0:0:0:
256,192,146974,1,8,0:0:0:0:
256,192,147110,1,0,0:0:0:0:
256,192,147246,1,8,0:0:0:0:
256,192,147383,1,0,0:0:0:0:
256,192,147451,1,0,0:0:0:0:
256,192,147519,1,8,0:0:0:0:
256,192,147587,1,8,0:0:0:0:
256,192,147655,1,8,0:0:0:0:
256,192,147724,1,0,0:0:0:0:
256,192,147792,1,8,0:0:0:0:
256,192,147928,1,0,0:0:0:0:
256,192,148065,1,8,0:0:0:0:
256,192,148201,1,0,0:0:0:0:
256,192,148269,1,0,0:0:0:0:
256,192,148337,1,8,0:0:0:0:
256,192,148474,1,0,0:0:0:0:
256,192,148610,1,8,0:0:0:0:
256,192,148746,1,0,0:0:0:0:
256,192,148815,1,8,0:0:0:0:
256,192,148883,1,0,0:0:0:0:
256,192,148951,1,8,0:0:0:0:
256,192,149019,1,8,0:0:0:0:
256,192,149087,1,8,0:0:0:0:
256,192,149155,1,0,0:0:0:0:
256,192,149292,1,0,0:0:0:0:
256,192,149428,1,8,0:0:0:0:
256,192,149565,1,0,0:0:0:0:
256,192,149633,1,0,0:0:0:0:
256,192,149701,1,8,0:0:0:0:
256,192,149769,1,8,0:0:0:0:
256,192,149837,1,0,0:0:0:0:
256,192,149905,1,8,0:0:0:0:
256,192,149974,1,8,0:0:0:0:
256,192,150042,1,8,0:0:0:0:
256,192,150110,1,0,0:0:0:0:
256,192,150178,1,0,0:0:0:0:
256,192,150246,1,8,0:0:0:0:
256,192,150383,1,0,0:0:0:0:
256,192,150451,1,0,0:0:0:0:
256,192,150519,1,8,0:0:0:0:
256,192,150655,1,0,0:0:0:0:
256,192,150792,1,8,0:0:0:0:
256,192,150860,1,0,0:0:0:0:
256,192,150928,1,8,0:0:0:0:
256,192,150996,1,8,0:0:0:0:
256,192,151065,1,0,0:0:0:0:
256,192,151201,1,8,0:0:0:0:
256,192,151337,1,0,0:0:0:0:
256,192,151405,1,8,0:0:0:0:
256,192,151474,1,0,0:0:0:0:
256,192,151542,1,0,0:0:0:0:
256,192,151610,1,8,0:0:0:0:
259,200,151746,1,0,0:0:0:0:
258,200,151815,1,0,0:0:0:0:
256,192,151883,1,8,0:0:0:0:
256,192,151951,1,8,0:0:0:0:
256,192,152019,1,0,0:0:0:0:
256,192,152087,1,0,0:0:0:0:
256,192,152155,1,8,0:0:0:0:
256,192,152292,1,8,0:0:0:0:
256,192,152360,1,0,0:0:0:0:
256,192,152428,1,8,0:0:0:0:
256,192,152496,1,8,0:0:0:0:
256,192,152565,1,0,0:0:0:0:
256,192,152633,1,0,0:0:0:0:
256,192,152701,1,8,0:0:0:0:
256,192,152837,1,0,0:0:0:0:
256,192,152974,1,8,0:0:0:0:
256,192,153042,1,0,0:0:0:0:
256,192,153110,1,8,0:0:0:0:
256,192,153178,1,8,0:0:0:0:
256,192,153246,1,0,0:0:0:0:
256,192,153315,1,0,0:0:0:0:
256,192,153383,1,8,0:0:0:0:
256,192,153451,1,8,0:0:0:0:
256,192,153519,1,8,0:0:0:0:
256,192,153587,1,8,0:0:0:0:
256,192,153655,1,0,0:0:0:0:
256,192,153792,1,4,0:0:0:0:
256,192,154065,1,8,0:0:0:0:
256,192,154201,1,0,0:0:0:0:
256,192,154474,1,0,0:0:0:0:
256,192,154610,1,8,0:0:0:0:
256,192,154883,1,0,0:0:0:0:
256,192,155155,1,8,0:0:0:0:
256,192,155292,1,0,0:0:0:0:
256,192,155565,1,0,0:0:0:0:
256,192,155701,1,8,0:0:0:0:
256,192,155974,1,0,0:0:0:0:
256,192,156246,1,8,0:0:0:0:
256,192,156383,1,0,0:0:0:0:
256,192,156655,1,0,0:0:0:0:
256,192,156792,1,8,0:0:0:0:
256,192,156928,1,0,0:0:0:0:
256,192,157065,1,8,0:0:0:0:
256,192,157201,1,0,0:0:0:0:
256,192,157337,1,0,0:0:0:0:
256,192,157474,1,8,0:0:0:0:
256,192,157610,1,0,0:0:0:0:
256,192,157746,1,0,0:0:0:0:
256,192,157883,1,8,0:0:0:0:
256,192,158155,1,4,0:0:0:0:
256,192,158428,1,8,0:0:0:0:
256,192,158565,1,0,0:0:0:0:
256,192,158701,1,0,0:0:0:0:
256,192,158837,1,0,0:0:0:0:
256,192,158974,1,8,0:0:0:0:
256,192,159246,1,0,0:0:0:0:
256,192,159519,1,8,0:0:0:0:
256,192,159655,1,0,0:0:0:0:
256,192,159928,1,0,0:0:0:0:
256,192,160065,1,8,0:0:0:0:
256,192,160201,1,0,0:0:0:0:
256,192,160269,1,0,0:0:0:0:
256,192,160337,1,8,0:0:0:0:
256,192,160474,1,0,0:0:0:0:
256,192,160610,1,8,0:0:0:0:
256,192,160746,1,0,0:0:0:0:
256,192,160883,1,8,0:0:0:0:
256,192,161019,1,0,0:0:0:0:
256,192,161155,1,8,0:0:0:0:
256,192,161292,1,0,0:0:0:0:
256,192,161428,1,8,0:0:0:0:
256,192,161565,1,0,0:0:0:0:
256,192,161701,1,8,0:0:0:0:
256,192,161837,1,0,0:0:0:0:
256,192,161974,1,8,0:0:0:0:
256,192,162110,1,0,0:0:0:0:
256,192,162246,1,8,0:0:0:0:
256,192,162383,1,0,0:0:0:0:
256,192,162519,1,4,0:0:0:0:
256,192,162587,8,0,164155,0:0:0:0:
256,192,164701,5,0,0:0:0:0:
256,192,165246,1,0,0:0:0:0:
256,192,165792,1,8,0:0:0:0:
256,192,165883,1,0,0:0:0:0:
256,192,165974,1,0,0:0:0:0:
256,192,166065,1,0,0:0:0:0:
256,192,166155,1,8,0:0:0:0:
256,192,166246,1,0,0:0:0:0:
256,192,166337,1,8,0:0:0:0:
256,192,166428,1,8,0:0:0:0:
256,192,166519,1,0,0:0:0:0:
256,192,166610,1,8,0:0:0:0:
256,192,166701,1,0,0:0:0:0:
256,192,166792,1,0,0:0:0:0:
256,192,166883,1,8,0:0:0:0:
256,192,166974,1,8,0:0:0:0:
256,192,167065,1,0,0:0:0:0:
256,192,167155,1,0,0:0:0:0:
256,192,167246,1,0,0:0:0:0:
256,192,167337,1,0,0:0:0:0:
256,192,167428,1,8,0:0:0:0:
256,192,167519,1,8,0:0:0:0:
256,192,167610,1,8,0:0:0:0:
256,192,167701,1,0,0:0:0:0:
256,192,167792,1,0,0:0:0:0:
256,192,167883,1,0,0:0:0:0:
256,192,167974,1,8,0:0:0:0:
256,192,168065,1,8,0:0:0:0:
256,192,168155,1,8,0:0:0:0:
256,192,168246,1,0,0:0:0:0:
256,192,168337,1,8,0:0:0:0:
256,192,168428,1,0,0:0:0:0:
256,192,168519,1,8,0:0:0:0:
256,192,168610,1,8,0:0:0:0:
256,192,168701,1,0,0:0:0:0:
256,192,168792,1,8,0:0:0:0:
256,192,168883,1,0,0:0:0:0:
256,192,168974,1,0,0:0:0:0:
256,192,169065,1,8,0:0:0:0:
256,192,169155,1,8,0:0:0:0:
256,192,169246,1,0,0:0:0:0:
256,192,169337,1,0,0:0:0:0:
256,192,169428,1,0,0:0:0:0:
256,192,169519,1,0,0:0:0:0:
256,192,169610,1,8,0:0:0:0:
256,192,169701,1,8,0:0:0:0:
256,192,169792,1,8,0:0:0:0:
256,192,169883,1,8,0:0:0:0:
256,192,169974,1,8,0:0:0:0:
256,192,170065,1,8,0:0:0:0:
256,192,170155,1,0,0:0:0:0:
256,192,170246,1,0,0:0:0:0:
256,192,170337,1,0,0:0:0:0:
256,192,170428,1,0,0:0:0:0:
256,192,170519,1,8,0:0:0:0:
256,192,170610,1,0,0:0:0:0:
256,192,170701,1,8,0:0:0:0:
256,192,170792,1,8,0:0:0:0:
256,192,170883,1,0,0:0:0:0:
256,192,170974,1,8,0:0:0:0:
256,192,171065,1,0,0:0:0:0:
256,192,171155,1,0,0:0:0:0:
256,192,171246,1,8,0:0:0:0:
256,192,171337,1,8,0:0:0:0:
256,192,171428,1,0,0:0:0:0:
256,192,171519,1,0,0:0:0:0:
256,192,171610,1,0,0:0:0:0:
256,192,171701,1,0,0:0:0:0:
256,192,171792,1,8,0:0:0:0:
256,192,171883,1,8,0:0:0:0:
256,192,171974,1,8,0:0:0:0:
256,192,172065,1,0,0:0:0:0:
256,192,172155,1,0,0:0:0:0:
256,192,172246,1,0,0:0:0:0:
256,192,172337,1,8,0:0:0:0:
256,192,172428,1,0,0:0:0:0:
256,192,172519,1,0,0:0:0:0:
256,192,172610,1,0,0:0:0:0:
256,192,172701,1,8,0:0:0:0:
256,192,172792,1,0,0:0:0:0:
256,192,172883,1,8,0:0:0:0:
256,192,172974,1,0,0:0:0:0:
256,192,173065,1,0,0:0:0:0:
256,192,173155,1,0,0:0:0:0:
256,192,173246,1,8,0:0:0:0:
256,192,173337,1,0,0:0:0:0:
256,192,173428,1,8,0:0:0:0:
256,192,173519,1,8,0:0:0:0:
256,192,173610,1,0,0:0:0:0:
256,192,173701,1,8,0:0:0:0:
256,192,173792,1,0,0:0:0:0:
256,192,173883,1,0,0:0:0:0:
256,192,173974,1,8,0:0:0:0:
256,192,174065,1,0,0:0:0:0:
256,192,174155,1,8,0:0:0:0:
256,192,174246,1,8,0:0:0:0:
256,192,174337,1,0,0:0:0:0:
256,192,174428,1,0,0:0:0:0:
256,192,174519,1,8,0:0:0:0:
256,192,174610,1,0,0:0:0:0:
256,192,174701,1,0,0:0:0:0:
256,192,174792,1,0,0:0:0:0:
256,192,174883,1,8,0:0:0:0:
256,192,174974,1,0,0:0:0:0:
256,192,175065,1,8,0:0:0:0:
256,192,175155,1,8,0:0:0:0:
256,192,175246,1,0,0:0:0:0:
256,192,175337,1,8,0:0:0:0:
256,192,175428,1,0,0:0:0:0:
256,192,175519,1,0,0:0:0:0:
256,192,175610,1,8,0:0:0:0:
256,192,175701,1,8,0:0:0:0:
256,192,175792,1,0,0:0:0:0:
256,192,175883,1,0,0:0:0:0:
256,192,175974,1,0,0:0:0:0:
256,192,176065,1,0,0:0:0:0:
256,192,176155,1,8,0:0:0:0:
256,192,176246,1,8,0:0:0:0:
256,192,176337,1,8,0:0:0:0:
256,192,176428,1,0,0:0:0:0:
256,192,176519,1,8,0:0:0:0:
256,192,176610,1,0,0:0:0:0:
256,192,176701,1,8,0:0:0:0:
256,192,176792,1,0,0:0:0:0:
256,192,176883,1,0,0:0:0:0:
256,192,176974,1,0,0:0:0:0:
256,192,177065,1,8,0:0:0:0:
256,192,177155,1,0,0:0:0:0:
256,192,177246,1,8,0:0:0:0:
256,192,177337,1,8,0:0:0:0:
256,192,177428,1,0,0:0:0:0:
256,192,177519,1,8,0:0:0:0:
256,192,177610,1,0,0:0:0:0:
256,192,177701,1,0,0:0:0:0:
256,192,177792,1,8,0:0:0:0:
256,192,177883,1,8,0:0:0:0:
256,192,177974,1,0,0:0:0:0:
256,192,178065,1,0,0:0:0:0:
256,192,178155,1,0,0:0:0:0:
256,192,178246,1,0,0:0:0:0:
256,192,178337,1,8,0:0:0:0:
256,192,178428,1,8,0:0:0:0:
256,192,178519,1,8,0:0:0:0:
256,192,178610,1,8,0:0:0:0:
256,192,178701,1,8,0:0:0:0:
256,192,178792,1,8,0:0:0:0:
256,192,178883,1,0,0:0:0:0:
256,192,178974,1,0,0:0:0:0:
256,192,179065,1,0,0:0:0:0:
256,192,179155,1,0,0:0:0:0:
256,192,179246,1,8,0:0:0:0:
256,192,179337,1,0,0:0:0:0:
256,192,179428,1,8,0:0:0:0:
256,192,179519,1,8,0:0:0:0:
256,192,179610,1,0,0:0:0:0:
256,192,179701,1,8,0:0:0:0:
256,192,179792,1,0,0:0:0:0:
256,192,179883,1,0,0:0:0:0:
256,192,179974,1,8,0:0:0:0:
256,192,180065,1,8,0:0:0:0:
256,192,180155,1,0,0:0:0:0:
256,192,180246,1,0,0:0:0:0:
256,192,180337,1,0,0:0:0:0:
256,192,180428,1,0,0:0:0:0:
256,192,180519,1,8,0:0:0:0:
256,192,180610,1,8,0:0:0:0:
256,192,180701,1,8,0:0:0:0:
256,192,180792,1,0,0:0:0:0:
256,192,180883,1,0,0:0:0:0:
256,192,180974,1,0,0:0:0:0:
256,192,181065,1,8,0:0:0:0:
256,192,181155,1,0,0:0:0:0:
256,192,181246,1,0,0:0:0:0:
256,192,181337,1,0,0:0:0:0:
256,192,181428,1,8,0:0:0:0:
256,192,181519,1,0,0:0:0:0:
256,192,181610,1,8,0:0:0:0:
256,192,181701,1,0,0:0:0:0:
256,192,181792,1,0,0:0:0:0:
256,192,181883,1,0,0:0:0:0:
256,192,181974,1,8,0:0:0:0:
256,192,182065,1,0,0:0:0:0:
256,192,182155,1,8,0:0:0:0:
256,192,182246,1,8,0:0:0:0:
256,192,182337,5,8,0:0:0:0:
256,192,182428,1,0,0:0:0:0:
256,192,182519,1,8,0:0:0:0:
256,192,182610,1,8,0:0:0:0:
256,192,182701,1,0,0:0:0:0:
256,192,182792,1,0,0:0:0:0:
256,192,182883,1,8,0:0:0:0:
256,192,182974,1,0,0:0:0:0:
256,192,183065,1,0,0:0:0:0:
256,192,183155,1,0,0:0:0:0:
256,192,183246,1,8,0:0:0:0:
256,192,183519,5,0,0:0:0:0:
256,192,183655,1,0,0:0:0:0:
256,192,183792,1,0,0:0:0:0:
256,192,183928,1,0,0:0:0:0:
256,192,184065,1,8,0:0:0:0:
256,192,184201,1,0,0:0:0:0:
256,192,184337,1,8,0:0:0:0:
256,192,184610,1,8,0:0:0:0:
256,192,184746,1,8,0:0:0:0:
256,192,184883,1,0,0:0:0:0:
256,192,185019,1,8,0:0:0:0:
256,192,185155,1,8,0:0:0:0:
256,192,185292,1,8,0:0:0:0:
256,192,185428,1,0,0:0:0:0:
256,192,185974,1,8,0:0:0:0:
256,192,186110,1,8,0:0:0:0:
256,192,186246,1,0,0:0:0:0:
256,192,186383,1,0,0:0:0:0:
256,192,186519,1,8,0:0:0:0:
256,192,186610,1,0,0:0:0:0:
265,190,186701,1,0,0:0:0:0:
265,190,186792,1,8,0:0:0:0:
256,192,186883,1,0,0:0:0:0:
256,192,187065,1,12,0:0:0:0:
256,192,187246,1,0,0:0:0:0:
256,192,187474,1,0,0:0:0:0:
256,192,187610,1,4,0:0:0:0:
256,192,208337,5,4,0:0:0:0:
256,192,208883,1,0,0:0:0:0:
256,192,209155,1,0,0:0:0:0:
256,192,209428,1,4,0:0:0:0:
256,192,209974,1,0,0:0:0:0:
256,192,210246,1,0,0:0:0:0:
256,192,210519,1,12,0:0:0:0:
256,192,211065,1,8,0:0:0:0:
256,192,211610,1,4,0:0:0:0:
256,192,211883,1,0,0:0:0:0:
256,192,212428,1,0,0:0:0:0:
256,192,212701,1,12,0:0:0:0:
256,192,213246,1,0,0:0:0:0:
256,192,213519,1,8,0:0:0:0:
256,192,213792,1,4,0:0:0:0:
256,192,214337,1,0,0:0:0:0:
256,192,214883,1,12,0:0:0:0:
256,192,215155,1,0,0:0:0:0:
256,192,215428,1,8,0:0:0:0:
256,192,215701,1,0,0:0:0:0:
256,192,215974,1,0,0:0:0:0:
256,192,216246,1,0,0:0:0:0:
256,192,216519,1,8,0:0:0:0:
256,192,216792,1,0,0:0:0:0:
256,192,217065,1,12,0:0:0:0:
256,192,217337,1,0,0:0:0:0:
256,192,217610,1,8,0:0:0:0:
256,192,217883,1,8,0:0:0:0:
256,192,218155,1,4,0:0:0:0:
256,192,218974,1,0,0:0:0:0:
256,192,219246,1,12,0:0:0:0:
256,192,219792,1,8,0:0:0:0:
256,192,220337,1,4,0:0:0:0:
256,192,220610,1,0,0:0:0:0:
256,192,221155,1,0,0:0:0:0:
256,192,221428,1,12,0:0:0:0:
256,192,221837,1,0,0:0:0:0:
256,192,221905,1,0,0:0:0:0:
256,192,221974,1,8,0:0:0:0:
256,192,222246,1,8,0:0:0:0:
256,192,222519,1,4,0:0:0:0:
256,192,222792,1,0,0:0:0:0:
256,192,223337,1,0,0:0:0:0:
256,192,223610,1,12,0:0:0:0:
256,192,223883,1,0,0:0:0:0:
256,192,224155,1,0,0:0:0:0:
256,192,224292,1,0,0:0:0:0:
256,192,224360,1,0,0:0:0:0:
256,192,224428,1,8,0:0:0:0:
256,192,224701,1,0,0:0:0:0:
256,192,224837,1,8,0:0:0:0:
256,192,224905,1,8,0:0:0:0:
256,192,224974,1,0,0:0:0:0:
256,192,225110,1,0,0:0:0:0:
256,192,225246,1,8,0:0:0:0:
256,192,225519,1,8,0:0:0:0:
256,192,225655,1,0,0:0:0:0:
256,192,225724,1,0,0:0:0:0:
256,192,225792,1,0,0:0:0:0:
256,192,225928,1,0,0:0:0:0:
256,192,226065,1,8,0:0:0:0:
256,192,226133,1,0,0:0:0:0:
256,192,226201,1,8,0:0:0:0:
256,192,226337,1,8,0:0:0:0:
256,192,226610,1,8,0:0:0:0:
256,192,226883,1,0,0:0:0:0:
256,192,227019,1,8,0:0:0:0:
256,192,227155,1,0,0:0:0:0:
256,192,227292,1,8,0:0:0:0:
256,192,227360,1,0,0:0:0:0:
256,192,227428,1,8,0:0:0:0:
256,192,227496,1,0,0:0:0:0:
256,192,227565,1,0,0:0:0:0:
256,192,227633,1,0,0:0:0:0:
256,192,227701,1,8,0:0:0:0:
256,192,227837,1,0,0:0:0:0:
256,192,227974,1,8,0:0:0:0:
256,192,228110,1,0,0:0:0:0:
256,192,228246,1,8,0:0:0:0:
256,192,228315,1,8,0:0:0:0:
256,192,228383,1,0,0:0:0:0:
256,192,228451,1,0,0:0:0:0:
256,192,228519,1,8,0:0:0:0:
256,192,228655,1,0,0:0:0:0:
256,192,228792,1,8,0:0:0:0:
224,192,228928,1,0,0:0:0:0:
224,192,228996,1,0,0:0:0:0:
224,192,229065,1,8,0:0:0:0:
224,192,229133,1,0,0:0:0:0:
224,192,229201,1,8,0:0:0:0:
224,192,229269,1,8,0:0:0:0:
224,192,229337,1,0,0:0:0:0:
224,192,229474,1,8,0:0:0:0:
224,192,229542,1,0,0:0:0:0:
224,192,229610,1,8,0:0:0:0:
224,192,229746,1,0,0:0:0:0:
224,192,229815,1,8,0:0:0:0:
224,192,229883,1,0,0:0:0:0:
224,192,229951,1,0,0:0:0:0:
224,192,230019,1,8,0:0:0:0:
224,192,230155,1,8,0:0:0:0:
224,192,230292,1,0,0:0:0:0:
224,192,230428,1,8,0:0:0:0:
224,192,230496,1,0,0:0:0:0:
224,192,230565,1,8,0:0:0:0:
224,192,230633,1,8,0:0:0:0:
224,192,230701,1,8,0:0:0:0:
224,192,230769,1,8,0:0:0:0:
224,192,230837,1,0,0:0:0:0:
224,192,230905,1,0,0:0:0:0:
224,192,230974,1,8,0:0:0:0:
224,160,231110,1,0,0:0:0:0:
224,160,231246,1,8,0:0:0:0:
224,160,231315,1,8,0:0:0:0:
224,160,231383,1,0,0:0:0:0:
224,160,231451,1,0,0:0:0:0:
224,160,231519,1,8,0:0:0:0:
224,160,231655,1,0,0:0:0:0:
224,160,231792,1,8,0:0:0:0:
224,160,231860,1,8,0:0:0:0:
224,160,231928,1,8,0:0:0:0:
224,160,232065,1,0,0:0:0:0:
224,160,232201,1,8,0:0:0:0:
224,160,232337,1,0,0:0:0:0:
224,160,232405,1,8,0:0:0:0:
224,160,232474,1,0,0:0:0:0:
224,160,232542,1,0,0:0:0:0:
224,160,232610,1,8,0:0:0:0:
256,192,232746,1,8,0:0:0:0:
256,192,232883,1,0,0:0:0:0:
256,192,233019,1,8,0:0:0:0:
256,192,233087,1,0,0:0:0:0:
256,192,233155,1,8,0:0:0:0:
256,192,233224,1,8,0:0:0:0:
256,192,233292,1,0,0:0:0:0:
256,192,233428,1,8,0:0:0:0:
256,192,233496,1,0,0:0:0:0:
256,192,233565,1,8,0:0:0:0:
256,192,233633,1,8,0:0:0:0:
256,192,233701,1,0,0:0:0:0:
256,192,233769,1,0,0:0:0:0:
256,192,233837,1,8,0:0:0:0:
256,192,233905,1,0,0:0:0:0:
256,192,233974,1,8,0:0:0:0:
256,192,234246,1,0,0:0:0:0:
256,192,234519,1,0,0:0:0:0:
256,192,234587,1,0,0:0:0:0:
256,192,234655,1,8,0:0:0:0:
256,192,234724,1,0,0:0:0:0:
256,192,234792,1,8,0:0:0:0:
256,192,234860,1,8,0:0:0:0:
256,192,234928,1,0,0:0:0:0:
256,192,234996,1,8,0:0:0:0:
256,192,235065,1,0,0:0:0:0:
256,192,235133,1,0,0:0:0:0:
256,192,235201,1,8,0:0:0:0:
256,192,235269,1,0,0:0:0:0:
256,192,235337,1,8,0:0:0:0:
256,192,235610,1,8,0:0:0:0:
256,192,235678,1,0,0:0:0:0:
256,192,235746,1,0,0:0:0:0:
256,192,235815,1,0,0:0:0:0:
256,192,235883,1,8,0:0:0:0:
256,192,235951,1,8,0:0:0:0:
256,192,236019,1,0,0:0:0:0:
256,192,236087,1,0,0:0:0:0:
256,192,236155,1,8,0:0:0:0:
256,192,236224,1,0,0:0:0:0:
256,192,236292,1,0,0:0:0:0:
256,192,236360,1,0,0:0:0:0:
256,192,236428,1,8,0:0:0:0:
256,192,236496,1,8,0:0:0:0:
256,192,236565,1,8,0:0:0:0:
256,192,236633,1,0,0:0:0:0:
256,192,236701,1,8,0:0:0:0:
256,192,236769,1,8,0:0:0:0:
256,192,236837,1,0,0:0:0:0:
256,192,236905,1,0,0:0:0:0:
256,192,236974,1,8,0:0:0:0:
256,192,237042,1,0,0:0:0:0:
256,192,237110,1,0,0:0:0:0:
256,192,237178,1,0,0:0:0:0:
256,192,237246,1,8,0:0:0:0:
256,192,237315,1,8,0:0:0:0:
256,192,237383,1,8,0:0:0:0:
256,192,237451,1,0,0:0:0:0:
256,192,237519,1,8,0:0:0:0:
256,192,237587,1,0,0:0:0:0:
256,192,237655,1,0,0:0:0:0:
256,192,237724,1,0,0:0:0:0:
256,192,237792,1,8,0:0:0:0:
256,192,237860,1,8,0:0:0:0:
256,192,237928,1,0,0:0:0:0:
256,192,237996,1,0,0:0:0:0:
256,192,238065,1,8,0:0:0:0:
256,192,238133,1,0,0:0:0:0:
256,192,238201,1,8,0:0:0:0:
256,192,238269,1,8,0:0:0:0:
256,192,238337,1,0,0:0:0:0:
256,192,238405,1,8,0:0:0:0:
256,192,238474,1,0,0:0:0:0:
256,192,238542,1,0,0:0:0:0:
256,192,238610,1,8,0:0:0:0:
256,192,238678,1,0,0:0:0:0:
256,192,238746,1,0,0:0:0:0:
256,192,238815,1,0,0:0:0:0:
256,192,238883,1,8,0:0:0:0:
256,192,238951,1,8,0:0:0:0:
256,192,239019,1,0,0:0:0:0:
256,192,239087,1,0,0:0:0:0:
256,192,239155,1,8,0:0:0:0:
256,192,239224,1,0,0:0:0:0:
256,192,239292,1,8,0:0:0:0:
256,192,239360,1,0,0:0:0:0:
256,192,239428,1,8,0:0:0:0:
256,192,239496,1,8,0:0:0:0:
256,192,239565,1,8,0:0:0:0:
256,192,239633,1,0,0:0:0:0:
256,192,239701,1,8,0:0:0:0:
256,192,239769,1,8,0:0:0:0:
256,192,239837,1,0,0:0:0:0:
256,192,239905,1,0,0:0:0:0:
256,192,239974,1,8,0:0:0:0:
256,192,240042,1,0,0:0:0:0:
256,192,240110,1,8,0:0:0:0:
256,192,240178,1,8,0:0:0:0:
256,192,240246,1,0,0:0:0:0:
256,192,240315,1,0,0:0:0:0:
256,192,240383,1,8,0:0:0:0:
256,192,240451,1,0,0:0:0:0:
256,192,240519,1,8,0:0:0:0:
256,192,240587,1,8,0:0:0:0:
256,192,240655,1,0,0:0:0:0:
256,192,240724,1,0,0:0:0:0:
256,192,240792,1,8,0:0:0:0:
256,192,240860,1,0,0:0:0:0:
256,192,240928,1,0,0:0:0:0:
256,192,240996,1,0,0:0:0:0:
256,192,241065,1,8,0:0:0:0:
256,192,241133,1,8,0:0:0:0:
256,192,241201,1,0,0:0:0:0:
256,192,241269,1,0,0:0:0:0:
256,192,241337,1,8,0:0:0:0:
256,192,241405,1,8,0:0:0:0:
256,192,241474,1,8,0:0:0:0:
256,192,241542,1,0,0:0:0:0:
256,192,241610,1,8,0:0:0:0:
256,192,241678,1,0,0:0:0:0:
256,192,241746,1,0,0:0:0:0:
256,192,241815,1,0,0:0:0:0:
256,192,241883,1,8,0:0:0:0:
256,192,241951,1,8,0:0:0:0:
256,192,242019,1,8,0:0:0:0:
256,192,242087,1,0,0:0:0:0:
256,192,242155,1,8,0:0:0:0:
256,192,242224,1,8,0:0:0:0:
256,192,242292,1,0,0:0:0:0:
256,192,242360,1,0,0:0:0:0:
256,192,242428,1,8,0:0:0:0:
256,192,242496,1,8,0:0:0:0:
256,192,242565,1,0,0:0:0:0:
256,192,242633,1,0,0:0:0:0:
256,192,242701,1,8,0:0:0:0:
256,192,242769,1,8,0:0:0:0:
256,192,242837,1,0,0:0:0:0:
256,192,242905,1,0,0:0:0:0:
256,192,242974,1,8,0:0:0:0:
256,192,243042,1,0,0:0:0:0:
256,192,243110,1,8,0:0:0:0:
256,192,243178,1,8,0:0:0:0:
256,192,243246,1,0,0:0:0:0:
256,192,243315,1,8,0:0:0:0:
256,192,243383,1,0,0:0:0:0:
256,192,243451,1,0,0:0:0:0:
256,192,243519,1,8,0:0:0:0:
256,192,243587,1,0,0:0:0:0:
256,192,243655,1,0,0:0:0:0:
256,192,243724,1,0,0:0:0:0:
256,192,243792,1,8,0:0:0:0:
256,192,243860,1,8,0:0:0:0:
256,192,243928,1,8,0:0:0:0:
256,192,243996,1,0,0:0:0:0:
256,192,244065,1,8,0:0:0:0:
256,192,244133,1,8,0:0:0:0:
256,192,244201,1,0,0:0:0:0:
256,192,244269,1,0,0:0:0:0:
256,192,244337,1,8,0:0:0:0:
256,192,244474,1,8,0:0:0:0:
256,192,244542,1,8,0:0:0:0:
256,192,244610,1,0,0:0:0:0:
256,192,244678,1,0,0:0:0:0:
256,192,244746,1,0,0:0:0:0:
256,192,244815,1,0,0:0:0:0:
256,192,244883,1,8,0:0:0:0:
256,192,244951,1,8,0:0:0:0:
256,192,245019,1,0,0:0:0:0:
256,192,245087,1,0,0:0:0:0:
256,192,245155,1,8,0:0:0:0:
256,192,245224,1,0,0:0:0:0:
256,192,245292,1,8,0:0:0:0:
256,192,245360,1,8,0:0:0:0:
256,192,245428,1,0,0:0:0:0:
256,192,245496,1,0,0:0:0:0:
256,192,245565,1,8,0:0:0:0:
256,192,245633,1,0,0:0:0:0:
256,192,245701,1,8,0:0:0:0:
256,192,245769,1,8,0:0:0:0:
256,192,245837,1,0,0:0:0:0:
256,192,245905,1,0,0:0:0:0:
256,192,245974,1,8,0:0:0:0:
256,192,246042,1,0,0:0:0:0:
256,192,246110,1,8,0:0:0:0:
256,192,246178,1,0,0:0:0:0:
256,192,246246,1,8,0:0:0:0:
256,192,246315,1,0,0:0:0:0:
256,192,246383,1,0,0:0:0:0:
256,192,246451,1,0,0:0:0:0:
256,192,246519,1,8,0:0:0:0:
256,192,246792,1,8,0:0:0:0:
256,192,246860,1,8,0:0:0:0:
256,192,246928,1,0,0:0:0:0:
256,192,246996,1,8,0:0:0:0:
256,192,247065,1,8,0:0:0:0:
256,192,247201,1,8,0:0:0:0:
256,192,247337,1,0,0:0:0:0:
256,192,247610,1,0,0:0:0:0:
256,192,247678,1,0,0:0:0:0:
256,192,247746,1,8,0:0:0:0:
256,192,247815,1,0,0:0:0:0:
256,192,247883,1,0,0:0:0:0:
256,192,248019,1,0,0:0:0:0:
256,192,248087,1,0,0:0:0:0:
256,192,248155,1,8,0:0:0:0:
256,192,248292,1,8,0:0:0:0:
256,192,248428,1,8,0:0:0:0:
256,192,248565,1,0,0:0:0:0:
256,192,248701,1,8,0:0:0:0:
256,192,248769,1,0,0:0:0:0:
256,192,248837,1,8,0:0:0:0:
256,192,248905,1,8,0:0:0:0:
256,192,248974,1,0,0:0:0:0:
256,192,249246,1,0,0:0:0:0:
256,192,249383,1,0,0:0:0:0:
256,192,249519,1,8,0:0:0:0:
224,192,249655,1,8,0:0:0:0:
224,192,249792,1,0,0:0:0:0:
256,192,249928,1,8,0:0:0:0:
256,192,249996,1,0,0:0:0:0:
256,192,250065,1,8,0:0:0:0:
224,192,250133,1,8,0:0:0:0:
224,192,250201,1,0,0:0:0:0:
224,192,250337,1,0,0:0:0:0:
224,192,250474,1,0,0:0:0:0:
224,192,250610,1,8,0:0:0:0:
224,192,250746,1,0,0:0:0:0:
224,192,250883,1,0,0:0:0:0:
224,160,251019,1,0,0:0:0:0:
224,160,251087,1,0,0:0:0:0:
224,160,251155,1,8,0:0:0:0:
224,160,251292,1,0,0:0:0:0:
224,160,251428,1,8,0:0:0:0:
224,160,251496,1,0,0:0:0:0:
224,160,251565,1,8,0:0:0:0:
224,160,251633,1,8,0:0:0:0:
224,160,251701,1,0,0:0:0:0:
224,160,251769,1,8,0:0:0:0:
224,160,251837,1,0,0:0:0:0:
224,160,251905,1,0,0:0:0:0:
224,160,251974,1,8,0:0:0:0:
224,160,252110,1,0,0:0:0:0:
224,160,252246,1,8,0:0:0:0:
224,160,252383,1,0,0:0:0:0:
224,160,252519,1,8,0:0:0:0:
224,160,252587,1,8,0:0:0:0:
224,160,252655,1,8,0:0:0:0:
224,160,252792,1,8,0:0:0:0:
224,160,252928,1,0,0:0:0:0:
256,192,252996,1,0,0:0:0:0:
256,192,253065,1,8,0:0:0:0:
256,192,253201,1,0,0:0:0:0:
256,192,253337,1,0,0:0:0:0:
256,192,253474,1,8,0:0:0:0:
256,192,253542,1,0,0:0:0:0:
256,192,253610,1,8,0:0:0:0:
256,192,253678,1,8,0:0:0:0:
256,192,253746,1,0,0:0:0:0:
256,192,253883,1,0,0:0:0:0:
256,192,254019,1,8,0:0:0:0:
256,192,254155,1,0,0:0:0:0:
256,192,254292,1,8,0:0:0:0:
256,192,254428,1,0,0:0:0:0:
256,192,254496,1,0,0:0:0:0:
256,192,254565,1,8,0:0:0:0:
256,192,254701,1,0,0:0:0:0:
256,192,254837,1,8,0:0:0:0:
256,192,254905,1,0,0:0:0:0:
256,192,254974,1,8,0:0:0:0:
256,192,255042,1,8,0:0:0:0:
256,192,255110,1,0,0:0:0:0:
256,192,255246,1,0,0:0:0:0:
256,192,255383,1,8,0:0:0:0:
256,192,255451,1,8,0:0:0:0:
256,192,255519,1,0,0:0:0:0:
256,192,255587,1,0,0:0:0:0:
256,192,255655,1,8,0:0:0:0:
256,192,255792,1,0,0:0:0:0:
256,192,255928,1,0,0:0:0:0:
256,192,255996,1,8,0:0:0:0:
256,192,256065,1,0,0:0:0:0:
256,192,256133,1,0,0:0:0:0:
256,192,256201,1,8,0:0:0:0:
256,192,256337,1,0,0:0:0:0:
256,192,256474,1,8,0:0:0:0:
256,192,256542,1,8,0:0:0:0:
256,192,256610,1,8,0:0:0:0:
256,192,256678,1,8,0:0:0:0:
256,192,256746,1,0,0:0:0:0:
256,192,256883,1,0,0:0:0:0:
256,192,256951,1,0,0:0:0:0:
256,192,257019,1,8,0:0:0:0:
256,192,257155,1,8,0:0:0:0:
256,192,257292,1,8,0:0:0:0:
256,192,257428,1,0,0:0:0:0:
256,192,258246,1,0,0:0:0:0:
256,192,258519,1,8,0:0:0:0:
256,192,258792,1,0,0:0:0:0:
256,192,259337,1,0,0:0:0:0:
256,192,259405,1,0,0:0:0:0:
256,192,259474,1,0,0:0:0:0:
256,192,259542,1,0,0:0:0:0:
256,192,259610,1,8,0:0:0:0:
256,192,259883,1,0,0:0:0:0:
256,192,259951,1,0,0:0:0:0:
256,192,260019,1,8,0:0:0:0:
256,192,260087,1,8,0:0:0:0:
256,192,260155,1,0,0:0:0:0:
256,192,260292,1,0,0:0:0:0:
256,192,260428,1,8,0:0:0:0:
256,192,260496,1,0,0:0:0:0:
256,192,260565,1,0,0:0:0:0:
256,192,260633,1,8,0:0:0:0:
256,192,260701,1,0,0:0:0:0:
256,192,260769,1,8,0:0:0:0:
256,192,260837,1,0,0:0:0:0:
256,192,260905,1,0,0:0:0:0:
256,192,260974,1,8,0:0:0:0:
256,192,261042,1,0,0:0:0:0:
256,192,261110,1,8,0:0:0:0:
256,192,261178,1,8,0:0:0:0:
256,192,261246,1,0,0:0:0:0:
256,192,261315,1,0,0:0:0:0:
256,192,261383,1,8,0:0:0:0:
256,192,261451,1,0,0:0:0:0:
256,192,261519,1,8,0:0:0:0:
256,192,261792,1,4,0:0:0:0:
256,192,261860,8,4,265883,0:0:0:0:
256,192,266155,5,4,0:0:0:0:
256,192,267246,1,4,0:0:0:0:
256,192,267655,1,4,0:0:0:0:
256,192,268065,1,4,0:0:0:0:
256,192,268337,1,4,0:0:0:0:
256,192,269428,1,4,0:0:0:0:
256,192,269837,1,4,0:0:0:0:
256,192,270246,1,4,0:0:0:0:
256,192,270519,1,4,0:0:0:0:
256,192,271610,1,4,0:0:0:0:
256,192,272019,1,4,0:0:0:0:
256,192,272428,1,4,0:0:0:0:
256,192,272701,1,8,0:0:0:0:
256,192,272769,1,0,0:0:0:0:
256,192,272837,1,8,0:0:0:0:
256,192,272905,1,8,0:0:0:0:
256,192,272974,1,0,0:0:0:0:
256,192,273042,1,8,0:0:0:0:
256,192,273110,1,0,0:0:0:0:
256,192,273178,1,0,0:0:0:0:
256,192,273246,1,8,0:0:0:0:
256,192,273315,1,0,0:0:0:0:
256,192,273383,1,0,0:0:0:0:
256,192,273451,1,0,0:0:0:0:
256,192,273519,1,8,0:0:0:0:
256,192,273587,1,8,0:0:0:0:
256,192,273655,1,8,0:0:0:0:
256,192,273724,1,0,0:0:0:0:
256,192,273792,1,8,0:0:0:0:
256,192,273860,1,8,0:0:0:0:
256,192,273928,1,0,0:0:0:0:
256,192,273996,1,0,0:0:0:0:
256,192,274065,1,8,0:0:0:0:
256,192,274133,1,0,0:0:0:0:
256,192,274201,1,8,0:0:0:0:
256,192,274269,1,8,0:0:0:0:
256,192,274337,1,0,0:0:0:0:
256,192,274405,1,0,0:0:0:0:
256,192,274474,1,0,0:0:0:0:
256,192,274542,1,0,0:0:0:0:
256,192,274610,1,8,0:0:0:0:
256,192,274883,1,8,0:0:0:0:
256,192,274951,1,8,0:0:0:0:
256,192,275019,1,0,0:0:0:0:
256,192,275087,1,0,0:0:0:0:
256,192,275155,1,8,0:0:0:0:
256,192,275224,1,8,0:0:0:0:
256,192,275292,1,0,0:0:0:0:
256,192,275360,1,0,0:0:0:0:
256,192,275428,1,8,0:0:0:0:
256,192,275496,1,8,0:0:0:0:
256,192,275565,1,8,0:0:0:0:
256,192,275633,1,8,0:0:0:0:
256,192,275701,1,0,0:0:0:0:
256,192,275769,1,0,0:0:0:0:
256,192,275837,1,0,0:0:0:0:
256,192,275905,1,0,0:0:0:0:
256,192,275974,1,8,0:0:0:0:
256,192,276042,1,8,0:0:0:0:
256,192,276110,1,0,0:0:0:0:
256,192,276178,1,0,0:0:0:0:
256,192,276246,1,8,0:0:0:0:
256,192,276315,1,0,0:0:0:0:
256,192,276383,1,8,0:0:0:0:
256,192,276451,1,8,0:0:0:0:
256,192,276519,1,8,0:0:0:0:
256,192,276587,1,8,0:0:0:0:
256,192,276655,1,0,0:0:0:0:
256,192,276724,1,0,0:0:0:0:
256,192,276792,1,8,0:0:0:0:
256,192,276860,1,0,0:0:0:0:
256,192,276928,1,8,0:0:0:0:
256,192,276996,1,8,0:0:0:0:
256,192,277065,1,0,0:0:0:0:
256,192,277133,1,8,0:0:0:0:
256,192,277201,1,0,0:0:0:0:
256,192,277269,1,0,0:0:0:0:
256,192,277337,1,8,0:0:0:0:
256,192,277405,1,8,0:0:0:0:
256,192,277474,1,8,0:0:0:0:
256,192,277542,1,8,0:0:0:0:
256,192,277610,1,0,0:0:0:0:
256,192,277678,1,0,0:0:0:0:
256,192,277746,1,8,0:0:0:0:
256,192,277815,1,0,0:0:0:0:
256,192,277883,1,8,0:0:0:0:
256,192,277951,1,8,0:0:0:0:
256,192,278019,1,8,0:0:0:0:
256,192,278087,1,0,0:0:0:0:
256,192,278155,1,8,0:0:0:0:
256,192,278224,1,8,0:0:0:0:
256,192,278292,1,0,0:0:0:0:
256,192,278360,1,0,0:0:0:0:
256,192,278428,1,8,0:0:0:0:
256,192,278496,1,8,0:0:0:0:
256,192,278565,1,0,0:0:0:0:
256,192,278633,1,0,0:0:0:0:
256,192,278701,1,8,0:0:0:0:
256,192,278769,1,0,0:0:0:0:
256,192,278837,1,0,0:0:0:0:
256,192,278905,1,0,0:0:0:0:
256,192,278974,1,8,0:0:0:0:
256,192,279042,1,8,0:0:0:0:
256,192,279110,1,0,0:0:0:0:
256,192,279178,1,0,0:0:0:0:
256,192,279246,1,8,0:0:0:0:
256,192,279315,1,0,0:0:0:0:
256,192,279383,1,0,0:0:0:0:
256,192,279451,1,0,0:0:0:0:
256,192,279519,1,8,0:0:0:0:
256,192,279587,1,8,0:0:0:0:
256,192,279655,1,8,0:0:0:0:
256,192,279724,1,0,0:0:0:0:
256,192,279792,1,8,0:0:0:0:
256,192,279860,1,8,0:0:0:0:
256,192,279928,1,0,0:0:0:0:
256,192,279996,1,0,0:0:0:0:
256,192,280065,1,8,0:0:0:0:
256,192,280133,1,8,0:0:0:0:
256,192,280201,1,8,0:0:0:0:
256,192,280269,1,8,0:0:0:0:
256,192,280337,1,0,0:0:0:0:
256,192,280405,1,0,0:0:0:0:
256,192,280474,1,0,0:0:0:0:
256,192,280542,1,0,0:0:0:0:
256,192,280610,1,8,0:0:0:0:
256,192,280678,1,8,0:0:0:0:
256,192,280746,1,0,0:0:0:0:
256,192,280815,1,0,0:0:0:0:
256,192,280883,1,8,0:0:0:0:
256,192,280951,1,8,0:0:0:0:
256,192,281019,1,0,0:0:0:0:
256,192,281087,1,0,0:0:0:0:
256,192,281155,1,8,0:0:0:0:
256,192,281224,1,0,0:0:0:0:
256,192,281292,1,8,0:0:0:0:
256,192,281360,1,0,0:0:0:0:
256,192,281428,1,0,0:0:0:0:
256,192,281496,1,0,0:0:0:0:
256,192,281565,1,8,0:0:0:0:
256,192,281633,1,8,0:0:0:0:
256,192,281701,1,8,0:0:0:0:
256,192,281769,1,0,0:0:0:0:
256,192,281837,1,8,0:0:0:0:
256,192,281905,1,8,0:0:0:0:
256,192,281974,1,0,0:0:0:0:
256,192,282042,1,0,0:0:0:0:
256,192,282110,1,8,0:0:0:0:
256,192,282178,1,0,0:0:0:0:
256,192,282246,1,8,0:0:0:0:
256,192,282315,1,8,0:0:0:0:
256,192,282383,1,0,0:0:0:0:
256,192,282451,1,0,0:0:0:0:
256,192,282519,1,8,0:0:0:0:
256,192,282587,1,0,0:0:0:0:
256,192,282655,1,0,0:0:0:0:
256,192,282724,1,0,0:0:0:0:
256,192,282792,1,8,0:0:0:0:
256,192,282860,1,8,0:0:0:0:
256,192,282928,1,0,0:0:0:0:
256,192,282996,1,0,0:0:0:0:
256,192,283065,1,8,0:0:0:0:
256,192,283133,1,0,0:0:0:0:
256,192,283201,1,8,0:0:0:0:
256,192,283269,1,8,0:0:0:0:
256,192,283337,1,0,0:0:0:0:
256,192,283405,1,8,0:0:0:0:
256,192,283474,1,8,0:0:0:0:
256,192,283542,1,8,0:0:0:0:
256,192,283610,1,0,0:0:0:0:
256,192,283678,1,0,0:0:0:0:
256,192,283746,1,8,0:0:0:0:
256,192,283815,1,8,0:0:0:0:
256,192,283883,1,0,0:0:0:0:
256,192,283951,1,0,0:0:0:0:
256,192,284019,1,8,0:0:0:0:
256,192,284087,1,0,0:0:0:0:
256,192,284155,1,8,0:0:0:0:
256,192,284224,1,0,0:0:0:0:
256,192,284292,1,0,0:0:0:0:
256,192,284360,1,0,0:0:0:0:
256,192,284428,1,8,0:0:0:0:
256,192,284496,1,8,0:0:0:0:
256,192,284565,1,0,0:0:0:0:
256,192,284633,1,0,0:0:0:0:
256,192,284701,1,8,0:0:0:0:
256,192,284769,1,8,0:0:0:0:
256,192,284837,1,8,0:0:0:0:
256,192,284905,1,8,0:0:0:0:
256,192,284974,1,0,0:0:0:0:
256,192,285042,1,0,0:0:0:0:
256,192,285110,1,0,0:0:0:0:
256,192,285178,1,0,0:0:0:0:
256,192,285246,1,8,0:0:0:0:
256,192,285315,1,0,0:0:0:0:
256,192,285383,1,0,0:0:0:0:
256,192,285451,1,0,0:0:0:0:
256,192,285519,1,8,0:0:0:0:
256,192,285587,1,0,0:0:0:0:
256,192,285655,1,0,0:0:0:0:
256,192,285724,1,0,0:0:0:0:
256,192,285792,1,8,0:0:0:0:
256,192,285860,1,8,0:0:0:0:
256,192,285928,1,8,0:0:0:0:
256,192,285996,1,0,0:0:0:0:
256,192,286065,1,8,0:0:0:0:
256,192,286133,1,8,0:0:0:0:
256,192,286201,1,0,0:0:0:0:
256,192,286269,1,0,0:0:0:0:
256,192,286337,1,8,0:0:0:0:
256,192,286405,1,8,0:0:0:0:
256,192,286474,1,0,0:0:0:0:
256,192,286542,1,0,0:0:0:0:
256,192,286610,1,8,0:0:0:0:
256,192,286678,1,0,0:0:0:0:
256,192,286746,1,0,0:0:0:0:
256,192,286815,1,0,0:0:0:0:
256,192,286883,1,8,0:0:0:0:
256,192,286951,1,0,0:0:0:0:
256,192,287019,1,8,0:0:0:0:
256,192,287087,1,8,0:0:0:0:
256,192,287155,1,0,0:0:0:0:
256,192,287224,1,8,0:0:0:0:
256,192,287292,1,0,0:0:0:0:
256,192,287360,1,0,0:0:0:0:
256,192,287428,1,8,0:0:0:0:
256,192,287496,1,8,0:0:0:0:
256,192,287565,1,8,0:0:0:0:
256,192,287633,1,8,0:0:0:0:
256,192,287701,1,0,0:0:0:0:
256,192,287769,1,0,0:0:0:0:
256,192,287837,1,0,0:0:0:0:
256,192,287905,1,0,0:0:0:0:
256,192,287974,1,8,0:0:0:0:
256,192,288042,1,8,0:0:0:0:
256,192,288110,1,0,0:0:0:0:
256,192,288178,1,0,0:0:0:0:
256,192,288246,1,8,0:0:0:0:
256,192,288315,1,0,0:0:0:0:
256,192,288383,1,0,0:0:0:0:
256,192,288451,1,0,0:0:0:0:
256,192,288519,1,8,0:0:0:0:
256,192,288587,1,8,0:0:0:0:
256,192,288655,1,0,0:0:0:0:
256,192,288724,1,0,0:0:0:0:
256,192,288792,1,8,0:0:0:0:
256,192,288860,1,8,0:0:0:0:
256,192,288928,1,8,0:0:0:0:
256,192,288996,1,0,0:0:0:0:
256,192,289065,1,8,0:0:0:0:
256,192,289133,1,0,0:0:0:0:
256,192,289201,1,0,0:0:0:0:
256,192,289269,1,0,0:0:0:0:
256,192,289337,1,8,0:0:0:0:
256,192,289405,1,0,0:0:0:0:
256,192,289474,1,8,0:0:0:0:
256,192,289542,1,8,0:0:0:0:
256,192,289610,1,8,0:0:0:0:
256,192,289678,1,0,0:0:0:0:
256,192,289746,1,8,0:0:0:0:
256,192,289815,1,0,0:0:0:0:
256,192,289883,1,8,0:0:0:0:
256,192,289951,1,8,0:0:0:0:
256,192,290019,1,8,0:0:0:0:
256,192,290087,1,8,0:0:0:0:
256,192,290155,1,0,0:0:0:0:
256,192,290701,1,4,0:0:0:0:
256,192,291246,1,4,0:0:0:0:
256,192,291519,1,0,0:0:0:0:
256,192,291792,1,12,0:0:0:0:
256,192,292337,1,4,0:0:0:0:
256,192,293155,1,0,0:0:0:0:
256,192,293428,1,12,0:0:0:0:
256,192,294246,1,8,0:0:0:0:
256,192,294383,1,0,0:0:0:0:
256,192,294519,1,12,0:0:0:0:
256,192,294928,1,0,0:0:0:0:
256,192,295065,1,4,0:0:0:0:
256,192,295337,1,0,0:0:0:0:
256,192,295610,1,0,0:0:0:0:
256,192,295746,1,0,0:0:0:0:
256,192,295815,1,0,0:0:0:0:
256,192,295883,1,8,0:0:0:0:
256,192,296019,1,0,0:0:0:0:
256,192,296155,1,8,0:0:0:0:
256,192,296292,1,0,0:0:0:0:
256,192,296428,1,0,0:0:0:0:
256,192,296565,1,0,0:0:0:0:
256,192,296701,1,8,0:0:0:0:
256,192,296974,1,8,0:0:0:0:
256,192,297110,1,0,0:0:0:0:
256,192,297383,1,0,0:0:0:0:
256,192,297519,1,8,0:0:0:0:
256,192,297792,1,0,0:0:0:0:
256,192,298065,1,0,0:0:0:0:
256,192,298201,1,0,0:0:0:0:
256,192,298337,1,8,0:0:0:0:
256,192,298474,1,0,0:0:0:0:
256,192,298610,1,8,0:0:0:0:
256,192,298883,1,8,0:0:0:0:
256,192,299155,1,8,0:0:0:0:
256,192,299292,1,0,0:0:0:0:
256,192,299565,1,0,0:0:0:0:
256,192,299701,1,0,0:0:0:0:
256,192,299837,1,0,0:0:0:0:
256,192,299974,1,8,0:0:0:0:
256,192,300246,1,8,0:0:0:0:
256,192,300519,1,0,0:0:0:0:
256,192,300655,1,0,0:0:0:0:
256,192,300792,1,8,0:0:0:0:
256,192,301065,1,0,0:0:0:0:
256,192,301133,1,0,0:0:0:0:
256,192,301201,1,8,0:0:0:0:
256,192,301269,1,0,0:0:0:0:
256,192,301337,1,8,0:0:0:0:
256,192,301405,1,8,0:0:0:0:
256,192,301474,1,0,0:0:0:0:
256,192,301542,1,0,0:0:0:0:
256,192,301610,1,8,0:0:0:0:
256,192,301678,1,0,0:0:0:0:
256,192,301746,1,0,0:0:0:0:
256,192,301815,1,0,0:0:0:0:
256,192,301883,1,8,0:0:0:0:
256,192,301951,1,8,0:0:0:0:
256,192,302019,1,8,0:0:0:0:
256,192,302087,1,0,0:0:0:0:
256,192,302155,1,8,0:0:0:0:
256,192,302224,1,0,0:0:0:0:
256,192,302292,1,0,0:0:0:0:
256,192,302360,1,0,0:0:0:0:
256,192,302428,1,8,0:0:0:0:
256,192,302496,1,8,0:0:0:0:
256,192,302565,1,0,0:0:0:0:
256,192,302633,1,0,0:0:0:0:
256,192,302701,1,8,0:0:0:0:
256,192,302769,1,0,0:0:0:0:
256,192,302837,1,0,0:0:0:0:
256,192,302905,1,0,0:0:0:0:
256,192,302974,1,8,0:0:0:0:
256,192,303042,1,0,0:0:0:0:
256,192,303110,1,8,0:0:0:0:
256,192,303178,1,8,0:0:0:0:
256,192,303246,1,0,0:0:0:0:
256,192,303315,1,0,0:0:0:0:
256,192,303383,1,8,0:0:0:0:
256,192,303451,1,0,0:0:0:0:
256,192,303519,1,8,0:0:0:0:
256,192,303587,1,8,0:0:0:0:
256,192,303655,1,0,0:0:0:0:
256,192,303724,1,0,0:0:0:0:
256,192,303792,1,8,0:0:0:0:
256,192,303860,1,0,0:0:0:0:
256,192,303928,1,0,0:0:0:0:
256,192,303996,1,0,0:0:0:0:
256,192,304065,1,8,0:0:0:0:
256,192,304133,1,8,0:0:0:0:
256,192,304201,1,8,0:0:0:0:
256,192,304269,1,0,0:0:0:0:
256,192,304337,1,8,0:0:0:0:
256,192,304405,1,0,0:0:0:0:
256,192,304474,1,0,0:0:0:0:
256,192,304542,1,0,0:0:0:0:
256,192,304610,1,8,0:0:0:0:
256,192,304678,1,8,0:0:0:0:
256,192,304746,1,0,0:0:0:0:
256,192,304815,1,0,0:0:0:0:
256,192,304883,1,8,0:0:0:0:
256,192,304951,1,8,0:0:0:0:
256,192,305019,1,8,0:0:0:0:
256,192,305087,1,8,0:0:0:0:
256,192,305155,1,0,0:0:0:0:
256,192,305224,1,0,0:0:0:0:
256,192,305292,1,8,0:0:0:0:
256,192,305360,1,0,0:0:0:0:
256,192,305428,1,8,0:0:0:0:
256,192,305496,1,8,0:0:0:0:
256,192,305565,1,0,0:0:0:0:
256,192,305633,1,8,0:0:0:0:
256,192,305701,1,0,0:0:0:0:
256,192,305769,1,0,0:0:0:0:
256,192,305837,1,8,0:0:0:0:
256,192,305905,1,8,0:0:0:0:
256,192,305974,1,0,0:0:0:0:
256,192,306042,1,0,0:0:0:0:
256,192,306110,1,0,0:0:0:0:
256,192,306178,1,0,0:0:0:0:
256,192,306246,1,8,0:0:0:0:
256,192,306315,1,8,0:0:0:0:
256,192,306383,1,0,0:0:0:0:
256,192,306451,1,0,0:0:0:0:
256,192,306519,1,8,0:0:0:0:
256,192,306587,1,0,0:0:0:0:
256,192,306655,1,8,0:0:0:0:
256,192,306724,1,8,0:0:0:0:
256,192,306792,1,8,0:0:0:0:
256,192,306860,1,8,0:0:0:0:
256,192,306928,1,0,0:0:0:0:
256,192,306996,1,0,0:0:0:0:
256,192,307065,1,8,0:0:0:0:
256,192,307133,1,8,0:0:0:0:
256,192,307201,1,8,0:0:0:0:
256,192,307269,1,0,0:0:0:0:
256,192,307337,1,8,0:0:0:0:
256,192,307405,1,8,0:0:0:0:
256,192,307474,1,0,0:0:0:0:
256,192,307542,1,0,0:0:0:0:
256,192,307610,1,8,0:0:0:0:
256,192,308155,1,0,0:0:0:0:
256,192,308701,1,0,0:0:0:0:
256,192,309246,1,8,0:0:0:0:
256,192,309792,1,0,0:0:0:0:
256,192,309928,1,8,0:0:0:0:
256,192,309996,1,0,0:0:0:0:
256,192,310065,1,8,0:0:0:0:
256,192,310201,1,8,0:0:0:0:
256,192,310337,1,0,0:0:0:0:
256,192,310474,1,8,0:0:0:0:
256,192,310542,1,8,0:0:0:0:
256,192,310610,1,0,0:0:0:0:
256,192,310746,1,8,0:0:0:0:
256,192,310815,1,0,0:0:0:0:
256,192,310883,1,8,0:0:0:0:
256,192,310951,1,8,0:0:0:0:
256,192,311019,1,0,0:0:0:0:
256,192,311087,1,0,0:0:0:0:
256,192,311155,1,8,0:0:0:0:
256,192,311292,1,0,0:0:0:0:
256,192,311428,1,8,0:0:0:0:
256,192,311496,1,0,0:0:0:0:
256,192,311565,1,0,0:0:0:0:
256,192,311701,1,8,0:0:0:0:
256,192,311769,1,0,0:0:0:0:
256,192,311837,1,8,0:0:0:0:
256,192,311905,1,8,0:0:0:0:
256,192,311974,1,0,0:0:0:0:
256,192,312042,1,0,0:0:0:0:
256,192,312110,1,8,0:0:0:0:
256,192,312178,1,0,0:0:0:0:
256,192,312246,1,8,0:0:0:0:
256,192,312315,1,8,0:0:0:0:
256,192,312383,1,0,0:0:0:0:
256,192,312451,1,8,0:0:0:0:
256,192,312519,1,0,0:0:0:0:
256,192,312587,1,0,0:0:0:0:
256,192,312655,1,8,0:0:0:0:
256,192,312724,1,0,0:0:0:0:
256,192,312792,1,8,0:0:0:0:
256,192,312928,1,0,0:0:0:0:
256,192,313065,1,8,0:0:0:0:
256,192,313133,1,0,0:0:0:0:
256,192,313201,1,8,0:0:0:0:
256,192,313269,1,8,0:0:0:0:
256,192,313337,1,0,0:0:0:0:
256,192,313405,1,0,0:0:0:0:
256,192,313474,1,8,0:0:0:0:
256,192,313542,1,0,0:0:0:0:
256,192,313610,1,8,0:0:0:0:
256,192,313678,1,8,0:0:0:0:
256,192,313746,1,8,0:0:0:0:
256,192,313815,1,0,0:0:0:0:
256,192,313883,1,8,0:0:0:0:
256,192,314019,1,0,0:0:0:0:
256,192,314087,1,0,0:0:0:0:
256,192,314155,1,8,0:0:0:0:
256,192,314292,1,8,0:0:0:0:
256,192,314428,1,0,0:0:0:0:
256,192,314565,1,8,0:0:0:0:
256,192,314633,1,0,0:0:0:0:
256,192,314701,1,8,0:0:0:0:
256,192,314769,1,8,0:0:0:0:
256,192,314837,1,0,0:0:0:0:
256,192,314974,1,0,0:0:0:0:
256,192,315042,1,8,0:0:0:0:
256,192,315110,1,0,0:0:0:0:
256,192,315178,1,0,0:0:0:0:
256,192,315246,1,8,0:0:0:0:
256,192,315383,1,0,0:0:0:0:
256,192,315519,1,0,0:0:0:0:
256,192,315587,1,0,0:0:0:0:
256,192,315655,1,8,0:0:0:0:
256,192,315724,1,8,0:0:0:0:
256,192,315792,1,8,0:0:0:0:
256,192,315860,1,0,0:0:0:0:
256,192,315928,1,8,0:0:0:0:
256,192,316065,1,0,0:0:0:0:
224,192,316201,1,8,0:0:0:0:
224,192,316269,1,8,0:0:0:0:
224,192,316337,1,0,0:0:0:0:
256,192,316474,1,8,0:0:0:0:
256,192,316542,1,0,0:0:0:0:
256,192,316610,1,8,0:0:0:0:
256,192,316746,1,0,0:0:0:0:
256,192,316883,1,8,0:0:0:0:
256,192,317019,1,0,0:0:0:0:
256,192,317087,1,0,0:0:0:0:
256,192,317155,1,8,0:0:0:0:
256,224,317292,1,0,0:0:0:0:
256,224,317428,1,8,0:0:0:0:
256,224,317496,1,0,0:0:0:0:
256,224,317565,1,8,0:0:0:0:
256,224,317633,1,8,0:0:0:0:
256,224,317701,1,0,0:0:0:0:
256,224,317769,1,0,0:0:0:0:
256,224,317837,1,8,0:0:0:0:
256,224,317905,1,0,0:0:0:0:
256,224,317974,1,8,0:0:0:0:
256,224,318042,1,8,0:0:0:0:
256,224,318110,1,8,0:0:0:0:
256,224,318178,1,0,0:0:0:0:
256,224,318246,1,8,0:0:0:0:
256,192,318519,1,0,0:0:0:0:
256,192,318587,1,0,0:0:0:0:
256,192,318655,1,8,0:0:0:0:
256,192,318724,1,0,0:0:0:0:
256,192,318792,1,0,0:0:0:0:
256,192,318860,1,8,0:0:0:0:
256,192,318928,1,0,0:0:0:0:
256,192,318996,1,0,0:0:0:0:
256,192,319065,1,8,0:0:0:0:
256,192,319133,1,0,0:0:0:0:
256,192,319201,1,8,0:0:0:0:
256,192,319269,1,0,0:0:0:0:
256,192,319337,1,8,0:0:0:0:
256,192,319405,1,8,0:0:0:0:
256,192,319474,1,0,0:0:0:0:
256,192,319542,1,8,0:0:0:0:
256,192,319610,1,8,0:0:0:0:
256,192,319678,1,0,0:0:0:0:
256,192,319746,1,0,0:0:0:0:
256,192,319815,1,0,0:0:0:0:
256,192,319883,1,8,0:0:0:0:
256,192,319951,1,0,0:0:0:0:
256,192,320019,1,8,0:0:0:0:
256,192,320087,1,8,0:0:0:0:
256,192,320155,1,0,0:0:0:0:
256,192,320224,1,0,0:0:0:0:
256,192,320292,1,8,0:0:0:0:
256,192,320360,1,0,0:0:0:0:
256,192,320428,1,0,0:0:0:0:
256,192,320496,1,8,0:0:0:0:
256,192,320565,1,0,0:0:0:0:
256,192,320633,1,0,0:0:0:0:
256,192,320701,1,8,0:0:0:0:
256,192,320769,1,0,0:0:0:0:
256,192,320837,1,8,0:0:0:0:
256,192,320905,1,0,0:0:0:0:
256,192,320974,1,0,0:0:0:0:
256,192,321042,1,8,0:0:0:0:
256,192,321110,1,0,0:0:0:0:
256,192,321178,1,0,0:0:0:0:
256,192,321246,1,8,0:0:0:0:
256,192,321315,1,0,0:0:0:0:
256,192,321383,1,8,0:0:0:0:
256,192,321451,1,8,0:0:0:0:
256,192,321519,1,0,0:0:0:0:
256,192,321587,1,8,0:0:0:0:
256,192,321655,1,8,0:0:0:0:
256,192,321724,1,0,0:0:0:0:
256,192,321792,1,8,0:0:0:0:
256,192,321860,1,0,0:0:0:0:
256,192,321928,1,8,0:0:0:0:
256,192,321996,1,8,0:0:0:0:
256,192,322065,1,0,0:0:0:0:
256,192,322133,1,8,0:0:0:0:
256,192,322201,1,8,0:0:0:0:
256,192,322269,1,0,0:0:0:0:
256,192,322337,1,8,0:0:0:0:
256,192,322405,1,0,0:0:0:0:
256,192,322474,1,8,0:0:0:0:
256,192,322542,1,8,0:0:0:0:
256,192,322610,1,0,0:0:0:0:
256,192,322678,1,8,0:0:0:0:
256,192,322746,1,0,0:0:0:0:
256,192,322815,1,0,0:0:0:0:
256,192,322883,1,8,0:0:0:0:
256,192,323019,1,0,0:0:0:0:
256,192,323155,1,0,0:0:0:0:
256,192,323224,1,0,0:0:0:0:
256,192,323292,1,8,0:0:0:0:
256,192,323428,1,0,0:0:0:0:
256,192,323565,1,8,0:0:0:0:
256,192,323633,1,0,0:0:0:0:
256,192,323701,1,8,0:0:0:0:
256,192,323769,1,8,0:0:0:0:
256,192,323837,1,8,0:0:0:0:
256,192,323905,1,0,0:0:0:0:
256,192,323974,1,8,0:0:0:0:
256,192,324110,1,8,0:0:0:0:
256,192,324246,1,0,0:0:0:0:
256,192,324315,1,0,0:0:0:0:
256,192,324383,1,8,0:0:0:0:
256,192,324451,1,8,0:0:0:0:
256,192,324519,1,0,0:0:0:0:
256,192,324587,1,8,0:0:0:0:
256,192,324655,1,0,0:0:0:0:
256,192,324724,1,0,0:0:0:0:
256,192,324792,1,8,0:0:0:0:
256,192,324928,1,0,0:0:0:0:
256,192,325065,1,8,0:0:0:0:
256,192,325133,1,8,0:0:0:0:
256,192,325201,1,0,0:0:0:0:
256,192,325269,1,0,0:0:0:0:
256,192,325337,1,8,0:0:0:0:
256,192,325405,1,0,0:0:0:0:
256,192,325474,1,8,0:0:0:0:
256,192,325542,1,8,0:0:0:0:
256,192,325610,1,0,0:0:0:0:
256,192,325678,1,0,0:0:0:0:
256,192,325746,1,8,0:0:0:0:
256,192,325815,1,0,0:0:0:0:
256,192,325883,1,0,0:0:0:0:
256,192,325951,1,8,0:0:0:0:
256,192,326019,1,0,0:0:0:0:
256,192,326087,1,0,0:0:0:0:
256,192,326155,1,8,0:0:0:0:
256,192,326292,1,8,0:0:0:0:
256,192,326360,1,8,0:0:0:0:
256,192,326428,1,0,0:0:0:0:
256,192,326565,1,0,0:0:0:0:
256,192,326701,1,8,0:0:0:0:
256,192,326769,1,8,0:0:0:0:
256,192,326837,1,8,0:0:0:0:
256,192,326974,1,8,0:0:0:0:
256,192,327042,1,8,0:0:0:0:
256,192,327110,1,0,0:0:0:0:
256,192,327246,1,4,0:0:0:0:
256,192,327383,1,8,0:0:0:0:
256,192,327451,1,0,0:0:0:0:
256,192,327519,1,8,0:0:0:0:
256,192,327587,1,8,0:0:0:0:
256,192,327655,1,0,0:0:0:0:
261,191,327792,1,4,0:0:0:0:
256,192,327928,1,8,0:0:0:0:
256,192,327996,1,8,0:0:0:0:
256,192,328065,1,8,0:0:0:0:
256,192,328133,1,0,0:0:0:0:
256,192,328201,1,8,0:0:0:0:
256,192,328337,1,4,0:0:0:0:
256,192,328474,1,0,0:0:0:0:
256,192,328542,1,0,0:0:0:0:
256,192,328610,1,8,0:0:0:0:
256,192,328678,1,8,0:0:0:0:
256,192,328746,1,8,0:0:0:0:
256,192,328815,1,8,0:0:0:0:
256,192,328883,1,0,0:0:0:0:
256,192,328951,1,0,0:0:0:0:
256,192,329019,1,8,0:0:0:0:
256,192,329087,1,0,0:0:0:0:
256,192,329155,1,8,0:0:0:0:
256,192,329292,1,0,0:0:0:0:
256,192,329428,1,4,0:0:0:0:
256,192,329565,1,8,0:0:0:0:
256,192,329633,1,8,0:0:0:0:
256,192,329701,1,8,0:0:0:0:
256,192,329769,1,0,0:0:0:0:
256,192,329837,1,8,0:0:0:0:
256,192,329974,1,4,0:0:0:0:
256,192,330110,1,8,0:0:0:0:
256,192,330178,1,8,0:0:0:0:
256,192,330246,1,0,0:0:0:0:
259,198,330315,1,8,0:0:0:0:
256,192,330383,1,8,0:0:0:0:
256,192,330519,1,4,0:0:0:0:
256,192,330655,1,0,0:0:0:0:
256,192,330792,1,0,0:0:0:0:
256,192,330860,1,0,0:0:0:0:
256,192,330928,1,8,0:0:0:0:
256,192,331065,1,8,0:0:0:0:
256,192,331133,1,8,0:0:0:0:
256,192,331201,1,0,0:0:0:0:
256,192,331269,1,8,0:0:0:0:
256,192,331337,1,0,0:0:0:0:
256,192,331405,1,0,0:0:0:0:
256,192,331474,1,8,0:0:0:0:
256,192,331610,1,4,0:0:0:0:
256,192,331746,1,0,0:0:0:0:
256,192,331883,1,0,0:0:0:0:
256,192,331951,1,0,0:0:0:0:
256,192,332019,1,8,0:0:0:0:
256,192,332155,1,4,0:0:0:0:
256,192,332292,1,8,0:0:0:0:
256,192,332360,1,8,0:0:0:0:
256,192,332428,1,0,0:0:0:0:
256,192,332565,1,8,0:0:0:0:
256,192,332701,1,4,0:0:0:0:
256,192,332837,1,8,0:0:0:0:
256,192,332905,1,8,0:0:0:0:
256,192,332974,1,0,0:0:0:0:
256,192,333042,1,0,0:0:0:0:
256,192,333110,1,8,0:0:0:0:
256,192,333178,1,0,0:0:0:0:
256,192,333246,1,0,0:0:0:0:
256,192,333315,1,0,0:0:0:0:
256,192,333383,1,8,0:0:0:0:
256,192,333451,1,8,0:0:0:0:
256,192,333519,1,0,0:0:0:0:
247,197,333587,1,0,0:0:0:0:
256,192,333655,1,8,0:0:0:0:
256,192,333792,1,4,0:0:0:0:
256,192,333928,1,0,0:0:0:0:
255,200,333996,1,0,0:0:0:0:
256,192,334065,1,8,0:0:0:0:
256,192,334133,1,0,0:0:0:0:
256,192,334201,1,8,0:0:0:0:
256,192,334337,1,4,0:0:0:0:
256,192,334474,1,8,0:0:0:0:
260,197,334542,1,0,0:0:0:0:
256,192,334610,1,8,0:0:0:0:
256,192,334678,1,8,0:0:0:0:
256,192,334746,1,8,0:0:0:0:
256,192,334883,1,4,0:0:0:0:
256,192,336792,1,4,0:0:0:0:
256,192,337065,1,4,0:0:0:0:
256,192,337201,1,4,0:0:0:0:
256,192,339246,1,0,0:0:0:0:
256,192,339383,1,0,0:0:0:0:
256,192,339519,1,8,0:0:0:0:
256,192,339655,1,0,0:0:0:0:
288,192,339792,1,8,0:0:0:0:
256,192,339928,1,0,0:0:0:0:
256,192,340065,1,0,0:0:0:0:
256,192,340201,1,8,0:0:0:0:
256,192,340337,1,0,0:0:0:0:
256,192,340474,1,8,0:0:0:0:
256,192,340610,1,0,0:0:0:0:
256,192,340746,1,0,0:0:0:0:
256,192,340883,1,8,0:0:0:0:
256,192,341019,1,0,0:0:0:0:
256,192,341155,1,0,0:0:0:0:
256,192,341292,1,8,0:0:0:0:
256,192,341428,1,4,0:0:0:0:
256,192,342246,1,8,0:0:0:0:
256,192,342383,1,8,0:0:0:0:
256,192,342519,1,4,0:0:0:0:
256,192,342655,1,4,0:0:0:0:
256,192,343065,1,4,0:0:0:0:
256,192,343201,1,4,0:0:0:0:
256,192,343610,1,8,0:0:0:0:
256,192,343678,1,0,0:0:0:0:
256,192,343746,1,0,0:0:0:0:
256,192,343815,1,0,0:0:0:0:
256,192,343883,1,8,0:0:0:0:
256,192,343951,1,8,0:0:0:0:
256,192,344019,1,0,0:0:0:0:
256,192,344087,1,0,0:0:0:0:
256,192,344155,1,8,0:0:0:0:
256,192,344224,1,0,0:0:0:0:
256,192,344292,1,0,0:0:0:0:
256,192,344360,1,0,0:0:0:0:
256,192,344428,1,8,0:0:0:0:
256,192,344496,1,0,0:0:0:0:
256,192,344565,1,8,0:0:0:0:
256,192,344633,1,8,0:0:0:0:
256,192,344701,1,0,0:0:0:0:
256,192,344769,1,0,0:0:0:0:
256,192,344837,1,8,0:0:0:0:
256,192,344905,1,0,0:0:0:0:
256,192,344974,1,8,0:0:0:0:
256,192,345042,1,8,0:0:0:0:
256,192,345110,1,8,0:0:0:0:
256,192,345178,1,0,0:0:0:0:
256,192,345246,1,8,0:0:0:0:
256,192,345315,1,0,0:0:0:0:
256,192,345383,1,0,0:0:0:0:
256,192,345451,1,0,0:0:0:0:
256,192,345519,1,8,0:0:0:0:
256,192,345587,1,8,0:0:0:0:
256,192,345655,1,0,0:0:0:0:
256,192,345724,1,0,0:0:0:0:
256,192,345792,1,8,0:0:0:0:
256,192,345860,1,0,0:0:0:0:
256,192,345928,1,8,0:0:0:0:
256,192,345996,1,8,0:0:0:0:
256,192,346065,1,0,0:0:0:0:
256,192,346133,1,0,0:0:0:0:
256,192,346201,1,8,0:0:0:0:
256,192,346269,1,0,0:0:0:0:
256,192,346337,1,8,0:0:0:0:
256,192,346405,1,0,0:0:0:0:
256,192,346474,1,0,0:0:0:0:
256,192,346542,1,0,0:0:0:0:
256,192,346610,1,8,0:0:0:0:
256,192,346678,1,8,0:0:0:0:
256,192,346746,1,0,0:0:0:0:
256,192,346815,1,0,0:0:0:0:
256,192,346883,1,8,0:0:0:0:
256,192,346951,1,0,0:0:0:0:
256,192,347019,1,0,0:0:0:0:
256,192,347087,1,0,0:0:0:0:
256,192,347155,1,8,0:0:0:0:
256,192,347224,1,0,0:0:0:0:
256,192,347292,1,0,0:0:0:0:
256,192,347360,1,0,0:0:0:0:
256,192,347428,1,8,0:0:0:0:
256,192,347496,1,8,0:0:0:0:
256,192,347565,1,0,0:0:0:0:
256,192,347633,1,0,0:0:0:0:
256,192,347701,1,8,0:0:0:0:
256,192,347769,1,8,0:0:0:0:
256,192,347837,1,8,0:0:0:0:
256,192,347905,1,8,0:0:0:0:
256,192,347974,1,0,0:0:0:0:
256,192,348110,1,0,0:0:0:0:
256,192,348246,1,0,0:0:0:0:
256,192,348315,1,0,0:0:0:0:
256,192,348383,1,8,0:0:0:0:
256,192,348451,1,0,0:0:0:0:
256,192,348519,1,8,0:0:0:0:
256,192,348655,1,8,0:0:0:0:
256,192,348724,1,0,0:0:0:0:
256,192,348792,1,8,0:0:0:0:
256,192,348860,1,8,0:0:0:0:
256,192,348928,1,0,0:0:0:0:
256,192,349065,1,8,0:0:0:0:
256,192,349133,1,8,0:0:0:0:
256,192,349201,1,0,0:0:0:0:
256,192,349269,1,8,0:0:0:0:
256,192,349337,1,0,0:0:0:0:
256,192,349405,1,0,0:0:0:0:
256,192,349474,1,8,0:0:0:0:
256,192,349542,1,0,0:0:0:0:
256,192,349610,1,8,0:0:0:0:
256,192,349678,1,8,0:0:0:0:
256,192,349746,1,8,0:0:0:0:
256,192,349815,1,8,0:0:0:0:
256,192,349883,1,0,0:0:0:0:
256,192,350019,1,0,0:0:0:0:
256,192,350155,1,8,0:0:0:0:
256,192,350224,1,8,0:0:0:0:
256,192,350292,1,0,0:0:0:0:
256,192,350428,1,0,0:0:0:0:
256,192,350565,1,8,0:0:0:0:
256,192,350701,1,0,0:0:0:0:
256,192,350837,1,8,0:0:0:0:
256,192,350905,1,0,0:0:0:0:
256,192,350974,1,8,0:0:0:0:
256,192,351110,1,8,0:0:0:0:
256,192,351246,1,8,0:0:0:0:
256,192,351315,1,0,0:0:0:0:
256,192,351383,1,8,0:0:0:0:
256,192,351451,1,8,0:0:0:0:
256,192,351519,1,0,0:0:0:0:
256,192,351587,1,8,0:0:0:0:
256,192,351655,1,0,0:0:0:0:
256,192,351724,1,0,0:0:0:0:
256,192,351792,1,8,0:0:0:0:
256,192,351860,1,8,0:0:0:0:
256,192,351928,1,0,0:0:0:0:
256,192,351996,1,0,0:0:0:0:
256,192,352065,1,8,0:0:0:0:
256,192,352201,1,0,0:0:0:0:
256,192,352337,1,8,0:0:0:0:
256,192,352405,1,8,0:0:0:0:
256,192,352474,1,0,0:0:0:0:
256,192,352542,1,0,0:0:0:0:
256,192,352610,1,8,0:0:0:0:
256,192,352678,1,0,0:0:0:0:
256,192,352746,1,0,0:0:0:0:
256,192,352815,1,0,0:0:0:0:
256,192,352883,1,8,0:0:0:0:
256,192,352951,1,8,0:0:0:0:
256,192,353019,1,0,0:0:0:0:
256,192,353087,1,0,0:0:0:0:
256,192,353155,1,8,0:0:0:0:
256,192,353224,1,0,0:0:0:0:
256,192,353292,1,8,0:0:0:0:
256,192,353360,1,8,0:0:0:0:
256,192,353428,1,0,0:0:0:0:
256,192,353496,1,0,0:0:0:0:
256,192,353565,1,0,0:0:0:0:
256,192,353633,1,0,0:0:0:0:
256,192,353701,1,8,0:0:0:0:
256,192,353769,1,8,0:0:0:0:
256,192,353837,1,8,0:0:0:0:
256,192,353905,1,0,0:0:0:0:
256,192,353974,1,8,0:0:0:0:
256,192,354042,1,8,0:0:0:0:
256,192,354110,1,0,0:0:0:0:
256,192,354178,1,0,0:0:0:0:
256,192,354246,1,8,0:0:0:0:
256,192,354315,1,0,0:0:0:0:
256,192,354383,1,0,0:0:0:0:
256,192,354451,1,0,0:0:0:0:
256,192,354519,1,8,0:0:0:0:
256,192,354587,1,0,0:0:0:0:
256,192,354655,1,0,0:0:0:0:
256,192,354724,1,0,0:0:0:0:
256,192,354792,1,8,0:0:0:0:
256,192,354860,1,0,0:0:0:0:
256,192,354928,1,8,0:0:0:0:
256,192,354996,1,8,0:0:0:0:
256,192,355065,1,0,0:0:0:0:
256,192,355133,1,0,0:0:0:0:
256,192,355201,1,8,0:0:0:0:
256,192,355269,1,0,0:0:0:0:
256,192,355337,1,8,0:0:0:0:
256,192,355405,1,8,0:0:0:0:
256,192,355474,1,8,0:0:0:0:
256,192,355542,1,0,0:0:0:0:
256,192,355610,1,8,0:0:0:0:
256,192,355678,1,0,0:0:0:0:
256,192,355746,1,0,0:0:0:0:
256,192,355815,1,0,0:0:0:0:
256,192,355883,1,8,0:0:0:0:
256,192,355951,1,8,0:0:0:0:
256,192,356019,1,8,0:0:0:0:
256,192,356087,1,0,0:0:0:0:
256,192,356155,1,8,0:0:0:0:
256,192,356224,1,8,0:0:0:0:
256,192,356292,1,0,0:0:0:0:
256,192,356360,1,0,0:0:0:0:
256,192,356428,1,8,0:0:0:0:
256,192,356565,1,0,0:0:0:0:
256,192,356701,1,4,0:0:0:0:
256,192,356974,1,8,0:0:0:0:
256,192,357110,1,0,0:0:0:0:
256,192,357383,1,0,0:0:0:0:
256,192,357451,1,0,0:0:0:0:
256,192,357519,1,8,0:0:0:0:
256,192,357655,1,0,0:0:0:0:
256,192,357928,1,0,0:0:0:0:
256,192,358065,1,8,0:0:0:0:
256,192,358337,1,0,0:0:0:0:
256,192,358474,1,0,0:0:0:0:
256,192,358610,1,8,0:0:0:0:
256,192,358883,1,8,0:0:0:0:
256,192,358951,1,8,0:0:0:0:
256,192,359019,1,0,0:0:0:0:
256,192,359155,1,0,0:0:0:0:
256,192,359292,1,4,0:0:0:0:
256,192,359565,1,8,0:0:0:0:
256,192,359633,1,0,0:0:0:0:
256,192,359701,1,8,0:0:0:0:
256,192,359769,1,8,0:0:0:0:
256,192,359837,1,0,0:0:0:0:
256,192,360110,1,0,0:0:0:0:
256,192,360178,1,0,0:0:0:0:
256,192,360246,1,0,0:0:0:0:
256,192,360315,1,0,0:0:0:0:
256,192,360383,1,0,0:0:0:0:
256,192,360451,1,0,0:0:0:0:
256,192,360519,1,8,0:0:0:0:
256,192,360655,1,0,0:0:0:0:
256,192,360792,1,8,0:0:0:0:
256,192,360860,1,8,0:0:0:0:
256,192,360928,1,0,0:0:0:0:
256,192,361065,1,8,0:0:0:0:
256,192,361133,1,8,0:0:0:0:
256,192,361201,1,0,0:0:0:0:
256,192,361269,1,0,0:0:0:0:
256,192,361337,1,8,0:0:0:0:
256,192,361405,1,0,0:0:0:0:
256,192,361474,1,8,0:0:0:0:
256,192,361542,1,8,0:0:0:0:
256,192,361610,1,0,0:0:0:0:
256,192,361678,1,0,0:0:0:0:
256,192,361746,1,8,0:0:0:0:
256,192,361815,1,0,0:0:0:0:
256,192,361883,1,8,0:0:0:0:
256,192,361951,1,8,0:0:0:0:
256,192,362019,1,8,0:0:0:0:
256,192,362087,1,0,0:0:0:0:
256,192,362155,1,8,0:0:0:0:
256,192,362224,1,0,0:0:0:0:
256,192,362292,1,0,0:0:0:0:
256,192,362360,1,0,0:0:0:0:
256,192,362428,1,8,0:0:0:0:
256,192,362496,1,8,0:0:0:0:
256,192,362565,1,8,0:0:0:0:
256,192,362633,1,0,0:0:0:0:
256,192,362701,1,8,0:0:0:0:
256,192,362769,1,8,0:0:0:0:
256,192,362837,1,0,0:0:0:0:
256,192,362905,1,0,0:0:0:0:
256,192,362974,1,8,0:0:0:0:
256,192,363042,1,0,0:0:0:0:
256,192,363110,1,0,0:0:0:0:
256,192,363178,1,0,0:0:0:0:
256,192,363246,1,8,0:0:0:0:
256,192,363315,1,0,0:0:0:0:
256,192,363383,1,8,0:0:0:0:
256,192,363451,1,8,0:0:0:0:
256,192,363519,1,0,0:0:0:0:
256,192,363587,1,0,0:0:0:0:
256,192,363655,1,8,0:0:0:0:
256,192,363724,1,0,0:0:0:0:
256,192,363792,1,8,0:0:0:0:
256,192,363860,1,8,0:0:0:0:
256,192,363928,1,8,0:0:0:0:
256,192,363996,1,0,0:0:0:0:
256,192,364065,1,8,0:0:0:0:
256,192,364133,1,0,0:0:0:0:
256,192,364201,1,0,0:0:0:0:
256,192,364269,1,0,0:0:0:0:
256,192,364337,1,8,0:0:0:0:
256,192,364405,1,0,0:0:0:0:
256,192,364474,1,0,0:0:0:0:
256,192,364542,1,0,0:0:0:0:
256,192,364610,1,8,0:0:0:0:
256,192,364678,1,8,0:0:0:0:
256,192,364746,1,0,0:0:0:0:
256,192,364815,1,8,0:0:0:0:
256,192,364883,1,0,0:0:0:0:
256,192,364951,1,0,0:0:0:0:
256,192,365019,1,8,0:0:0:0:
256,192,365087,1,0,0:0:0:0:
256,192,365155,1,8,0:0:0:0:
256,192,365292,1,0,0:0:0:0:
256,192,365428,1,8,0:0:0:0:
256,192,365701,1,8,0:0:0:0:
256,192,365837,1,0,0:0:0:0:
256,192,366110,1,0,0:0:0:0:
256,192,366246,1,8,0:0:0:0:
256,192,366383,1,8,0:0:0:0:
256,192,366655,1,0,0:0:0:0:
256,192,366792,1,8,0:0:0:0:
256,192,367065,1,0,0:0:0:0:
256,192,367202,1,0,0:0:0:0:
256,192,367338,1,8,0:0:0:0:
256,192,367610,1,8,0:0:0:0:
256,192,367678,1,8,0:0:0:0:
256,192,367746,1,0,0:0:0:0:
256,192,367815,1,0,0:0:0:0:
256,192,367883,1,8,0:0:0:0:
256,192,368019,1,8,0:0:0:0:
256,192,368292,1,0,0:0:0:0:
256,192,368360,1,8,0:0:0:0:
256,192,368428,1,0,0:0:0:0:
256,192,368496,1,0,0:0:0:0:
256,192,368565,1,8,0:0:0:0:
256,192,368837,1,8,0:0:0:0:
256,192,368905,1,0,0:0:0:0:
256,192,368974,1,8,0:0:0:0:
256,192,369042,1,8,0:0:0:0:
256,192,369110,1,0,0:0:0:0:
256,192,369178,1,0,0:0:0:0:
256,192,369246,1,8,0:0:0:0:
256,192,369315,1,8,0:0:0:0:
256,192,369383,1,8,0:0:0:0:
256,192,369451,1,0,0:0:0:0:
256,192,369519,1,8,0:0:0:0:
256,192,369792,1,8,0:0:0:0:
256,192,370201,1,0,0:0:0:0:
256,192,370610,1,0,0:0:0:0:
256,192,370883,1,8,0:0:0:0:
256,192,371701,1,8,0:0:0:0:
256,192,371974,1,0,0:0:0:0:
256,192,372383,1,0,0:0:0:0:
256,192,372792,1,0,0:0:0:0:
256,192,373065,1,8,0:0:0:0:
256,192,373883,1,0,0:0:0:0:
256,192,374155,1,8,0:0:0:0:
256,192,374565,1,8,0:0:0:0:
256,192,374974,1,0,0:0:0:0:
256,192,375246,1,8,0:0:0:0:
256,192,375655,1,8,0:0:0:0:
256,192,376065,1,8,0:0:0:0:
256,192,376337,1,0,0:0:0:0:
256,192,377155,1,8,0:0:0:0:
256,192,377428,1,0,0:0:0:0:
256,192,378246,1,0,0:0:0:0:
256,192,378519,1,8,0:0:0:0:
256,192,378928,1,0,0:0:0:0:
256,192,379337,1,0,0:0:0:0:
256,192,379610,1,8,0:0:0:0:
256,192,380019,1,0,0:0:0:0:
256,192,380428,1,0,0:0:0:0:
256,192,380701,1,8,0:0:0:0:
256,192,381110,1,0,0:0:0:0:
256,192,381519,1,0,0:0:0:0:
256,192,381792,1,8,0:0:0:0:
256,192,382610,1,0,0:0:0:0:
256,192,382883,1,8,0:0:0:0:
256,192,383292,1,8,0:0:0:0:
256,192,383701,1,0,0:0:0:0:
256,192,383974,1,0,0:0:0:0:
256,192,384383,1,0,0:0:0:0:
256,192,384792,1,0,0:0:0:0:
256,192,385065,1,8,0:0:0:0:
256,192,388337,1,0,0:0:0:0:
256,192,388883,1,0,0:0:0:0:
256,192,389428,1,8,0:0:0:0:
256,192,389519,1,0,0:0:0:0:
256,192,389610,1,0,0:0:0:0:
256,192,389701,1,0,0:0:0:0:
256,192,389791,1,8,0:0:0:0:
256,192,389882,1,0,0:0:0:0:
256,192,389973,1,8,0:0:0:0:
256,192,390064,1,8,0:0:0:0:
256,192,390155,1,0,0:0:0:0:
256,192,390246,1,8,0:0:0:0:
256,192,390337,1,0,0:0:0:0:
256,192,390428,1,0,0:0:0:0:
256,192,390519,1,8,0:0:0:0:
256,192,390610,1,8,0:0:0:0:
256,192,390701,1,0,0:0:0:0:
256,192,390791,1,0,0:0:0:0:
256,192,390882,1,0,0:0:0:0:
256,192,390973,1,0,0:0:0:0:
256,192,391064,1,8,0:0:0:0:
256,192,391155,1,8,0:0:0:0:
256,192,391246,1,8,0:0:0:0:
256,192,391337,1,0,0:0:0:0:
256,192,391428,1,0,0:0:0:0:
256,192,391519,1,0,0:0:0:0:
256,192,391610,1,8,0:0:0:0:
256,192,391701,1,8,0:0:0:0:
256,192,391791,1,8,0:0:0:0:
256,192,391882,1,0,0:0:0:0:
256,192,391973,1,8,0:0:0:0:
256,192,392064,1,0,0:0:0:0:
256,192,392155,1,8,0:0:0:0:
256,192,392246,1,8,0:0:0:0:
256,192,392337,1,0,0:0:0:0:
256,192,392428,1,8,0:0:0:0:
256,192,392519,1,0,0:0:0:0:
256,192,392610,1,0,0:0:0:0:
256,192,392701,1,8,0:0:0:0:
256,192,392791,1,8,0:0:0:0:
256,192,392882,1,0,0:0:0:0:
256,192,392973,1,0,0:0:0:0:
256,192,393064,1,0,0:0:0:0:
256,192,393155,1,0,0:0:0:0:
256,192,393246,1,8,0:0:0:0:
256,192,393337,1,8,0:0:0:0:
256,192,393428,1,8,0:0:0:0:
256,192,393519,1,8,0:0:0:0:
256,192,393610,1,8,0:0:0:0:
256,192,393701,1,8,0:0:0:0:
256,192,393791,1,0,0:0:0:0:
256,192,393882,1,0,0:0:0:0:
256,192,393973,1,0,0:0:0:0:
256,192,394064,1,0,0:0:0:0:
256,192,394155,1,8,0:0:0:0:
256,192,394246,1,0,0:0:0:0:
256,192,394337,1,8,0:0:0:0:
256,192,394428,1,8,0:0:0:0:
256,192,394519,1,0,0:0:0:0:
256,192,394610,1,8,0:0:0:0:
256,192,394701,1,0,0:0:0:0:
256,192,394791,1,0,0:0:0:0:
256,192,394882,1,8,0:0:0:0:
256,192,394973,1,8,0:0:0:0:
256,192,395064,1,0,0:0:0:0:
256,192,395155,1,0,0:0:0:0:
256,192,395246,1,0,0:0:0:0:
256,192,395337,1,0,0:0:0:0:
256,192,395428,1,8,0:0:0:0:
256,192,395519,1,8,0:0:0:0:
256,192,395610,1,8,0:0:0:0:
256,192,395701,1,0,0:0:0:0:
256,192,395791,1,0,0:0:0:0:
256,192,395882,1,0,0:0:0:0:
256,192,395973,1,8,0:0:0:0:
256,192,396064,1,0,0:0:0:0:
256,192,396155,1,0,0:0:0:0:
256,192,396246,1,0,0:0:0:0:
256,192,396337,1,8,0:0:0:0:
256,192,396428,1,0,0:0:0:0:
256,192,396519,1,8,0:0:0:0:
256,192,396610,1,0,0:0:0:0:
256,192,396701,1,0,0:0:0:0:
256,192,396791,1,0,0:0:0:0:
256,192,396882,1,8,0:0:0:0:
256,192,396973,1,0,0:0:0:0:
256,192,397064,1,8,0:0:0:0:
256,192,397155,1,8,0:0:0:0:
256,192,397246,1,0,0:0:0:0:
256,192,397337,1,8,0:0:0:0:
256,192,397428,1,0,0:0:0:0:
256,192,397519,1,0,0:0:0:0:
256,192,397610,1,8,0:0:0:0:
256,192,397701,1,0,0:0:0:0:
256,192,397791,1,8,0:0:0:0:
256,192,397882,1,8,0:0:0:0:
256,192,397973,1,0,0:0:0:0:
256,192,398064,1,0,0:0:0:0:
256,192,398155,1,8,0:0:0:0:
256,192,398246,1,0,0:0:0:0:
256,192,398337,1,0,0:0:0:0:
256,192,398428,1,0,0:0:0:0:
256,192,398519,1,8,0:0:0:0:
256,192,398610,1,0,0:0:0:0:
256,192,398701,1,8,0:0:0:0:
256,192,398791,1,8,0:0:0:0:
256,192,398882,1,0,0:0:0:0:
256,192,398973,1,8,0:0:0:0:
256,192,399064,1,0,0:0:0:0:
256,192,399155,1,0,0:0:0:0:
256,192,399246,1,8,0:0:0:0:
256,192,399337,1,8,0:0:0:0:
256,192,399428,1,0,0:0:0:0:
256,192,399519,1,0,0:0:0:0:
256,192,399610,1,0,0:0:0:0:
256,192,399701,1,0,0:0:0:0:
256,192,399791,1,8,0:0:0:0:
256,192,399882,1,8,0:0:0:0:
256,192,399973,1,8,0:0:0:0:
256,192,400064,1,0,0:0:0:0:
256,192,400155,1,8,0:0:0:0:
256,192,400246,1,0,0:0:0:0:
256,192,400337,1,8,0:0:0:0:
256,192,400428,1,0,0:0:0:0:
256,192,400519,1,0,0:0:0:0:
256,192,400610,1,0,0:0:0:0:
256,192,400701,1,8,0:0:0:0:
256,192,400791,1,0,0:0:0:0:
256,192,400882,1,8,0:0:0:0:
256,192,400973,1,8,0:0:0:0:
256,192,401064,1,0,0:0:0:0:
256,192,401155,1,8,0:0:0:0:
256,192,401246,1,0,0:0:0:0:
256,192,401337,1,0,0:0:0:0:
256,192,401428,1,8,0:0:0:0:
256,192,401519,1,8,0:0:0:0:
256,192,401610,1,0,0:0:0:0:
256,192,401701,1,0,0:0:0:0:
256,192,401791,1,0,0:0:0:0:
256,192,401882,1,0,0:0:0:0:
256,192,401973,1,8,0:0:0:0:
256,192,402064,1,8,0:0:0:0:
256,192,402155,1,8,0:0:0:0:
256,192,402246,1,8,0:0:0:0:
256,192,402337,1,8,0:0:0:0:
256,192,402428,1,8,0:0:0:0:
256,192,402519,1,0,0:0:0:0:
256,192,402610,1,0,0:0:0:0:
256,192,402701,1,0,0:0:0:0:
256,192,402791,1,0,0:0:0:0:
256,192,402882,1,8,0:0:0:0:
256,192,402973,1,0,0:0:0:0:
256,192,403064,1,8,0:0:0:0:
256,192,403155,1,8,0:0:0:0:
256,192,403246,1,0,0:0:0:0:
256,192,403337,1,8,0:0:0:0:
256,192,403428,1,0,0:0:0:0:
256,192,403519,1,0,0:0:0:0:
256,192,403610,1,8,0:0:0:0:
256,192,403701,1,8,0:0:0:0:
256,192,403791,1,0,0:0:0:0:
256,192,403882,1,0,0:0:0:0:
256,192,403973,1,0,0:0:0:0:
256,192,404064,1,0,0:0:0:0:
256,192,404155,1,8,0:0:0:0:
256,192,404246,1,8,0:0:0:0:
256,192,404337,1,8,0:0:0:0:
256,192,404428,1,0,0:0:0:0:
256,192,404519,1,0,0:0:0:0:
256,192,404610,1,0,0:0:0:0:
256,192,404701,1,8,0:0:0:0:
256,192,404791,1,0,0:0:0:0:
256,192,404882,1,0,0:0:0:0:
256,192,404973,1,0,0:0:0:0:
256,192,405064,1,8,0:0:0:0:
256,192,405155,1,0,0:0:0:0:
256,192,405246,1,8,0:0:0:0:
256,192,405337,1,0,0:0:0:0:
256,192,405428,1,0,0:0:0:0:
256,192,405519,1,0,0:0:0:0:
256,192,405610,1,8,0:0:0:0:
256,192,405701,1,0,0:0:0:0:
256,192,405791,1,8,0:0:0:0:
256,192,405882,1,8,0:0:0:0:
256,192,405973,5,8,0:0:0:0:
256,192,406064,1,0,0:0:0:0:
256,192,406155,1,8,0:0:0:0:
256,192,406246,1,8,0:0:0:0:
256,192,406337,1,0,0:0:0:0:
256,192,406428,1,0,0:0:0:0:
256,192,406519,1,8,0:0:0:0:
256,192,406610,1,0,0:0:0:0:
256,192,406701,1,8,0:0:0:0:
256,192,406791,1,0,0:0:0:0:
256,192,406882,1,8,0:0:0:0:
260,195,406974,1,8,0:0:0:0:
260,195,407065,1,0,0:0:0:0:
260,195,407155,1,8,0:0:0:0:
260,195,407246,1,8,0:0:0:0:
260,195,407337,1,0,0:0:0:0:
260,195,407428,1,0,0:0:0:0:
260,195,407519,1,8,0:0:0:0:
260,195,407610,1,0,0:0:0:0:
260,195,407701,1,8,0:0:0:0:
260,195,407792,1,8,0:0:0:0:
260,195,407883,1,8,0:0:0:0:
260,195,407974,1,0,0:0:0:0:
260,195,408065,1,0,0:0:0:0:
260,195,408155,1,0,0:0:0:0:
260,195,408246,1,0,0:0:0:0:
260,195,408337,1,0,0:0:0:0:
260,195,408428,1,0,0:0:0:0:
267,192,408519,1,8,0:0:0:0:
267,192,408610,1,8,0:0:0:0:
267,192,408701,1,8,0:0:0:0:
267,192,408792,1,0,0:0:0:0:
267,192,408883,1,8,0:0:0:0:
267,192,408974,1,0,0:0:0:0:
267,192,409065,1,8,0:0:0:0:
267,195,409155,1,0,0:0:0:0:
265,195,409246,1,8,0:0:0:0:
265,195,409337,1,8,0:0:0:0:
265,195,409428,1,8,0:0:0:0:
267,192,409519,1,0,0:0:0:0:
267,192,409610,1,8,0:0:0:0:
267,192,409701,1,8,0:0:0:0:
256,192,409792,1,0,0:0:0:0:
256,192,409883,1,0,0:0:0:0:
256,192,409974,1,8,0:0:0:0:
256,192,410065,1,0,0:0:0:0:
256,192,410155,1,8,0:0:0:0:
256,192,410246,1,0,0:0:0:0:
256,192,410337,1,0,0:0:0:0:
256,192,410428,1,0,0:0:0:0:
256,192,410519,1,0,0:0:0:0:
256,192,410610,1,0,0:0:0:0:
256,192,410701,1,8,0:0:0:0:
256,192,410792,1,8,0:0:0:0:
256,192,410883,1,8,0:0:0:0:
256,192,410974,1,0,0:0:0:0:
256,192,411065,1,0,0:0:0:0:
256,192,411155,1,0,0:0:0:0:
256,192,411246,1,8,0:0:0:0:
256,192,411337,1,0,0:0:0:0:
256,192,411428,1,0,0:0:0:0:
256,192,411519,1,0,0:0:0:0:
256,192,411610,1,8,0:0:0:0:
256,192,411701,1,0,0:0:0:0:
256,192,411792,1,8,0:0:0:0:
256,192,411883,1,0,0:0:0:0:
256,192,411974,1,8,0:0:0:0:
256,192,412065,1,8,0:0:0:0:
256,192,412155,1,0,0:0:0:0:
256,192,412246,1,0,0:0:0:0:
256,192,412337,1,8,0:0:0:0:
256,184,412428,1,0,0:0:0:0:
256,184,412519,1,0,0:0:0:0:
256,184,412610,1,0,0:0:0:0:
256,184,412701,1,8,0:0:0:0:
256,184,412792,1,0,0:0:0:0:
256,184,412883,1,8,0:0:0:0:
256,184,412974,1,0,0:0:0:0:
256,184,413065,1,0,0:0:0:0:
256,184,413155,1,0,0:0:0:0:
253,179,413246,1,0,0:0:0:0:
253,179,413337,1,0,0:0:0:0:
253,179,413428,1,8,0:0:0:0:
253,179,413519,1,8,0:0:0:0:
253,179,413610,1,0,0:0:0:0:
253,179,413701,1,0,0:0:0:0:
251,181,413792,1,8,0:0:0:0:
251,181,413883,1,0,0:0:0:0:
251,181,413974,1,8,0:0:0:0:
251,181,414065,1,0,0:0:0:0:
251,181,414155,1,8,0:0:0:0:
253,179,414246,1,8,0:0:0:0:
253,179,414337,1,0,0:0:0:0:
253,179,414428,1,0,0:0:0:0:
253,179,414519,1,8,0:0:0:0:
251,184,414610,1,0,0:0:0:0:
253,179,414701,1,0,0:0:0:0:
256,182,414792,1,0,0:0:0:0:
256,182,414883,1,8,0:0:0:0:
256,182,414974,1,0,0:0:0:0:
256,182,415065,1,8,0:0:0:0:
256,182,415155,1,8,0:0:0:0:
253,179,415246,1,0,0:0:0:0:
253,179,415337,1,8,0:0:0:0:
253,179,415428,1,0,0:0:0:0:
253,179,415519,1,0,0:0:0:0:
256,182,415610,1,8,0:0:0:0:
253,179,415701,1,8,0:0:0:0:
256,182,415792,1,8,0:0:0:0:
256,182,415883,1,0,0:0:0:0:
256,182,415974,1,8,0:0:0:0:
259,175,416065,1,0,0:0:0:0:
259,175,416155,1,8,0:0:0:0:
259,175,416246,1,0,0:0:0:0:
259,175,416337,1,8,0:0:0:0:
259,175,416428,1,8,0:0:0:0:
259,175,416519,1,8,0:0:0:0:
259,175,416610,1,0,0:0:0:0:
259,175,416701,1,8,0:0:0:0:
256,182,416792,1,8,0:0:0:0:
256,182,416883,1,0,0:0:0:0:
256,182,416974,1,0,0:0:0:0:
256,179,417065,1,8,0:0:0:0:
256,179,417155,1,0,0:0:0:0:
256,179,417246,1,0,0:0:0:0:
256,179,417337,1,0,0:0:0:0:
256,179,417428,1,8,0:0:0:0:
256,179,417519,1,0,0:0:0:0:
256,179,417610,1,8,0:0:0:0:
256,179,417701,1,0,0:0:0:0:
256,182,417792,1,8,0:0:0:0:
256,182,417883,1,8,0:0:0:0:
256,182,417974,1,0,0:0:0:0:
256,179,418065,1,0,0:0:0:0:
256,179,418155,1,8,0:0:0:0:
256,179,418246,1,0,0:0:0:0:
261,176,418337,1,8,0:0:0:0:
261,173,418428,1,0,0:0:0:0:
261,173,418519,1,8,0:0:0:0:
261,172,418610,1,8,0:0:0:0:
261,172,418701,1,8,0:0:0:0:
261,172,418792,1,0,0:0:0:0:
261,172,418883,1,8,0:0:0:0:
261,172,418974,1,0,0:0:0:0:
265,179,419065,1,0,0:0:0:0:
265,179,419155,1,0,0:0:0:0:
265,179,419246,1,0,0:0:0:0:
258,171,419337,1,0,0:0:0:0:
261,173,419428,1,8,0:0:0:0:
261,173,419519,1,8,0:0:0:0:
264,174,419610,1,8,0:0:0:0:
264,174,419701,1,0,0:0:0:0:
264,174,419792,1,8,0:0:0:0:
264,174,419883,1,0,0:0:0:0:
264,174,419974,1,8,0:0:0:0:
265,179,420065,1,0,0:0:0:0:
265,179,420155,1,0,0:0:0:0:
265,179,420246,1,0,0:0:0:0:
260,174,420337,1,8,0:0:0:0:
261,173,420428,1,0,0:0:0:0:
261,173,420519,1,8,0:0:0:0:
264,174,420610,1,8,0:0:0:0:
264,174,420701,1,0,0:0:0:0:
264,174,420792,1,8,0:0:0:0:
264,174,420883,1,0,0:0:0:0:
264,174,420974,1,0,0:0:0:0:
260,174,421065,1,8,0:0:0:0:
260,174,421155,1,0,0:0:0:0:
260,174,421246,1,0,0:0:0:0:
260,174,421337,1,0,0:0:0:0:
261,173,421428,1,8,0:0:0:0:
261,173,421519,1,0,0:0:0:0:
264,174,421610,1,8,0:0:0:0:
264,174,421701,1,8,0:0:0:0:
264,174,421792,1,8,0:0:0:0:
264,174,421883,1,8,0:0:0:0:
264,174,421974,1,0,0:0:0:0:
260,174,422065,1,0,0:0:0:0:
260,174,422155,1,8,0:0:0:0:
260,174,422246,1,0,0:0:0:0:
260,174,422337,1,8,0:0:0:0:
261,173,422428,1,8,0:0:0:0:
261,173,422519,1,0,0:0:0:0:
258,174,422610,1,0,0:0:0:0:
258,174,422701,1,8,0:0:0:0:
258,173,422792,1,0,0:0:0:0:
258,173,422883,1,8,0:0:0:0:
258,173,422974,1,8,0:0:0:0:
260,174,423065,1,8,0:0:0:0:
260,174,423155,5,0,0:0:0:0:
260,174,423246,1,8,0:0:0:0:
260,174,423337,1,0,0:0:0:0:
261,173,423428,1,0,0:0:0:0:
261,173,423519,1,0,0:0:0:0:
258,174,423610,1,0,0:0:0:0:
258,174,423701,1,0,0:0:0:0:
258,173,423792,1,8,0:0:0:0:
258,173,423883,1,0,0:0:0:0:
258,173,423974,1,0,0:0:0:0:
260,174,424065,1,0,0:0:0:0:
260,174,424155,1,0,0:0:0:0:
260,174,424246,1,0,0:0:0:0:
256,184,424337,5,8,0:0:0:0:
256,192,424610,5,0,0:0:0:0:
256,192,424746,1,0,0:0:0:0:
256,192,424883,1,8,0:0:0:0:
256,192,425019,1,0,0:0:0:0:
256,192,425155,1,0,0:0:0:0:
256,192,425292,1,0,0:0:0:0:
256,192,425428,1,8,0:0:0:0:
256,192,425701,1,0,0:0:0:0:
256,192,425837,1,8,0:0:0:0:
256,192,425974,1,0,0:0:0:0:
256,192,426110,1,0,0:0:0:0:
256,192,426246,1,8,0:0:0:0:
256,192,426383,1,0,0:0:0:0:
256,192,426519,1,8,0:0:0:0:
256,192,427065,1,8,0:0:0:0:
256,192,427201,1,8,0:0:0:0:
256,192,427337,1,0,0:0:0:0:
256,192,427474,1,0,0:0:0:0:
256,192,427610,1,8,0:0:0:0:
256,192,427701,1,0,0:0:0:0:
265,190,427792,1,0,0:0:0:0:
265,190,427883,1,8,0:0:0:0:
256,192,427974,1,0,0:0:0:0:
256,192,428156,1,12,0:0:0:0:
256,192,428337,1,0,0:0:0:0:
256,192,428565,1,0,0:0:0:0:
256,192,428701,1,4,0:0:0:0:
256,192,429519,1,0,0:0:0:0:
256,192,429792,1,8,0:0:0:0:
256,192,430883,1,0,0:0:0:0:
256,192,431292,1,0,0:0:0:0:
256,192,431701,1,0,0:0:0:0:
256,192,431974,1,8,0:0:0:0:
256,192,433065,1,0,0:0:0:0:
256,192,433883,1,0,0:0:0:0:
256,192,434155,1,8,0:0:0:0:
256,192,435246,1,0,0:0:0:0:
256,192,435655,1,0,0:0:0:0:
256,192,436065,1,0,0:0:0:0:
256,192,436337,1,8,0:0:0:0:
256,192,436610,1,0,0:0:0:0:
256,192,437155,1,0,0:0:0:0:
256,192,437428,1,0,0:0:0:0:
256,192,438246,1,0,0:0:0:0:
256,192,438519,1,8,0:0:0:0:
256,192,439610,1,0,0:0:0:0:
256,192,440019,1,0,0:0:0:0:
256,192,440428,1,0,0:0:0:0:
256,192,440701,1,8,0:0:0:0:
256,192,441792,1,0,0:0:0:0:
256,192,442610,1,0,0:0:0:0:
256,192,442883,1,8,0:0:0:0:
256,192,443974,1,0,0:0:0:0:
256,192,444383,1,0,0:0:0:0:
256,192,444792,1,0,0:0:0:0:
256,192,445065,1,8,0:0:0:0:
256,192,445337,1,0,0:0:0:0:
256,192,445610,1,0,0:0:0:0:
256,192,445883,1,0,0:0:0:0:
256,192,446155,1,4,0:0:0:0:
256,192,446974,1,0,0:0:0:0:
256,192,447246,1,8,0:0:0:0:
256,192,448337,1,0,0:0:0:0:
256,192,449155,1,0,0:0:0:0:
256,192,449428,1,8,0:0:0:0:
256,192,449701,1,0,0:0:0:0:
256,192,450519,1,0,0:0:0:0:
256,192,451337,1,0,0:0:0:0:
256,192,451610,1,8,0:0:0:0:
256,192,452428,1,0,0:0:0:0:
256,192,452701,1,0,0:0:0:0:
256,192,453110,1,0,0:0:0:0:
256,192,453519,1,0,0:0:0:0:
256,192,453792,1,8,0:0:0:0:
256,192,454065,1,0,0:0:0:0:
256,192,454337,1,0,0:0:0:0:
256,192,454474,1,0,0:0:0:0:
256,192,454610,1,0,0:0:0:0:
256,192,454883,1,8,0:0:0:0:
256,192,455701,1,0,0:0:0:0:
256,192,455974,1,8,0:0:0:0:
256,192,457065,1,0,0:0:0:0:
256,192,457965,1,0,0:0:0:0:
256,192,458265,1,8,0:0:0:0:
256,192,463539,5,0,0:0:0:0:
256,192,463607,1,0,0:0:0:0:
256,192,463675,1,8,0:0:0:0:
256,192,463743,1,0,0:0:0:0:
256,192,463811,1,8,0:0:0:0:
256,192,463879,1,8,0:0:0:0:
256,192,463948,1,0,0:0:0:0:
256,192,464016,1,0,0:0:0:0:
256,192,464084,1,8,0:0:0:0:
256,192,464152,1,8,0:0:0:0:
256,192,464220,1,0,0:0:0:0:
256,192,464289,1,0,0:0:0:0:
256,192,464357,1,8,0:0:0:0:
256,192,464425,1,8,0:0:0:0:
256,192,464493,1,0,0:0:0:0:
256,192,464561,1,0,0:0:0:0:
256,192,464629,1,8,0:0:0:0:
256,192,464698,1,8,0:0:0:0:
256,192,464766,1,8,0:0:0:0:
256,192,464834,1,8,0:0:0:0:
256,192,464902,1,0,0:0:0:0:
256,192,464970,1,0,0:0:0:0:
256,192,465039,1,8,0:0:0:0:
256,192,465107,1,0,0:0:0:0:
256,192,465175,1,8,0:0:0:0:
256,192,465243,1,8,0:0:0:0:
256,192,465311,1,0,0:0:0:0:
256,192,465379,1,8,0:0:0:0:
256,192,465448,1,0,0:0:0:0:
256,192,465516,1,0,0:0:0:0:
256,192,465584,1,8,0:0:0:0:
256,192,465652,1,8,0:0:0:0:
256,192,465720,1,8,0:0:0:0:
256,192,465789,1,0,0:0:0:0:
256,192,465857,1,8,0:0:0:0:
256,192,465925,1,8,0:0:0:0:
256,192,465993,1,0,0:0:0:0:
256,192,466061,1,0,0:0:0:0:
256,192,466129,1,0,0:0:0:0:
256,192,466198,1,0,0:0:0:0:
256,192,466266,1,8,0:0:0:0:
256,192,466334,1,0,0:0:0:0:
256,192,466402,1,8,0:0:0:0:
256,192,466470,1,8,0:0:0:0:
256,192,466539,1,0,0:0:0:0:
256,192,466607,1,0,0:0:0:0:
256,192,466675,1,8,0:0:0:0:
256,192,466743,1,0,0:0:0:0:
256,192,466811,1,8,0:0:0:0:
256,192,466879,1,0,0:0:0:0:
256,192,466948,1,0,0:0:0:0:
256,192,467016,1,0,0:0:0:0:
256,192,467084,1,8,0:0:0:0:
256,192,467152,1,8,0:0:0:0:
256,192,467220,1,8,0:0:0:0:
256,192,467289,1,0,0:0:0:0:
256,192,467357,1,8,0:0:0:0:
256,192,467425,1,0,0:0:0:0:
256,192,467493,1,0,0:0:0:0:
256,192,467561,1,0,0:0:0:0:
256,192,467629,1,8,0:0:0:0:
256,192,467698,1,8,0:0:0:0:
256,192,467766,1,8,0:0:0:0:
256,192,467834,1,0,0:0:0:0:
256,192,467902,1,8,0:0:0:0:
256,192,467970,1,8,0:0:0:0:
256,192,468039,1,0,0:0:0:0:
256,192,468107,1,0,0:0:0:0:
256,192,468175,1,8,0:0:0:0:
256,192,468243,1,8,0:0:0:0:
256,192,468311,1,8,0:0:0:0:
256,192,468379,1,8,0:0:0:0:
256,192,468448,1,0,0:0:0:0:
256,192,468516,1,0,0:0:0:0:
256,192,468584,1,8,0:0:0:0:
256,192,468652,1,8,0:0:0:0:
256,192,468720,1,8,0:0:0:0:
256,192,468789,1,8,0:0:0:0:
256,192,468857,1,0,0:0:0:0:
256,192,468925,1,0,0:0:0:0:
256,192,468993,1,8,0:0:0:0:
256,192,469061,1,0,0:0:0:0:
256,192,469129,1,8,0:0:0:0:
256,192,469198,1,8,0:0:0:0:
256,192,469266,1,0,0:0:0:0:
256,192,469334,1,0,0:0:0:0:
256,192,469402,1,8,0:0:0:0:
256,192,469470,1,0,0:0:0:0:
256,192,469539,1,8,0:0:0:0:
256,192,469607,1,8,0:0:0:0:
256,192,469675,1,0,0:0:0:0:
256,192,469743,1,0,0:0:0:0:
256,192,469811,1,8,0:0:0:0:
256,192,469879,1,0,0:0:0:0:
256,192,469948,1,0,0:0:0:0:
256,192,470016,1,0,0:0:0:0:
256,192,470084,1,8,0:0:0:0:
256,192,470152,1,8,0:0:0:0:
256,192,470220,1,8,0:0:0:0:
256,192,470289,1,0,0:0:0:0:
256,192,470357,1,8,0:0:0:0:
256,192,470425,1,0,0:0:0:0:
256,192,470493,1,0,0:0:0:0:
256,192,470561,1,0,0:0:0:0:
256,192,470629,1,8,0:0:0:0:
256,192,470698,1,8,0:0:0:0:
256,192,470766,1,0,0:0:0:0:
256,192,470834,1,0,0:0:0:0:
256,192,470902,1,8,0:0:0:0:
256,192,470970,1,8,0:0:0:0:
256,192,471039,1,0,0:0:0:0:
256,192,471107,1,0,0:0:0:0:
256,192,471175,1,8,0:0:0:0:
256,192,471243,1,0,0:0:0:0:
256,192,471311,1,8,0:0:0:0:
256,192,471379,1,8,0:0:0:0:
256,192,471448,1,0,0:0:0:0:
256,192,471516,1,0,0:0:0:0:
256,192,471584,1,8,0:0:0:0:
256,192,471652,1,0,0:0:0:0:
256,192,471720,1,8,0:0:0:0:
256,192,471789,1,8,0:0:0:0:
256,192,471857,1,0,0:0:0:0:
256,192,471925,1,0,0:0:0:0:
256,192,471993,1,8,0:0:0:0:
256,192,472061,1,0,0:0:0:0:
256,192,472129,1,0,0:0:0:0:
256,192,472198,1,0,0:0:0:0:
256,192,472266,1,8,0:0:0:0:
256,192,472334,1,8,0:0:0:0:
256,192,472402,1,8,0:0:0:0:
256,192,472470,1,0,0:0:0:0:
256,192,472539,1,8,0:0:0:0:
256,192,472607,1,0,0:0:0:0:
256,192,472675,1,0,0:0:0:0:
256,192,472743,1,0,0:0:0:0:
256,192,472811,1,8,0:0:0:0:
256,192,472879,1,8,0:0:0:0:
256,192,472948,1,0,0:0:0:0:
256,192,473016,1,0,0:0:0:0:
256,192,473084,1,8,0:0:0:0:
256,192,473152,1,0,0:0:0:0:
256,192,473220,1,0,0:0:0:0:
256,192,473289,1,0,0:0:0:0:
256,192,473357,1,8,0:0:0:0:
256,192,473425,1,8,0:0:0:0:
256,192,473493,1,8,0:0:0:0:
256,192,473561,1,0,0:0:0:0:
256,192,473629,1,8,0:0:0:0:
256,192,473698,1,8,0:0:0:0:
256,192,473766,1,0,0:0:0:0:
256,192,473834,1,0,0:0:0:0:
256,192,473902,1,8,0:0:0:0:
256,192,473970,1,0,0:0:0:0:
256,192,474039,1,8,0:0:0:0:
256,192,474107,1,8,0:0:0:0:
256,192,474175,1,0,0:0:0:0:
256,192,474243,1,8,0:0:0:0:
256,192,474311,1,0,0:0:0:0:
256,192,474379,1,0,0:0:0:0:
256,192,474448,1,8,0:0:0:0:
256,192,474516,1,8,0:0:0:0:
256,192,474584,1,0,0:0:0:0:
256,192,474652,1,0,0:0:0:0:
256,192,474720,1,8,0:0:0:0:
256,192,474789,1,0,0:0:0:0:
256,192,474857,1,0,0:0:0:0:
256,192,474925,1,0,0:0:0:0:
256,192,474993,1,8,0:0:0:0:
256,192,475061,1,0,0:0:0:0:
256,192,475129,1,0,0:0:0:0:
256,192,475198,1,0,0:0:0:0:
256,192,475266,1,8,0:0:0:0:
256,192,475334,1,0,0:0:0:0:
256,192,475402,1,0,0:0:0:0:
256,192,475470,1,0,0:0:0:0:
256,192,475539,1,8,0:0:0:0:
256,192,475607,1,8,0:0:0:0:
256,192,475675,1,8,0:0:0:0:
256,192,475743,1,0,0:0:0:0:
256,192,475811,1,8,0:0:0:0:
256,192,475879,1,0,0:0:0:0:
256,192,475948,1,0,0:0:0:0:
256,192,476016,1,0,0:0:0:0:
256,192,476084,1,8,0:0:0:0:
256,192,476152,1,8,0:0:0:0:
256,192,476220,1,8,0:0:0:0:
256,192,476289,1,0,0:0:0:0:
256,192,476357,1,8,0:0:0:0:
256,192,476425,1,8,0:0:0:0:
256,192,476493,1,0,0:0:0:0:
256,192,476561,1,0,0:0:0:0:
256,192,476629,1,8,0:0:0:0:
256,192,477448,1,0,0:0:0:0:
256,192,477720,1,4,0:0:0:0:
256,192,478539,1,0,0:0:0:0:
256,192,478607,1,0,0:0:0:0:
256,192,478675,1,0,0:0:0:0:
256,192,478743,1,0,0:0:0:0:
256,192,478811,1,8,0:0:0:0:
256,192,478948,1,8,0:0:0:0:
256,192,479016,1,8,0:0:0:0:
256,192,479084,1,0,0:0:0:0:
256,192,479220,1,0,0:0:0:0:
256,192,479357,1,0,0:0:0:0:
256,192,479425,1,8,0:0:0:0:
256,192,479493,1,0,0:0:0:0:
256,192,479561,1,0,0:0:0:0:
256,192,479629,1,8,0:0:0:0:
256,192,479766,1,8,0:0:0:0:
256,192,479834,1,0,0:0:0:0:
256,192,479902,1,8,0:0:0:0:
256,192,479970,1,8,0:0:0:0:
256,192,480039,1,8,0:0:0:0:
256,192,480107,1,0,0:0:0:0:
256,192,480175,1,8,0:0:0:0:
256,192,480243,1,8,0:0:0:0:
256,192,480311,1,0,0:0:0:0:
256,192,480379,1,0,0:0:0:0:
256,192,480448,1,8,0:0:0:0:
256,192,480516,1,8,0:0:0:0:
256,192,480584,1,0,0:0:0:0:
256,192,480652,1,0,0:0:0:0:
256,192,480720,1,8,0:0:0:0:
256,192,480789,1,0,0:0:0:0:
256,192,480857,1,8,0:0:0:0:
256,192,480993,1,8,0:0:0:0:
256,192,481061,1,8,0:0:0:0:
256,192,481129,1,0,0:0:0:0:
256,192,481197,1,0,0:0:0:0:
256,192,481265,1,8,0:0:0:0:
256,192,481333,1,0,0:0:0:0:
256,192,481402,1,8,0:0:0:0:
256,192,481470,1,8,0:0:0:0:
256,192,481538,1,0,0:0:0:0:
256,192,481606,1,0,0:0:0:0:
256,192,481674,1,8,0:0:0:0:
256,192,481743,1,8,0:0:0:0:
256,192,481811,1,0,0:0:0:0:
256,192,481879,1,0,0:0:0:0:
256,192,481947,1,8,0:0:0:0:
256,192,482015,1,0,0:0:0:0:
256,192,482083,1,8,0:0:0:0:
256,192,482152,1,8,0:0:0:0:
256,192,482220,1,0,0:0:0:0:
256,192,482288,1,0,0:0:0:0:
256,192,482356,1,8,0:0:0:0:
256,192,482424,1,8,0:0:0:0:
256,192,482493,1,0,0:0:0:0:
256,192,482561,1,0,0:0:0:0:
256,192,482629,1,8,0:0:0:0:
256,192,482697,1,8,0:0:0:0:
256,192,482765,1,8,0:0:0:0:
256,192,482833,1,0,0:0:0:0:
256,192,482902,1,8,0:0:0:0:
256,192,482970,1,8,0:0:0:0:
256,192,483038,1,0,0:0:0:0:
256,192,483106,1,0,0:0:0:0:
256,192,483174,1,8,0:0:0:0:
256,192,483311,1,0,0:0:0:0:
256,192,483379,1,0,0:0:0:0:
256,192,483448,1,0,0:0:0:0:
256,192,483584,1,0,0:0:0:0:
256,192,483720,1,8,0:0:0:0:
256,192,483789,1,8,0:0:0:0:
256,192,483857,1,0,0:0:0:0:
256,192,483993,1,0,0:0:0:0:
256,192,484129,1,0,0:0:0:0:
256,192,484266,1,8,0:0:0:0:
256,192,484334,1,0,0:0:0:0:
256,192,484402,1,8,0:0:0:0:
256,192,484470,1,8,0:0:0:0:
256,192,484539,1,0,0:0:0:0:
256,192,484607,1,8,0:0:0:0:
256,192,484675,1,0,0:0:0:0:
256,192,484743,1,0,0:0:0:0:
256,192,484811,1,8,0:0:0:0:
256,192,484879,1,0,0:0:0:0:
256,192,484948,1,8,0:0:0:0:
256,192,485016,1,8,0:0:0:0:
256,192,485084,1,0,0:0:0:0:
256,192,485152,1,0,0:0:0:0:
256,192,485220,1,8,0:0:0:0:
256,192,485357,1,4,0:0:0:0:
