osu file format v14

[General]
AudioFilename: audio.mp3
AudioLeadIn: 0
PreviewTime: 292453
Countdown: 0
SampleSet: Normal
StackLeniency: 0.3
Mode: 0
LetterboxInBreaks: 0
WidescreenStoryboard: 0

[Editor]
Bookmarks: 9908,27362,36090,37181,40453,46999,53544,57635,84090,92817,110271,127726,136181,164817,183362,183908,189908,208453,226999,244453,250181,250999,253181,259726,261908,266271,292453,301181,309908,312635,313181,313726,343726,352453,369908,388453,424453,432090,445726,458408,463726,472453,494271
DistanceSpacing: 0.5
BeatDivisor: 4
GridSize: 4
TimelineZoom: 2.1

[Metadata]
Title:Yomi Yori Kikoyu, Koukoku no Tou to Honoo no Shoujo
TitleUnicode:黄泉より聴こゆ、皇国の燈と焔の少女。
Artist:Imperial Circus Dead Decadence
ArtistUnicode:Imperial Circus Dead Decadence
Creator:CeleriLord
Version:Eternal Sin
Source:
Tags:Symphonic Black Metal nanomortis Rib:y KIMI Uta 謳 Scream Celeri Marathon
BeatmapID:983275
BeatmapSetID:458964

[Difficulty]
HPDrainRate:5
CircleSize:4.4
OverallDifficulty:8.9
ApproachRate:9.3
SliderMultiplier:1.5
SliderTickRate:1

[Events]
//Background and Video events
0,0,"nanomortis ICDD Itami bg Resize.jpg",0,0
//Break Periods
2,18835,22445
2,190108,207899
2,238108,243899
2,264290,265717
2,370108,382172
2,432290,445172
//Storyboard Layer 0 (Background)
//Storyboard Layer 1 (Fail)
//Storyboard Layer 2 (Pass)
//Storyboard Layer 3 (Foreground)
//Storyboard Sound Samples

[TimingPoints]
1181,272.727272727273,4,1,0,60,1,0
12090,-66.6666666666667,4,1,0,60,0,0
15090,-100,4,1,0,60,0,0
15362,-66.6666666666667,4,1,0,60,0,0
22999,-83.3333333333333,4,1,0,60,0,0
25181,-66.6666666666667,4,1,0,60,0,0
37181,-100,4,1,0,60,0,0
40453,-66.6666666666667,4,1,0,60,0,0
48090,-133.333333333333,4,1,0,60,0,0
52794,-66.6666666666667,4,1,0,60,0,0
57635,-66.6666666666667,4,1,0,60,0,1
75362,-80,4,1,0,60,0,0
84090,-66.6666666666667,4,1,0,60,0,0
96226,-80,4,1,0,60,0,0
96635,-66.6666666666667,4,1,0,60,0,0
107271,-133.333333333333,4,1,0,60,0,0
112453,-66.6666666666667,4,1,0,60,0,0
113271,-100,4,1,0,60,0,0
127726,-80,4,1,0,60,0,1
162635,-100,4,1,0,60,0,0
164817,-100,4,1,0,60,0,0
173544,-100,4,1,0,60,0,0
183362,-100,4,1,0,60,0,0
187726,545.454545454546,4,2,0,100,1,0
208453,-50,4,2,0,100,0,0
226998,272.727272727273,4,2,0,100,1,0
226998,-100,4,2,0,100,0,0
274726,-50,4,1,0,60,0,0
274999,-80,4,1,0,60,0,0
292453,-100,4,1,0,60,0,0
308271,-133.333333333333,4,1,0,60,0,0
309908,-100,4,1,0,60,0,1
312090,-80,4,1,0,60,0,1
334999,-80,4,1,0,60,0,0
339362,-133.333333333333,4,1,0,60,0,0
343726,-71.4285714285714,4,1,0,60,0,0
352453,-76.9230769230769,4,1,0,60,0,0
369908,-133.333333333333,4,1,0,60,0,0
382726,-133.333333333333,4,1,0,60,0,0
388453,-66.6666666666667,4,1,0,60,0,0
389544,-83.3333333333333,4,1,0,60,0,0
424453,-200,4,1,0,60,0,0
428816,545.454545454546,4,2,0,100,1,0
447362,-66.6666666666667,4,1,0,60,0,0
448726,-100,4,1,0,60,0,0
463726,272.727272727273,4,2,0,100,1,0
463726,-80,4,1,0,60,0,0
472453,-200,4,1,0,60,0,0
476271,-66.6666666666667,4,1,0,60,0,0

[Colours]
Combo1 : 192,192,192
Combo2 : 15,12,52
Combo3 : 128,128,128
Combo4 : 255,0,0

[HitObjects]
271,279,1181,6,0,B|403:315|487:143|331:51|243:135|243:135|239:191|199:215|199:215|167:151|91:167,1,600
111,165,2817,1,0,0:0:0:0:
112,172,3362,2,0,B|136:240|184:232|264:224|248:152|232:120|232:120|256:84|340:80|372:119|372:119|296:168,1,450
352,216,4453,6,0,B|292:192|272:144|272:144|295:112,1,150
388,112,4999,2,0,B|464:128|473:190|473:190|444:220,1,150
180,124,5544,6,0,B|294:108|340:161|340:161|289:210|389:288|389:288|289:287|286:357,1,450
408,256,6635,2,0,B|456:192|436:76|436:76|384:124|308:84,1,300
176,80,7726,6,0,B|132:88|132:88|96:128,1,75
84,212,7999,2,0,B|136:232|152:276|152:276|192:232,1,150
248,140,8408,1,0,0:0:0:0:
400,168,8544,2,0,B|416:220|396:256|396:256|324:224,1,150
328,228,8885,1,0,0:0:0:0:
312,220,8953,1,0,0:0:0:0:
256,144,9090,5,0,0:0:0:0:
212,224,9226,1,0,0:0:0:0:
216,240,9294,1,0,0:0:0:0:
220,252,9362,1,0,0:0:0:0:
124,296,9499,1,0,0:0:0:0:
196,316,9635,1,0,0:0:0:0:
212,320,9703,1,0,0:0:0:0:
228,324,9771,1,0,0:0:0:0:
340,280,9908,1,0,0:0:0:0:
256,246,10181,2,0,L|229:273,3,37.5
312,140,10453,2,0,L|289:102,3,37.5
364,248,10726,2,0,L|349:297,3,37.5
420,136,10999,2,0,L|413:92,3,37.5
480,248,11271,2,0,P|480:272|476:288,3,37.5
468,308,11544,5,0,0:0:0:0:
456,328,11612,1,0,0:0:0:0:
440,344,11681,1,0,0:0:0:0:
420,352,11749,1,0,0:0:0:0:
396,352,11817,1,0,0:0:0:0:
376,348,11885,1,0,0:0:0:0:
356,336,11953,1,0,0:0:0:0:
340,320,12021,1,0,0:0:0:0:
328,288,12090,2,0,B|300:236|300:236|252:220|220:256,1,112.500004291535
328,172,12362,1,0,0:0:0:0:
284,60,12499,1,0,0:0:0:0:
408,144,12635,2,0,B|436:168|424:208|424:208|468:241|431:291|431:291|364:272|356:228,1,225.000008583069
276,104,13044,1,0,0:0:0:0:
264,136,13112,1,0,0:0:0:0:
256,164,13181,5,0,0:0:0:0:
148,100,13317,1,0,0:0:0:0:
100,224,13453,2,0,B|152:248|152:248|220:244,1,112.500004291535
372,180,13726,2,0,B|352:232|352:232|300:272,1,112.500004291535
268,128,13999,1,0,0:0:0:0:
208,304,14135,1,0,0:0:0:0:
160,104,14271,1,0,0:0:0:0:
128,240,14408,2,0,P|84:216|72:128,1,112.500004291535
160,104,14681,1,0,0:0:0:0:
164,132,14749,1,0,0:0:0:0:
168,160,14817,1,0,0:0:0:0:
324,100,14953,1,0,0:0:0:0:
112,176,15090,2,0,B|168:160|168:160|240:232,1,150
344,168,15635,5,0,0:0:0:0:
280,348,15908,1,0,0:0:0:0:
176,160,16181,1,0,0:0:0:0:
96,320,16453,5,4,0:0:0:0:
344,40,16862,1,4,0:0:0:0:
304,336,17271,1,4,0:0:0:0:
128,216,17544,5,0,0:0:0:0:
108,196,17612,1,0,0:0:0:0:
104,172,17681,1,0,0:0:0:0:
116,148,17749,1,0,0:0:0:0:
136,128,17817,1,0,0:0:0:0:
160,116,17885,5,0,0:0:0:0:
176,140,17953,1,0,0:0:0:0:
192,164,18021,5,0,0:0:0:0:
220,152,18090,1,0,0:0:0:0:
248,144,18158,5,0,0:0:0:0:
256,172,18226,1,0,0:0:0:0:
264,200,18294,5,0,0:0:0:0:
288,188,18362,1,0,0:0:0:0:
312,176,18431,1,0,0:0:0:0:
340,172,18499,1,0,0:0:0:0:
368,180,18567,1,0,0:0:0:0:
392,196,18635,1,0,0:0:0:0:
264,304,22999,6,0,B|388:248|388:248|316:148|224:152|224:152|232:228|152:336|64:256|64:256,1,539.999983520508
276,228,24090,1,0,0:0:0:0:
276,228,24635,2,0,B|324:196|312:140|312:140|268:112|212:136,1,179.999994506836
88,144,25181,5,0,0:0:0:0:
376,204,25590,1,0,0:0:0:0:
100,340,25999,1,0,0:0:0:0:
108,136,26271,1,0,0:0:0:0:
124,144,26340,1,0,0:0:0:0:
140,152,26408,1,0,0:0:0:0:
156,160,26476,1,0,0:0:0:0:
172,168,26544,1,0,0:0:0:0:
184,180,26612,1,0,0:0:0:0:
192,196,26681,1,0,0:0:0:0:
196,212,26749,1,0,0:0:0:0:
196,228,26817,1,0,0:0:0:0:
204,244,26885,1,0,0:0:0:0:
216,260,26953,1,0,0:0:0:0:
232,268,27021,1,0,0:0:0:0:
260,276,27090,5,0,0:0:0:0:
296,260,27158,1,0,0:0:0:0:
316,220,27226,1,0,0:0:0:0:
300,172,27294,1,0,0:0:0:0:
256,140,27362,1,0,0:0:0:0:
192,220,27499,1,0,0:0:0:0:
148,116,27635,1,0,0:0:0:0:
224,36,27771,1,0,0:0:0:0:
336,48,27908,1,0,0:0:0:0:
376,152,28044,1,0,0:0:0:0:
268,124,28181,1,0,0:0:0:0:
160,92,28317,1,0,0:0:0:0:
256,148,28453,1,0,0:0:0:0:
144,128,28590,5,0,0:0:0:0:
244,184,28726,1,0,0:0:0:0:
132,168,28862,1,0,0:0:0:0:
180,268,28999,1,0,0:0:0:0:
292,288,29135,1,0,0:0:0:0:
400,312,29271,1,0,0:0:0:0:
292,288,29408,5,0,0:0:0:0:
260,180,29544,1,0,0:0:0:0:
184,96,29681,1,0,0:0:0:0:
140,200,29817,1,0,0:0:0:0:
216,284,29953,1,0,0:0:0:0:
328,260,30090,1,0,0:0:0:0:
360,152,30226,1,0,0:0:0:0:
444,76,30362,1,0,0:0:0:0:
432,188,30499,1,0,0:0:0:0:
364,276,30635,5,0,0:0:0:0:
276,232,30771,1,0,0:0:0:0:
260,256,30840,1,0,0:0:0:0:
236,268,30908,1,0,0:0:0:0:
220,164,31044,1,0,0:0:0:0:
236,48,31181,6,0,B|268:40|284:72|284:72|344:32|384:64|384:64|392:96|340:108,1,225.000008583069
192,152,31590,1,0,0:0:0:0:
240,328,31726,1,0,0:0:0:0:
296,192,31862,2,0,P|364:220|420:224,1,112.500004291535
200,56,32135,1,0,0:0:0:0:
216,84,32203,1,0,0:0:0:0:
240,108,32271,2,0,P|296:144|368:152,1,112.500004291535
356,72,32544,2,0,B|396:28|396:28|456:36|480:100|480:100|400:156,1,225.000008583069
224,248,32953,1,0,0:0:0:0:
352,248,33090,1,0,0:0:0:0:
288,128,33226,6,0,B|298:81|257:59|257:59|243:101,1,112.500004291535
192,244,33499,1,0,0:0:0:0:
164,120,33635,1,0,0:0:0:0:
160,140,33703,1,0,0:0:0:0:
168,152,33771,1,0,0:0:0:0:
232,312,33908,2,0,B|316:324|316:324|292:276,1,112.500004291535
444,272,34181,2,0,B|360:260|360:260|372:284,1,112.500004291535
456,176,34453,1,0,0:0:0:0:
320,104,34590,1,0,0:0:0:0:
260,248,34726,6,0,P|184:184|160:44,1,225.000008583069
260,56,35135,1,0,0:0:0:0:
268,84,35203,1,0,0:0:0:0:
276,112,35271,1,0,0:0:0:0:
284,140,35340,1,0,0:0:0:0:
292,168,35408,1,0,0:0:0:0:
408,188,35544,2,0,P|368:216|280:240,1,112.500004291535
136,252,35817,2,0,B|192:292|192:292|248:296,1,112.500004291535
400,324,36090,5,0,0:0:0:0:
380,288,36158,1,0,0:0:0:0:
372,260,36226,1,0,0:0:0:0:
376,232,36294,1,0,0:0:0:0:
384,204,36362,1,0,0:0:0:0:
400,180,36431,1,0,0:0:0:0:
420,160,36499,1,0,0:0:0:0:
432,136,36567,1,0,0:0:0:0:
428,108,36635,1,0,0:0:0:0:
408,88,36703,1,0,0:0:0:0:
380,84,36771,1,0,0:0:0:0:
356,96,36840,1,0,0:0:0:0:
344,120,36908,1,0,0:0:0:0:
332,148,36976,1,0,0:0:0:0:
320,172,37044,1,0,0:0:0:0:
308,196,37112,1,0,0:0:0:0:
296,220,37181,6,0,L|296:280,7,37.5
292,280,37726,1,0,0:0:0:0:
256,312,37794,1,0,0:0:0:0:
220,324,37862,1,0,0:0:0:0:
184,324,37931,1,0,0:0:0:0:
148,316,37999,1,0,0:0:0:0:
120,292,38067,1,0,0:0:0:0:
104,256,38135,1,0,0:0:0:0:
100,220,38203,1,0,0:0:0:0:
116,184,38271,6,0,B|152:192,7,37.5
188,200,38817,1,0,0:0:0:0:
216,200,38885,1,0,0:0:0:0:
244,192,38953,1,0,0:0:0:0:
272,176,39021,1,0,0:0:0:0:
292,152,39090,1,0,0:0:0:0:
304,124,39158,1,0,0:0:0:0:
308,96,39226,1,0,0:0:0:0:
304,68,39294,1,0,0:0:0:0:
292,40,39362,6,0,P|272:20|240:20,7,37.5
220,16,39908,1,0,0:0:0:0:
176,24,39976,1,0,0:0:0:0:
144,56,40044,1,0,0:0:0:0:
148,100,40112,1,0,0:0:0:0:
176,136,40181,1,0,0:0:0:0:
208,168,40249,1,0,0:0:0:0:
224,212,40317,1,0,0:0:0:0:
212,256,40385,1,0,0:0:0:0:
180,288,40453,1,0,0:0:0:0:
180,288,40999,5,0,0:0:0:0:
180,288,41544,5,0,0:0:0:0:
180,288,42090,5,0,0:0:0:0:
260,272,42635,5,0,0:0:0:0:
244,256,42703,1,0,0:0:0:0:
228,240,42771,1,0,0:0:0:0:
148,296,42908,1,0,0:0:0:0:
140,144,43044,1,0,0:0:0:0:
120,156,43113,1,0,0:0:0:0:
100,168,43181,1,0,0:0:0:0:
224,312,43317,1,0,0:0:0:0:
240,292,43385,1,0,0:0:0:0:
256,272,43453,1,0,0:0:0:0:
272,256,43521,1,0,0:0:0:0:
288,240,43590,5,0,0:0:0:0:
444,168,43726,2,0,B|432:80|432:80|336:20,1,168.750006437302
344,32,43999,2,0,B|264:44|264:44|284:104|224:160,1,168.750006437302
248,152,44271,2,0,B|168:192|168:192|72:176,1,168.750006437302
80,176,44544,2,0,B|86:105|86:105|90:80|36:32|36:32|0:144,1,225.000008583069
16,91,45908,5,0,0:0:0:0:
356,256,46453,2,0,B|312:196|236:204|236:204|248:300|248:300|140:284|120:192|180:128,1,450.000017166138
188,112,47067,5,0,0:0:0:0:
224,88,47135,1,0,0:0:0:0:
268,76,47203,1,0,0:0:0:0:
312,88,47271,1,0,0:0:0:0:
344,120,47339,1,0,0:0:0:0:
352,164,47407,1,0,0:0:0:0:
380,128,47476,1,0,0:0:0:0:
424,116,47544,1,0,0:0:0:0:
464,136,47612,1,0,0:0:0:0:
480,180,47680,1,0,0:0:0:0:
472,224,47748,1,0,0:0:0:0:
444,260,47816,1,0,0:0:0:0:
400,276,47885,1,0,0:0:0:0:
356,276,47953,1,0,0:0:0:0:
316,256,48021,1,0,0:0:0:0:
288,224,48090,1,0,0:0:0:0:
292,184,48158,5,0,0:0:0:0:
312,152,48226,1,0,0:0:0:0:
336,124,48294,1,0,0:0:0:0:
360,92,48362,1,0,0:0:0:0:
324,108,48431,1,0,0:0:0:0:
288,124,48499,1,0,0:0:0:0:
256,144,48567,1,0,0:0:0:0:
220,164,48635,1,0,0:0:0:0:
184,176,48703,1,0,0:0:0:0:
148,164,48771,1,0,0:0:0:0:
120,132,48840,1,0,0:0:0:0:
124,92,48908,1,0,0:0:0:0:
152,68,48976,1,0,0:0:0:0:
192,64,49044,1,0,0:0:0:0:
220,88,49112,1,0,0:0:0:0:
224,132,49181,1,0,0:0:0:0:
256,192,49249,12,0,51226,0:0:0:0:
312,212,51362,5,0,0:0:0:0:
300,232,51431,1,0,0:0:0:0:
284,248,51499,1,0,0:0:0:0:
264,260,51567,1,0,0:0:0:0:
244,264,51635,1,0,0:0:0:0:
220,264,51703,1,0,0:0:0:0:
200,256,51771,1,0,0:0:0:0:
180,244,51840,1,0,0:0:0:0:
168,228,51908,1,0,0:0:0:0:
168,252,51976,1,0,0:0:0:0:
160,272,52044,1,0,0:0:0:0:
148,292,52112,1,0,0:0:0:0:
132,304,52181,1,0,0:0:0:0:
112,312,52249,1,0,0:0:0:0:
132,316,52317,1,0,0:0:0:0:
152,324,52385,1,0,0:0:0:0:
172,336,52453,1,0,0:0:0:0:
192,348,52521,1,0,0:0:0:0:
216,352,52590,1,0,0:0:0:0:
240,352,52658,1,0,0:0:0:0:
260,344,52726,1,0,0:0:0:0:
272,332,52794,1,0,0:0:0:0:
280,316,52862,6,0,B|304:288|304:288|328:308|328:308|352:264|352:264|384:312|384:312|416:232|508:216,1,337.500012874604
505,216,53544,1,0,0:0:0:0:
372,64,55453,5,0,0:0:0:0:
188,292,55726,1,0,0:0:0:0:
356,188,56817,1,0,0:0:0:0:
358,176,56885,1,0,0:0:0:0:
355,163,56953,1,0,0:0:0:0:
351,151,57021,1,0,0:0:0:0:
345,141,57090,1,0,0:0:0:0:
335,132,57158,1,0,0:0:0:0:
325,131,57226,1,0,0:0:0:0:
312,133,57294,1,0,0:0:0:0:
288,144,57362,5,0,0:0:0:0:
272,160,57431,1,0,0:0:0:0:
264,192,57499,1,0,0:0:0:0:
280,236,57567,1,0,0:0:0:0:
304,272,57635,6,0,B|336:316|288:360|288:360|256:308|192:281,1,225.000008583069
44,168,58044,1,0,0:0:0:0:
304,72,58181,1,0,0:0:0:0:
148,200,58317,2,0,B|232:192|232:192|260:164,1,112.500004291535
84,128,58590,1,0,0:0:0:0:
332,312,58726,1,0,0:0:0:0:
76,256,58862,1,0,0:0:0:0:
268,72,58999,2,0,B|336:112|336:112|340:152,1,112.500004291535
148,252,59271,2,0,B|220:296|220:296|244:284,1,112.500004291535
420,200,59544,5,0,0:0:0:0:
288,192,59681,1,0,0:0:0:0:
420,160,59817,1,0,0:0:0:0:
288,152,59953,1,0,0:0:0:0:
420,116,60090,1,0,0:0:0:0:
288,112,60226,1,0,0:0:0:0:
152,132,60362,2,0,B|80:168|80:168|48:212|44:284,1,168.750006437302
52,284,60635,2,0,B|124:300|124:300|176:256|184:212|184:212,1,168.750006437302
184,188,60908,6,0,B|180:96|220:44|220:44|120:92,1,225.000008583069
360,96,61317,1,0,0:0:0:0:
244,236,61453,2,0,B|270:212|270:212|258:136,1,112.500004291535
168,104,61726,2,0,B|180:180|180:180|140:216,1,112.500004291535
40,128,61999,1,0,0:0:0:0:
208,272,62135,1,0,0:0:0:0:
432,208,62271,1,0,0:0:0:0:
436,196,62339,1,0,0:0:0:0:
432,184,62408,1,0,0:0:0:0:
300,80,62544,2,0,P|249:52|192:52,1,112.500004291535
44,132,62817,1,0,0:0:0:0:
72,280,62953,2,0,P|110:319|165:330,1,112.500004291535
368,224,63226,5,0,0:0:0:0:
156,88,63362,2,0,B|116:172|116:172|168:176,1,112.500004291535
328,188,63635,2,0,B|368:272|368:272|316:276,1,112.500004291535
96,324,63908,1,0,0:0:0:0:
400,192,64044,1,0,0:0:0:0:
96,144,64181,2,0,B|160:112|256:112|256:112|228:140|220:204,1,225.000008583069
112,272,64590,1,0,0:0:0:0:
172,40,64726,1,0,0:0:0:0:
392,120,64862,1,0,0:0:0:0:
236,156,64999,2,0,P|140:200|112:228,1,112.500004291535
40,320,65271,1,0,0:0:0:0:
104,136,65408,2,0,B|136:80|136:80|192:76,1,112.500004291535
352,88,65681,5,0,0:0:0:0:
266,128,65817,1,0,0:0:0:0:
415,157,65953,1,0,0:0:0:0:
207,182,66090,1,0,0:0:0:0:
450,229,66226,1,0,0:0:0:0:
143,238,66362,1,0,0:0:0:0:
484,305,66499,1,0,0:0:0:0:
88,296,66635,1,0,0:0:0:0:
256,320,66771,6,0,P|320:308|364:272,1,112.500004291535
280,232,67044,2,0,P|325:200|381:192,1,112.500004291535
357,280,67317,2,0,P|421:268|465:232,1,112.500004291535
464,56,67590,1,0,0:0:0:0:
292,84,67726,1,0,0:0:0:0:
380,244,67862,1,0,0:0:0:0:
208,272,67999,1,0,0:0:0:0:
260,76,68135,6,0,B|348:80|348:80|324:112,1,112.500004291535
304,148,68340,1,0,0:0:0:0:
268,188,68408,2,0,B|252:212|252:212|352:216,1,112.500004291535
460,224,68681,1,0,0:0:0:0:
420,332,68817,2,0,L|276:328,1,112.500004291535
144,256,69090,2,0,B|228:260|228:260|200:224,1,112.500004291535
96,80,69362,1,0,0:0:0:0:
312,80,69499,1,0,0:0:0:0:
132,184,69635,2,0,B|64:232|64:232|60:276,1,112.500004291535
252,312,69908,6,0,B|300:264|384:308|384:308|500:284|420:220|420:220|348:244|276:192,1,393.750015020371
280,196,70453,1,0,0:0:0:0:
252,168,70521,2,0,B|208:136|212:84|212:84|276:56|328:128|328:128|352:72|352:72|417:80|440:116,1,393.750015020371
460,296,71135,1,0,0:0:0:0:
220,296,71271,2,0,B|134:284|134:284|144:248,1,112.500004291535
336,176,71544,2,0,B|250:164|250:164|260:128,1,112.500004291535
416,52,71817,2,0,B|330:36|330:36|296:52,1,112.500004291535
16,160,72090,1,0,0:0:0:0:
160,336,72226,2,0,P|211:356|265:342,1,112.500004291535
444,240,72499,1,0,0:0:0:0:
264,144,72635,1,0,0:0:0:0:
272,340,72771,1,0,0:0:0:0:
388,152,72908,1,0,0:0:0:0:
388,344,73044,1,0,0:0:0:0:
220,260,73181,2,0,B|156:269|92:237|92:237|156:165|144:109,1,225.000008583069
144,152,73590,5,0,0:0:0:0:
352,104,73726,2,0,B|428:72|428:72|438:43,1,112.500004291535
352,312,73999,2,0,B|275:343|275:343|221:317,1,112.500004291535
48,216,74271,5,0,0:0:0:0:
504,44,74681,1,0,0:0:0:0:
188,124,75090,1,0,0:0:0:0:
248,224,75362,5,0,0:0:0:0:
264,208,75431,1,0,0:0:0:0:
284,196,75499,1,0,0:0:0:0:
304,196,75567,1,0,0:0:0:0:
312,208,75635,1,0,0:0:0:0:
308,220,75703,1,0,0:0:0:0:
296,220,75771,1,0,0:0:0:0:
284,212,75840,1,0,0:0:0:0:
280,200,75908,1,0,0:0:0:0:
268,184,75976,1,0,0:0:0:0:
248,176,76044,1,0,0:0:0:0:
224,172,76112,1,0,0:0:0:0:
200,172,76181,2,0,B|136:176|112:220|76:216|76:216|40:216|32:184,1,187.5
32,188,76590,5,0,0:0:0:0:
80,60,76726,2,0,P|172:60|260:100,1,187.5
388,256,77135,1,0,0:0:0:0:
384,108,77271,1,0,0:0:0:0:
264,196,77408,2,0,P|256:256|300:288,1,93.75
275,278,77681,1,0,0:0:0:0:
432,280,77817,1,0,0:0:0:0:
444,272,77885,1,0,0:0:0:0:
448,260,77953,1,0,0:0:0:0:
444,80,78090,6,0,B|383:32|330:81|330:81|328:118|308:142,1,187.5
260,248,78499,1,0,0:0:0:0:
248,260,78567,1,0,0:0:0:0:
240,268,78635,1,0,0:0:0:0:
104,228,78771,1,0,0:0:0:0:
196,96,78908,2,0,B|160:62|98:100|98:100|41:71|52:4,2,187.5
196,96,79590,5,0,0:0:0:0:
192,176,79726,1,0,0:0:0:0:
204,172,79794,1,0,0:0:0:0:
216,172,79862,1,0,0:0:0:0:
228,176,79931,1,0,0:0:0:0:
240,184,79999,1,0,0:0:0:0:
244,196,80067,1,0,0:0:0:0:
252,208,80135,1,0,0:0:0:0:
248,220,80203,1,0,0:0:0:0:
240,232,80271,1,0,0:0:0:0:
236,244,80340,1,0,0:0:0:0:
236,260,80408,1,0,0:0:0:0:
240,272,80476,1,0,0:0:0:0:
248,284,80544,6,0,B|282:320|336:312|336:312|379:231,1,187.5
188,224,80953,1,0,0:0:0:0:
240,40,81090,2,0,B|155:60|128:96|128:96|159:147,1,187.5
296,128,81499,1,0,0:0:0:0:
308,136,81567,1,0,0:0:0:0:
316,148,81635,1,0,0:0:0:0:
432,264,81771,2,0,P|458:224|456:172,1,93.75
452,148,81976,1,0,0:0:0:0:
436,120,82044,1,0,0:0:0:0:
408,104,82112,1,0,0:0:0:0:
376,100,82181,1,0,0:0:0:0:
348,116,82249,1,0,0:0:0:0:
316,128,82317,1,0,0:0:0:0:
284,124,82385,1,0,0:0:0:0:
256,108,82453,1,0,0:0:0:0:
236,80,82521,1,0,0:0:0:0:
204,72,82590,1,0,0:0:0:0:
176,88,82658,1,0,0:0:0:0:
156,116,82726,2,0,P|132:160|136:216,1,93.75
200,328,82999,5,0,0:0:0:0:
432,120,83544,1,0,0:0:0:0:
60,188,84090,5,0,0:0:0:0:
72,148,84158,1,0,0:0:0:0:
100,116,84226,1,0,0:0:0:0:
144,100,84294,1,0,0:0:0:0:
188,108,84362,1,0,0:0:0:0:
220,140,84430,1,0,0:0:0:0:
228,184,84498,1,0,0:0:0:0:
220,224,84567,1,0,0:0:0:0:
200,252,84635,1,0,0:0:0:0:
176,264,84703,1,0,0:0:0:0:
156,268,84771,1,0,0:0:0:0:
140,268,84840,1,0,0:0:0:0:
128,264,84908,1,0,0:0:0:0:
120,260,84976,1,0,0:0:0:0:
108,248,85044,1,0,0:0:0:0:
100,228,85112,1,0,0:0:0:0:
96,200,85180,5,0,0:0:0:0:
104,172,85248,1,0,0:0:0:0:
124,144,85317,1,0,0:0:0:0:
160,124,85385,1,0,0:0:0:0:
204,120,85453,1,0,0:0:0:0:
248,132,85521,1,0,0:0:0:0:
284,172,85590,1,0,0:0:0:0:
300,220,85658,1,0,0:0:0:0:
336,256,85726,1,0,0:0:0:0:
384,268,85794,1,0,0:0:0:0:
432,252,85862,1,0,0:0:0:0:
460,212,85930,1,0,0:0:0:0:
448,160,85999,1,0,0:0:0:0:
416,120,86067,5,0,0:0:0:0:
376,152,86135,1,0,0:0:0:0:
336,184,86203,1,0,0:0:0:0:
292,208,86271,1,0,0:0:0:0:
240,216,86340,1,0,0:0:0:0:
188,208,86408,1,0,0:0:0:0:
148,180,86476,1,0,0:0:0:0:
152,128,86544,1,0,0:0:0:0:
188,96,86612,1,0,0:0:0:0:
240,100,86680,1,0,0:0:0:0:
268,144,86749,1,0,0:0:0:0:
248,192,86817,6,0,B|192:280|116:252|116:252|112:192|60:164,1,225.000008583069
72,60,87226,2,0,P|128:40|204:52,1,112.500004291535
356,80,87499,1,0,0:0:0:0:
204,168,87635,2,0,B|132:228|132:228|180:276|132:384,2,225.000008583069
356,80,88317,1,0,0:0:0:0:
408,224,88453,6,0,P|400:284|332:332,1,112.500004291535
152,328,88726,1,0,0:0:0:0:
129,144,88862,1,0,0:0:0:0:
299,216,88999,1,0,0:0:0:0:
270,48,89135,1,0,0:0:0:0:
448,120,89271,6,0,B|452:208|452:208|408:236,1,112.500004291535
282,114,89544,6,0,B|278:202|278:202|322:230,1,112.500004291535
460,256,89817,1,0,0:0:0:0:
392,124,89953,2,0,L|280:116,1,112.500004291535
128,104,90226,1,0,0:0:0:0:
255,228,90362,2,0,P|235:299|102:281,1,225.000008583069
256,192,90703,12,0,91726,0:0:0:0:
352,68,91999,6,0,B|417:97|431:162|431:162|328:224,1,225.000008583069
104,208,92544,2,0,B|96:280|132:328|132:328|204:356,1,168.750006437302
192,344,92817,2,0,B|252:288|196:224|196:224|252:176|260:108,1,225.000008583069
372,52,93226,2,0,B|460:92|460:92|460:136,1,112.500004291535
456,272,93499,2,0,B|456:287|456:287|368:327,1,112.500004291535
396,180,93771,1,0,0:0:0:0:
240,328,93908,1,0,0:0:0:0:
252,204,94044,2,0,P|312:236|372:228,1,112.500004291535
360,232,94317,1,0,0:0:0:0:
472,160,94453,1,0,0:0:0:0:
392,80,94590,2,0,B|370:61|370:61|268:112,1,112.500004291535
268,116,94794,1,0,0:0:0:0:
236,132,94862,6,0,L|100:196,1,112.500004291535
32,224,95135,1,0,0:0:0:0:
204,256,95271,2,0,B|292:220|292:220|288:172|240:160,1,168.750006437302
212,132,95544,2,0,B|166:133|166:133|132:196|60:220,1,168.750006437302
36,240,95817,2,0,B|56:284|112:280|112:280|132:384|248:304,1,225.000008583069
432,224,96226,6,0,B|416:172|372:168|372:168|296:200|260:116|260:116|218:128|184:188,1,281.250010728836
128,220,96771,2,0,B|88:264|96:308|96:308|144:324,1,112.500004291535
228,220,97044,1,0,0:0:0:0:
284,340,97181,1,0,0:0:0:0:
172,100,97317,2,0,P|284:96|320:104,1,112.500004291535
460,128,97590,1,0,0:0:0:0:
344,292,97726,2,0,B|308:260|264:264|264:264|224:228,1,112.500004291535
172,132,97999,1,0,0:0:0:0:
152,100,98067,1,0,0:0:0:0:
164,68,98135,1,0,0:0:0:0:
196,56,98203,1,0,0:0:0:0:
228,60,98271,6,0,P|276:104|280:172,1,112.500004291535
372,92,98544,1,0,0:0:0:0:
236,272,98681,2,0,B|196:256|196:256|212:176,1,112.500004291535
152,64,98953,2,0,B|92:72|80:148,1,112.500004291535
104,260,99226,1,0,0:0:0:0:
295,193,99362,1,0,0:0:0:0:
165,348,99499,1,0,0:0:0:0:
181,154,99635,1,0,0:0:0:0:
104,268,99771,2,0,B|76:352|76:352|101:338,1,112.500004291535
212,112,100044,2,0,P|252:112|304:168,1,112.500004291535
392,344,100317,5,0,0:0:0:0:
372,216,100453,1,0,0:0:0:0:
348,84,100590,1,0,0:0:0:0:
436,264,100726,2,0,B|348:291|348:291|324:268,1,112.500004291535
176,92,100999,2,0,P|252:68|320:72,1,112.500004291535
220,212,101271,1,0,0:0:0:0:
392,288,101408,6,0,P|332:312|256:292,1,112.500004291535
16,160,101681,1,0,0:0:0:0:
312,100,101817,1,0,0:0:0:0:
40,280,101953,1,0,0:0:0:0:
200,48,102090,1,0,0:0:0:0:
144,324,102226,1,0,0:0:0:0:
84,64,102362,1,0,0:0:0:0:
52,280,102499,2,0,P|80:316|152:320,1,112.500004291535
360,264,102771,1,0,0:0:0:0:
124,252,102908,1,0,0:0:0:0:
364,180,103044,2,0,B|408:160|408:160|312:108,1,112.500004291535
128,40,103317,1,0,0:0:0:0:
80,236,103453,1,0,0:0:0:0:
232,120,103590,6,0,B|224:60|244:32|244:32|312:16,1,112.500004291535
460,40,103862,1,0,0:0:0:0:
248,264,103999,1,0,0:0:0:0:
144,80,104135,2,0,L|256:122,1,112.500004291535
474,197,104408,1,0,0:0:0:0:
272,56,104544,1,0,0:0:0:0:
72,184,104681,2,0,L|188:230,1,112.500004291535
402,322,104953,1,0,0:0:0:0:
208,168,105090,1,0,0:0:0:0:
88,68,105226,2,0,P|36:108|20:168,1,112.500004291535
56,340,105499,1,0,0:0:0:0:
192,328,105635,2,0,B|208:300|184:260|184:260|196:196,1,112.500004291535
224,88,105908,5,0,0:0:0:0:
248,72,105976,1,0,0:0:0:0:
276,68,106044,1,0,0:0:0:0:
304,72,106112,1,0,0:0:0:0:
324,92,106181,1,0,0:0:0:0:
332,120,106249,1,0,0:0:0:0:
332,148,106317,1,0,0:0:0:0:
320,172,106385,1,0,0:0:0:0:
300,188,106453,1,0,0:0:0:0:
276,204,106521,1,0,0:0:0:0:
252,220,106590,1,0,0:0:0:0:
228,232,106658,1,0,0:0:0:0:
200,244,106726,1,0,0:0:0:0:
228,244,106794,1,0,0:0:0:0:
252,256,106862,1,0,0:0:0:0:
272,276,106931,1,0,0:0:0:0:
300,288,106999,1,0,0:0:0:0:
328,284,107067,1,0,0:0:0:0:
352,268,107135,1,0,0:0:0:0:
356,240,107203,1,0,0:0:0:0:
356,224,107271,6,0,L|332:192,3,28.1250010728836
364,168,107544,2,0,L|392:144,3,28.1250010728836
360,112,107817,2,0,L|340:84,3,28.1250010728836
328,68,108090,5,0,0:0:0:0:
304,56,108158,1,0,0:0:0:0:
276,60,108226,1,0,0:0:0:0:
252,76,108294,1,0,0:0:0:0:
244,104,108362,1,0,0:0:0:0:
248,132,108431,1,0,0:0:0:0:
264,156,108499,1,0,0:0:0:0:
276,184,108567,1,0,0:0:0:0:
276,212,108635,1,0,0:0:0:0:
260,236,108703,1,0,0:0:0:0:
236,252,108771,1,0,0:0:0:0:
208,256,108840,1,0,0:0:0:0:
180,252,108908,1,0,0:0:0:0:
156,236,108976,1,0,0:0:0:0:
144,208,109044,1,0,0:0:0:0:
144,180,109112,1,0,0:0:0:0:
148,152,109181,6,0,P|191:81|269:56,2,168.750006437302
312,332,110271,2,0,L|306:304,1,28.1250010728836
348,296,110408,2,0,L|341:268,1,28.1250010728836
384,256,110544,2,0,L|377:228,3,28.1250010728836
404,196,110817,2,0,L|428:168,3,28.1250010728836
400,140,111090,2,0,L|392:100,3,28.1250010728836
380,88,111362,5,0,0:0:0:0:
356,72,111431,1,0,0:0:0:0:
328,64,111499,1,0,0:0:0:0:
300,64,111567,1,0,0:0:0:0:
272,72,111635,1,0,0:0:0:0:
252,92,111703,1,0,0:0:0:0:
236,116,111771,1,0,0:0:0:0:
220,140,111840,1,0,0:0:0:0:
204,164,111908,1,0,0:0:0:0:
188,188,111976,1,0,0:0:0:0:
168,208,112044,1,0,0:0:0:0:
140,216,112112,1,0,0:0:0:0:
112,212,112181,1,0,0:0:0:0:
92,192,112249,1,0,0:0:0:0:
100,220,112317,1,0,0:0:0:0:
112,244,112385,1,0,0:0:0:0:
132,264,112453,6,0,P|180:296|247:300,1,112.500004291535
344,292,112726,1,0,0:0:0:0:
368,276,112794,1,0,0:0:0:0:
384,252,112862,1,0,0:0:0:0:
392,224,112931,1,0,0:0:0:0:
388,196,112999,1,0,0:0:0:0:
376,172,113067,1,0,0:0:0:0:
348,172,113135,1,0,0:0:0:0:
328,192,113203,1,0,0:0:0:0:
312,216,113271,2,0,P|296:236|264:236,3,37.5
256,240,113544,2,0,P|236:236|232:212,3,37.5
228,192,113817,2,0,L|228:144,3,37.5
232,124,114090,6,0,B|240:68|280:28|280:28|320:44,1,150
428,132,114499,1,0,0:0:0:0:
276,260,114635,1,0,0:0:0:0:
240,260,114703,1,0,0:0:0:0:
204,272,114771,1,0,0:0:0:0:
180,300,114840,1,0,0:0:0:0:
164,336,114908,1,0,0:0:0:0:
144,304,114976,1,0,0:0:0:0:
132,272,115044,1,0,0:0:0:0:
140,236,115112,1,0,0:0:0:0:
172,212,115181,1,0,0:0:0:0:
340,272,115317,6,0,B|389:310|389:310|398:283,1,75
440,128,115590,1,0,0:0:0:0:
272,84,115726,1,0,0:0:0:0:
252,88,115794,1,0,0:0:0:0:
236,100,115862,1,0,0:0:0:0:
172,208,115999,1,0,0:0:0:0:
152,212,116067,1,0,0:0:0:0:
136,224,116135,1,0,0:0:0:0:
72,344,116271,2,0,B|164:348|164:348|200:296|236:308,1,150
448,248,116681,1,0,0:0:0:0:
416,112,116817,6,0,L|320:108,1,75
280,228,117090,2,0,L|188:224,1,75
180,100,117362,2,0,L|92:96,1,75
60,248,117635,1,0,0:0:0:0:
232,288,117771,1,0,0:0:0:0:
244,104,117908,1,0,0:0:0:0:
256,192,117976,12,0,118999,0:0:0:0:
256,192,119067,12,0,120908,0:0:0:0:
348,120,121181,5,0,0:0:0:0:
152,256,123362,5,0,0:0:0:0:
152,260,123499,1,0,0:0:0:0:
84,68,125271,1,0,0:0:0:0:
168,240,125544,5,0,0:0:0:0:
188,256,125612,1,0,0:0:0:0:
212,264,125681,1,0,0:0:0:0:
372,296,125817,1,0,0:0:0:0:
480,204,125953,2,0,B|488:140|488:140|472:116,1,75
340,36,126226,1,0,0:0:0:0:
236,104,126362,1,0,0:0:0:0:
356,152,126499,1,0,0:0:0:0:
244,216,126635,6,0,B|192:240|192:240|164:216,1,75
72,120,126908,1,0,0:0:0:0:
420,152,127181,1,0,0:0:0:0:
216,80,127726,6,0,B|272:104|272:104|272:172,1,93.75
104,240,127999,2,0,B|136:296|136:296|192:292,1,93.75
120,120,128271,1,0,0:0:0:0:
376,56,128408,2,0,L|260:84,1,93.75
380,160,128681,1,0,0:0:0:0:
184,52,128817,1,0,0:0:0:0:
220,200,128953,2,0,B|200:268|200:268|180:281,1,93.75
64,144,129226,2,0,B|88:80|88:80|132:56,1,93.75
304,56,129499,1,0,0:0:0:0:
252,224,129635,1,0,0:0:0:0:
416,340,129771,5,0,0:0:0:0:
216,316,129908,2,0,B|144:296|144:296|128:248,1,93.75
80,48,130181,1,0,0:0:0:0:
272,56,130317,2,0,P|327:65|386:93,1,93.75
484,296,130590,1,0,0:0:0:0:
344,144,130726,2,0,P|300:127|253:120,1,93.75
56,128,130999,1,0,0:0:0:0:
172,264,131135,2,0,B|204:332|204:332|236:332,1,93.75
264,72,131408,2,0,B|296:140|296:140|328:140,1,93.75
492,164,131681,1,0,0:0:0:0:
380,288,131817,1,0,0:0:0:0:
212,216,131953,1,0,0:0:0:0:
72,148,132090,6,0,B|104:92|104:92|176:104|196:56,2,140.625
56,320,132635,2,0,P|84:360|140:368,1,93.75
440,332,132908,2,0,B|464:264|464:264|412:232,1,93.75
208,152,133181,1,0,0:0:0:0:
288,316,133317,1,0,0:0:0:0:
232,48,133453,6,0,P|176:68|148:116,1,93.75
144,116,133658,1,0,0:0:0:0:
136,140,133726,2,0,B|112:200|112:200|140:240,1,93.75
288,376,133999,1,0,0:0:0:0:
44,248,134135,1,0,0:0:0:0:
192,72,134271,1,0,0:0:0:0:
224,84,134340,1,0,0:0:0:0:
248,108,134408,1,0,0:0:0:0:
260,140,134476,1,0,0:0:0:0:
256,172,134544,6,0,B|252:212|224:236|224:236|164:228,1,93.75
0,176,134817,1,0,0:0:0:0:
192,68,134953,2,0,B|244:40|244:40|288:64,1,93.75
512,168,135226,1,0,0:0:0:0:
184,40,136181,2,0,P|76:68|28:164,1,187.5
56,340,136590,5,0,0:0:0:0:
256,300,136726,2,0,B|256:320|256:320|352:276,1,93.75
496,192,136999,1,0,0:0:0:0:
312,196,137135,2,0,B|244:226|244:226|244:206,1,93.75
284,32,137408,1,0,0:0:0:0:
60,192,137544,1,0,0:0:0:0:
236,296,137681,1,0,0:0:0:0:
208,96,137817,6,0,B|276:124|276:124|256:172,1,93.75
200,260,138090,1,0,0:0:0:0:
348,320,138226,1,0,0:0:0:0:
412,172,138362,1,0,0:0:0:0:
296,60,138499,2,0,P|200:52|168:68,1,93.75
440,272,138771,1,0,0:0:0:0:
200,256,138908,2,0,B|240:264|240:264|292:228,1,93.75
128,184,139181,5,0,0:0:0:0:
216,40,139317,2,0,B|160:52|160:52|132:88,1,93.75
100,296,139590,1,0,0:0:0:0:
60,112,139726,1,0,0:0:0:0:
228,192,139862,1,0,0:0:0:0:
380,48,139999,6,0,P|368:112|340:144,1,93.75
336,148,140203,1,0,0:0:0:0:
320,160,140271,1,0,0:0:0:0:
120,234,140408,1,0,0:0:0:0:
208,322,140544,1,0,0:0:0:0:
173,189,140681,1,0,0:0:0:0:
137,308,140817,1,0,0:0:0:0:
261,282,140953,1,0,0:0:0:0:
96,148,141090,6,0,B|108:88|108:88|168:72,1,93.75
336,56,141362,1,0,0:0:0:0:
200,164,141499,1,0,0:0:0:0:
324,336,141635,1,0,0:0:0:0:
444,248,141771,6,0,P|456:200|448:152,1,93.75
280,28,142044,1,0,0:0:0:0:
264,248,142181,2,0,B|220:296|220:296|168:264,1,93.75
48,160,142453,1,0,0:0:0:0:
188,48,142590,1,0,0:0:0:0:
220,208,142726,1,0,0:0:0:0:
48,160,142862,1,0,0:0:0:0:
188,48,142999,5,0,0:0:0:0:
228,60,143067,1,0,0:0:0:0:
252,96,143135,1,0,0:0:0:0:
260,136,143203,1,0,0:0:0:0:
259,175,143271,2,0,P|280:217|322:235,1,93.75
480,304,143544,1,0,0:0:0:0:
188,216,143681,1,0,0:0:0:0:
464,168,143817,1,0,0:0:0:0:
104,348,143953,1,0,0:0:0:0:
356,216,145181,5,0,0:0:0:0:
200,328,145317,1,0,0:0:0:0:
224,200,145453,2,0,P|248:152|276:124,1,93.75
88,76,145726,1,0,0:0:0:0:
376,112,145862,2,0,P|352:164|320:192,1,93.75
120,336,146135,1,0,0:0:0:0:
392,328,146271,1,0,0:0:0:0:
280,144,146408,1,0,0:0:0:0:
288,344,146544,1,0,0:0:0:0:
144,244,146681,6,0,B|100:220|100:220|104:172,1,93.75
188,48,146953,1,0,0:0:0:0:
212,160,147090,1,0,0:0:0:0:
340,72,147226,1,0,0:0:0:0:
136,120,147362,1,0,0:0:0:0:
332,200,147499,1,0,0:0:0:0:
196,272,147635,1,0,0:0:0:0:
284,48,147771,1,0,0:0:0:0:
156,112,147908,6,0,P|176:172|156:204,1,93.75
64,224,148181,2,0,P|48:276|80:312,1,93.75
284,356,148453,1,0,0:0:0:0:
476,224,148589,1,0,0:0:0:0:
232,300,148726,1,0,0:0:0:0:
369,105,148862,1,0,0:0:0:0:
180,248,148999,1,0,0:0:0:0:
250,15,149135,1,0,0:0:0:0:
104,112,149271,6,0,B|144:168|192:156|192:156|232:120|280:128,1,187.5
480,136,149681,1,0,0:0:0:0:
436,292,149817,2,0,L|320:324,1,93.75
184,364,150090,1,0,0:0:0:0:
368,236,150226,2,0,L|260:264,1,93.75
108,304,150499,6,0,B|44:320|44:320|48:264,1,93.75
52,80,150771,2,0,B|50:52|50:52|114:68,1,93.75
340,204,151044,1,0,0:0:0:0:
184,288,151181,1,0,0:0:0:0:
276,48,151317,1,0,0:0:0:0:
52,168,151453,1,0,0:0:0:0:
432,212,151590,1,0,0:0:0:0:
89,92,151726,6,0,P|52:127|61:184,1,93.75
152,300,151999,1,0,0:0:0:0:
272,208,152135,1,0,0:0:0:0:
336,336,152271,1,0,0:0:0:0:
452,248,152408,1,0,0:0:0:0:
388,136,152544,6,0,B|348:92|348:92|292:116|224:60,1,187.5
52,40,152953,1,0,0:0:0:0:
106,123,153090,1,0,0:0:0:0:
160,207,153226,1,0,0:0:0:0:
215,291,153362,1,0,0:0:0:0:
364,324,153499,2,0,B|432:324|432:324|452:268,1,93.75
464,140,153771,2,0,P|448:108|396:116,1,93.75
256,192,154044,5,0,0:0:0:0:
76,324,154181,2,0,L|180:328,1,93.75
320,336,154453,2,0,B|392:340|392:340|404:308,1,93.75
460,136,154726,1,0,0:0:0:0:
236,64,154862,1,0,0:0:0:0:
460,108,154999,1,0,0:0:0:0:
236,88,155135,1,0,0:0:0:0:
460,80,155271,1,0,0:0:0:0:
236,120,155408,1,0,0:0:0:0:
384,260,155544,1,0,0:0:0:0:
104,304,155681,6,0,B|132:348|132:348|176:336,1,93.75
392,260,155953,2,0,B|460:259|460:259|493:313,1,93.75
328,148,156226,2,0,B|361:88|361:88|425:87,1,93.75
192,148,156499,2,0,B|157:89|157:89|187:33,1,93.75
120,260,156771,2,0,B|51:260|51:260|18:206,1,93.75
44,64,157044,1,0,0:0:0:0:
68,72,157112,1,0,0:0:0:0:
92,80,157181,1,0,0:0:0:0:
116,88,157249,1,0,0:0:0:0:
140,96,157317,6,0,B|200:120|200:120|220:144,1,93.75
312,280,157590,1,0,0:0:0:0:
332,288,157658,1,0,0:0:0:0:
352,296,157726,1,0,0:0:0:0:
372,304,157794,1,0,0:0:0:0:
396,312,157862,6,0,B|432:320|432:320|448:252,1,93.75
472,116,158135,2,0,P|460:68|400:56,1,93.75
144,80,158408,2,0,B|96:132|96:132|120:156,1,93.75
280,272,158681,1,0,0:0:0:0:
416,248,158817,1,0,0:0:0:0:
288,72,158953,1,0,0:0:0:0:
224,184,159090,1,0,0:0:0:0:
160,296,159226,6,0,P|188:336|232:340,1,93.75
420,308,159499,2,0,B|484:232|484:232|460:192|392:184,1,187.5
232,188,159908,1,0,0:0:0:0:
148,184,160044,2,0,P|192:112|288:120,1,187.5
232,188,160453,1,0,0:0:0:0:
388,132,160726,5,0,0:0:0:0:
288,312,160862,1,0,0:0:0:0:
484,212,160999,1,0,0:0:0:0:
272,44,161135,1,0,0:0:0:0:
368,272,161271,1,0,0:0:0:0:
128,296,161408,1,0,0:0:0:0:
176,100,161544,1,0,0:0:0:0:
244,332,161681,1,0,0:0:0:0:
320,128,161817,1,0,0:0:0:0:
136,292,161953,1,0,0:0:0:0:
376,254,162090,6,0,B|478:230|491:358|418:403|355:359|345:332|345:332|272:377|231:316|231:316|226:292,1,375
256,192,162771,12,0,164271,0:0:0:0:
188,316,164817,6,0,B|220:328|252:292|252:292|268:348|340:344|356:296|356:296|320:244,1,262.5
316,236,165362,2,0,B|270:190|240:164|240:164|248:128|289:124|289:124|291:87|344:72|344:72|400:112,1,300
460,196,166090,1,0,0:0:0:0:
440,248,166181,2,0,B|420:276|432:304|432:304|396:332|336:340,1,150
224,292,166635,1,0,0:0:0:0:
280,280,166726,2,0,B|376:264|388:184,1,150
388,172,167067,5,0,0:0:0:0:
384,152,167135,1,0,0:0:0:0:
376,136,167203,1,0,0:0:0:0:
364,124,167271,1,0,0:0:0:0:
348,116,167340,1,0,0:0:0:0:
328,112,167408,1,0,0:0:0:0:
308,116,167476,1,0,0:0:0:0:
292,128,167544,1,0,0:0:0:0:
284,144,167612,1,0,0:0:0:0:
268,152,167681,1,0,0:0:0:0:
248,152,167749,1,0,0:0:0:0:
232,144,167817,1,0,0:0:0:0:
220,128,167885,1,0,0:0:0:0:
212,112,167953,1,0,0:0:0:0:
196,104,168021,1,0,0:0:0:0:
156,100,168090,6,0,P|105:116|77:182,1,100
312,92,168453,1,0,0:0:0:0:
420,256,168635,1,0,0:0:0:0:
212,168,168817,1,0,0:0:0:0:
480,192,168999,1,0,0:0:0:0:
360,24,169181,1,0,0:0:0:0:
48,184,169726,2,0,B|92:228|168:232|168:232|200:208,1,150
404,112,170135,2,0,L|380:192,1,75
196,100,170726,2,0,B|192:160|192:160|220:180,1,75
392,232,170999,2,0,B|388:288|388:288|332:332|240:328,1,200
142,148,171908,5,0,0:0:0:0:
142,148,172453,2,0,L|224:164,1,50
264,120,172635,1,0,0:0:0:0:
368,304,172817,1,0,0:0:0:0:
328,208,172999,2,0,P|292:244|232:240,1,100
264,176,173271,1,0,0:0:0:0:
149,167,173408,2,0,P|103:146|64:116,1,100
132,140,174635,5,0,0:0:0:0:
132,140,175181,1,0,0:0:0:0:
132,140,175726,2,0,B|168:132|204:96|204:96|288:100|276:192|276:192|188:216,1,300
204,211,176817,1,0,0:0:0:0:
204,211,177362,1,0,0:0:0:0:
204,211,177908,2,0,B|224:280|280:264|280:264|352:328|384:236|384:236|324:184,1,300
342,200,178999,1,0,0:0:0:0:
342,200,179544,1,0,0:0:0:0:
342,200,180090,2,0,B|300:112|208:120|208:120|200:196|120:216,1,300
128,213,181181,1,0,0:0:0:0:
128,213,181726,1,0,0:0:0:0:
128,213,182271,2,0,B|140:152|140:152|200:92|260:152|260:152|244:200|296:248,1,300
88,136,183362,2,0,B|144:168|144:168|184:136|248:140,1,150
300,144,183771,5,0,0:0:0:0:
300,160,183908,1,0,0:0:0:0:
296,176,184044,1,0,0:0:0:0:
288,188,184181,1,0,0:0:0:0:
276,196,184317,1,0,0:0:0:0:
264,200,184453,1,0,0:0:0:0:
72,248,184862,5,0,0:0:0:0:
88,252,184999,1,0,0:0:0:0:
104,252,185135,1,0,0:0:0:0:
120,248,185271,1,0,0:0:0:0:
132,240,185408,1,0,0:0:0:0:
148,236,185544,1,0,0:0:0:0:
300,112,185953,5,0,0:0:0:0:
284,116,186090,1,0,0:0:0:0:
268,120,186226,1,0,0:0:0:0:
256,124,186362,1,0,0:0:0:0:
240,128,186499,1,0,0:0:0:0:
224,132,186635,1,0,0:0:0:0:
64,168,186908,5,0,0:0:0:0:
68,176,186976,1,0,0:0:0:0:
72,184,187044,2,0,B|88:240|88:240|116:248,1,75
316,260,187453,1,0,0:0:0:0:
308,276,187521,1,0,0:0:0:0:
292,284,187590,1,0,0:0:0:0:
140,264,187726,1,0,0:0:0:0:
256,192,187794,12,0,189908,0:0:0:0:
232,120,208453,5,0,0:0:0:0:
232,120,208999,1,0,0:0:0:0:
200,272,209271,1,0,0:0:0:0:
76,88,209544,2,0,B|128:56|184:72|184:72|204:156|312:92|312:92|320:160|404:196,1,412.5
416,208,210362,2,0,B|364:288|224:280|224:280|144:200|64:216|64:216|92:292,1,450
384,336,211726,2,0,B|392:272|352:224|352:224|336:280|296:292|296:292|284:244|220:204,1,300
82,96,212544,2,0,B|104:96|104:96|104:124|104:124|128:124|128:124|128:148|128:148|168:128|236:208|322:158,1,300
322,158,213362,1,0,0:0:0:0:
264,292,213635,1,0,0:0:0:0:
76,316,213908,6,0,B|120:204|208:264|208:264|264:180|217:113|217:113|140:124,1,412.5
124,128,214726,2,0,B|200:172|252:180|304:136|304:136|384:140|420:184,1,300
402,167,215544,1,0,0:0:0:0:
352,304,215817,1,0,0:0:0:0:
236,200,216090,1,0,0:0:0:0:
96,180,216362,1,0,0:0:0:0:
152,296,216635,1,0,0:0:0:0:
172,180,216908,1,0,0:0:0:0:
232,264,217181,1,0,0:0:0:0:
240,200,217453,1,0,0:0:0:0:
224,176,217726,1,0,0:0:0:0:
208,148,217999,1,0,0:0:0:0:
196,112,218271,6,0,B|253:68|394:112|351:247|278:266|227:253|227:253|208:272|220:316|220:316|200:344|160:352,1,450
173,348,219362,1,0,0:0:0:0:
88,128,219908,2,0,B|84:192|156:200|156:200|180:156,1,150
280,56,220453,2,0,P|368:60|404:132,1,150
80,88,221271,2,0,B|88:104|88:104|116:96|116:96|120:120|120:120|144:112|144:112|148:136|148:136|176:196|272:160|272:160|284:212,1,300
288,228,222090,1,0,0:0:0:0:
292,256,222362,1,0,0:0:0:0:
296,284,222635,2,0,B|324:220|324:220|300:120|180:132|168:228|168:228|224:320|116:352,1,450
100,116,223999,1,0,0:0:0:0:
128,104,224271,1,0,0:0:0:0:
156,104,224544,1,0,0:0:0:0:
184,108,224817,1,0,0:0:0:0:
208,124,225090,5,0,0:0:0:0:
216,136,225226,1,0,0:0:0:0:
220,148,225362,1,0,0:0:0:0:
212,176,225635,5,0,0:0:0:0:
192,196,225908,1,0,0:0:0:0:
152,212,226181,1,0,0:0:0:0:
96,196,226453,1,0,0:0:0:0:
68,128,226726,1,0,0:0:0:0:
136,88,226999,6,0,B|200:72|200:72|296:128,1,150
428,240,227544,2,0,B|440:292|408:320|408:320|352:312,1,112.5
364,316,227817,2,0,P|300:296|256:260,1,112.5
252,256,228090,2,0,B|216:216|208:160|208:160|256:168|280:152,1,150
424,120,228635,1,0,0:0:0:0:
216,52,228908,1,0,0:0:0:0:
408,32,229181,1,0,0:0:0:0:
200,148,229453,6,0,B|144:184|104:144|104:144|52:200,1,150
32,344,229999,2,0,B|68:316|108:344|108:344|152:352|160:320|200:320,1,150
328,264,230544,1,0,0:0:0:0:
388,112,230817,1,0,0:0:0:0:
488,248,231090,2,0,P|456:312|364:356,1,150
116,280,231635,2,0,P|184:312|288:292,1,150
388,252,232181,1,0,0:0:0:0:
428,140,232453,1,0,0:0:0:0:
384,36,232726,1,0,0:0:0:0:
244,40,232999,2,0,P|176:80|136:160,1,150
96,252,233544,5,0,0:0:0:0:
104,264,233612,1,0,0:0:0:0:
116,272,233681,1,0,0:0:0:0:
132,272,233749,1,0,0:0:0:0:
144,264,233817,1,0,0:0:0:0:
156,252,233885,1,0,0:0:0:0:
160,236,233953,1,0,0:0:0:0:
164,220,234021,1,0,0:0:0:0:
172,208,234090,1,0,0:0:0:0:
184,200,234158,1,0,0:0:0:0:
168,200,234226,1,0,0:0:0:0:
152,196,234294,1,0,0:0:0:0:
140,184,234362,1,0,0:0:0:0:
136,168,234431,1,0,0:0:0:0:
140,152,234499,1,0,0:0:0:0:
152,144,234567,1,0,0:0:0:0:
168,140,234635,5,0,0:0:0:0:
336,92,235044,1,0,0:0:0:0:
336,92,235112,1,0,0:0:0:0:
336,92,235181,1,0,0:0:0:0:
336,92,235453,1,0,0:0:0:0:
336,92,235726,1,0,0:0:0:0:
256,192,235794,12,0,237908,0:0:0:0:
100,96,244453,5,0,0:0:0:0:
124,76,244521,1,0,0:0:0:0:
152,68,244590,1,0,0:0:0:0:
180,76,244658,1,0,0:0:0:0:
204,96,244726,1,0,0:0:0:0:
208,124,244794,1,0,0:0:0:0:
200,152,244862,1,0,0:0:0:0:
180,176,244931,1,0,0:0:0:0:
168,204,244999,1,0,0:0:0:0:
160,224,245067,1,0,0:0:0:0:
156,240,245136,1,0,0:0:0:0:
160,252,245203,1,0,0:0:0:0:
172,256,245272,1,0,0:0:0:0:
184,256,245340,1,0,0:0:0:0:
196,248,245408,1,0,0:0:0:0:
212,232,245477,5,0,0:0:0:0:
240,220,245544,1,0,0:0:0:0:
276,224,245612,1,0,0:0:0:0:
304,248,245681,1,0,0:0:0:0:
312,284,245749,1,0,0:0:0:0:
340,260,245817,1,0,0:0:0:0:
360,228,245885,1,0,0:0:0:0:
340,196,245953,1,0,0:0:0:0:
304,180,246022,1,0,0:0:0:0:
280,152,246090,1,0,0:0:0:0:
272,116,246158,1,0,0:0:0:0:
296,88,246227,1,0,0:0:0:0:
332,80,246295,1,0,0:0:0:0:
364,100,246363,1,0,0:0:0:0:
368,136,246431,1,0,0:0:0:0:
348,168,246499,1,0,0:0:0:0:
316,188,246568,1,0,0:0:0:0:
284,204,246635,2,0,L|252:224,3,37.5
224,248,246908,2,0,P|208:264|204:292,3,37.5
224,308,247181,2,0,L|268:324,3,37.5
296,316,247454,5,0,0:0:0:0:
332,308,247522,1,0,0:0:0:0:
364,320,247591,1,0,0:0:0:0:
388,348,247658,1,0,0:0:0:0:
392,384,247726,1,0,0:0:0:0:
420,356,247795,1,0,0:0:0:0:
452,336,247863,1,0,0:0:0:0:
468,304,247931,1,0,0:0:0:0:
464,268,247999,1,0,0:0:0:0:
440,240,248067,1,0,0:0:0:0:
404,240,248136,1,0,0:0:0:0:
376,264,248203,1,0,0:0:0:0:
360,300,248271,1,0,0:0:0:0:
328,324,248340,1,0,0:0:0:0:
292,320,248408,1,0,0:0:0:0:
264,296,248476,1,0,0:0:0:0:
268,260,248544,1,0,0:0:0:0:
292,232,248612,1,0,0:0:0:0:
328,228,248681,1,0,0:0:0:0:
364,228,248749,2,0,L|400:240,3,37.5
416,240,249021,2,0,L|456:208,3,37.5
456,196,249294,5,0,0:0:0:0:
464,176,249362,1,0,0:0:0:0:
452,156,249431,1,0,0:0:0:0:
432,144,249499,1,0,0:0:0:0:
408,148,249567,1,0,0:0:0:0:
396,168,249635,1,0,0:0:0:0:
380,184,249703,1,0,0:0:0:0:
356,188,249771,1,0,0:0:0:0:
336,176,249840,1,0,0:0:0:0:
324,156,249908,1,0,0:0:0:0:
320,136,249976,1,0,0:0:0:0:
320,136,250044,1,0,0:0:0:0:
320,136,250112,1,0,0:0:0:0:
320,136,250181,2,0,B|364:168|380:224|356:288|268:288|248:292|208:228|208:228|268:208|256:144|256:144,1,375
172,40,250999,5,0,0:0:0:0:
136,44,251067,1,0,0:0:0:0:
108,68,251135,1,0,0:0:0:0:
100,104,251203,1,0,0:0:0:0:
116,136,251271,1,0,0:0:0:0:
148,152,251340,1,0,0:0:0:0:
184,144,251408,1,0,0:0:0:0:
212,120,251476,1,0,0:0:0:0:
248,108,251544,1,0,0:0:0:0:
284,116,251612,1,0,0:0:0:0:
308,144,251681,1,0,0:0:0:0:
304,180,251749,1,0,0:0:0:0:
280,208,251817,1,0,0:0:0:0:
244,216,251885,1,0,0:0:0:0:
208,208,251953,1,0,0:0:0:0:
180,184,252021,1,0,0:0:0:0:
180,148,252090,6,0,L|144:140,2,37.5
196,116,252294,2,0,L|156:84,2,37.5
228,112,252499,2,0,L|216:56,2,37.5
324,272,252771,1,0,0:0:0:0:
160,192,252908,1,0,0:0:0:0:
372,184,253044,1,0,0:0:0:0:
88,268,253181,2,0,P|72:212|80:176,1,75
168,332,253453,2,0,P|224:352|264:348,1,75
452,288,253726,1,0,0:0:0:0:
320,68,253862,1,0,0:0:0:0:
460,108,253999,2,0,P|448:168|412:184,1,75
296,64,254271,2,0,B|248:68|248:68|216:88,1,75
164,236,254544,1,0,0:0:0:0:
173,274,254612,1,0,0:0:0:0:
143,302,254681,1,0,0:0:0:0:
107,281,254749,1,0,0:0:0:0:
104,240,254817,6,0,P|124:192|120:148,1,75
224,40,255090,1,0,0:0:0:0:
240,164,255226,2,0,B|208:200|208:200|192:252,1,75
152,348,255499,1,0,0:0:0:0:
284,268,255635,1,0,0:0:0:0:
308,228,255703,1,0,0:0:0:0:
328,188,255771,1,0,0:0:0:0:
348,148,255840,1,0,0:0:0:0:
364,108,255908,6,0,B|380:68|380:68|336:52,1,75
232,104,256181,1,0,0:0:0:0:
208,124,256249,1,0,0:0:0:0:
200,152,256317,1,0,0:0:0:0:
172,164,256385,1,0,0:0:0:0:
160,192,256453,1,0,0:0:0:0:
32,156,256590,6,0,L|84:224,1,75
28,300,256862,1,0,0:0:0:0:
56,308,256931,1,0,0:0:0:0:
84,300,256999,1,0,0:0:0:0:
104,280,257067,1,0,0:0:0:0:
108,252,257135,1,0,0:0:0:0:
92,228,257203,1,0,0:0:0:0:
76,204,257271,1,0,0:0:0:0:
76,172,257340,1,0,0:0:0:0:
92,144,257408,1,0,0:0:0:0:
120,128,257476,1,0,0:0:0:0:
148,120,257544,6,0,B|260:80|260:80|272:156|332:176|332:176|228:224|192:260|192:260|292:292|376:264,1,562.5
372,272,258635,2,0,B|400:216|400:216|288:232|320:332|320:332|228:408|180:298|180:298|304:256|212:156,1,600
140,32,259862,2,0,L|104:56,3,37.5
88,68,260135,5,0,0:0:0:0:
80,92,260203,1,0,0:0:0:0:
88,116,260271,1,0,0:0:0:0:
112,124,260340,1,0,0:0:0:0:
136,112,260408,1,0,0:0:0:0:
164,108,260476,1,0,0:0:0:0:
188,120,260544,1,0,0:0:0:0:
160,32,260681,1,0,0:0:0:0:
272,68,260817,2,0,L|308:100,3,37.5
220,180,261090,2,0,L|204:224,3,37.5
296,296,261362,2,0,L|324:332,3,37.5
356,184,261635,2,0,L|372:136,4,37.5
256,192,261976,12,0,264090,0:0:0:0:
92,320,266271,5,0,0:0:0:0:
352,72,267362,1,0,0:0:0:0:
260,312,267771,1,0,0:0:0:0:
184,96,268181,1,0,0:0:0:0:
312,184,268453,1,0,0:0:0:0:
132,128,269544,5,0,0:0:0:0:
336,288,269953,1,0,0:0:0:0:
224,56,270362,1,0,0:0:0:0:
196,200,270635,1,0,0:0:0:0:
396,232,271726,5,0,0:0:0:0:
128,104,272135,1,0,0:0:0:0:
312,312,272544,1,0,0:0:0:0:
340,172,272817,5,0,0:0:0:0:
332,136,272885,1,0,0:0:0:0:
308,108,272953,1,0,0:0:0:0:
272,96,273021,1,0,0:0:0:0:
236,104,273090,1,0,0:0:0:0:
212,132,273158,1,0,0:0:0:0:
200,168,273226,1,0,0:0:0:0:
204,204,273294,1,0,0:0:0:0:
228,232,273362,1,0,0:0:0:0:
236,268,273431,1,0,0:0:0:0:
220,304,273499,1,0,0:0:0:0:
188,320,273567,1,0,0:0:0:0:
152,308,273635,1,0,0:0:0:0:
132,276,273703,1,0,0:0:0:0:
144,240,273771,1,0,0:0:0:0:
180,228,273840,1,0,0:0:0:0:
180,228,273908,5,0,0:0:0:0:
180,228,273976,1,0,0:0:0:0:
156,200,274044,1,0,0:0:0:0:
160,164,274112,1,0,0:0:0:0:
192,140,274181,1,0,0:0:0:0:
228,148,274249,1,0,0:0:0:0:
248,180,274317,1,0,0:0:0:0:
284,168,274385,1,0,0:0:0:0:
316,188,274453,1,0,0:0:0:0:
312,224,274521,1,0,0:0:0:0:
280,244,274590,1,0,0:0:0:0:
256,272,274658,1,0,0:0:0:0:
244,308,274726,6,0,B|224:336|188:344|188:344|124:360|92:292|92:292|152:252|160:192,1,300
432,36,275271,5,0,0:0:0:0:
340,220,275408,1,0,0:0:0:0:
200,132,275544,1,0,0:0:0:0:
420,144,275681,1,0,0:0:0:0:
216,336,275817,1,0,0:0:0:0:
268,36,275953,1,0,0:0:0:0:
476,236,276090,1,0,0:0:0:0:
184,180,276226,1,0,0:0:0:0:
452,24,276362,1,0,0:0:0:0:
360,328,276499,6,0,B|336:272|336:272|308:292,1,93.75
292,124,276771,2,0,B|244:84|244:84|296:64,1,93.75
404,56,277044,5,0,0:0:0:0:
488,136,277181,1,0,0:0:0:0:
308,104,277317,1,0,0:0:0:0:
372,260,277453,1,0,0:0:0:0:
192,104,277590,1,0,0:0:0:0:
212,340,277726,1,0,0:0:0:0:
96,76,277862,1,0,0:0:0:0:
28,320,277999,1,0,0:0:0:0:
40,48,278135,1,0,0:0:0:0:
168,280,278271,1,0,0:0:0:0:
136,72,278408,1,0,0:0:0:0:
228,200,278544,1,0,0:0:0:0:
232,56,278681,1,0,0:0:0:0:
328,96,278817,6,0,B|344:160|300:192|300:192|244:168|216:216,1,187.5
264,340,279226,2,0,B|324:316|324:316|356:268,1,93.75
168,188,279499,2,0,B|184:212|184:212|244:236,1,93.75
392,292,279771,1,0,0:0:0:0:
344,144,279908,1,0,0:0:0:0:
260,296,280044,1,0,0:0:0:0:
332,72,280181,1,0,0:0:0:0:
460,284,280317,1,0,0:0:0:0:
360,12,280453,1,0,0:0:0:0:
216,120,280590,6,0,B|188:165|188:165|212:220,1,93.75
296,312,280862,1,0,0:0:0:0:
372,160,280999,2,0,B|392:192|416:212|416:212|428:252,2,93.75
288,260,281408,1,0,0:0:0:0:
400,64,281544,2,0,B|356:96|356:96|296:116,1,93.75
308,308,281817,1,0,0:0:0:0:
132,164,281953,2,0,B|172:208|172:208|212:224,1,93.75
280,88,282226,1,0,0:0:0:0:
392,248,282362,1,0,0:0:0:0:
128,280,282499,1,0,0:0:0:0:
128,108,282635,5,0,0:0:0:0:
164,88,282703,1,0,0:0:0:0:
208,88,282771,1,0,0:0:0:0:
244,112,282840,1,0,0:0:0:0:
260,152,282908,1,0,0:0:0:0:
88,212,283044,2,0,B|136:240|136:240|200:252,1,93.75
416,284,283317,1,0,0:0:0:0:
360,68,283453,1,0,0:0:0:0:
224,288,283590,1,0,0:0:0:0:
260,168,283726,5,0,0:0:0:0:
228,180,283794,1,0,0:0:0:0:
192,184,283862,1,0,0:0:0:0:
160,164,283931,1,0,0:0:0:0:
144,128,283999,1,0,0:0:0:0:
152,92,284067,1,0,0:0:0:0:
180,68,284135,1,0,0:0:0:0:
212,60,284203,1,0,0:0:0:0:
240,72,284271,1,0,0:0:0:0:
260,100,284340,1,0,0:0:0:0:
248,132,284408,2,0,L|236:184,1,46.875
208,164,284544,2,0,L|192:216,1,46.875
164,196,284681,2,0,L|144:268,1,46.875
120,232,284817,6,0,P|116:288|152:328,1,93.75
324,348,285090,2,0,P|376:332|404:288,1,93.75
376,68,285362,1,0,0:0:0:0:
224,260,285499,1,0,0:0:0:0:
456,72,285635,1,0,0:0:0:0:
144,208,285771,1,0,0:0:0:0:
360,320,285908,1,0,0:0:0:0:
340,48,286044,1,0,0:0:0:0:
112,108,286181,2,0,B|72:144|72:144|48:200,1,93.75
176,168,286453,2,0,B|228:168|228:168|292:220,1,93.75
428,160,286726,6,0,B|396:240|396:240|356:228|300:264,1,187.5
84,284,287135,1,0,0:0:0:0:
276,76,287271,1,0,0:0:0:0:
68,164,287408,1,0,0:0:0:0:
304,216,287544,1,0,0:0:0:0:
200,20,287681,1,0,0:0:0:0:
112,260,287817,1,0,0:0:0:0:
364,312,287953,1,0,0:0:0:0:
400,80,288090,6,0,B|396:56|396:56|316:112,1,93.75
96,96,288362,2,0,B|88:184|196:152|204:256,1,187.5
64,272,288771,1,0,0:0:0:0:
264,72,288908,1,0,0:0:0:0:
452,220,289044,2,0,B|456:276|456:276|404:336,1,93.75
136,320,289317,1,0,0:0:0:0:
316,56,289453,1,0,0:0:0:0:
324,320,289590,1,0,0:0:0:0:
44,196,289726,1,0,0:0:0:0:
384,212,289862,1,0,0:0:0:0:
176,80,289999,1,0,0:0:0:0:
232,360,290135,1,0,0:0:0:0:
112,144,290271,6,0,B|168:128|236:148|236:148|232:216,1,187.5
412,112,290817,2,0,B|372:152|384:200|384:200|336:232|280:208,1,187.5
256,44,291362,1,0,0:0:0:0:
148,328,291635,1,0,0:0:0:0:
496,152,291908,1,0,0:0:0:0:
272,64,292453,2,0,P|340:92|392:168,1,150
385,151,292862,1,0,0:0:0:0:
104,192,292999,2,0,B|60:216|60:216|172:252,1,150
440,16,293544,1,0,0:0:0:0:
328,88,294226,6,0,B|336:104|336:104|268:128,1,75
144,160,294499,2,0,B|136:184|136:184|204:204,1,75
196,204,294703,1,0,0:0:0:0:
212,208,294771,1,0,0:0:0:0:
104,336,294908,1,0,0:0:0:0:
424,76,295181,1,0,0:0:0:0:
40,152,295453,1,0,0:0:0:0:
176,56,295726,5,0,0:0:0:0:
212,48,295794,1,0,0:0:0:0:
248,52,295862,1,0,0:0:0:0:
276,76,295931,1,0,0:0:0:0:
280,112,295999,1,0,0:0:0:0:
272,148,296067,1,0,0:0:0:0:
288,180,296135,1,0,0:0:0:0:
320,200,296203,1,0,0:0:0:0:
356,212,296271,2,0,P|376:236|376:256,1,37.5
316,296,296408,2,0,P|296:312|260:316,1,37.5
204,320,296544,2,0,P|180:300|176:268,1,37.5
176,212,296681,6,0,B|200:180|200:180|256:164,1,75
484,232,296953,1,0,0:0:0:0:
296,68,297090,1,0,0:0:0:0:
360,316,297226,1,0,0:0:0:0:
464,92,297362,1,0,0:0:0:0:
252,216,297499,2,0,B|208:252|208:252|184:216,1,75
72,144,297771,2,0,B|128:168|128:168|168:148,1,75
180,52,298044,2,0,B|216:92|216:92|252:100,1,75
316,32,298317,2,0,B|332:88|332:88|356:124,1,75
460,52,298590,6,0,L|452:136,1,75
404,260,298862,1,0,0:0:0:0:
312,84,298999,1,0,0:0:0:0:
256,340,299135,1,0,0:0:0:0:
124,192,299271,2,0,B|132:156|132:156|192:156,1,75
380,260,299544,1,0,0:0:0:0:
124,88,299681,1,0,0:0:0:0:
372,64,299817,6,0,P|444:112|456:192,1,150
384,320,300226,1,0,0:0:0:0:
336,184,300362,2,0,B|376:160|376:160|392:104,1,75
216,36,300635,1,0,0:0:0:0:
120,104,300771,1,0,0:0:0:0:
72,216,300908,1,0,0:0:0:0:
72,336,301044,2,0,P|112:356|168:348,1,75
396,272,301317,1,0,0:0:0:0:
152,228,301453,1,0,0:0:0:0:
184,40,301590,1,0,0:0:0:0:
300,312,301726,1,0,0:0:0:0:
456,144,301862,1,0,0:0:0:0:
104,128,301999,6,0,B|72:176|72:176|76:212,1,75
216,288,302271,1,0,0:0:0:0:
236,36,302408,2,0,B|204:84|204:84|208:120,1,75
288,328,302681,1,0,0:0:0:0:
432,112,302817,1,0,0:0:0:0:
144,152,302953,1,0,0:0:0:0:
432,260,303090,1,0,0:0:0:0:
104,280,303226,2,0,P|132:308|180:324,1,75
432,260,303499,1,0,0:0:0:0:
296,48,303635,1,0,0:0:0:0:
316,316,303771,1,0,0:0:0:0:
140,92,303908,6,0,P|104:116|84:164,1,75
212,176,304181,2,0,P|252:196|280:236,1,75
116,320,304453,1,0,0:0:0:0:
92,160,304590,2,0,B|84:104|84:104|136:88,1,75
412,56,304862,2,0,P|376:88|368:132,1,75
236,296,305135,2,0,P|276:296|320:264,1,75
472,156,305408,1,0,0:0:0:0:
264,64,305544,5,0,0:0:0:0:
240,60,305612,1,0,0:0:0:0:
212,64,305681,1,0,0:0:0:0:
188,80,305749,1,0,0:0:0:0:
176,104,305817,1,0,0:0:0:0:
176,132,305885,1,0,0:0:0:0:
184,156,305953,1,0,0:0:0:0:
208,148,306021,1,0,0:0:0:0:
236,148,306090,1,0,0:0:0:0:
256,164,306158,1,0,0:0:0:0:
264,188,306226,1,0,0:0:0:0:
260,212,306294,1,0,0:0:0:0:
244,232,306362,1,0,0:0:0:0:
220,244,306431,1,0,0:0:0:0:
200,264,306499,1,0,0:0:0:0:
192,288,306567,1,0,0:0:0:0:
200,312,306635,5,0,0:0:0:0:
220,328,306703,1,0,0:0:0:0:
244,332,306771,1,0,0:0:0:0:
272,328,306840,1,0,0:0:0:0:
292,312,306908,1,0,0:0:0:0:
292,284,306976,1,0,0:0:0:0:
288,260,307044,1,0,0:0:0:0:
284,236,307112,1,0,0:0:0:0:
280,208,307181,1,0,0:0:0:0:
276,184,307249,1,0,0:0:0:0:
272,160,307317,1,0,0:0:0:0:
268,136,307385,1,0,0:0:0:0:
268,108,307453,6,0,P|220:188|160:216,1,150
171,212,308271,6,0,P|266:177|301:273,2,225.000008583069
284,56,309908,6,0,P|192:88|160:176,1,187.5
120,196,310317,6,0,B|156:260|156:260|216:240|272:272,1,187.5
272,304,310726,6,0,B|292:232|276:176|276:176|224:128,1,187.5
216,88,311135,6,0,B|204:136|148:164|148:164|108:216|132:268,1,187.5
88,268,311544,6,0,B|144:288|144:288|164:328|164:328|216:356,1,150
232,328,311953,2,0,L|236:280,1,28.1250010728836
164,184,312090,2,0,L|116:200,3,46.875
268,208,312362,2,0,L|232:264,3,46.875
376,184,312635,2,0,L|376:240,3,46.875
460,124,312908,2,0,L|484:164,3,46.875
396,44,313181,2,0,L|364:-8,3,46.875
320,80,313453,2,0,L|268:60,3,46.875
352,292,313726,6,0,B|372:232|372:232|328:204|328:204|340:148|284:108,1,187.5
96,40,314135,1,0,0:0:0:0:
264,184,314271,1,0,0:0:0:0:
56,288,314408,1,0,0:0:0:0:
224,44,314544,1,0,0:0:0:0:
64,132,314681,2,0,P|48:196|56:232,1,93.75
64,244,314885,1,0,0:0:0:0:
80,260,314953,1,0,0:0:0:0:
104,268,315021,1,0,0:0:0:0:
128,264,315090,6,0,P|152:216|220:196,1,93.75
436,204,315362,2,0,P|420:160|356:128,1,93.75
136,72,315635,1,0,0:0:0:0:
160,264,315771,1,0,0:0:0:0:
304,104,315908,1,0,0:0:0:0:
280,104,315976,1,0,0:0:0:0:
256,112,316044,1,0,0:0:0:0:
248,132,316112,1,0,0:0:0:0:
248,156,316181,1,0,0:0:0:0:
116,296,316317,6,0,L|228:320,1,93.75
396,220,316590,1,0,0:0:0:0:
68,196,316726,1,0,0:0:0:0:
340,328,316862,1,0,0:0:0:0:
360,40,316999,1,0,0:0:0:0:
348,76,317067,1,0,0:0:0:0:
336,112,317135,1,0,0:0:0:0:
324,148,317203,1,0,0:0:0:0:
312,184,317271,6,0,L|280:284,1,93.75
52,208,317544,1,0,0:0:0:0:
172,80,317681,2,0,P|221:99|264:132,1,93.75
384,272,317953,1,0,0:0:0:0:
160,324,318090,1,0,0:0:0:0:
360,196,318226,1,0,0:0:0:0:
152,248,318362,1,0,0:0:0:0:
268,44,318499,1,0,0:0:0:0:
72,72,318635,5,0,0:0:0:0:
96,100,318703,1,0,0:0:0:0:
128,116,318771,1,0,0:0:0:0:
164,116,318840,1,0,0:0:0:0:
200,100,318908,1,0,0:0:0:0:
232,80,318976,1,0,0:0:0:0:
268,72,319044,1,0,0:0:0:0:
304,76,319112,1,0,0:0:0:0:
336,96,319181,1,0,0:0:0:0:
352,132,319249,1,0,0:0:0:0:
344,168,319317,1,0,0:0:0:0:
320,196,319385,1,0,0:0:0:0:
284,208,319453,1,0,0:0:0:0:
248,196,319521,1,0,0:0:0:0:
248,196,319590,1,0,0:0:0:0:
248,196,319658,5,0,0:0:0:0:
268,164,319726,1,0,0:0:0:0:
272,128,319794,1,0,0:0:0:0:
256,92,319862,1,0,0:0:0:0:
224,72,319931,1,0,0:0:0:0:
188,72,319999,1,0,0:0:0:0:
156,88,320067,1,0,0:0:0:0:
140,124,320135,1,0,0:0:0:0:
144,160,320203,1,0,0:0:0:0:
168,188,320271,1,0,0:0:0:0:
204,196,320340,1,0,0:0:0:0:
240,184,320408,1,0,0:0:0:0:
256,152,320476,1,0,0:0:0:0:
268,116,320544,1,0,0:0:0:0:
276,80,320612,1,0,0:0:0:0:
284,44,320681,1,0,0:0:0:0:
292,8,320749,1,0,0:0:0:0:
292,8,320817,6,0,L|324:48,3,46.875
192,96,321090,2,0,L|152:144,3,46.875
300,148,321362,2,0,L|336:204,3,46.875
184,232,321635,2,0,L|140:280,3,46.875
128,296,321908,1,0,0:0:0:0:
96,316,321976,1,0,0:0:0:0:
60,316,322044,1,0,0:0:0:0:
28,296,322112,1,0,0:0:0:0:
16,260,322181,1,0,0:0:0:0:
36,228,322249,1,0,0:0:0:0:
72,216,322317,1,0,0:0:0:0:
104,236,322385,5,0,0:0:0:0:
132,260,322453,1,0,0:0:0:0:
160,284,322521,1,0,0:0:0:0:
188,308,322590,1,0,0:0:0:0:
220,328,322658,1,0,0:0:0:0:
224,292,322726,1,0,0:0:0:0:
244,260,322794,1,0,0:0:0:0:
280,248,322862,1,0,0:0:0:0:
316,260,322931,1,0,0:0:0:0:
340,288,322999,6,0,L|212:120,1,187.5
96,48,323408,2,0,L|84:160,1,93.75
88,300,323681,1,0,0:0:0:0:
288,176,323817,1,0,0:0:0:0:
144,72,323953,1,0,0:0:0:0:
232,324,324090,1,0,0:0:0:0:
400,136,324226,1,0,0:0:0:0:
116,184,324362,6,0,B|112:244|112:244|156:280,2,93.75
224,44,324771,1,0,0:0:0:0:
332,336,324908,1,0,0:0:0:0:
456,164,325044,2,0,P|404:152|348:168,1,93.75
100,288,325317,1,0,0:0:0:0:
344,328,325453,1,0,0:0:0:0:
104,128,325590,1,0,0:0:0:0:
340,80,325726,1,0,0:0:0:0:
304,88,325794,1,0,0:0:0:0:
272,108,325862,1,0,0:0:0:0:
248,140,325931,1,0,0:0:0:0:
240,176,325999,5,0,0:0:0:0:
76,280,326135,2,0,P|136:288|192:324,1,93.75
416,264,326408,2,0,B|392:328|392:328|356:280,1,93.75
304,80,326681,1,0,0:0:0:0:
56,204,326817,1,0,0:0:0:0:
52,224,326885,1,0,0:0:0:0:
60,240,326953,1,0,0:0:0:0:
192,316,327090,2,0,P|220:248|308:172,1,187.5
384,48,327499,2,0,P|416:96|416:160,1,93.75
424,152,327703,1,0,0:0:0:0:
420,172,327771,1,0,0:0:0:0:
268,304,327908,1,0,0:0:0:0:
320,164,328044,6,0,P|280:140|224:136,1,93.75
124,168,328317,2,0,P|84:204|60:248,2,93.75
224,36,328726,2,0,B|248:80|304:84|304:84|336:140|316:172,1,187.5
312,184,329067,1,0,0:0:0:0:
308,196,329135,1,0,0:0:0:0:
136,104,329271,1,0,0:0:0:0:
72,252,329408,2,0,P|112:284|188:304,1,93.75
396,284,329681,1,0,0:0:0:0:
184,228,329817,6,0,B|188:144|248:120|248:120|264:180,1,187.5
288,324,330226,1,0,0:0:0:0:
376,144,330362,2,0,P|409:189|412:237,2,93.75
220,60,330771,2,0,P|237:111|217:165,1,93.75
128,304,331044,1,0,0:0:0:0:
64,200,331181,1,0,0:0:0:0:
80,80,331317,1,0,0:0:0:0:
180,12,331453,1,0,0:0:0:0:
136,152,331590,2,0,P|176:184|244:196,1,93.75
280,72,331862,1,0,0:0:0:0:
188,308,331999,1,0,0:0:0:0:
400,216,332135,6,0,P|400:160|348:112,1,93.75
128,64,332408,2,0,P|72:76|32:108,2,93.75
328,136,332817,1,0,0:0:0:0:
92,164,332953,1,0,0:0:0:0:
300,24,333090,2,0,P|288:84|256:124,1,93.75
116,272,333362,1,0,0:0:0:0:
124,120,333499,2,0,B|132:92|132:92|204:120,1,93.75
196,312,333771,1,0,0:0:0:0:
312,168,333908,2,0,L|224:220,1,93.75
444,84,334181,2,0,L|396:188,1,93.75
256,324,334453,1,0,0:0:0:0:
320,100,334590,1,0,0:0:0:0:
124,140,334726,6,0,P|204:160|244:184,2,93.75
96,24,336908,1,0,0:0:0:0:
320,292,337181,1,0,0:0:0:0:
312,296,337317,1,0,0:0:0:0:
136,148,339362,5,0,0:0:0:0:
176,248,339499,1,0,0:0:0:0:
228,168,339635,2,0,P|252:148|292:144,1,56.2500021457673
392,140,339908,1,0,0:0:0:0:
332,228,340044,6,0,L|280:280,1,56.2500021457673
212,208,340317,2,0,L|232:156,1,56.2500021457673
152,120,340590,1,0,0:0:0:0:
316,144,340726,2,0,P|320:168|312:204,1,56.2500021457673
360,72,340999,2,0,P|379:86|397:118,1,56.2500021457673
284,72,341271,1,0,0:0:0:0:
232,120,341408,6,0,P|232:152|212:184,1,56.2500021457673
144,272,342362,1,0,0:0:0:0:
188,152,342499,1,0,0:0:0:0:
104,72,342635,5,0,0:0:0:0:
312,276,342771,1,0,0:0:0:0:
328,44,343181,1,0,0:0:0:0:
160,340,343317,1,0,0:0:0:0:
160,144,343726,2,0,P|136:204|152:240,2,104.999996795654
152,64,344135,6,0,P|204:80|240:124,1,104.999996795654
436,168,344408,1,0,0:0:0:0:
280,240,344544,1,0,0:0:0:0:
404,48,344681,1,0,0:0:0:0:
368,312,344817,1,0,0:0:0:0:
304,160,344953,2,0,P|272:120|196:100,1,104.999996795654
188,248,345226,1,0,0:0:0:0:
112,64,345362,1,0,0:0:0:0:
116,108,345431,1,0,0:0:0:0:
144,140,345499,1,0,0:0:0:0:
184,152,345567,1,0,0:0:0:0:
224,140,345635,6,0,B|264:120|264:120|304:140|324:192,1,104.999996795654
344,272,345908,2,0,L|236:308,1,104.999996795654
344,188,346181,1,0,0:0:0:0:
144,92,346317,1,0,0:0:0:0:
292,88,346453,2,0,L|252:136,1,52.4999983978272
256,136,346590,2,0,L|268:200,1,52.4999983978272
268,196,346726,2,0,P|232:244|164:268,1,104.999996795654
168,104,346999,1,0,0:0:0:0:
104,184,347135,6,0,P|122:240|180:268,1,104.999996795654
184,268,347340,1,0,0:0:0:0:
212,264,347408,1,0,0:0:0:0:
216,64,347544,6,0,P|191:118|216:177,1,104.999996795654
220,180,347749,1,0,0:0:0:0:
244,192,347817,1,0,0:0:0:0:
284,120,347953,1,0,0:0:0:0:
100,64,348090,1,0,0:0:0:0:
88,88,348158,1,0,0:0:0:0:
76,112,348226,1,0,0:0:0:0:
84,136,348294,1,0,0:0:0:0:
92,160,348362,1,0,0:0:0:0:
220,204,348499,6,0,B|168:256|168:256|216:268,1,104.999996795654
304,348,348771,2,0,L|192:304,1,104.999996795654
132,200,349044,2,0,L|232:240,1,104.999996795654
416,168,349317,1,0,0:0:0:0:
336,92,349453,1,0,0:0:0:0:
364,232,349590,1,0,0:0:0:0:
200,152,349726,1,0,0:0:0:0:
340,304,349862,1,0,0:0:0:0:
88,248,349999,1,0,0:0:0:0:
288,184,350135,1,0,0:0:0:0:
132,56,350271,5,0,0:0:0:0:
116,96,350340,1,0,0:0:0:0:
124,136,350408,1,0,0:0:0:0:
156,164,350476,1,0,0:0:0:0:
196,172,350544,1,0,0:0:0:0:
236,156,350612,1,0,0:0:0:0:
256,120,350681,2,0,B|259:79|259:79|329:153,1,104.999996795654
400,196,350953,2,0,P|352:224|284:236,1,104.999996795654
120,216,351226,1,0,0:0:0:0:
136,200,351362,2,0,B|172:180|172:180|188:216|188:216|220:188|220:188|244:220|244:220|296:264|347:253|347:253|392:200|380:116,1,419.999987182618
72,104,352453,6,0,B|120:64|172:92|172:92|112:132|144:200,1,194.999991073609
124,320,352862,1,0,0:0:0:0:
296,112,352999,1,0,0:0:0:0:
412,224,353135,2,0,P|384:272|312:304,1,97.4999955368044
312,196,353408,1,0,0:0:0:0:
168,304,353544,1,0,0:0:0:0:
136,144,353681,2,0,P|156:76|216:52,1,97.4999955368044
336,172,353953,2,0,P|356:228|336:268,1,97.4999955368044
272,216,354226,1,0,0:0:0:0:
340,52,354362,5,0,0:0:0:0:
96,176,354499,1,0,0:0:0:0:
228,80,354635,1,0,0:0:0:0:
144,296,354771,1,0,0:0:0:0:
356,200,354908,2,0,P|300:204|240:184,1,97.4999955368044
112,124,355181,1,0,0:0:0:0:
248,96,355317,2,0,B|244:140|164:180|164:180|224:256,1,194.999991073609
360,124,355726,1,0,0:0:0:0:
292,340,355862,1,0,0:0:0:0:
160,212,355999,6,0,B|132:152|132:152|164:120,1,97.4999955368044
272,216,356271,6,0,B|300:276|300:276|277:298,1,97.4999955368044
432,308,356544,1,0,0:0:0:0:
296,120,356681,1,0,0:0:0:0:
88,180,356817,2,0,P|116:120|148:104,1,97.4999955368044
228,280,357090,1,0,0:0:0:0:
288,120,357226,2,0,B|240:144|240:144|200:192,1,97.4999955368044
108,328,357499,1,0,0:0:0:0:
128,84,357635,1,0,0:0:0:0:
204,312,357771,2,0,L|252:208,1,97.4999955368044
224,96,358044,6,0,P|144:156|96:248,1,194.999991073609
184,340,358453,1,0,0:0:0:0:
276,224,358590,1,0,0:0:0:0:
368,344,358726,2,0,P|304:328|264:288,1,97.4999955368044
296,112,358999,1,0,0:0:0:0:
327,88,359067,1,0,0:0:0:0:
364,104,359136,1,0,0:0:0:0:
360,145,359204,1,0,0:0:0:0:
324,165,359272,2,0,P|280:180|224:172,1,97.4999955368044
144,64,359544,2,0,P|92:104|80:144,1,97.4999955368044
116,320,359817,5,0,0:0:0:0:
276,80,359953,1,0,0:0:0:0:
76,240,360908,6,0,B|112:260|112:260|120:308|120:308|180:292|220:236,1,194.999991073609
252,44,361317,2,0,P|284:88|288:144,1,97.4999955368044
324,236,361590,1,0,0:0:0:0:
212,112,361726,1,0,0:0:0:0:
460,140,361862,1,0,0:0:0:0:
440,64,361999,2,0,P|392:104|384:168,1,97.4999955368044
324,236,362271,1,0,0:0:0:0:
144,64,362408,1,0,0:0:0:0:
148,228,362544,6,0,P|172:276|212:304,1,97.4999955368044
244,124,362817,6,0,P|224:173|233:225,1,97.4999955368044
352,192,363090,1,0,0:0:0:0:
364,268,363226,2,0,P|412:236|424:176,1,97.4999955368044
324,56,363499,1,0,0:0:0:0:
176,104,363635,2,0,B|176:156|176:156|196:200,1,97.4999955368044
40,224,363908,1,0,0:0:0:0:
100,76,364044,2,0,B|136:48|136:48|204:72,1,97.4999955368044
380,176,364317,2,0,L|288:240,1,97.4999955368044
168,172,364590,1,0,0:0:0:0:
256,84,364726,6,0,P|316:60|380:52,2,97.4999955368044
80,196,365135,1,0,0:0:0:0:
256,252,365271,1,0,0:0:0:0:
80,332,365408,1,0,0:0:0:0:
256,136,365544,2,0,P|312:148|372:204,1,97.4999955368044
244,276,365817,1,0,0:0:0:0:
320,48,365953,1,0,0:0:0:0:
148,148,366090,1,0,0:0:0:0:
372,264,366226,1,0,0:0:0:0:
212,56,366362,1,0,0:0:0:0:
216,308,366499,1,0,0:0:0:0:
456,144,366635,1,0,0:0:0:0:
328,84,366771,6,0,P|280:116|252:164,1,97.4999955368044
152,64,367044,1,0,0:0:0:0:
176,248,367181,1,0,0:0:0:0:
360,268,367317,1,0,0:0:0:0:
200,340,367453,2,0,B|140:324|140:324|92:288,1,97.4999955368044
184,212,367726,2,0,P|188:160|232:156,1,97.4999955368044
336,240,367999,1,0,0:0:0:0:
168,328,368135,1,0,0:0:0:0:
76,200,368271,2,0,B|84:132|84:132|120:108,1,97.4999955368044
260,84,368544,2,0,P|292:124|296:188,1,97.4999955368044
272,332,368817,5,0,0:0:0:0:
236,320,368885,1,0,0:0:0:0:
204,296,368953,1,0,0:0:0:0:
188,260,369021,1,0,0:0:0:0:
184,220,369090,1,0,0:0:0:0:
196,184,369158,1,0,0:0:0:0:
220,156,369226,1,0,0:0:0:0:
252,136,369294,1,0,0:0:0:0:
292,132,369362,1,0,0:0:0:0:
332,140,369431,1,0,0:0:0:0:
368,124,369499,1,0,0:0:0:0:
376,84,369567,1,0,0:0:0:0:
360,48,369635,1,0,0:0:0:0:
324,36,369703,1,0,0:0:0:0:
288,52,369771,1,0,0:0:0:0:
272,88,369840,1,0,0:0:0:0:
292,132,369908,1,0,0:0:0:0:
148,96,382726,6,0,P|212:120|252:152,1,112.500004291535
356,196,383271,2,0,B|369:211|369:211|320:236,1,56.2500021457673
376,120,383817,2,0,P|336:80|272:60,1,112.500004291535
100,160,384499,2,0,B|132:224|216:224|216:224|220:188,1,168.750006437302
112,288,385181,1,0,0:0:0:0:
256,192,385249,12,0,387362,0:0:0:0:
184,136,388453,6,0,B|184:76|260:32|328:76|336:156|336:156|224:176|224:264|224:264|220:264,1,393.750015020371
228,260,388999,2,0,B|304:256|364:320|364:320|390:251|456:236|456:236|376:192|416:80,1,450.000017166138
212,48,389726,2,0,P|172:104|88:128,1,119.999996337891
208,184,390090,1,0,0:0:0:0:
284,124,390271,2,0,P|348:152|384:216,1,119.999996337891
208,224,390635,1,0,0:0:0:0:
328,296,390817,1,0,0:0:0:0:
400,168,390999,1,0,0:0:0:0:
220,300,391181,1,0,0:0:0:0:
276,188,391362,1,0,0:0:0:0:
412,280,391544,1,0,0:0:0:0:
200,136,391726,6,0,P|280:108|372:152,1,179.999994506836
384,208,392090,2,0,B|328:236|328:236|248:244,1,119.999996337891
112,152,392453,2,0,P|140:216|200:280,1,119.999996337891
224,128,392817,1,0,0:0:0:0:
116,72,393362,2,0,P|216:64|280:152,1,179.999994506836
284,188,393726,1,0,0:0:0:0:
248,252,393817,2,0,P|228:276|220:260,1,59.9999981689454
168,136,394271,6,0,P|232:156|260:172,1,59.9999981689454
340,184,394453,2,0,B|280:192|280:192|224:264,1,119.999996337891
168,336,394817,1,0,0:0:0:0:
184,208,394999,1,0,0:0:0:0:
40,284,395180,1,0,0:0:0:0:
56,136,395362,1,0,0:0:0:0:
104,344,395544,1,0,0:0:0:0:
192,208,395726,1,0,0:0:0:0:
20,248,395908,1,0,0:0:0:0:
188,320,396090,6,0,P|252:344|332:324,1,119.999996337891
364,312,396362,1,0,0:0:0:0:
420,264,396453,2,0,P|360:256|272:272,1,119.999996337891
128,236,396817,2,0,P|168:300|236:344,1,119.999996337891
202,327,397181,1,0,0:0:0:0:
204,180,397362,1,0,0:0:0:0:
56,288,397544,1,0,0:0:0:0:
280,256,397726,1,0,0:0:0:0:
104,152,397908,1,0,0:0:0:0:
96,352,398090,1,0,0:0:0:0:
223,271,398271,6,0,P|275:251|327:207,1,119.999996337891
325,211,398817,1,0,0:0:0:0:
325,211,399362,6,0,B|361:203|377:251|377:251|433:223|469:263|469:263|477:167|333:123,1,359.999989013672
358,131,400453,1,0,0:0:0:0:
358,131,400998,1,0,0:0:0:0:
358,131,401544,6,0,B|378:200|312:208|312:208|236:208|256:108|256:108|204:184|136:196,1,359.999989013672
164,187,402635,1,0,0:0:0:0:
164,187,403180,1,0,0:0:0:0:
164,187,403726,6,0,B|220:200|248:184|248:184|288:200|320:156|320:156|384:200|420:144|420:144|340:80,1,359.999989013672
362,98,404817,1,0,0:0:0:0:
362,98,405362,1,0,0:0:0:0:
362,98,405907,6,0,B|374:37|374:37|434:110|494:37|494:37|490:94|513:123|513:123|430:150,1,359.999989013672
316,164,406635,6,0,P|384:204|408:260,1,119.999996337891
268,252,406999,1,0,0:0:0:0:
204,324,407181,1,0,0:0:0:0:
116,356,407362,1,0,0:0:0:0:
20,360,407544,1,0,0:0:0:0:
88,292,407726,6,0,P|140:280|188:232,1,119.999996337891
100,192,408089,1,0,0:0:0:0:
180,140,408271,1,0,0:0:0:0:
186,234,408453,1,0,0:0:0:0:
232,148,408635,1,0,0:0:0:0:
236,244,408816,1,0,0:0:0:0:
276,156,408999,6,0,B|316:208|316:208|304:308,1,119.999996337891
176,192,409363,1,0,0:0:0:0:
172,288,409544,1,0,0:0:0:0:
120,208,409726,1,0,0:0:0:0:
164,292,409908,1,0,0:0:0:0:
68,300,410090,1,0,0:0:0:0:
260,292,410271,2,0,B|320:288|320:288|344:252|328:184,1,134.999995880127
260,216,410817,6,0,B|263:148|263:148|304:100|376:132|376:132|400:192,1,239.999992675781
368,288,411362,1,0,0:0:0:0:
232,312,411544,1,0,0:0:0:0:
140,172,411725,1,0,0:0:0:0:
88,308,411908,1,0,0:0:0:0:
328,240,412090,1,0,0:0:0:0:
180,72,412271,6,0,P|172:134|196:216,1,134.999995880127
288,316,412635,1,0,0:0:0:0:
324,156,412817,1,0,0:0:0:0:
400,136,412999,1,0,0:0:0:0:
236,264,413181,1,0,0:0:0:0:
316,300,413362,1,0,0:0:0:0:
280,100,413544,6,0,B|272:144|272:144|204:192,1,119.999996337891
460,96,413908,6,0,L|404:228,1,119.999996337891
148,248,414271,6,0,B|196:304|196:304|248:336,1,119.999996337891
336,136,414635,1,0,0:0:0:0:
328,145,414817,1,0,0:0:0:0:
321,155,414999,1,0,0:0:0:0:
314,165,415181,1,0,0:0:0:0:
307,174,415362,1,0,0:0:0:0:
300,184,415544,1,0,0:0:0:0:
76,296,415726,6,0,B|132:264|144:208|144:208|164:156|256:188|256:256|204:272|204:272|204:336|248:364,1,359.999989013672
328,224,416544,1,0,0:0:0:0:
292,48,416817,6,0,B|241:92|241:92|292:116|298:159|298:159|366:103|366:103|430:119|424:216,1,359.999989013672
296,268,417635,1,0,0:0:0:0:
104,168,417908,6,0,B|160:168|184:136|184:136|248:212|316:120|316:120|376:212,1,359.999989013672
180,224,418635,2,0,P|160:288|224:352,1,119.999996337891
236,280,418999,6,0,B|332:296|400:237|400:237|308:68,1,359.999989013672
168,76,419726,2,0,B|140:100|140:100|172:128|188:204,1,119.999996337891
272,68,420090,1,0,0:0:0:0:
348,188,420271,2,0,B|380:200|380:200|344:248|328:320,1,119.999996337891
132,140,420635,6,0,B|160:192|160:192|220:232,1,119.999996337891
224,132,420999,2,0,B|278:153|278:153|350:145,1,119.999996337891
296,52,421362,1,0,0:0:0:0:
336,224,421544,1,0,0:0:0:0:
208,56,421726,1,0,0:0:0:0:
400,176,421908,2,0,P|408:240|384:300,1,119.999996337891
336,232,422271,6,0,B|248:252|248:252|220:208|196:120|292:92|292:92|360:132,1,359.999989013672
292,172,423090,2,0,B|212:192|212:192|188:240|124:268,1,179.999994506836
116,104,424453,6,0,P|160:115|196:120,1,75
312,136,424862,1,0,0:0:0:0:
308,216,424999,1,0,0:0:0:0:
240,176,425135,1,0,0:0:0:0:
248,100,425271,1,0,0:0:0:0:
316,140,425408,1,0,0:0:0:0:
244,176,425544,1,0,0:0:0:0:
112,100,425817,5,0,0:0:0:0:
112,184,425953,1,0,0:0:0:0:
200,184,426090,1,0,0:0:0:0:
196,100,426226,1,0,0:0:0:0:
280,100,426362,1,0,0:0:0:0:
284,188,426499,1,0,0:0:0:0:
284,188,426635,1,0,0:0:0:0:
368,80,427044,5,0,0:0:0:0:
348,164,427181,1,0,0:0:0:0:
328,248,427317,1,0,0:0:0:0:
296,168,427453,1,0,0:0:0:0:
272,84,427590,1,0,0:0:0:0:
248,168,427726,1,0,0:0:0:0:
242,179,427794,1,0,0:0:0:0:
237,189,427862,1,0,0:0:0:0:
231,200,427931,1,0,0:0:0:0:
225,210,427999,2,0,P|191:178|181:146,1,75
272,72,428817,1,0,0:0:0:0:
256,192,428885,12,0,432090,0:0:0:0:
284,220,445726,5,0,0:0:0:0:
300,172,445999,1,0,0:0:0:0:
320,124,446271,2,0,P|376:112|440:180,1,150
356,208,447090,1,0,0:0:0:0:
272,208,447362,6,0,B|276:308|428:356|468:228|476:184|412:132|412:132|368:156|312:120,1,450.000017166138
184,80,448726,2,0,P|177:118|160:156,1,75
48,108,449271,1,0,0:0:0:0:
152,272,449544,2,0,B|96:276|64:236|64:236|93:194,1,150
188,88,450362,1,0,0:0:0:0:
164,204,450635,6,0,B|232:188|244:248|244:248|208:292,1,150
352,224,451453,2,0,P|336:276|308:296,1,75
196,324,451999,1,0,0:0:0:0:
240,228,452271,2,0,B|248:192|248:192|276:160,2,75
344,232,453226,1,0,0:0:0:0:
344,232,453635,1,0,0:0:0:0:
160,276,453908,1,0,0:0:0:0:
124,176,454181,2,0,P|192:200|276:208,1,150
272,136,454999,6,0,P|368:117|336:200,1,225
272,248,456090,1,0,0:0:0:0:
32,144,456635,2,0,P|56:184|84:208,1,75
120,152,457181,2,0,B|140:196|176:200|176:200|192:228|228:224|228:224|268:268|336:284,1,250
332,148,458408,1,0,0:0:0:0:
256,192,458476,12,0,463453,0:0:0:0:
332,216,463725,5,0,0:0:0:0:
96,112,463862,1,0,0:0:0:0:
216,268,463999,1,0,0:0:0:0:
312,96,464135,1,0,0:0:0:0:
120,212,464271,1,0,0:0:0:0:
272,344,464408,1,0,0:0:0:0:
208,144,464544,1,0,0:0:0:0:
400,128,464681,6,0,B|428:180|428:180|404:224,1,93.75
136,264,464953,1,0,0:0:0:0:
292,176,465090,1,0,0:0:0:0:
144,112,465226,1,0,0:0:0:0:
300,348,465362,1,0,0:0:0:0:
56,308,465499,1,0,0:0:0:0:
184,156,465635,1,0,0:0:0:0:
176,356,465771,1,0,0:0:0:0:
344,240,465908,6,0,P|380:204|408:132,1,93.75
260,52,466181,1,0,0:0:0:0:
208,232,466317,1,0,0:0:0:0:
112,144,466453,1,0,0:0:0:0:
332,144,466590,1,0,0:0:0:0:
144,288,466726,1,0,0:0:0:0:
192,64,466862,1,0,0:0:0:0:
344,228,466999,6,0,P|356:284|340:332,1,93.75
264,80,467271,1,0,0:0:0:0:
112,256,467408,6,0,P|168:268|224:241,1,93.75
204,48,467681,6,0,P|248:35|293:46,1,93.75
348,288,467954,1,0,0:0:0:0:
80,152,468090,1,0,0:0:0:0:
384,88,468226,1,0,0:0:0:0:
184,320,468362,1,0,0:0:0:0:
248,32,468499,6,0,B|184:68|184:68|164:104,1,93.75
436,72,468771,1,0,0:0:0:0:
260,316,468908,1,0,0:0:0:0:
68,152,469044,6,0,P|100:200|148:232,1,93.75
320,60,469317,1,0,0:0:0:0:
88,332,469453,1,0,0:0:0:0:
128,80,469590,6,0,P|168:120|192:168,1,93.75
180,344,469862,1,0,0:0:0:0:
40,68,469999,1,0,0:0:0:0:
340,144,470135,6,0,B|328:200|328:200|300:240,1,93.75
144,328,470408,1,0,0:0:0:0:
252,76,470544,1,0,0:0:0:0:
264,312,470681,1,0,0:0:0:0:
120,144,470817,1,0,0:0:0:0:
136,120,470953,1,0,0:0:0:0:
152,96,471090,1,0,0:0:0:0:
168,76,471226,1,0,0:0:0:0:
184,56,471362,5,0,0:0:0:0:
192,96,471431,1,0,0:0:0:0:
212,132,471499,1,0,0:0:0:0:
248,152,471567,1,0,0:0:0:0:
292,152,471635,6,0,B|352:144|372:108|372:108|348:232,1,187.5
164,336,472044,2,0,B|216:256|216:256|168:268|100:240,1,187.5
80,144,472453,5,0,0:0:0:0:
88,116,472521,1,0,0:0:0:0:
112,92,472590,1,0,0:0:0:0:
144,80,472658,1,0,0:0:0:0:
180,80,472726,1,0,0:0:0:0:
212,100,472794,1,0,0:0:0:0:
232,128,472862,1,0,0:0:0:0:
236,164,472931,1,0,0:0:0:0:
228,200,472999,1,0,0:0:0:0:
204,224,473067,1,0,0:0:0:0:
204,224,473135,1,0,0:0:0:0:
204,224,473203,5,0,0:0:0:0:
232,244,473271,1,0,0:0:0:0:
248,276,473340,1,0,0:0:0:0:
248,312,473408,1,0,0:0:0:0:
232,344,473476,1,0,0:0:0:0:
204,364,473544,2,0,L|176:372,3,18.75
148,304,473817,2,0,L|132:288,3,18.75
176,232,474090,2,0,L|172:208,3,18.75
224,128,474362,5,0,0:0:0:0:
252,148,474431,1,0,0:0:0:0:
264,180,474499,1,0,0:0:0:0:
260,212,474567,1,0,0:0:0:0:
240,240,474635,1,0,0:0:0:0:
240,240,474703,1,0,0:0:0:0:
240,240,474771,5,0,0:0:0:0:
216,224,474840,1,0,0:0:0:0:
191,210,474908,1,0,0:0:0:0:
167,196,474976,1,0,0:0:0:0:
142,183,475044,1,0,0:0:0:0:
118,169,475112,1,0,0:0:0:0:
90,154,475181,1,0,0:0:0:0:
120,144,475249,1,0,0:0:0:0:
148,144,475317,1,0,0:0:0:0:
176,152,475385,1,0,0:0:0:0:
200,172,475453,1,0,0:0:0:0:
212,200,475521,1,0,0:0:0:0:
216,232,475590,1,0,0:0:0:0:
228,260,475658,1,0,0:0:0:0:
252,280,475726,5,0,0:0:0:0:
280,284,475794,1,0,0:0:0:0:
308,276,475862,1,0,0:0:0:0:
324,252,475931,1,0,0:0:0:0:
320,224,475999,1,0,0:0:0:0:
296,204,476067,1,0,0:0:0:0:
272,188,476135,1,0,0:0:0:0:
256,164,476203,1,0,0:0:0:0:
252,132,476271,6,0,P|316:60|356:152,1,225.000008583069
204,316,476817,1,0,0:0:0:0:
324,104,477908,1,0,0:0:0:0:
312,308,478999,1,0,0:0:0:0:
100,92,480090,6,0,P|136:168|224:228,1,168.750006437302
220,228,480362,6,0,B|148:244|148:244|120:292|52:320,1,168.750006437302
56,316,480635,6,0,B|60:252|84:224|84:224|56:136,1,168.750006437302
60,132,480908,6,0,P|152:148|136:196,1,168.750006437302
128,216,481181,6,0,B|180:220|216:192|216:192|272:204|312:176|312:176|408:204|426:268|426:268|324:324,1,450.000017166138
200,320,482135,1,0,0:0:0:0:
176,108,482681,1,0,0:0:0:0:
348,112,483294,5,0,0:0:0:0:
340,160,483362,1,0,0:0:0:0:
320,208,483431,1,0,0:0:0:0:
280,240,483499,1,0,0:0:0:0:
232,256,483567,1,0,0:0:0:0:
180,252,483635,1,0,0:0:0:0:
136,228,483703,1,0,0:0:0:0:
100,192,483771,1,0,0:0:0:0:
96,140,483840,1,0,0:0:0:0:
124,96,483908,1,0,0:0:0:0:
172,88,483976,1,0,0:0:0:0:
208,124,484044,1,0,0:0:0:0:
204,176,484112,1,0,0:0:0:0:
160,204,484181,1,0,0:0:0:0:
120,236,484249,1,0,0:0:0:0:
112,288,484317,1,0,0:0:0:0:
140,332,484385,1,0,0:0:0:0:
176,344,484453,6,0,P|204:348|236:340,1,56.2500021457673
316,272,484590,2,0,P|288:276|260:268,1,56.2500021457673
192,196,484726,2,0,P|224:188|248:168,1,56.2500021457673
336,168,484862,2,0,P|304:136|296:104,1,56.2500021457673
216,32,484999,5,0,0:0:0:0:
264,40,485067,1,0,0:0:0:0:
308,68,485135,1,0,0:0:0:0:
328,116,485203,1,0,0:0:0:0:
324,168,485271,1,0,0:0:0:0:
296,212,485340,1,0,0:0:0:0:
248,232,485408,1,0,0:0:0:0:
196,232,485476,1,0,0:0:0:0:
152,208,485544,1,0,0:0:0:0:
256,192,485612,12,0,487726,0:0:0:0:
256,192,487794,12,0,489908,0:0:0:0:
256,192,489976,12,0,492090,0:0:0:0:
256,192,492158,12,0,494271,0:0:0:0:
