osu file format v14

[General]
AudioFilename: audio.ogg
AudioLeadIn: 0
PreviewTime: 162695
Countdown: 0
SampleSet: Normal
StackLeniency: 0.7
Mode: 3
LetterboxInBreaks: 0
SpecialStyle: 0
WidescreenStoryboard: 1

[Editor]
Bookmarks: 33671,52402,68793,87524,106256,143719,181157,237352,256084,274815,293547,312279,331010,369380,388112,411527,430258,467722,486453,505185,523917,527429
DistanceSpacing: 1
BeatDivisor: 4
GridSize: 16
TimelineZoom: 2.6

[Metadata]
Title:Uta
TitleUnicode:謳
Artist:Imperial Circus Dead Decadence
ArtistUnicode:Imperial Circus Dead Decadence
Creator:tyrcs
Version:Postmortal Harmony
Source:
Tags:metal japanese symphonic black metal featured artist fa 狂​お​し​く​咲​い​た​凄​惨​な​骸​は​奏​で​、​愛​お​し​く​裂​い​た​少​女​は​聖​餐​の​詞​を​謳​う​。 Kuruoshiku Saita Seisan Na Mukuro Wa Kanade, Itooshiku Saita Shoujo Wa Seisan No Shi Wo Utau. VorteX Electric Red ICDD Rib:y(uhki) L.G.C. KIM Kylie Hull VAGUEDGE Another Stream Kimiko PEATH2 TOME あにょ REINO Hellnear LN Dump
BeatmapID:3779106
BeatmapSetID:1839986

[Difficulty]
HPDrainRate:8
CircleSize:7
OverallDifficulty:7
ApproachRate:5
SliderMultiplier:1.4
SliderTickRate:1

[Events]
//Background and Video events
0,0,"nanomortis.jpg",0,0
//Break Periods
2,331780,349280
//Storyboard Layer 0 (Background)
//Storyboard Layer 1 (Fail)
//Storyboard Layer 2 (Pass)
//Storyboard Layer 3 (Foreground)
//Storyboard Layer 4 (Overlay)
//Storyboard Sound Samples

[TimingPoints]
33915,292.682926829268,4,1,1,25,1,0
162695,-100,4,1,1,25,0,1
170890,-100,4,1,1,25,0,0
172061,-100,4,1,1,25,0,1
180841,-100,4,1,1,25,0,0
312549,-100,4,1,1,25,0,1
320744,-100,4,1,1,25,0,0
321914,-100,4,1,1,25,0,1
330110,-100,4,1,1,25,0,0
331280,300,4,1,1,25,1,0
331280,-97.5609756097561,4,1,1,25,0,0
368480,292.682926829268,4,1,1,25,1,0
369650,292.682926829268,4,1,1,25,1,0
388381,-100,4,1,1,25,0,1
407113,-100,4,1,1,25,0,0
486723,-100,4,1,1,25,0,1
494918,-100,4,1,1,25,0,0
496089,-100,4,1,1,25,0,1
504284,-100,4,1,1,25,0,0

[HitObjects]
475,192,33915,5,0,0:0:0:0:
109,192,33915,128,0,34061:0:0:0:0:
182,192,33915,128,0,34354:0:0:0:0:
36,192,33915,128,0,34646:0:0:0:0:
256,192,33915,128,0,35232:0:0:0:0:
402,192,33915,1,0,0:0:0:0:
329,192,33915,128,0,34134:0:0:0:0:
475,192,34061,128,0,34134:0:0:0:0:
109,192,34207,128,0,34939:0:0:0:0:
475,192,34354,128,0,34427:0:0:0:0:
182,192,34500,128,0,35524:0:0:0:0:
475,192,34646,128,0,34719:0:0:0:0:
36,192,34793,128,0,36183:0:0:0:0:
475,192,34939,128,0,35012:0:0:0:0:
109,192,35085,128,0,35817:0:0:0:0:
475,192,35232,128,0,35305:0:0:0:0:
256,192,35378,128,0,35524:0:0:0:0:
475,192,35524,128,0,35597:0:0:0:0:
182,192,35671,128,0,35817:0:0:0:0:
475,192,35817,128,0,35890:0:0:0:0:
256,192,35927,128,0,36165:0:0:0:0:
329,192,35945,128,0,36183:0:0:0:0:
109,192,35963,128,0,36110:0:0:0:0:
402,192,35963,128,0,36201:0:0:0:0:
475,192,35982,1,0,0:0:0:0:
475,192,36256,1,0,0:0:0:0:
109,192,36256,128,0,36402:0:0:0:0:
182,192,36256,128,0,36695:0:0:0:0:
36,192,36256,128,0,36988:0:0:0:0:
256,192,36256,128,0,37573:0:0:0:0:
402,192,36256,1,0,0:0:0:0:
329,192,36256,128,0,36475:0:0:0:0:
475,192,36402,128,0,36475:0:0:0:0:
109,192,36549,128,0,37280:0:0:0:0:
475,192,36695,128,0,36768:0:0:0:0:
182,192,36841,128,0,37866:0:0:0:0:
475,192,36988,128,0,37061:0:0:0:0:
36,192,37134,128,0,38524:0:0:0:0:
475,192,37280,128,0,37354:0:0:0:0:
109,192,37427,128,0,38158:0:0:0:0:
475,192,37573,128,0,37646:0:0:0:0:
329,192,37719,128,0,37866:0:0:0:0:
475,192,37866,128,0,37939:0:0:0:0:
256,192,38012,128,0,38158:0:0:0:0:
475,192,38158,128,0,38232:0:0:0:0:
329,192,38268,128,0,38506:0:0:0:0:
402,192,38286,128,0,38524:0:0:0:0:
182,192,38305,128,0,38451:0:0:0:0:
475,192,38305,128,0,38543:0:0:0:0:
109,192,38305,1,0,0:0:0:0:
256,192,38323,1,0,0:0:0:0:
475,192,38597,128,0,40866:0:0:0:0:
402,192,38597,1,0,0:0:0:0:
329,192,38597,128,0,40500:0:0:0:0:
256,192,38597,128,0,39915:0:0:0:0:
182,192,38597,128,0,39036:0:0:0:0:
109,192,38597,128,0,38744:0:0:0:0:
36,192,38597,128,0,39329:0:0:0:0:
402,192,38744,128,0,38817:0:0:0:0:
109,192,38890,128,0,39622:0:0:0:0:
402,192,39036,128,0,39110:0:0:0:0:
182,192,39183,128,0,40207:0:0:0:0:
402,192,39329,128,0,39402:0:0:0:0:
36,192,39475,128,0,40866:0:0:0:0:
402,192,39622,128,0,39695:0:0:0:0:
109,192,39768,128,0,39915:0:0:0:0:
402,192,39915,128,0,39988:0:0:0:0:
256,192,40061,128,0,40207:0:0:0:0:
402,192,40207,128,0,40280:0:0:0:0:
182,192,40354,128,0,40866:0:0:0:0:
109,192,40500,128,0,40573:0:0:0:0:
329,192,40646,128,0,40866:0:0:0:0:
256,192,40793,128,0,40866:0:0:0:0:
109,192,40939,1,0,0:0:0:0:
36,192,40939,1,0,0:0:0:0:
402,192,40939,1,0,0:0:0:0:
475,192,40939,1,0,0:0:0:0:
256,192,40939,128,0,41378:0:0:0:0:
182,192,41012,1,0,0:0:0:0:
329,192,41012,1,0,0:0:0:0:
109,192,41085,1,0,0:0:0:0:
402,192,41085,1,0,0:0:0:0:
329,192,41158,1,0,0:0:0:0:
182,192,41158,1,0,0:0:0:0:
36,192,41232,1,0,0:0:0:0:
475,192,41232,1,0,0:0:0:0:
402,192,41305,1,0,0:0:0:0:
109,192,41305,1,0,0:0:0:0:
36,192,41378,1,0,0:0:0:0:
475,192,41378,1,0,0:0:0:0:
329,192,41451,1,0,0:0:0:0:
182,192,41451,1,0,0:0:0:0:
256,192,41524,1,0,0:0:0:0:
36,192,41524,1,0,0:0:0:0:
402,192,41524,1,0,0:0:0:0:
475,192,41524,1,0,0:0:0:0:
109,192,41597,1,0,0:0:0:0:
329,192,41671,1,0,0:0:0:0:
402,192,41671,1,0,0:0:0:0:
475,192,41671,1,0,0:0:0:0:
109,192,41744,1,0,0:0:0:0:
182,192,41744,128,0,41817:0:0:0:0:
256,192,41744,128,0,41890:0:0:0:0:
402,192,41817,1,0,0:0:0:0:
475,192,41817,1,0,0:0:0:0:
329,192,41817,128,0,41890:0:0:0:0:
182,192,41890,1,0,0:0:0:0:
109,192,41890,128,0,41963:0:0:0:0:
36,192,41890,1,0,0:0:0:0:
402,192,41963,1,0,0:0:0:0:
256,192,41963,128,0,42110:0:0:0:0:
329,192,41963,128,0,42036:0:0:0:0:
109,192,42036,1,0,0:0:0:0:
36,192,42036,1,0,0:0:0:0:
182,192,42036,128,0,42110:0:0:0:0:
329,192,42110,1,0,0:0:0:0:
475,192,42110,128,0,43207:0:0:0:0:
402,192,42110,128,0,42183:0:0:0:0:
109,192,42183,1,0,0:0:0:0:
256,192,42183,1,0,0:0:0:0:
36,192,42256,1,0,0:0:0:0:
329,192,42256,1,0,0:0:0:0:
182,192,42329,1,0,0:0:0:0:
402,192,42402,128,0,43061:0:0:0:0:
256,192,42402,1,0,0:0:0:0:
36,192,42402,1,0,0:0:0:0:
109,192,42475,1,0,0:0:0:0:
329,192,42475,1,0,0:0:0:0:
256,192,42549,1,0,0:0:0:0:
109,192,42622,1,0,0:0:0:0:
329,192,42695,128,0,42915:0:0:0:0:
256,192,42695,1,0,0:0:0:0:
36,192,42695,1,0,0:0:0:0:
109,192,42768,1,0,0:0:0:0:
36,192,42841,1,0,0:0:0:0:
182,192,42841,1,0,0:0:0:0:
256,192,42915,1,0,0:0:0:0:
36,192,42988,1,0,0:0:0:0:
109,192,42988,1,0,0:0:0:0:
256,192,43061,1,0,0:0:0:0:
329,192,43061,1,0,0:0:0:0:
182,192,43134,1,0,0:0:0:0:
109,192,43134,1,0,0:0:0:0:
329,192,43207,1,0,0:0:0:0:
402,192,43207,1,0,0:0:0:0:
36,192,43280,1,0,0:0:0:0:
402,192,43280,128,0,43427:0:0:0:0:
329,192,43280,128,0,43719:0:0:0:0:
475,192,43280,128,0,44012:0:0:0:0:
256,192,43280,128,0,44597:0:0:0:0:
109,192,43280,1,0,0:0:0:0:
182,192,43280,128,0,43500:0:0:0:0:
36,192,43427,128,0,43500:0:0:0:0:
402,192,43573,128,0,44305:0:0:0:0:
36,192,43719,128,0,43793:0:0:0:0:
329,192,43866,128,0,44890:0:0:0:0:
36,192,44012,128,0,44085:0:0:0:0:
475,192,44158,128,0,45549:0:0:0:0:
36,192,44305,128,0,44378:0:0:0:0:
402,192,44451,128,0,45183:0:0:0:0:
36,192,44597,128,0,44671:0:0:0:0:
256,192,44744,128,0,44890:0:0:0:0:
36,192,44890,128,0,44963:0:0:0:0:
329,192,45036,128,0,45183:0:0:0:0:
36,192,45183,128,0,45256:0:0:0:0:
256,192,45293,128,0,45530:0:0:0:0:
182,192,45311,128,0,45549:0:0:0:0:
402,192,45329,128,0,45475:0:0:0:0:
109,192,45329,128,0,45567:0:0:0:0:
36,192,45347,1,0,0:0:0:0:
36,192,45622,1,0,0:0:0:0:
402,192,45622,128,0,45768:0:0:0:0:
329,192,45622,128,0,46061:0:0:0:0:
475,192,45622,128,0,46354:0:0:0:0:
256,192,45622,128,0,46939:0:0:0:0:
109,192,45622,1,0,0:0:0:0:
182,192,45622,128,0,45841:0:0:0:0:
36,192,45768,128,0,45841:0:0:0:0:
402,192,45915,128,0,46646:0:0:0:0:
36,192,46061,128,0,46134:0:0:0:0:
329,192,46207,128,0,47232:0:0:0:0:
36,192,46354,128,0,46427:0:0:0:0:
475,192,46500,128,0,47890:0:0:0:0:
36,192,46646,128,0,46719:0:0:0:0:
402,192,46793,128,0,47524:0:0:0:0:
36,192,46939,128,0,47012:0:0:0:0:
182,192,47085,128,0,47232:0:0:0:0:
36,192,47232,128,0,47305:0:0:0:0:
256,192,47378,128,0,47524:0:0:0:0:
36,192,47524,128,0,47597:0:0:0:0:
182,192,47634,128,0,47872:0:0:0:0:
109,192,47652,128,0,47890:0:0:0:0:
329,192,47671,128,0,47817:0:0:0:0:
36,192,47671,128,0,47908:0:0:0:0:
402,192,47671,1,0,0:0:0:0:
256,192,47689,1,0,0:0:0:0:
36,192,47963,1,0,0:0:0:0:
402,192,47963,128,0,48110:0:0:0:0:
329,192,47963,128,0,48402:0:0:0:0:
475,192,47963,128,0,48695:0:0:0:0:
256,192,47963,128,0,49280:0:0:0:0:
109,192,47963,1,0,0:0:0:0:
182,192,47963,128,0,48183:0:0:0:0:
36,192,48110,128,0,48183:0:0:0:0:
402,192,48256,128,0,48988:0:0:0:0:
36,192,48402,128,0,48475:0:0:0:0:
329,192,48549,128,0,49573:0:0:0:0:
36,192,48695,128,0,48768:0:0:0:0:
475,192,48841,128,0,50158:0:0:0:0:
36,192,48988,128,0,49061:0:0:0:0:
402,192,49134,128,0,49866:0:0:0:0:
36,192,49280,128,0,49354:0:0:0:0:
182,192,49427,128,0,49573:0:0:0:0:
109,192,49573,128,0,49646:0:0:0:0:
256,192,49719,128,0,49866:0:0:0:0:
182,192,49866,128,0,49939:0:0:0:0:
329,192,50012,128,0,50158:0:0:0:0:
256,192,50158,128,0,50232:0:0:0:0:
36,192,50305,128,0,50524:0:0:0:0:
109,192,50305,128,0,50524:0:0:0:0:
182,192,50305,128,0,50524:0:0:0:0:
475,192,50305,128,0,50744:0:0:0:0:
402,192,50305,128,0,50597:0:0:0:0:
256,192,50305,128,0,50671:0:0:0:0:
329,192,50305,1,0,0:0:0:0:
109,192,50597,1,0,0:0:0:0:
182,192,50597,128,0,50671:0:0:0:0:
36,192,50597,128,0,50671:0:0:0:0:
402,192,50671,1,0,0:0:0:0:
329,192,50671,128,0,50817:0:0:0:0:
182,192,50744,1,0,0:0:0:0:
256,192,50744,128,0,50817:0:0:0:0:
109,192,50744,128,0,50817:0:0:0:0:
475,192,50817,1,0,0:0:0:0:
402,192,50817,128,0,50890:0:0:0:0:
182,192,50890,128,0,51183:0:0:0:0:
329,192,50890,128,0,51110:0:0:0:0:
36,192,50890,128,0,51329:0:0:0:0:
256,192,50890,128,0,51256:0:0:0:0:
475,192,51183,1,0,0:0:0:0:
329,192,51183,128,0,51256:0:0:0:0:
402,192,51183,128,0,51256:0:0:0:0:
182,192,51256,128,0,51402:0:0:0:0:
109,192,51256,1,0,0:0:0:0:
402,192,51329,1,0,0:0:0:0:
256,192,51329,128,0,51402:0:0:0:0:
329,192,51329,128,0,51402:0:0:0:0:
109,192,51402,128,0,51475:0:0:0:0:
36,192,51402,1,0,0:0:0:0:
475,192,51475,128,0,52280:0:0:0:0:
182,192,51475,1,0,0:0:0:0:
329,192,51475,128,0,51695:0:0:0:0:
402,192,51475,128,0,51988:0:0:0:0:
256,192,51549,1,0,0:0:0:0:
36,192,51549,1,0,0:0:0:0:
182,192,51622,1,0,0:0:0:0:
256,192,51695,1,0,0:0:0:0:
36,192,51768,128,0,52549:0:0:0:0:
329,192,51768,1,0,0:0:0:0:
109,192,51768,1,0,0:0:0:0:
109,192,51963,1,0,0:0:0:0:
182,192,51963,1,0,0:0:0:0:
109,192,52061,128,0,52549:0:0:0:0:
182,192,52061,1,0,0:0:0:0:
402,192,52061,1,0,0:0:0:0:
329,192,52061,1,0,0:0:0:0:
256,192,52061,1,0,0:0:0:0:
329,192,52158,1,0,0:0:0:0:
182,192,52207,128,0,52549:0:0:0:0:
402,192,52256,1,0,0:0:0:0:
329,192,52354,1,0,0:0:0:0:
256,192,52354,1,0,0:0:0:0:
475,192,52354,1,0,0:0:0:0:
402,192,52354,1,0,0:0:0:0:
329,192,52549,1,0,0:0:0:0:
475,192,52549,1,0,0:0:0:0:
182,192,52646,1,0,0:0:0:0:
256,192,52646,1,0,0:0:0:0:
475,192,52646,128,0,54622:0:0:0:0:
329,192,52646,128,0,57256:0:0:0:0:
36,192,52646,128,0,52866:0:0:0:0:
402,192,52793,1,0,0:0:0:0:
109,192,52793,128,0,52866:0:0:0:0:
182,192,52793,128,0,52866:0:0:0:0:
36,192,52939,1,0,0:0:0:0:
256,192,52939,1,0,0:0:0:0:
182,192,52939,128,0,53158:0:0:0:0:
402,192,53085,1,0,0:0:0:0:
36,192,53085,128,0,53158:0:0:0:0:
109,192,53085,128,0,53158:0:0:0:0:
109,192,53232,128,0,53451:0:0:0:0:
256,192,53232,1,0,0:0:0:0:
182,192,53232,1,0,0:0:0:0:
36,192,53305,1,0,0:0:0:0:
402,192,53378,1,0,0:0:0:0:
182,192,53378,128,0,53451:0:0:0:0:
256,192,53378,128,0,53451:0:0:0:0:
256,192,53524,128,0,53744:0:0:0:0:
109,192,53524,1,0,0:0:0:0:
36,192,53524,1,0,0:0:0:0:
402,192,53671,1,0,0:0:0:0:
109,192,53671,128,0,53744:0:0:0:0:
182,192,53671,128,0,53744:0:0:0:0:
182,192,53817,128,0,54036:0:0:0:0:
36,192,53817,1,0,0:0:0:0:
256,192,53817,1,0,0:0:0:0:
402,192,53963,1,0,0:0:0:0:
109,192,53963,128,0,54036:0:0:0:0:
36,192,53963,128,0,54036:0:0:0:0:
36,192,54110,128,0,54329:0:0:0:0:
182,192,54110,1,0,0:0:0:0:
256,192,54110,1,0,0:0:0:0:
402,192,54256,1,0,0:0:0:0:
109,192,54256,128,0,54329:0:0:0:0:
182,192,54256,128,0,54329:0:0:0:0:
256,192,54402,128,0,54622:0:0:0:0:
36,192,54402,1,0,0:0:0:0:
182,192,54475,1,0,0:0:0:0:
402,192,54549,1,0,0:0:0:0:
109,192,54549,128,0,54622:0:0:0:0:
36,192,54549,128,0,54622:0:0:0:0:
475,192,54695,1,0,0:0:0:0:
402,192,54695,128,0,54915:0:0:0:0:
109,192,54695,128,0,54915:0:0:0:0:
182,192,54695,1,0,0:0:0:0:
256,192,54695,1,0,0:0:0:0:
475,192,54841,1,0,0:0:0:0:
256,192,54841,128,0,54915:0:0:0:0:
36,192,54841,128,0,54915:0:0:0:0:
475,192,54988,128,0,56963:0:0:0:0:
36,192,54988,128,0,55207:0:0:0:0:
182,192,54988,1,0,0:0:0:0:
109,192,54988,1,0,0:0:0:0:
256,192,54988,1,0,0:0:0:0:
402,192,55134,1,0,0:0:0:0:
109,192,55134,128,0,55207:0:0:0:0:
182,192,55134,128,0,55207:0:0:0:0:
182,192,55280,128,0,55500:0:0:0:0:
36,192,55280,1,0,0:0:0:0:
256,192,55280,1,0,0:0:0:0:
402,192,55427,1,0,0:0:0:0:
109,192,55427,128,0,55500:0:0:0:0:
36,192,55427,128,0,55500:0:0:0:0:
182,192,55573,1,0,0:0:0:0:
109,192,55573,128,0,55793:0:0:0:0:
256,192,55573,1,0,0:0:0:0:
36,192,55646,1,0,0:0:0:0:
402,192,55719,1,0,0:0:0:0:
256,192,55719,128,0,55793:0:0:0:0:
182,192,55719,128,0,55793:0:0:0:0:
256,192,55866,128,0,56085:0:0:0:0:
36,192,55866,1,0,0:0:0:0:
109,192,55866,1,0,0:0:0:0:
402,192,56012,1,0,0:0:0:0:
109,192,56012,128,0,56085:0:0:0:0:
182,192,56012,128,0,56085:0:0:0:0:
182,192,56158,128,0,56378:0:0:0:0:
36,192,56158,1,0,0:0:0:0:
256,192,56158,1,0,0:0:0:0:
402,192,56305,1,0,0:0:0:0:
36,192,56305,128,0,56378:0:0:0:0:
109,192,56305,128,0,56378:0:0:0:0:
256,192,56451,128,0,56671:0:0:0:0:
182,192,56451,1,0,0:0:0:0:
36,192,56451,1,0,0:0:0:0:
402,192,56597,1,0,0:0:0:0:
109,192,56597,128,0,56671:0:0:0:0:
182,192,56597,128,0,56671:0:0:0:0:
36,192,56744,128,0,56963:0:0:0:0:
109,192,56744,1,0,0:0:0:0:
256,192,56817,1,0,0:0:0:0:
402,192,56890,1,0,0:0:0:0:
109,192,56890,128,0,56963:0:0:0:0:
182,192,56890,128,0,56963:0:0:0:0:
475,192,57036,1,0,0:0:0:0:
402,192,57036,128,0,57256:0:0:0:0:
109,192,57036,128,0,57256:0:0:0:0:
256,192,57036,1,0,0:0:0:0:
36,192,57036,1,0,0:0:0:0:
36,192,57183,128,0,57256:0:0:0:0:
256,192,57183,128,0,57256:0:0:0:0:
475,192,57183,1,0,0:0:0:0:
109,192,57329,128,0,57402:0:0:0:0:
402,192,57329,128,0,57402:0:0:0:0:
475,192,57329,128,0,58427:0:0:0:0:
182,192,57329,128,0,58427:0:0:0:0:
256,192,57329,1,0,0:0:0:0:
329,192,57329,128,0,57549:0:0:0:0:
36,192,57475,128,0,57622:0:0:0:0:
256,192,57475,128,0,57549:0:0:0:0:
402,192,57475,1,0,0:0:0:0:
329,192,57622,1,0,0:0:0:0:
402,192,57622,128,0,57841:0:0:0:0:
109,192,57622,1,0,0:0:0:0:
256,192,57768,1,0,0:0:0:0:
329,192,57768,128,0,57841:0:0:0:0:
109,192,57768,128,0,57915:0:0:0:0:
402,192,57915,1,0,0:0:0:0:
256,192,57915,128,0,58134:0:0:0:0:
36,192,57915,1,0,0:0:0:0:
109,192,57988,1,0,0:0:0:0:
402,192,58061,1,0,0:0:0:0:
329,192,58061,128,0,58134:0:0:0:0:
36,192,58061,128,0,58207:0:0:0:0:
402,192,58207,128,0,58427:0:0:0:0:
256,192,58207,1,0,0:0:0:0:
109,192,58207,1,0,0:0:0:0:
329,192,58354,1,0,0:0:0:0:
36,192,58354,128,0,58427:0:0:0:0:
256,192,58354,128,0,58500:0:0:0:0:
109,192,58500,128,0,58573:0:0:0:0:
36,192,58500,128,0,59597:0:0:0:0:
402,192,58500,128,0,58573:0:0:0:0:
329,192,58500,128,0,59597:0:0:0:0:
182,192,58500,128,0,58719:0:0:0:0:
475,192,58500,1,0,0:0:0:0:
475,192,58646,128,0,58793:0:0:0:0:
256,192,58646,128,0,58719:0:0:0:0:
109,192,58646,1,0,0:0:0:0:
402,192,58793,1,0,0:0:0:0:
109,192,58793,128,0,59012:0:0:0:0:
182,192,58793,1,0,0:0:0:0:
402,192,58939,128,0,59085:0:0:0:0:
182,192,58939,128,0,59012:0:0:0:0:
256,192,58939,1,0,0:0:0:0:
109,192,59085,1,0,0:0:0:0:
256,192,59085,128,0,59305:0:0:0:0:
402,192,59158,1,0,0:0:0:0:
182,192,59232,128,0,59305:0:0:0:0:
109,192,59232,1,0,0:0:0:0:
475,192,59232,128,0,59378:0:0:0:0:
402,192,59378,1,0,0:0:0:0:
109,192,59378,128,0,59597:0:0:0:0:
256,192,59378,1,0,0:0:0:0:
182,192,59524,1,0,0:0:0:0:
475,192,59524,128,0,59597:0:0:0:0:
256,192,59524,128,0,59744:0:0:0:0:
36,192,59671,128,0,59744:0:0:0:0:
329,192,59671,128,0,60183:0:0:0:0:
182,192,59671,128,0,60183:0:0:0:0:
475,192,59671,128,0,59744:0:0:0:0:
109,192,59817,128,0,59890:0:0:0:0:
36,192,59817,128,0,59890:0:0:0:0:
256,192,59817,1,0,0:0:0:0:
402,192,59817,128,0,59890:0:0:0:0:
475,192,59817,128,0,59890:0:0:0:0:
109,192,59963,128,0,60036:0:0:0:0:
36,192,59963,128,0,60036:0:0:0:0:
256,192,59963,1,0,0:0:0:0:
402,192,59963,128,0,60036:0:0:0:0:
475,192,59963,128,0,60036:0:0:0:0:
109,192,60110,128,0,60183:0:0:0:0:
36,192,60110,128,0,60183:0:0:0:0:
256,192,60110,1,0,0:0:0:0:
402,192,60110,128,0,60183:0:0:0:0:
475,192,60110,128,0,60183:0:0:0:0:
256,192,60256,128,0,60329:0:0:0:0:
329,192,60256,128,0,60329:0:0:0:0:
36,192,60256,1,0,0:0:0:0:
109,192,60256,128,0,60329:0:0:0:0:
402,192,60329,128,0,60402:0:0:0:0:
475,192,60329,128,0,60402:0:0:0:0:
182,192,60402,128,0,60475:0:0:0:0:
256,192,60402,128,0,60475:0:0:0:0:
36,192,60402,128,0,60475:0:0:0:0:
329,192,60475,128,0,60549:0:0:0:0:
402,192,60475,128,0,60549:0:0:0:0:
182,192,60549,128,0,60622:0:0:0:0:
109,192,60549,128,0,60622:0:0:0:0:
475,192,60549,128,0,60622:0:0:0:0:
256,192,60622,128,0,60695:0:0:0:0:
329,192,60622,128,0,60695:0:0:0:0:
36,192,60695,128,0,60768:0:0:0:0:
109,192,60695,128,0,60768:0:0:0:0:
402,192,60695,128,0,60768:0:0:0:0:
256,192,60768,128,0,60841:0:0:0:0:
475,192,60768,1,0,0:0:0:0:
182,192,60768,1,0,0:0:0:0:
109,192,60841,128,0,61354:0:0:0:0:
402,192,60841,128,0,61061:0:0:0:0:
329,192,60841,1,0,0:0:0:0:
36,192,60841,128,0,60915:0:0:0:0:
475,192,60915,1,0,0:0:0:0:
182,192,60915,128,0,60988:0:0:0:0:
36,192,60988,1,0,0:0:0:0:
256,192,60988,128,0,61061:0:0:0:0:
182,192,61061,1,0,0:0:0:0:
329,192,61061,128,0,61134:0:0:0:0:
402,192,61134,128,0,61354:0:0:0:0:
256,192,61134,1,0,0:0:0:0:
475,192,61134,128,0,61207:0:0:0:0:
36,192,61207,1,0,0:0:0:0:
329,192,61207,128,0,61280:0:0:0:0:
475,192,61280,1,0,0:0:0:0:
256,192,61280,128,0,61354:0:0:0:0:
329,192,61354,1,0,0:0:0:0:
182,192,61354,128,0,61427:0:0:0:0:
109,192,61427,128,0,61573:0:0:0:0:
256,192,61427,1,0,0:0:0:0:
36,192,61427,128,0,61500:0:0:0:0:
475,192,61427,128,0,61500:0:0:0:0:
402,192,61500,128,0,61573:0:0:0:0:
182,192,61573,128,0,61646:0:0:0:0:
329,192,61573,128,0,61646:0:0:0:0:
109,192,61646,128,0,61719:0:0:0:0:
402,192,61646,128,0,61719:0:0:0:0:
329,192,61719,128,0,61793:0:0:0:0:
36,192,61719,128,0,61939:0:0:0:0:
256,192,61719,128,0,61939:0:0:0:0:
182,192,61719,128,0,61793:0:0:0:0:
475,192,61719,128,0,61939:0:0:0:0:
109,192,61866,128,0,61939:0:0:0:0:
402,192,61866,128,0,61939:0:0:0:0:
329,192,61939,1,0,0:0:0:0:
182,192,61939,1,0,0:0:0:0:
402,192,62012,1,0,0:0:0:0:
36,192,62012,128,0,63988:0:0:0:0:
475,192,62012,128,0,62232:0:0:0:0:
256,192,62012,128,0,63988:0:0:0:0:
109,192,62012,128,0,62085:0:0:0:0:
329,192,62158,128,0,62232:0:0:0:0:
402,192,62158,128,0,62232:0:0:0:0:
182,192,62158,1,0,0:0:0:0:
329,192,62305,128,0,62524:0:0:0:0:
475,192,62305,1,0,0:0:0:0:
109,192,62305,1,0,0:0:0:0:
402,192,62451,128,0,62524:0:0:0:0:
475,192,62451,128,0,62524:0:0:0:0:
109,192,62451,1,0,0:0:0:0:
402,192,62597,128,0,62817:0:0:0:0:
182,192,62597,1,0,0:0:0:0:
329,192,62597,1,0,0:0:0:0:
475,192,62671,1,0,0:0:0:0:
182,192,62744,128,0,62817:0:0:0:0:
109,192,62744,128,0,62817:0:0:0:0:
329,192,62744,1,0,0:0:0:0:
109,192,62890,128,0,63110:0:0:0:0:
402,192,62890,1,0,0:0:0:0:
475,192,62890,1,0,0:0:0:0:
329,192,63036,128,0,63110:0:0:0:0:
402,192,63036,128,0,63110:0:0:0:0:
182,192,63036,1,0,0:0:0:0:
475,192,63183,1,0,0:0:0:0:
329,192,63183,128,0,63402:0:0:0:0:
182,192,63183,1,0,0:0:0:0:
402,192,63256,1,0,0:0:0:0:
475,192,63329,128,0,63402:0:0:0:0:
182,192,63329,128,0,63402:0:0:0:0:
109,192,63329,128,0,63402:0:0:0:0:
109,192,63475,1,0,0:0:0:0:
182,192,63475,128,0,63695:0:0:0:0:
329,192,63475,1,0,0:0:0:0:
402,192,63622,128,0,63695:0:0:0:0:
475,192,63622,128,0,63695:0:0:0:0:
329,192,63622,1,0,0:0:0:0:
475,192,63768,128,0,63988:0:0:0:0:
402,192,63768,1,0,0:0:0:0:
182,192,63768,1,0,0:0:0:0:
329,192,63841,1,0,0:0:0:0:
109,192,63841,1,0,0:0:0:0:
182,192,63915,128,0,63988:0:0:0:0:
402,192,63915,128,0,63988:0:0:0:0:
36,192,64061,1,0,0:0:0:0:
329,192,64061,128,0,64280:0:0:0:0:
475,192,64061,128,0,64280:0:0:0:0:
182,192,64061,1,0,0:0:0:0:
109,192,64061,128,0,64280:0:0:0:0:
256,192,64134,1,0,0:0:0:0:
36,192,64207,1,0,0:0:0:0:
402,192,64207,1,0,0:0:0:0:
182,192,64207,1,0,0:0:0:0:
36,192,64354,128,0,65451:0:0:0:0:
256,192,64354,128,0,66329:0:0:0:0:
475,192,64354,128,0,64573:0:0:0:0:
109,192,64354,128,0,64427:0:0:0:0:
329,192,64354,1,0,0:0:0:0:
182,192,64500,1,0,0:0:0:0:
402,192,64500,128,0,64573:0:0:0:0:
329,192,64500,128,0,64573:0:0:0:0:
109,192,64646,1,0,0:0:0:0:
475,192,64646,1,0,0:0:0:0:
329,192,64646,128,0,64866:0:0:0:0:
109,192,64793,1,0,0:0:0:0:
475,192,64793,128,0,64866:0:0:0:0:
402,192,64793,128,0,64866:0:0:0:0:
329,192,64939,1,0,0:0:0:0:
182,192,64939,1,0,0:0:0:0:
402,192,64939,128,0,65158:0:0:0:0:
475,192,65012,1,0,0:0:0:0:
329,192,65085,1,0,0:0:0:0:
109,192,65085,128,0,65158:0:0:0:0:
182,192,65085,128,0,65158:0:0:0:0:
475,192,65232,1,0,0:0:0:0:
402,192,65232,1,0,0:0:0:0:
109,192,65232,128,0,65451:0:0:0:0:
182,192,65378,1,0,0:0:0:0:
402,192,65378,128,0,65451:0:0:0:0:
329,192,65378,128,0,65451:0:0:0:0:
475,192,65524,128,0,65671:0:0:0:0:
109,192,65524,1,0,0:0:0:0:
36,192,65524,1,0,0:0:0:0:
182,192,65597,1,0,0:0:0:0:
329,192,65597,1,0,0:0:0:0:
402,192,65671,1,0,0:0:0:0:
36,192,65671,1,0,0:0:0:0:
182,192,65744,1,0,0:0:0:0:
36,192,65817,128,0,65963:0:0:0:0:
402,192,65817,1,0,0:0:0:0:
475,192,65817,1,0,0:0:0:0:
329,192,65890,1,0,0:0:0:0:
182,192,65890,1,0,0:0:0:0:
109,192,65963,1,0,0:0:0:0:
475,192,65963,1,0,0:0:0:0:
329,192,66036,1,0,0:0:0:0:
475,192,66110,128,0,66256:0:0:0:0:
109,192,66110,1,0,0:0:0:0:
36,192,66110,1,0,0:0:0:0:
329,192,66183,1,0,0:0:0:0:
402,192,66183,1,0,0:0:0:0:
182,192,66256,1,0,0:0:0:0:
109,192,66256,1,0,0:0:0:0:
402,192,66329,1,0,0:0:0:0:
256,192,66402,1,0,0:0:0:0:
36,192,66402,1,0,0:0:0:0:
475,192,66402,1,0,0:0:0:0:
329,192,66402,128,0,66622:0:0:0:0:
182,192,66402,128,0,66622:0:0:0:0:
475,192,66549,1,0,0:0:0:0:
36,192,66549,1,0,0:0:0:0:
402,192,66695,128,0,66768:0:0:0:0:
329,192,66695,128,0,66768:0:0:0:0:
109,192,66695,128,0,67793:0:0:0:0:
36,192,66695,128,0,66841:0:0:0:0:
256,192,66695,128,0,67793:0:0:0:0:
475,192,66768,1,0,0:0:0:0:
182,192,66841,1,0,0:0:0:0:
402,192,66841,1,0,0:0:0:0:
329,192,66914,1,0,0:0:0:0:
36,192,66914,1,0,0:0:0:0:
182,192,66988,128,0,67134:0:0:0:0:
475,192,66988,1,0,0:0:0:0:
329,192,67061,1,0,0:0:0:0:
36,192,67134,1,0,0:0:0:0:
402,192,67134,1,0,0:0:0:0:
182,192,67207,1,0,0:0:0:0:
475,192,67207,1,0,0:0:0:0:
36,192,67280,128,0,67427:0:0:0:0:
329,192,67280,1,0,0:0:0:0:
475,192,67354,1,0,0:0:0:0:
182,192,67427,1,0,0:0:0:0:
402,192,67427,1,0,0:0:0:0:
36,192,67500,1,0,0:0:0:0:
329,192,67500,1,0,0:0:0:0:
402,192,67573,128,0,67719:0:0:0:0:
475,192,67573,1,0,0:0:0:0:
329,192,67646,1,0,0:0:0:0:
475,192,67719,1,0,0:0:0:0:
182,192,67719,1,0,0:0:0:0:
329,192,67793,1,0,0:0:0:0:
256,192,67866,128,0,68963:0:0:0:0:
109,192,67866,128,0,67939:0:0:0:0:
182,192,67866,128,0,67939:0:0:0:0:
402,192,67866,128,0,68597:0:0:0:0:
475,192,67866,128,0,68232:0:0:0:0:
36,192,67939,1,0,0:0:0:0:
329,192,68012,1,0,0:0:0:0:
109,192,68012,1,0,0:0:0:0:
182,192,68085,1,0,0:0:0:0:
36,192,68085,1,0,0:0:0:0:
109,192,68158,1,0,0:0:0:0:
182,192,68232,1,0,0:0:0:0:
475,192,68305,1,0,0:0:0:0:
36,192,68305,1,0,0:0:0:0:
329,192,68378,1,0,0:0:0:0:
182,192,68378,1,0,0:0:0:0:
109,192,68451,128,0,68597:0:0:0:0:
36,192,68451,1,0,0:0:0:0:
475,192,68524,1,0,0:0:0:0:
182,192,68597,1,0,0:0:0:0:
329,192,68597,1,0,0:0:0:0:
109,192,68671,1,0,0:0:0:0:
402,192,68671,1,0,0:0:0:0:
36,192,68744,128,0,68963:0:0:0:0:
182,192,68744,128,0,68963:0:0:0:0:
329,192,68744,128,0,68963:0:0:0:0:
475,192,68744,128,0,68963:0:0:0:0:
109,192,69036,1,0,0:0:0:0:
36,192,69036,128,0,69475:0:0:0:0:
256,192,69036,128,0,70939:0:0:0:0:
402,192,69036,128,0,69183:0:0:0:0:
475,192,69036,128,0,69768:0:0:0:0:
182,192,69036,128,0,71085:0:0:0:0:
329,192,69036,128,0,70793:0:0:0:0:
109,192,69183,128,0,70354:0:0:0:0:
402,192,69329,1,0,0:0:0:0:
402,192,69475,128,0,70061:0:0:0:0:
36,192,69622,1,0,0:0:0:0:
36,192,69768,128,0,70939:0:0:0:0:
475,192,69914,1,0,0:0:0:0:
475,192,70061,128,0,70646:0:0:0:0:
402,192,70207,1,0,0:0:0:0:
402,192,70354,128,0,71232:0:0:0:0:
109,192,70500,1,0,0:0:0:0:
109,192,70646,128,0,71232:0:0:0:0:
475,192,70793,1,0,0:0:0:0:
475,192,70939,128,0,71232:0:0:0:0:
36,192,71085,1,0,0:0:0:0:
36,192,71232,1,0,0:0:0:0:
402,192,71378,1,0,0:0:0:0:
475,192,71378,128,0,71817:0:0:0:0:
256,192,71378,128,0,72402:0:0:0:0:
109,192,71378,128,0,71524:0:0:0:0:
36,192,71378,128,0,72110:0:0:0:0:
182,192,71378,128,0,73134:0:0:0:0:
329,192,71378,128,0,72988:0:0:0:0:
402,192,71524,128,0,72695:0:0:0:0:
109,192,71671,1,0,0:0:0:0:
109,192,71817,128,0,72402:0:0:0:0:
475,192,71963,1,0,0:0:0:0:
475,192,72110,128,0,73280:0:0:0:0:
36,192,72256,1,0,0:0:0:0:
36,192,72402,128,0,72988:0:0:0:0:
109,192,72549,1,0,0:0:0:0:
256,192,72549,128,0,73280:0:0:0:0:
109,192,72695,128,0,73573:0:0:0:0:
402,192,72841,1,0,0:0:0:0:
402,192,72988,128,0,73573:0:0:0:0:
36,192,73134,1,0,0:0:0:0:
329,192,73134,128,0,73427:0:0:0:0:
36,192,73280,128,0,73573:0:0:0:0:
475,192,73427,1,0,0:0:0:0:
475,192,73573,1,0,0:0:0:0:
36,192,73719,1,0,0:0:0:0:
256,192,73719,128,0,74744:0:0:0:0:
182,192,73719,128,0,74158:0:0:0:0:
329,192,73719,128,0,74451:0:0:0:0:
475,192,73719,128,0,73866:0:0:0:0:
109,192,73719,128,0,74305:0:0:0:0:
402,192,73719,128,0,74597:0:0:0:0:
36,192,73866,128,0,74744:0:0:0:0:
475,192,74012,1,0,0:0:0:0:
475,192,74158,128,0,74744:0:0:0:0:
182,192,74305,1,0,0:0:0:0:
182,192,74451,128,0,74744:0:0:0:0:
329,192,74597,1,0,0:0:0:0:
329,192,74744,1,0,0:0:0:0:
475,192,74890,1,0,0:0:0:0:
402,192,74890,128,0,75475:0:0:0:0:
109,192,74890,128,0,75585:0:0:0:0:
182,192,74890,128,0,75622:0:0:0:0:
36,192,74890,128,0,75036:0:0:0:0:
256,192,74890,128,0,75768:0:0:0:0:
329,192,74890,128,0,75329:0:0:0:0:
475,192,75036,128,0,75695:0:0:0:0:
36,192,75183,1,0,0:0:0:0:
36,192,75329,128,0,75549:0:0:0:0:
329,192,75475,1,0,0:0:0:0:
329,192,75622,128,0,75914:0:0:0:0:
36,192,75622,1,0,0:0:0:0:
109,192,75671,1,0,0:0:0:0:
182,192,75768,1,0,0:0:0:0:
402,192,75768,1,0,0:0:0:0:
475,192,75768,1,0,0:0:0:0:
182,192,75914,1,0,0:0:0:0:
475,192,75914,1,0,0:0:0:0:
109,192,76061,128,0,77085:0:0:0:0:
329,192,76061,1,0,0:0:0:0:
402,192,76061,1,0,0:0:0:0:
36,192,76061,1,0,0:0:0:0:
182,192,76134,1,0,0:0:0:0:
475,192,76134,1,0,0:0:0:0:
329,192,76207,1,0,0:0:0:0:
36,192,76207,1,0,0:0:0:0:
182,192,76280,1,0,0:0:0:0:
402,192,76280,1,0,0:0:0:0:
256,192,76354,1,0,0:0:0:0:
475,192,76354,1,0,0:0:0:0:
329,192,76427,1,0,0:0:0:0:
36,192,76427,1,0,0:0:0:0:
256,192,76500,1,0,0:0:0:0:
475,192,76500,1,0,0:0:0:0:
402,192,76573,1,0,0:0:0:0:
182,192,76573,1,0,0:0:0:0:
329,192,76646,1,0,0:0:0:0:
475,192,76646,1,0,0:0:0:0:
36,192,76646,1,0,0:0:0:0:
256,192,76719,1,0,0:0:0:0:
182,192,76719,1,0,0:0:0:0:
36,192,76793,1,0,0:0:0:0:
402,192,76793,1,0,0:0:0:0:
329,192,76866,1,0,0:0:0:0:
182,192,76866,1,0,0:0:0:0:
256,192,76939,1,0,0:0:0:0:
475,192,76939,1,0,0:0:0:0:
402,192,77012,1,0,0:0:0:0:
182,192,77012,1,0,0:0:0:0:
329,192,77085,1,0,0:0:0:0:
36,192,77085,1,0,0:0:0:0:
256,192,77158,1,0,0:0:0:0:
475,192,77158,1,0,0:0:0:0:
402,192,77232,128,0,78256:0:0:0:0:
182,192,77232,1,0,0:0:0:0:
109,192,77232,1,0,0:0:0:0:
36,192,77232,1,0,0:0:0:0:
256,192,77305,1,0,0:0:0:0:
329,192,77305,1,0,0:0:0:0:
109,192,77378,1,0,0:0:0:0:
475,192,77378,1,0,0:0:0:0:
256,192,77451,1,0,0:0:0:0:
329,192,77451,1,0,0:0:0:0:
182,192,77524,1,0,0:0:0:0:
36,192,77524,1,0,0:0:0:0:
329,192,77597,1,0,0:0:0:0:
475,192,77597,1,0,0:0:0:0:
182,192,77671,1,0,0:0:0:0:
109,192,77671,1,0,0:0:0:0:
329,192,77744,1,0,0:0:0:0:
475,192,77744,1,0,0:0:0:0:
256,192,77817,1,0,0:0:0:0:
36,192,77817,1,0,0:0:0:0:
475,192,77890,1,0,0:0:0:0:
109,192,77890,1,0,0:0:0:0:
182,192,77963,1,0,0:0:0:0:
329,192,77963,1,0,0:0:0:0:
256,192,78036,1,0,0:0:0:0:
36,192,78036,1,0,0:0:0:0:
109,192,78110,1,0,0:0:0:0:
329,192,78110,1,0,0:0:0:0:
475,192,78183,1,0,0:0:0:0:
36,192,78183,1,0,0:0:0:0:
329,192,78256,1,0,0:0:0:0:
182,192,78256,1,0,0:0:0:0:
109,192,78329,1,0,0:0:0:0:
402,192,78329,1,0,0:0:0:0:
329,192,78402,1,0,0:0:0:0:
36,192,78402,1,0,0:0:0:0:
256,192,78402,128,0,78475:0:0:0:0:
475,192,78402,128,0,78475:0:0:0:0:
182,192,78402,1,0,0:0:0:0:
109,192,78475,1,0,0:0:0:0:
402,192,78475,1,0,0:0:0:0:
475,192,78549,128,0,78695:0:0:0:0:
256,192,78549,128,0,78695:0:0:0:0:
402,192,78622,1,0,0:0:0:0:
109,192,78622,1,0,0:0:0:0:
36,192,78695,128,0,78768:0:0:0:0:
329,192,78695,128,0,78768:0:0:0:0:
182,192,78768,1,0,0:0:0:0:
475,192,78768,1,0,0:0:0:0:
36,192,78841,128,0,78988:0:0:0:0:
329,192,78841,128,0,78988:0:0:0:0:
182,192,78914,1,0,0:0:0:0:
475,192,78914,1,0,0:0:0:0:
109,192,78988,128,0,79061:0:0:0:0:
402,192,78988,128,0,79061:0:0:0:0:
36,192,79061,1,0,0:0:0:0:
256,192,79061,1,0,0:0:0:0:
109,192,79134,128,0,79280:0:0:0:0:
402,192,79134,128,0,79280:0:0:0:0:
36,192,79207,1,0,0:0:0:0:
256,192,79207,1,0,0:0:0:0:
182,192,79280,128,0,79354:0:0:0:0:
475,192,79280,128,0,79354:0:0:0:0:
329,192,79354,1,0,0:0:0:0:
109,192,79354,1,0,0:0:0:0:
182,192,79427,128,0,79573:0:0:0:0:
475,192,79427,128,0,79573:0:0:0:0:
329,192,79500,1,0,0:0:0:0:
109,192,79500,1,0,0:0:0:0:
256,192,79573,128,0,79646:0:0:0:0:
36,192,79573,128,0,79646:0:0:0:0:
402,192,79646,1,0,0:0:0:0:
182,192,79646,1,0,0:0:0:0:
36,192,79719,128,0,79866:0:0:0:0:
256,192,79719,128,0,79866:0:0:0:0:
182,192,79793,1,0,0:0:0:0:
402,192,79793,1,0,0:0:0:0:
329,192,79866,128,0,79939:0:0:0:0:
475,192,79866,128,0,79939:0:0:0:0:
256,192,79939,1,0,0:0:0:0:
109,192,79939,1,0,0:0:0:0:
329,192,80012,128,0,80158:0:0:0:0:
475,192,80012,128,0,80158:0:0:0:0:
256,192,80085,1,0,0:0:0:0:
109,192,80085,1,0,0:0:0:0:
36,192,80158,128,0,80232:0:0:0:0:
182,192,80158,128,0,80232:0:0:0:0:
256,192,80232,1,0,0:0:0:0:
402,192,80232,1,0,0:0:0:0:
36,192,80305,128,0,80451:0:0:0:0:
182,192,80305,128,0,80451:0:0:0:0:
256,192,80378,1,0,0:0:0:0:
402,192,80378,1,0,0:0:0:0:
109,192,80451,1,0,0:0:0:0:
475,192,80451,128,0,80524:0:0:0:0:
329,192,80451,128,0,80524:0:0:0:0:
182,192,80524,1,0,0:0:0:0:
109,192,80597,1,0,0:0:0:0:
329,192,80597,128,0,80671:0:0:0:0:
475,192,80597,128,0,80671:0:0:0:0:
182,192,80671,1,0,0:0:0:0:
475,192,80744,1,0,0:0:0:0:
256,192,80744,128,0,80817:0:0:0:0:
36,192,80744,128,0,80817:0:0:0:0:
329,192,80744,1,0,0:0:0:0:
402,192,80817,1,0,0:0:0:0:
109,192,80817,1,0,0:0:0:0:
36,192,80890,128,0,81036:0:0:0:0:
256,192,80890,128,0,81036:0:0:0:0:
109,192,80963,1,0,0:0:0:0:
402,192,80963,1,0,0:0:0:0:
475,192,81036,128,0,81110:0:0:0:0:
182,192,81036,128,0,81110:0:0:0:0:
329,192,81110,1,0,0:0:0:0:
36,192,81110,1,0,0:0:0:0:
475,192,81183,128,0,81329:0:0:0:0:
182,192,81183,128,0,81329:0:0:0:0:
329,192,81256,1,0,0:0:0:0:
36,192,81256,1,0,0:0:0:0:
402,192,81329,128,0,81402:0:0:0:0:
109,192,81329,128,0,81402:0:0:0:0:
475,192,81402,1,0,0:0:0:0:
256,192,81402,1,0,0:0:0:0:
402,192,81475,128,0,81622:0:0:0:0:
109,192,81475,128,0,81622:0:0:0:0:
475,192,81549,1,0,0:0:0:0:
256,192,81549,1,0,0:0:0:0:
329,192,81622,128,0,81695:0:0:0:0:
36,192,81622,128,0,81695:0:0:0:0:
182,192,81695,1,0,0:0:0:0:
402,192,81695,1,0,0:0:0:0:
329,192,81768,128,0,81914:0:0:0:0:
36,192,81768,128,0,81914:0:0:0:0:
182,192,81841,1,0,0:0:0:0:
402,192,81841,1,0,0:0:0:0:
256,192,81914,128,0,81988:0:0:0:0:
475,192,81914,128,0,81988:0:0:0:0:
109,192,81988,1,0,0:0:0:0:
329,192,81988,1,0,0:0:0:0:
475,192,82061,128,0,82207:0:0:0:0:
256,192,82061,128,0,82207:0:0:0:0:
329,192,82134,1,0,0:0:0:0:
109,192,82134,1,0,0:0:0:0:
182,192,82207,128,0,82280:0:0:0:0:
36,192,82207,128,0,82280:0:0:0:0:
256,192,82280,1,0,0:0:0:0:
402,192,82280,1,0,0:0:0:0:
182,192,82354,128,0,82500:0:0:0:0:
36,192,82354,128,0,82500:0:0:0:0:
256,192,82427,1,0,0:0:0:0:
402,192,82427,1,0,0:0:0:0:
475,192,82500,128,0,82573:0:0:0:0:
329,192,82500,128,0,82573:0:0:0:0:
182,192,82573,1,0,0:0:0:0:
36,192,82573,1,0,0:0:0:0:
475,192,82646,128,0,82793:0:0:0:0:
329,192,82646,128,0,82793:0:0:0:0:
182,192,82719,1,0,0:0:0:0:
36,192,82719,1,0,0:0:0:0:
109,192,82793,128,0,82866:0:0:0:0:
256,192,82793,128,0,82866:0:0:0:0:
402,192,82866,1,0,0:0:0:0:
475,192,82866,1,0,0:0:0:0:
256,192,82939,128,0,83012:0:0:0:0:
109,192,82939,128,0,83012:0:0:0:0:
402,192,83012,1,0,0:0:0:0:
475,192,83012,1,0,0:0:0:0:
36,192,83085,128,0,83158:0:0:0:0:
329,192,83085,128,0,83158:0:0:0:0:
109,192,83085,1,0,0:0:0:0:
256,192,83085,1,0,0:0:0:0:
475,192,83158,1,0,0:0:0:0:
182,192,83183,1,0,0:0:0:0:
329,192,83232,128,0,83378:0:0:0:0:
36,192,83232,128,0,83378:0:0:0:0:
475,192,83305,1,0,0:0:0:0:
182,192,83305,1,0,0:0:0:0:
109,192,83378,128,0,83451:0:0:0:0:
402,192,83378,128,0,83451:0:0:0:0:
36,192,83451,1,0,0:0:0:0:
256,192,83451,1,0,0:0:0:0:
402,192,83524,128,0,83671:0:0:0:0:
109,192,83524,128,0,83671:0:0:0:0:
36,192,83597,1,0,0:0:0:0:
256,192,83597,1,0,0:0:0:0:
182,192,83671,128,0,83744:0:0:0:0:
475,192,83671,128,0,83744:0:0:0:0:
329,192,83744,1,0,0:0:0:0:
109,192,83744,1,0,0:0:0:0:
182,192,83817,128,0,83963:0:0:0:0:
475,192,83817,128,0,83963:0:0:0:0:
109,192,83890,1,0,0:0:0:0:
329,192,83890,1,0,0:0:0:0:
256,192,83963,128,0,84036:0:0:0:0:
402,192,83963,128,0,84036:0:0:0:0:
36,192,84036,1,0,0:0:0:0:
109,192,84036,1,0,0:0:0:0:
256,192,84110,128,0,84256:0:0:0:0:
402,192,84110,128,0,84256:0:0:0:0:
109,192,84183,1,0,0:0:0:0:
36,192,84183,1,0,0:0:0:0:
329,192,84256,128,0,84329:0:0:0:0:
182,192,84256,128,0,84329:0:0:0:0:
36,192,84329,1,0,0:0:0:0:
475,192,84329,1,0,0:0:0:0:
182,192,84402,128,0,84549:0:0:0:0:
329,192,84402,128,0,84549:0:0:0:0:
36,192,84475,1,0,0:0:0:0:
475,192,84475,1,0,0:0:0:0:
256,192,84549,128,0,84622:0:0:0:0:
109,192,84549,128,0,84622:0:0:0:0:
402,192,84622,1,0,0:0:0:0:
475,192,84622,1,0,0:0:0:0:
109,192,84695,128,0,84841:0:0:0:0:
256,192,84695,128,0,84841:0:0:0:0:
402,192,84768,1,0,0:0:0:0:
475,192,84768,1,0,0:0:0:0:
182,192,84841,128,0,84914:0:0:0:0:
36,192,84841,128,0,84914:0:0:0:0:
329,192,84841,1,0,0:0:0:0:
402,192,84914,1,0,0:0:0:0:
36,192,84988,128,0,85134:0:0:0:0:
182,192,84988,128,0,85134:0:0:0:0:
329,192,84988,1,0,0:0:0:0:
256,192,85061,1,0,0:0:0:0:
329,192,85134,128,0,85207:0:0:0:0:
475,192,85134,128,0,85207:0:0:0:0:
36,192,85207,1,0,0:0:0:0:
182,192,85207,1,0,0:0:0:0:
329,192,85280,128,0,85354:0:0:0:0:
475,192,85280,128,0,85354:0:0:0:0:
36,192,85354,1,0,0:0:0:0:
182,192,85354,1,0,0:0:0:0:
402,192,85427,128,0,87183:0:0:0:0:
475,192,85427,1,0,0:0:0:0:
256,192,85427,128,0,85573:0:0:0:0:
109,192,85573,1,0,0:0:0:0:
109,192,85719,1,0,0:0:0:0:
182,192,85866,128,0,86012:0:0:0:0:
36,192,86012,1,0,0:0:0:0:
36,192,86158,1,0,0:0:0:0:
109,192,86305,128,0,86451:0:0:0:0:
256,192,86451,1,0,0:0:0:0:
256,192,86597,1,0,0:0:0:0:
36,192,86744,128,0,86890:0:0:0:0:
182,192,86890,1,0,0:0:0:0:
182,192,87036,1,0,0:0:0:0:
109,192,87183,128,0,87329:0:0:0:0:
256,192,87329,1,0,0:0:0:0:
475,192,87475,1,0,0:0:0:0:
109,192,87475,1,0,0:0:0:0:
329,192,87512,1,0,0:0:0:0:
182,192,87549,1,0,0:0:0:0:
36,192,87585,1,0,0:0:0:0:
256,192,87622,1,0,0:0:0:0:
402,192,87646,1,0,0:0:0:0:
475,192,87671,1,0,0:0:0:0:
36,192,87695,1,0,0:0:0:0:
109,192,87719,1,0,0:0:0:0:
256,192,87744,1,0,0:0:0:0:
329,192,87768,1,0,0:0:0:0:
475,192,87768,1,0,0:0:0:0:
182,192,87805,1,0,0:0:0:0:
109,192,87841,1,0,0:0:0:0:
36,192,87878,1,0,0:0:0:0:
256,192,87914,1,0,0:0:0:0:
402,192,87914,1,0,0:0:0:0:
182,192,87951,1,0,0:0:0:0:
109,192,87988,1,0,0:0:0:0:
329,192,88024,1,0,0:0:0:0:
182,192,88061,1,0,0:0:0:0:
475,192,88061,1,0,0:0:0:0:
402,192,88134,1,0,0:0:0:0:
256,192,88207,1,0,0:0:0:0:
109,192,88207,1,0,0:0:0:0:
36,192,88207,1,0,0:0:0:0:
329,192,88244,1,0,0:0:0:0:
475,192,88280,1,0,0:0:0:0:
182,192,88317,1,0,0:0:0:0:
256,192,88354,1,0,0:0:0:0:
36,192,88354,1,0,0:0:0:0:
402,192,88390,1,0,0:0:0:0:
109,192,88427,1,0,0:0:0:0:
182,192,88463,1,0,0:0:0:0:
329,192,88500,1,0,0:0:0:0:
475,192,88500,1,0,0:0:0:0:
256,192,88646,1,0,0:0:0:0:
402,192,88646,1,0,0:0:0:0:
182,192,88671,1,0,0:0:0:0:
109,192,88695,1,0,0:0:0:0:
36,192,88719,1,0,0:0:0:0:
329,192,88719,1,0,0:0:0:0:
402,192,88756,1,0,0:0:0:0:
182,192,88793,1,0,0:0:0:0:
475,192,88793,1,0,0:0:0:0:
256,192,88866,1,0,0:0:0:0:
182,192,88939,1,0,0:0:0:0:
36,192,88939,1,0,0:0:0:0:
475,192,88939,1,0,0:0:0:0:
329,192,88975,1,0,0:0:0:0:
402,192,89012,1,0,0:0:0:0:
475,192,89049,1,0,0:0:0:0:
256,192,89085,1,0,0:0:0:0:
109,192,89085,1,0,0:0:0:0:
329,192,89122,1,0,0:0:0:0:
402,192,89158,1,0,0:0:0:0:
182,192,89195,1,0,0:0:0:0:
256,192,89232,1,0,0:0:0:0:
36,192,89232,1,0,0:0:0:0:
402,192,89378,1,0,0:0:0:0:
475,192,89378,1,0,0:0:0:0:
256,192,89378,1,0,0:0:0:0:
182,192,89427,1,0,0:0:0:0:
109,192,89475,1,0,0:0:0:0:
402,192,89524,1,0,0:0:0:0:
256,192,89573,1,0,0:0:0:0:
329,192,89622,1,0,0:0:0:0:
182,192,89671,1,0,0:0:0:0:
36,192,89671,1,0,0:0:0:0:
402,192,89817,1,0,0:0:0:0:
256,192,89817,1,0,0:0:0:0:
182,192,89841,1,0,0:0:0:0:
109,192,89866,1,0,0:0:0:0:
36,192,89890,1,0,0:0:0:0:
475,192,89890,1,0,0:0:0:0:
402,192,89927,1,0,0:0:0:0:
329,192,89963,1,0,0:0:0:0:
109,192,89963,1,0,0:0:0:0:
256,192,90036,1,0,0:0:0:0:
182,192,90110,1,0,0:0:0:0:
36,192,90110,1,0,0:0:0:0:
475,192,90110,1,0,0:0:0:0:
329,192,90146,1,0,0:0:0:0:
402,192,90183,1,0,0:0:0:0:
475,192,90219,1,0,0:0:0:0:
256,192,90256,1,0,0:0:0:0:
109,192,90256,1,0,0:0:0:0:
329,192,90293,1,0,0:0:0:0:
402,192,90329,1,0,0:0:0:0:
182,192,90366,1,0,0:0:0:0:
256,192,90402,1,0,0:0:0:0:
36,192,90402,1,0,0:0:0:0:
109,192,90475,1,0,0:0:0:0:
329,192,90549,1,0,0:0:0:0:
402,192,90549,1,0,0:0:0:0:
475,192,90549,1,0,0:0:0:0:
182,192,90585,1,0,0:0:0:0:
36,192,90622,1,0,0:0:0:0:
256,192,90658,1,0,0:0:0:0:
475,192,90695,1,0,0:0:0:0:
109,192,90695,1,0,0:0:0:0:
329,192,90732,1,0,0:0:0:0:
182,192,90768,1,0,0:0:0:0:
402,192,90805,1,0,0:0:0:0:
109,192,90841,1,0,0:0:0:0:
256,192,90841,1,0,0:0:0:0:
256,192,90988,1,0,0:0:0:0:
36,192,90988,1,0,0:0:0:0:
329,192,91012,1,0,0:0:0:0:
402,192,91036,1,0,0:0:0:0:
475,192,91061,1,0,0:0:0:0:
109,192,91061,1,0,0:0:0:0:
36,192,91097,1,0,0:0:0:0:
402,192,91134,1,0,0:0:0:0:
182,192,91134,1,0,0:0:0:0:
329,192,91207,1,0,0:0:0:0:
475,192,91280,1,0,0:0:0:0:
256,192,91280,1,0,0:0:0:0:
182,192,91305,1,0,0:0:0:0:
109,192,91329,1,0,0:0:0:0:
36,192,91354,1,0,0:0:0:0:
402,192,91354,1,0,0:0:0:0:
475,192,91390,1,0,0:0:0:0:
109,192,91427,1,0,0:0:0:0:
329,192,91427,1,0,0:0:0:0:
182,192,91500,1,0,0:0:0:0:
256,192,91573,1,0,0:0:0:0:
36,192,91573,1,0,0:0:0:0:
329,192,91597,1,0,0:0:0:0:
402,192,91622,1,0,0:0:0:0:
475,192,91646,1,0,0:0:0:0:
109,192,91646,1,0,0:0:0:0:
36,192,91683,1,0,0:0:0:0:
402,192,91719,1,0,0:0:0:0:
182,192,91719,1,0,0:0:0:0:
329,192,91793,1,0,0:0:0:0:
256,192,91866,1,0,0:0:0:0:
475,192,91866,1,0,0:0:0:0:
182,192,91890,1,0,0:0:0:0:
109,192,91914,1,0,0:0:0:0:
36,192,91939,1,0,0:0:0:0:
402,192,91939,1,0,0:0:0:0:
475,192,91975,1,0,0:0:0:0:
109,192,92012,1,0,0:0:0:0:
329,192,92012,1,0,0:0:0:0:
182,192,92085,1,0,0:0:0:0:
256,192,92158,1,0,0:0:0:0:
36,192,92158,1,0,0:0:0:0:
329,192,92183,1,0,0:0:0:0:
402,192,92207,1,0,0:0:0:0:
475,192,92232,1,0,0:0:0:0:
109,192,92232,1,0,0:0:0:0:
36,192,92268,1,0,0:0:0:0:
329,192,92305,1,0,0:0:0:0:
182,192,92305,1,0,0:0:0:0:
402,192,92378,1,0,0:0:0:0:
475,192,92451,1,0,0:0:0:0:
36,192,92451,1,0,0:0:0:0:
109,192,92469,1,0,0:0:0:0:
182,192,92488,1,0,0:0:0:0:
256,192,92506,1,0,0:0:0:0:
329,192,92524,1,0,0:0:0:0:
402,192,92543,1,0,0:0:0:0:
475,192,92561,1,0,0:0:0:0:
109,192,92597,1,0,0:0:0:0:
182,192,92622,1,0,0:0:0:0:
256,192,92646,1,0,0:0:0:0:
329,192,92671,1,0,0:0:0:0:
402,192,92695,1,0,0:0:0:0:
182,192,92744,1,0,0:0:0:0:
36,192,92744,1,0,0:0:0:0:
329,192,92817,1,0,0:0:0:0:
256,192,92890,1,0,0:0:0:0:
109,192,92890,1,0,0:0:0:0:
475,192,92890,1,0,0:0:0:0:
109,192,93036,1,0,0:0:0:0:
329,192,93036,1,0,0:0:0:0:
182,192,93183,1,0,0:0:0:0:
475,192,93183,1,0,0:0:0:0:
402,192,93183,1,0,0:0:0:0:
256,192,93329,1,0,0:0:0:0:
402,192,93329,1,0,0:0:0:0:
182,192,93354,1,0,0:0:0:0:
109,192,93378,1,0,0:0:0:0:
475,192,93402,1,0,0:0:0:0:
36,192,93402,1,0,0:0:0:0:
402,192,93439,1,0,0:0:0:0:
329,192,93475,1,0,0:0:0:0:
182,192,93475,1,0,0:0:0:0:
109,192,93549,1,0,0:0:0:0:
36,192,93622,1,0,0:0:0:0:
475,192,93622,1,0,0:0:0:0:
256,192,93622,1,0,0:0:0:0:
329,192,93658,1,0,0:0:0:0:
402,192,93695,1,0,0:0:0:0:
256,192,93732,1,0,0:0:0:0:
109,192,93768,1,0,0:0:0:0:
475,192,93768,1,0,0:0:0:0:
329,192,93805,1,0,0:0:0:0:
402,192,93841,1,0,0:0:0:0:
182,192,93878,1,0,0:0:0:0:
36,192,93914,1,0,0:0:0:0:
256,192,93914,1,0,0:0:0:0:
109,192,93988,1,0,0:0:0:0:
256,192,94061,1,0,0:0:0:0:
36,192,94061,1,0,0:0:0:0:
475,192,94061,1,0,0:0:0:0:
402,192,94097,1,0,0:0:0:0:
329,192,94134,1,0,0:0:0:0:
182,192,94171,1,0,0:0:0:0:
109,192,94207,1,0,0:0:0:0:
475,192,94207,1,0,0:0:0:0:
256,192,94244,1,0,0:0:0:0:
402,192,94280,1,0,0:0:0:0:
182,192,94317,1,0,0:0:0:0:
329,192,94354,1,0,0:0:0:0:
475,192,94354,1,0,0:0:0:0:
36,192,94354,1,0,0:0:0:0:
109,192,94427,1,0,0:0:0:0:
402,192,94500,1,0,0:0:0:0:
256,192,94500,1,0,0:0:0:0:
182,192,94524,1,0,0:0:0:0:
109,192,94549,1,0,0:0:0:0:
36,192,94573,1,0,0:0:0:0:
329,192,94573,1,0,0:0:0:0:
402,192,94610,1,0,0:0:0:0:
182,192,94646,1,0,0:0:0:0:
475,192,94646,1,0,0:0:0:0:
256,192,94719,1,0,0:0:0:0:
36,192,94793,1,0,0:0:0:0:
475,192,94793,1,0,0:0:0:0:
109,192,94793,1,0,0:0:0:0:
402,192,94829,1,0,0:0:0:0:
329,192,94866,1,0,0:0:0:0:
475,192,94902,1,0,0:0:0:0:
109,192,94939,1,0,0:0:0:0:
256,192,94939,1,0,0:0:0:0:
402,192,94975,1,0,0:0:0:0:
329,192,95012,1,0,0:0:0:0:
256,192,95049,1,0,0:0:0:0:
36,192,95085,1,0,0:0:0:0:
182,192,95085,1,0,0:0:0:0:
329,192,95158,1,0,0:0:0:0:
182,192,95232,1,0,0:0:0:0:
402,192,95232,1,0,0:0:0:0:
475,192,95232,1,0,0:0:0:0:
402,192,95378,1,0,0:0:0:0:
109,192,95378,1,0,0:0:0:0:
256,192,95524,1,0,0:0:0:0:
182,192,95524,1,0,0:0:0:0:
475,192,95524,1,0,0:0:0:0:
256,192,95671,1,0,0:0:0:0:
36,192,95671,1,0,0:0:0:0:
256,192,95817,1,0,0:0:0:0:
402,192,95817,1,0,0:0:0:0:
329,192,95817,1,0,0:0:0:0:
109,192,95890,1,0,0:0:0:0:
36,192,95963,1,0,0:0:0:0:
329,192,95963,1,0,0:0:0:0:
475,192,95963,1,0,0:0:0:0:
109,192,96012,1,0,0:0:0:0:
402,192,96036,1,0,0:0:0:0:
182,192,96061,1,0,0:0:0:0:
256,192,96110,1,0,0:0:0:0:
475,192,96110,1,0,0:0:0:0:
329,192,96158,1,0,0:0:0:0:
109,192,96183,1,0,0:0:0:0:
402,192,96207,1,0,0:0:0:0:
475,192,96256,1,0,0:0:0:0:
256,192,96256,1,0,0:0:0:0:
36,192,96256,1,0,0:0:0:0:
402,192,96305,1,0,0:0:0:0:
329,192,96354,1,0,0:0:0:0:
256,192,96402,1,0,0:0:0:0:
36,192,96402,1,0,0:0:0:0:
182,192,96451,1,0,0:0:0:0:
402,192,96500,1,0,0:0:0:0:
109,192,96500,1,0,0:0:0:0:
36,192,96549,1,0,0:0:0:0:
256,192,96549,1,0,0:0:0:0:
475,192,96549,1,0,0:0:0:0:
109,192,96597,1,0,0:0:0:0:
402,192,96622,1,0,0:0:0:0:
182,192,96646,1,0,0:0:0:0:
256,192,96695,1,0,0:0:0:0:
475,192,96695,1,0,0:0:0:0:
329,192,96744,1,0,0:0:0:0:
109,192,96768,1,0,0:0:0:0:
402,192,96793,1,0,0:0:0:0:
182,192,96841,128,0,97061:0:0:0:0:
36,192,96841,128,0,97061:0:0:0:0:
475,192,96841,1,0,0:0:0:0:
329,192,96878,1,0,0:0:0:0:
256,192,96988,1,0,0:0:0:0:
329,192,97134,1,0,0:0:0:0:
475,192,97134,1,0,0:0:0:0:
402,192,97134,1,0,0:0:0:0:
36,192,97134,1,0,0:0:0:0:
109,192,97171,1,0,0:0:0:0:
182,192,97207,1,0,0:0:0:0:
256,192,97244,1,0,0:0:0:0:
329,192,97280,1,0,0:0:0:0:
475,192,97280,1,0,0:0:0:0:
36,192,97280,1,0,0:0:0:0:
182,192,97329,1,0,0:0:0:0:
109,192,97378,1,0,0:0:0:0:
256,192,97427,1,0,0:0:0:0:
402,192,97427,1,0,0:0:0:0:
182,192,97475,1,0,0:0:0:0:
36,192,97500,1,0,0:0:0:0:
329,192,97524,1,0,0:0:0:0:
256,192,97573,1,0,0:0:0:0:
475,192,97573,1,0,0:0:0:0:
109,192,97573,1,0,0:0:0:0:
402,192,97610,1,0,0:0:0:0:
329,192,97646,1,0,0:0:0:0:
182,192,97683,1,0,0:0:0:0:
36,192,97719,1,0,0:0:0:0:
475,192,97719,1,0,0:0:0:0:
256,192,97768,1,0,0:0:0:0:
402,192,97817,1,0,0:0:0:0:
182,192,97866,1,0,0:0:0:0:
36,192,97866,1,0,0:0:0:0:
475,192,97866,1,0,0:0:0:0:
329,192,97914,1,0,0:0:0:0:
402,192,97963,1,0,0:0:0:0:
256,192,98012,1,0,0:0:0:0:
36,192,98012,1,0,0:0:0:0:
109,192,98049,1,0,0:0:0:0:
475,192,98085,1,0,0:0:0:0:
402,192,98122,1,0,0:0:0:0:
256,192,98158,1,0,0:0:0:0:
182,192,98158,1,0,0:0:0:0:
36,192,98158,1,0,0:0:0:0:
329,192,98232,1,0,0:0:0:0:
109,192,98305,1,0,0:0:0:0:
475,192,98305,1,0,0:0:0:0:
402,192,98341,1,0,0:0:0:0:
329,192,98378,1,0,0:0:0:0:
256,192,98414,1,0,0:0:0:0:
182,192,98451,1,0,0:0:0:0:
36,192,98451,1,0,0:0:0:0:
475,192,98451,1,0,0:0:0:0:
329,192,98524,1,0,0:0:0:0:
256,192,98597,1,0,0:0:0:0:
109,192,98597,1,0,0:0:0:0:
402,192,98634,1,0,0:0:0:0:
182,192,98671,1,0,0:0:0:0:
109,192,98707,1,0,0:0:0:0:
36,192,98744,1,0,0:0:0:0:
329,192,98744,1,0,0:0:0:0:
475,192,98744,1,0,0:0:0:0:
182,192,98817,1,0,0:0:0:0:
329,192,98890,1,0,0:0:0:0:
36,192,98890,1,0,0:0:0:0:
109,192,98927,1,0,0:0:0:0:
182,192,98963,1,0,0:0:0:0:
256,192,99000,1,0,0:0:0:0:
329,192,99036,1,0,0:0:0:0:
402,192,99036,1,0,0:0:0:0:
475,192,99036,1,0,0:0:0:0:
109,192,99073,1,0,0:0:0:0:
256,192,99110,1,0,0:0:0:0:
182,192,99183,1,0,0:0:0:0:
402,192,99183,1,0,0:0:0:0:
109,192,99329,1,0,0:0:0:0:
475,192,99329,1,0,0:0:0:0:
329,192,99329,1,0,0:0:0:0:
329,192,99475,1,0,0:0:0:0:
182,192,99475,1,0,0:0:0:0:
256,192,99622,1,0,0:0:0:0:
182,192,99622,1,0,0:0:0:0:
36,192,99622,1,0,0:0:0:0:
36,192,99768,1,0,0:0:0:0:
329,192,99768,1,0,0:0:0:0:
109,192,99786,1,0,0:0:0:0:
182,192,99805,1,0,0:0:0:0:
256,192,99841,1,0,0:0:0:0:
475,192,99878,1,0,0:0:0:0:
36,192,99914,1,0,0:0:0:0:
109,192,99914,1,0,0:0:0:0:
402,192,99914,1,0,0:0:0:0:
329,192,99988,1,0,0:0:0:0:
182,192,100061,1,0,0:0:0:0:
402,192,100061,1,0,0:0:0:0:
329,192,100097,1,0,0:0:0:0:
109,192,100134,1,0,0:0:0:0:
256,192,100171,1,0,0:0:0:0:
182,192,100207,1,0,0:0:0:0:
402,192,100207,1,0,0:0:0:0:
475,192,100207,1,0,0:0:0:0:
109,192,100280,1,0,0:0:0:0:
36,192,100354,1,0,0:0:0:0:
329,192,100354,1,0,0:0:0:0:
402,192,100390,1,0,0:0:0:0:
182,192,100427,1,0,0:0:0:0:
109,192,100463,1,0,0:0:0:0:
256,192,100500,1,0,0:0:0:0:
329,192,100500,1,0,0:0:0:0:
36,192,100500,1,0,0:0:0:0:
182,192,100573,1,0,0:0:0:0:
475,192,100646,1,0,0:0:0:0:
109,192,100646,1,0,0:0:0:0:
256,192,100683,1,0,0:0:0:0:
402,192,100719,1,0,0:0:0:0:
182,192,100756,1,0,0:0:0:0:
329,192,100793,1,0,0:0:0:0:
475,192,100793,1,0,0:0:0:0:
36,192,100793,1,0,0:0:0:0:
256,192,100939,1,0,0:0:0:0:
36,192,100939,1,0,0:0:0:0:
402,192,101012,1,0,0:0:0:0:
256,192,101085,1,0,0:0:0:0:
182,192,101085,1,0,0:0:0:0:
475,192,101085,1,0,0:0:0:0:
109,192,101232,1,0,0:0:0:0:
329,192,101232,1,0,0:0:0:0:
329,192,101378,1,0,0:0:0:0:
256,192,101378,1,0,0:0:0:0:
36,192,101378,1,0,0:0:0:0:
182,192,101524,1,0,0:0:0:0:
475,192,101524,1,0,0:0:0:0:
109,192,101597,1,0,0:0:0:0:
256,192,101671,1,0,0:0:0:0:
475,192,101671,1,0,0:0:0:0:
402,192,101671,1,0,0:0:0:0:
256,192,101817,1,0,0:0:0:0:
109,192,101817,1,0,0:0:0:0:
36,192,101817,1,0,0:0:0:0:
329,192,101854,1,0,0:0:0:0:
402,192,101890,1,0,0:0:0:0:
475,192,101927,1,0,0:0:0:0:
182,192,101963,1,0,0:0:0:0:
36,192,101963,1,0,0:0:0:0:
256,192,101963,1,0,0:0:0:0:
402,192,102012,1,0,0:0:0:0:
109,192,102061,1,0,0:0:0:0:
182,192,102110,1,0,0:0:0:0:
329,192,102110,1,0,0:0:0:0:
36,192,102158,1,0,0:0:0:0:
402,192,102183,1,0,0:0:0:0:
109,192,102207,1,0,0:0:0:0:
256,192,102256,1,0,0:0:0:0:
475,192,102256,1,0,0:0:0:0:
329,192,102256,1,0,0:0:0:0:
182,192,102293,1,0,0:0:0:0:
109,192,102329,1,0,0:0:0:0:
36,192,102366,1,0,0:0:0:0:
256,192,102402,1,0,0:0:0:0:
402,192,102402,1,0,0:0:0:0:
182,192,102451,1,0,0:0:0:0:
329,192,102500,1,0,0:0:0:0:
402,192,102549,1,0,0:0:0:0:
475,192,102549,1,0,0:0:0:0:
109,192,102549,1,0,0:0:0:0:
182,192,102695,1,0,0:0:0:0:
475,192,102695,1,0,0:0:0:0:
36,192,102732,1,0,0:0:0:0:
109,192,102768,1,0,0:0:0:0:
182,192,102805,1,0,0:0:0:0:
402,192,102841,1,0,0:0:0:0:
256,192,102841,1,0,0:0:0:0:
36,192,102890,1,0,0:0:0:0:
475,192,102939,1,0,0:0:0:0:
329,192,102988,1,0,0:0:0:0:
182,192,102988,1,0,0:0:0:0:
109,192,103012,1,0,0:0:0:0:
36,192,103036,1,0,0:0:0:0:
402,192,103061,1,0,0:0:0:0:
256,192,103097,1,0,0:0:0:0:
475,192,103134,1,0,0:0:0:0:
109,192,103134,1,0,0:0:0:0:
402,192,103171,1,0,0:0:0:0:
329,192,103207,1,0,0:0:0:0:
256,192,103244,1,0,0:0:0:0:
182,192,103280,1,0,0:0:0:0:
36,192,103280,1,0,0:0:0:0:
182,192,103427,1,0,0:0:0:0:
475,192,103427,1,0,0:0:0:0:
402,192,103451,1,0,0:0:0:0:
329,192,103475,1,0,0:0:0:0:
109,192,103500,1,0,0:0:0:0:
256,192,103536,1,0,0:0:0:0:
36,192,103573,1,0,0:0:0:0:
475,192,103573,1,0,0:0:0:0:
182,192,103622,1,0,0:0:0:0:
402,192,103646,1,0,0:0:0:0:
256,192,103671,1,0,0:0:0:0:
329,192,103719,1,0,0:0:0:0:
36,192,103719,1,0,0:0:0:0:
475,192,103719,1,0,0:0:0:0:
329,192,103866,1,0,0:0:0:0:
182,192,103866,1,0,0:0:0:0:
109,192,103939,1,0,0:0:0:0:
182,192,104012,1,0,0:0:0:0:
402,192,104012,1,0,0:0:0:0:
475,192,104012,1,0,0:0:0:0:
256,192,104085,1,0,0:0:0:0:
329,192,104122,1,0,0:0:0:0:
109,192,104158,1,0,0:0:0:0:
475,192,104158,1,0,0:0:0:0:
402,192,104195,1,0,0:0:0:0:
329,192,104232,1,0,0:0:0:0:
36,192,104232,1,0,0:0:0:0:
256,192,104268,1,0,0:0:0:0:
182,192,104305,1,0,0:0:0:0:
475,192,104305,1,0,0:0:0:0:
256,192,104378,1,0,0:0:0:0:
109,192,104451,1,0,0:0:0:0:
402,192,104451,1,0,0:0:0:0:
329,192,104488,1,0,0:0:0:0:
256,192,104524,1,0,0:0:0:0:
36,192,104524,1,0,0:0:0:0:
182,192,104561,1,0,0:0:0:0:
109,192,104597,1,0,0:0:0:0:
402,192,104597,1,0,0:0:0:0:
182,192,104671,1,0,0:0:0:0:
329,192,104744,1,0,0:0:0:0:
36,192,104744,1,0,0:0:0:0:
475,192,104744,1,0,0:0:0:0:
256,192,104780,1,0,0:0:0:0:
182,192,104817,1,0,0:0:0:0:
402,192,104817,1,0,0:0:0:0:
109,192,104854,1,0,0:0:0:0:
36,192,104890,1,0,0:0:0:0:
329,192,104890,1,0,0:0:0:0:
256,192,104963,1,0,0:0:0:0:
475,192,104963,1,0,0:0:0:0:
109,192,105036,1,0,0:0:0:0:
402,192,105036,1,0,0:0:0:0:
182,192,105073,1,0,0:0:0:0:
256,192,105110,1,0,0:0:0:0:
475,192,105110,1,0,0:0:0:0:
329,192,105146,1,0,0:0:0:0:
402,192,105183,1,0,0:0:0:0:
109,192,105183,1,0,0:0:0:0:
329,192,105256,1,0,0:0:0:0:
36,192,105256,1,0,0:0:0:0:
182,192,105329,1,0,0:0:0:0:
475,192,105329,1,0,0:0:0:0:
256,192,105366,1,0,0:0:0:0:
329,192,105402,1,0,0:0:0:0:
402,192,105439,1,0,0:0:0:0:
475,192,105475,1,0,0:0:0:0:
182,192,105475,1,0,0:0:0:0:
36,192,105549,1,0,0:0:0:0:
256,192,105622,1,0,0:0:0:0:
109,192,105622,1,0,0:0:0:0:
329,192,105658,1,0,0:0:0:0:
402,192,105695,1,0,0:0:0:0:
36,192,105695,1,0,0:0:0:0:
475,192,105732,1,0,0:0:0:0:
256,192,105768,1,0,0:0:0:0:
182,192,105841,1,0,0:0:0:0:
329,192,105914,1,0,0:0:0:0:
109,192,105914,1,0,0:0:0:0:
402,192,105951,1,0,0:0:0:0:
475,192,105988,1,0,0:0:0:0:
182,192,105988,1,0,0:0:0:0:
256,192,106024,1,0,0:0:0:0:
402,192,106061,1,0,0:0:0:0:
109,192,106061,1,0,0:0:0:0:
329,192,106134,1,0,0:0:0:0:
182,192,106171,1,0,0:0:0:0:
475,192,106207,1,0,0:0:0:0:
402,192,106232,1,0,0:0:0:0:
256,192,106256,1,0,0:0:0:0:
182,192,106280,1,0,0:0:0:0:
109,192,106305,1,0,0:0:0:0:
36,192,106329,1,0,0:0:0:0:
475,192,106354,1,0,0:0:0:0:
256,192,106354,1,0,0:0:0:0:
182,192,106427,1,0,0:0:0:0:
402,192,106427,1,0,0:0:0:0:
109,192,106463,1,0,0:0:0:0:
36,192,106500,1,0,0:0:0:0:
256,192,106500,128,0,106719:0:0:0:0:
475,192,106500,128,0,106793:0:0:0:0:
329,192,106500,128,0,106646:0:0:0:0:
182,192,106793,1,0,0:0:0:0:
36,192,106793,1,0,0:0:0:0:
402,192,106793,1,0,0:0:0:0:
109,192,106793,128,0,106866:0:0:0:0:
256,192,106793,1,0,0:0:0:0:
475,192,106939,128,0,107232:0:0:0:0:
109,192,106939,128,0,107012:0:0:0:0:
109,192,107085,128,0,107158:0:0:0:0:
256,192,107085,1,0,0:0:0:0:
329,192,107085,1,0,0:0:0:0:
109,192,107232,128,0,107305:0:0:0:0:
329,192,107232,1,0,0:0:0:0:
329,192,107378,128,0,107524:0:0:0:0:
182,192,107378,1,0,0:0:0:0:
402,192,107378,1,0,0:0:0:0:
475,192,107378,1,0,0:0:0:0:
36,192,107378,1,0,0:0:0:0:
109,192,107378,128,0,107451:0:0:0:0:
109,192,107524,128,0,107597:0:0:0:0:
109,192,107671,128,0,107890:0:0:0:0:
36,192,107671,128,0,107817:0:0:0:0:
256,192,107671,1,0,0:0:0:0:
402,192,107671,1,0,0:0:0:0:
475,192,107671,128,0,107963:0:0:0:0:
329,192,107963,1,0,0:0:0:0:
256,192,107963,1,0,0:0:0:0:
36,192,107963,1,0,0:0:0:0:
402,192,107963,1,0,0:0:0:0:
182,192,107963,128,0,108036:0:0:0:0:
402,192,108110,128,0,108402:0:0:0:0:
182,192,108110,128,0,108329:0:0:0:0:
475,192,108110,1,0,0:0:0:0:
36,192,108110,128,0,108402:0:0:0:0:
256,192,108256,1,0,0:0:0:0:
329,192,108402,1,0,0:0:0:0:
475,192,108402,1,0,0:0:0:0:
109,192,108402,128,0,108549:0:0:0:0:
329,192,108549,128,0,108695:0:0:0:0:
182,192,108549,128,0,108695:0:0:0:0:
256,192,108549,1,0,0:0:0:0:
36,192,108549,1,0,0:0:0:0:
402,192,108549,1,0,0:0:0:0:
475,192,108549,1,0,0:0:0:0:
36,192,108695,128,0,108841:0:0:0:0:
402,192,108841,128,0,109427:0:0:0:0:
475,192,108841,128,0,108988:0:0:0:0:
329,192,108841,1,0,0:0:0:0:
109,192,108841,1,0,0:0:0:0:
256,192,108841,128,0,109061:0:0:0:0:
182,192,109134,128,0,109207:0:0:0:0:
329,192,109134,1,0,0:0:0:0:
109,192,109134,1,0,0:0:0:0:
36,192,109134,1,0,0:0:0:0:
475,192,109134,1,0,0:0:0:0:
182,192,109280,128,0,109354:0:0:0:0:
182,192,109427,128,0,109500:0:0:0:0:
36,192,109427,1,0,0:0:0:0:
182,192,109573,128,0,109646:0:0:0:0:
402,192,109573,1,0,0:0:0:0:
256,192,109573,1,0,0:0:0:0:
182,192,109719,128,0,109793:0:0:0:0:
109,192,109719,1,0,0:0:0:0:
36,192,109719,1,0,0:0:0:0:
329,192,109719,1,0,0:0:0:0:
475,192,109719,1,0,0:0:0:0:
182,192,109866,128,0,109939:0:0:0:0:
256,192,110012,128,0,110232:0:0:0:0:
329,192,110012,128,0,110158:0:0:0:0:
475,192,110012,1,0,0:0:0:0:
109,192,110012,1,0,0:0:0:0:
109,192,110158,128,0,110232:0:0:0:0:
36,192,110158,1,0,0:0:0:0:
402,192,110158,1,0,0:0:0:0:
109,192,110305,128,0,110378:0:0:0:0:
36,192,110305,1,0,0:0:0:0:
182,192,110305,1,0,0:0:0:0:
329,192,110305,1,0,0:0:0:0:
475,192,110305,1,0,0:0:0:0:
182,192,110451,128,0,110597:0:0:0:0:
256,192,110451,128,0,110671:0:0:0:0:
475,192,110451,1,0,0:0:0:0:
402,192,110597,128,0,110744:0:0:0:0:
109,192,110597,1,0,0:0:0:0:
109,192,110744,128,0,111036:0:0:0:0:
182,192,110744,1,0,0:0:0:0:
329,192,110744,1,0,0:0:0:0:
329,192,110890,128,0,111036:0:0:0:0:
182,192,110890,128,0,111183:0:0:0:0:
36,192,110890,1,0,0:0:0:0:
402,192,110890,1,0,0:0:0:0:
475,192,110890,1,0,0:0:0:0:
256,192,110890,1,0,0:0:0:0:
256,192,111183,128,0,111475:0:0:0:0:
402,192,111183,128,0,111402:0:0:0:0:
475,192,111183,128,0,111329:0:0:0:0:
109,192,111183,128,0,111256:0:0:0:0:
36,192,111183,128,0,111256:0:0:0:0:
329,192,111183,1,0,0:0:0:0:
109,192,111475,128,0,111549:0:0:0:0:
182,192,111475,1,0,0:0:0:0:
36,192,111475,1,0,0:0:0:0:
329,192,111475,1,0,0:0:0:0:
475,192,111475,1,0,0:0:0:0:
109,192,111622,128,0,111695:0:0:0:0:
402,192,111622,128,0,111914:0:0:0:0:
109,192,111768,128,0,111841:0:0:0:0:
256,192,111768,1,0,0:0:0:0:
36,192,111768,1,0,0:0:0:0:
329,192,111768,1,0,0:0:0:0:
109,192,111914,128,0,111988:0:0:0:0:
256,192,111914,1,0,0:0:0:0:
36,192,111914,1,0,0:0:0:0:
109,192,112061,128,0,112134:0:0:0:0:
402,192,112061,128,0,112207:0:0:0:0:
36,192,112061,1,0,0:0:0:0:
475,192,112061,1,0,0:0:0:0:
256,192,112061,1,0,0:0:0:0:
182,192,112061,1,0,0:0:0:0:
109,192,112207,128,0,112280:0:0:0:0:
329,192,112354,128,0,112646:0:0:0:0:
402,192,112354,1,0,0:0:0:0:
256,192,112354,128,0,112500:0:0:0:0:
475,192,112354,128,0,112573:0:0:0:0:
182,192,112354,128,0,112427:0:0:0:0:
36,192,112354,128,0,112427:0:0:0:0:
182,192,112646,128,0,112719:0:0:0:0:
256,192,112646,1,0,0:0:0:0:
402,192,112646,1,0,0:0:0:0:
109,192,112646,1,0,0:0:0:0:
36,192,112646,1,0,0:0:0:0:
475,192,112793,128,0,113085:0:0:0:0:
182,192,112793,128,0,112866:0:0:0:0:
402,192,112793,1,0,0:0:0:0:
36,192,112793,1,0,0:0:0:0:
182,192,112939,128,0,113012:0:0:0:0:
329,192,112939,1,0,0:0:0:0:
182,192,113085,128,0,113158:0:0:0:0:
256,192,113085,1,0,0:0:0:0:
36,192,113085,1,0,0:0:0:0:
329,192,113232,128,0,113378:0:0:0:0:
182,192,113232,128,0,113305:0:0:0:0:
36,192,113232,1,0,0:0:0:0:
256,192,113232,1,0,0:0:0:0:
402,192,113232,1,0,0:0:0:0:
475,192,113232,1,0,0:0:0:0:
182,192,113378,128,0,113451:0:0:0:0:
402,192,113524,128,0,114695:0:0:0:0:
475,192,113524,1,0,0:0:0:0:
36,192,113524,128,0,113597:0:0:0:0:
256,192,113524,128,0,113597:0:0:0:0:
109,192,113524,128,0,113597:0:0:0:0:
36,192,113671,128,0,113744:0:0:0:0:
182,192,113817,128,0,114036:0:0:0:0:
329,192,113817,128,0,113963:0:0:0:0:
256,192,113817,1,0,0:0:0:0:
475,192,113817,1,0,0:0:0:0:
36,192,113817,1,0,0:0:0:0:
109,192,114110,128,0,114183:0:0:0:0:
256,192,114110,1,0,0:0:0:0:
256,192,114256,128,0,114402:0:0:0:0:
109,192,114256,128,0,114549:0:0:0:0:
475,192,114256,1,0,0:0:0:0:
329,192,114402,1,0,0:0:0:0:
182,192,114402,1,0,0:0:0:0:
475,192,114402,1,0,0:0:0:0:
36,192,114402,1,0,0:0:0:0:
182,192,114549,128,0,114841:0:0:0:0:
329,192,114549,1,0,0:0:0:0:
36,192,114549,1,0,0:0:0:0:
109,192,114695,1,0,0:0:0:0:
36,192,114841,128,0,114988:0:0:0:0:
256,192,114841,1,0,0:0:0:0:
402,192,114841,1,0,0:0:0:0:
256,192,114988,1,0,0:0:0:0:
329,192,114988,1,0,0:0:0:0:
402,192,114988,1,0,0:0:0:0:
475,192,114988,1,0,0:0:0:0:
182,192,114988,128,0,115207:0:0:0:0:
36,192,115134,1,0,0:0:0:0:
329,192,115134,128,0,115207:0:0:0:0:
475,192,115134,1,0,0:0:0:0:
109,192,115280,1,0,0:0:0:0:
36,192,115280,1,0,0:0:0:0:
402,192,115280,128,0,115354:0:0:0:0:
256,192,115354,1,0,0:0:0:0:
329,192,115354,1,0,0:0:0:0:
475,192,115427,128,0,115500:0:0:0:0:
182,192,115427,1,0,0:0:0:0:
109,192,115427,1,0,0:0:0:0:
329,192,115500,1,0,0:0:0:0:
402,192,115500,1,0,0:0:0:0:
256,192,115573,1,0,0:0:0:0:
182,192,115573,1,0,0:0:0:0:
36,192,115573,1,0,0:0:0:0:
109,192,115573,128,0,115793:0:0:0:0:
475,192,115573,1,0,0:0:0:0:
256,192,115719,128,0,115793:0:0:0:0:
256,192,115866,128,0,116085:0:0:0:0:
36,192,115866,128,0,116158:0:0:0:0:
182,192,115866,128,0,116012:0:0:0:0:
329,192,115866,1,0,0:0:0:0:
402,192,115866,128,0,115939:0:0:0:0:
475,192,115866,128,0,115939:0:0:0:0:
329,192,116158,1,0,0:0:0:0:
475,192,116158,1,0,0:0:0:0:
109,192,116158,1,0,0:0:0:0:
402,192,116158,128,0,116232:0:0:0:0:
256,192,116158,1,0,0:0:0:0:
36,192,116305,128,0,116597:0:0:0:0:
402,192,116305,128,0,116378:0:0:0:0:
402,192,116451,128,0,116524:0:0:0:0:
256,192,116451,1,0,0:0:0:0:
182,192,116451,1,0,0:0:0:0:
402,192,116597,128,0,116671:0:0:0:0:
182,192,116597,1,0,0:0:0:0:
182,192,116744,128,0,116890:0:0:0:0:
329,192,116744,1,0,0:0:0:0:
109,192,116744,1,0,0:0:0:0:
36,192,116744,1,0,0:0:0:0:
475,192,116744,1,0,0:0:0:0:
402,192,116744,128,0,116817:0:0:0:0:
402,192,116890,128,0,116963:0:0:0:0:
402,192,117036,128,0,117256:0:0:0:0:
475,192,117036,128,0,117183:0:0:0:0:
256,192,117036,1,0,0:0:0:0:
109,192,117036,1,0,0:0:0:0:
36,192,117036,128,0,117329:0:0:0:0:
182,192,117329,1,0,0:0:0:0:
256,192,117329,1,0,0:0:0:0:
475,192,117329,1,0,0:0:0:0:
109,192,117329,1,0,0:0:0:0:
329,192,117329,128,0,117402:0:0:0:0:
182,192,117475,128,0,117768:0:0:0:0:
329,192,117475,128,0,117695:0:0:0:0:
36,192,117475,1,0,0:0:0:0:
475,192,117475,128,0,117768:0:0:0:0:
256,192,117622,1,0,0:0:0:0:
109,192,117768,1,0,0:0:0:0:
36,192,117768,1,0,0:0:0:0:
402,192,117768,128,0,117914:0:0:0:0:
36,192,117914,128,0,118061:0:0:0:0:
329,192,117914,128,0,118061:0:0:0:0:
256,192,117914,1,0,0:0:0:0:
475,192,117914,1,0,0:0:0:0:
109,192,117914,1,0,0:0:0:0:
182,192,117914,1,0,0:0:0:0:
475,192,118061,128,0,118207:0:0:0:0:
109,192,118207,128,0,118793:0:0:0:0:
36,192,118207,128,0,118354:0:0:0:0:
182,192,118207,1,0,0:0:0:0:
402,192,118207,1,0,0:0:0:0:
256,192,118207,128,0,118427:0:0:0:0:
329,192,118500,128,0,118573:0:0:0:0:
182,192,118500,1,0,0:0:0:0:
402,192,118500,1,0,0:0:0:0:
475,192,118500,1,0,0:0:0:0:
36,192,118500,1,0,0:0:0:0:
329,192,118646,128,0,118719:0:0:0:0:
329,192,118793,128,0,118866:0:0:0:0:
475,192,118793,1,0,0:0:0:0:
329,192,118939,128,0,119012:0:0:0:0:
109,192,118939,1,0,0:0:0:0:
256,192,118939,1,0,0:0:0:0:
329,192,119085,128,0,119158:0:0:0:0:
402,192,119085,1,0,0:0:0:0:
475,192,119085,1,0,0:0:0:0:
182,192,119085,1,0,0:0:0:0:
36,192,119085,1,0,0:0:0:0:
329,192,119232,128,0,119305:0:0:0:0:
256,192,119378,128,0,119597:0:0:0:0:
182,192,119378,128,0,119524:0:0:0:0:
36,192,119378,1,0,0:0:0:0:
402,192,119378,1,0,0:0:0:0:
402,192,119524,128,0,119597:0:0:0:0:
475,192,119524,1,0,0:0:0:0:
109,192,119524,1,0,0:0:0:0:
402,192,119671,128,0,119744:0:0:0:0:
475,192,119671,1,0,0:0:0:0:
329,192,119671,1,0,0:0:0:0:
182,192,119671,1,0,0:0:0:0:
36,192,119671,1,0,0:0:0:0:
329,192,119817,128,0,119963:0:0:0:0:
256,192,119817,128,0,120036:0:0:0:0:
36,192,119817,1,0,0:0:0:0:
109,192,119963,128,0,120110:0:0:0:0:
402,192,119963,1,0,0:0:0:0:
402,192,120110,128,0,120402:0:0:0:0:
329,192,120110,1,0,0:0:0:0:
182,192,120110,1,0,0:0:0:0:
182,192,120256,128,0,120402:0:0:0:0:
329,192,120256,128,0,120549:0:0:0:0:
475,192,120256,1,0,0:0:0:0:
109,192,120256,1,0,0:0:0:0:
36,192,120256,1,0,0:0:0:0:
256,192,120256,1,0,0:0:0:0:
256,192,120549,128,0,120841:0:0:0:0:
182,192,120549,1,0,0:0:0:0:
109,192,120549,128,0,120768:0:0:0:0:
36,192,120549,128,0,120695:0:0:0:0:
402,192,120549,128,0,120622:0:0:0:0:
475,192,120549,128,0,120622:0:0:0:0:
402,192,120841,128,0,120914:0:0:0:0:
329,192,120841,1,0,0:0:0:0:
475,192,120841,1,0,0:0:0:0:
182,192,120841,1,0,0:0:0:0:
36,192,120841,1,0,0:0:0:0:
402,192,120988,128,0,121061:0:0:0:0:
109,192,120988,128,0,121280:0:0:0:0:
402,192,121134,128,0,121207:0:0:0:0:
256,192,121134,1,0,0:0:0:0:
475,192,121134,1,0,0:0:0:0:
182,192,121134,1,0,0:0:0:0:
402,192,121280,128,0,121354:0:0:0:0:
256,192,121280,1,0,0:0:0:0:
475,192,121280,1,0,0:0:0:0:
402,192,121427,128,0,121500:0:0:0:0:
109,192,121427,128,0,121573:0:0:0:0:
475,192,121427,1,0,0:0:0:0:
36,192,121427,1,0,0:0:0:0:
256,192,121427,1,0,0:0:0:0:
329,192,121427,1,0,0:0:0:0:
402,192,121573,128,0,121646:0:0:0:0:
182,192,121719,128,0,122012:0:0:0:0:
109,192,121719,1,0,0:0:0:0:
256,192,121719,128,0,121866:0:0:0:0:
36,192,121719,128,0,121939:0:0:0:0:
329,192,121719,128,0,121793:0:0:0:0:
475,192,121719,128,0,121793:0:0:0:0:
329,192,122012,128,0,122085:0:0:0:0:
256,192,122012,1,0,0:0:0:0:
109,192,122012,1,0,0:0:0:0:
402,192,122012,1,0,0:0:0:0:
475,192,122012,1,0,0:0:0:0:
36,192,122158,128,0,122451:0:0:0:0:
329,192,122158,128,0,122232:0:0:0:0:
109,192,122158,1,0,0:0:0:0:
475,192,122158,1,0,0:0:0:0:
329,192,122305,128,0,122378:0:0:0:0:
182,192,122305,1,0,0:0:0:0:
329,192,122451,128,0,122524:0:0:0:0:
256,192,122451,1,0,0:0:0:0:
475,192,122451,1,0,0:0:0:0:
182,192,122597,128,0,122744:0:0:0:0:
329,192,122597,128,0,122671:0:0:0:0:
475,192,122597,1,0,0:0:0:0:
256,192,122597,1,0,0:0:0:0:
109,192,122597,1,0,0:0:0:0:
36,192,122597,1,0,0:0:0:0:
329,192,122744,128,0,122817:0:0:0:0:
109,192,122890,128,0,123768:0:0:0:0:
36,192,122890,1,0,0:0:0:0:
475,192,122890,128,0,122963:0:0:0:0:
256,192,122890,128,0,122963:0:0:0:0:
402,192,122890,128,0,122963:0:0:0:0:
475,192,123036,128,0,123110:0:0:0:0:
329,192,123183,128,0,123402:0:0:0:0:
182,192,123183,128,0,123329:0:0:0:0:
256,192,123183,1,0,0:0:0:0:
36,192,123183,1,0,0:0:0:0:
475,192,123183,1,0,0:0:0:0:
402,192,123475,128,0,123549:0:0:0:0:
256,192,123475,1,0,0:0:0:0:
256,192,123622,128,0,123768:0:0:0:0:
402,192,123622,128,0,123914:0:0:0:0:
36,192,123622,1,0,0:0:0:0:
182,192,123768,1,0,0:0:0:0:
329,192,123768,1,0,0:0:0:0:
36,192,123768,1,0,0:0:0:0:
475,192,123768,1,0,0:0:0:0:
329,192,123914,128,0,124207:0:0:0:0:
475,192,123914,1,0,0:0:0:0:
256,192,123914,128,0,123988:0:0:0:0:
109,192,123914,128,0,123988:0:0:0:0:
36,192,123914,128,0,123988:0:0:0:0:
182,192,123914,128,0,123988:0:0:0:0:
475,192,124207,128,0,124354:0:0:0:0:
109,192,124207,1,0,0:0:0:0:
182,192,124256,1,0,0:0:0:0:
329,192,124354,128,0,124500:0:0:0:0:
109,192,124354,1,0,0:0:0:0:
182,192,124500,128,0,124573:0:0:0:0:
475,192,124500,1,0,0:0:0:0:
109,192,124646,128,0,124866:0:0:0:0:
402,192,124646,1,0,0:0:0:0:
329,192,124695,1,0,0:0:0:0:
182,192,124793,128,0,124866:0:0:0:0:
402,192,124793,1,0,0:0:0:0:
36,192,124939,128,0,125158:0:0:0:0:
329,192,124939,1,0,0:0:0:0:
256,192,124988,1,0,0:0:0:0:
109,192,125085,128,0,125158:0:0:0:0:
475,192,125085,1,0,0:0:0:0:
329,192,125085,1,0,0:0:0:0:
475,192,125232,128,0,125671:0:0:0:0:
329,192,125232,128,0,125524:0:0:0:0:
182,192,125232,128,0,125305:0:0:0:0:
256,192,125232,128,0,125305:0:0:0:0:
36,192,125232,128,0,125305:0:0:0:0:
182,192,125524,128,0,125671:0:0:0:0:
256,192,125524,1,0,0:0:0:0:
36,192,125524,1,0,0:0:0:0:
109,192,125524,1,0,0:0:0:0:
329,192,125671,128,0,125963:0:0:0:0:
182,192,125817,128,0,126402:0:0:0:0:
402,192,125817,1,0,0:0:0:0:
475,192,125963,128,0,126110:0:0:0:0:
109,192,125963,1,0,0:0:0:0:
36,192,125963,1,0,0:0:0:0:
329,192,126110,128,0,126256:0:0:0:0:
256,192,126110,1,0,0:0:0:0:
402,192,126110,1,0,0:0:0:0:
36,192,126110,1,0,0:0:0:0:
475,192,126256,128,0,127427:0:0:0:0:
109,192,126256,1,0,0:0:0:0:
36,192,126256,1,0,0:0:0:0:
256,192,126402,1,0,0:0:0:0:
329,192,126402,128,0,127427:0:0:0:0:
109,192,126549,1,0,0:0:0:0:
36,192,126549,1,0,0:0:0:0:
36,192,126695,128,0,126841:0:0:0:0:
402,192,126695,1,0,0:0:0:0:
256,192,126695,1,0,0:0:0:0:
182,192,126695,1,0,0:0:0:0:
182,192,126841,1,0,0:0:0:0:
109,192,126841,1,0,0:0:0:0:
109,192,126988,128,0,127134:0:0:0:0:
36,192,126988,1,0,0:0:0:0:
182,192,127134,1,0,0:0:0:0:
402,192,127134,1,0,0:0:0:0:
256,192,127207,1,0,0:0:0:0:
182,192,127280,128,0,127427:0:0:0:0:
109,192,127280,1,0,0:0:0:0:
402,192,127280,1,0,0:0:0:0:
36,192,127280,1,0,0:0:0:0:
36,192,127427,1,0,0:0:0:0:
109,192,127573,128,0,128012:0:0:0:0:
256,192,127573,128,0,127719:0:0:0:0:
402,192,127573,128,0,127866:0:0:0:0:
329,192,127573,1,0,0:0:0:0:
475,192,127573,1,0,0:0:0:0:
256,192,127866,128,0,128012:0:0:0:0:
182,192,127866,1,0,0:0:0:0:
36,192,127866,1,0,0:0:0:0:
329,192,127866,1,0,0:0:0:0:
402,192,128012,128,0,128305:0:0:0:0:
182,192,128158,128,0,128597:0:0:0:0:
36,192,128158,1,0,0:0:0:0:
475,192,128158,1,0,0:0:0:0:
36,192,128305,1,0,0:0:0:0:
329,192,128305,128,0,128451:0:0:0:0:
256,192,128305,1,0,0:0:0:0:
402,192,128451,128,0,128597:0:0:0:0:
109,192,128451,1,0,0:0:0:0:
36,192,128451,1,0,0:0:0:0:
475,192,128451,1,0,0:0:0:0:
329,192,128597,128,0,129768:0:0:0:0:
256,192,128597,1,0,0:0:0:0:
36,192,128597,1,0,0:0:0:0:
256,192,128744,128,0,129329:0:0:0:0:
475,192,128744,128,0,129768:0:0:0:0:
109,192,128744,1,0,0:0:0:0:
182,192,128890,1,0,0:0:0:0:
36,192,128890,1,0,0:0:0:0:
182,192,129036,1,0,0:0:0:0:
36,192,129036,1,0,0:0:0:0:
402,192,129036,1,0,0:0:0:0:
109,192,129329,1,0,0:0:0:0:
36,192,129329,1,0,0:0:0:0:
182,192,129402,1,0,0:0:0:0:
36,192,129475,1,0,0:0:0:0:
256,192,129475,1,0,0:0:0:0:
109,192,129549,1,0,0:0:0:0:
182,192,129622,128,0,129768:0:0:0:0:
36,192,129622,1,0,0:0:0:0:
402,192,129622,1,0,0:0:0:0:
256,192,129622,1,0,0:0:0:0:
402,192,129914,128,0,130207:0:0:0:0:
109,192,129914,128,0,129988:0:0:0:0:
36,192,129914,128,0,129988:0:0:0:0:
182,192,129914,128,0,129988:0:0:0:0:
256,192,129914,128,0,129988:0:0:0:0:
475,192,129914,1,0,0:0:0:0:
109,192,130061,128,0,130134:0:0:0:0:
475,192,130061,1,0,0:0:0:0:
109,192,130207,128,0,130354:0:0:0:0:
256,192,130207,128,0,130500:0:0:0:0:
329,192,130207,1,0,0:0:0:0:
182,192,130207,1,0,0:0:0:0:
36,192,130207,1,0,0:0:0:0:
475,192,130354,128,0,130646:0:0:0:0:
36,192,130354,128,0,130500:0:0:0:0:
109,192,130500,128,0,130646:0:0:0:0:
402,192,130500,1,0,0:0:0:0:
329,192,130646,128,0,130793:0:0:0:0:
475,192,130793,128,0,130939:0:0:0:0:
182,192,130793,128,0,130939:0:0:0:0:
256,192,130793,1,0,0:0:0:0:
36,192,130793,1,0,0:0:0:0:
109,192,130793,1,0,0:0:0:0:
36,192,130939,128,0,131085:0:0:0:0:
256,192,130939,1,0,0:0:0:0:
402,192,130939,1,0,0:0:0:0:
329,192,131085,128,0,131378:0:0:0:0:
182,192,131085,128,0,131232:0:0:0:0:
402,192,131085,128,0,131158:0:0:0:0:
475,192,131085,128,0,131158:0:0:0:0:
109,192,131085,1,0,0:0:0:0:
36,192,131232,128,0,131524:0:0:0:0:
256,192,131232,1,0,0:0:0:0:
256,192,131378,1,0,0:0:0:0:
402,192,131378,1,0,0:0:0:0:
475,192,131378,1,0,0:0:0:0:
182,192,131378,128,0,131524:0:0:0:0:
402,192,131524,128,0,131817:0:0:0:0:
329,192,131524,1,0,0:0:0:0:
109,192,131524,1,0,0:0:0:0:
256,192,131671,128,0,131817:0:0:0:0:
109,192,131671,128,0,131817:0:0:0:0:
36,192,131671,1,0,0:0:0:0:
182,192,131817,1,0,0:0:0:0:
475,192,131817,1,0,0:0:0:0:
402,192,131890,1,0,0:0:0:0:
329,192,131963,128,0,132110:0:0:0:0:
36,192,131963,128,0,132110:0:0:0:0:
475,192,131963,1,0,0:0:0:0:
182,192,131963,1,0,0:0:0:0:
475,192,132110,1,0,0:0:0:0:
182,192,132110,128,0,132329:0:0:0:0:
256,192,132256,128,0,133427:0:0:0:0:
329,192,132256,1,0,0:0:0:0:
109,192,132256,128,0,132329:0:0:0:0:
402,192,132256,128,0,132329:0:0:0:0:
36,192,132256,128,0,132475:0:0:0:0:
475,192,132256,128,0,132475:0:0:0:0:
329,192,132402,128,0,132549:0:0:0:0:
109,192,132549,128,0,132768:0:0:0:0:
182,192,132549,1,0,0:0:0:0:
36,192,132549,1,0,0:0:0:0:
402,192,132549,128,0,132622:0:0:0:0:
475,192,132549,1,0,0:0:0:0:
36,192,132695,128,0,132841:0:0:0:0:
329,192,132695,1,0,0:0:0:0:
402,192,132695,128,0,132768:0:0:0:0:
109,192,132841,1,0,0:0:0:0:
182,192,132841,128,0,133061:0:0:0:0:
402,192,132841,128,0,132914:0:0:0:0:
109,192,132988,128,0,133134:0:0:0:0:
329,192,132988,1,0,0:0:0:0:
402,192,132988,128,0,133061:0:0:0:0:
182,192,133134,1,0,0:0:0:0:
329,192,133134,128,0,133280:0:0:0:0:
36,192,133134,1,0,0:0:0:0:
402,192,133134,128,0,133207:0:0:0:0:
475,192,133134,1,0,0:0:0:0:
402,192,133280,128,0,133573:0:0:0:0:
475,192,133280,128,0,133573:0:0:0:0:
109,192,133280,1,0,0:0:0:0:
36,192,133280,1,0,0:0:0:0:
182,192,133280,128,0,133573:0:0:0:0:
36,192,133573,1,0,0:0:0:0:
256,192,133573,128,0,133719:0:0:0:0:
402,192,133646,1,0,0:0:0:0:
475,192,133646,1,0,0:0:0:0:
182,192,133719,1,0,0:0:0:0:
329,192,133719,128,0,134012:0:0:0:0:
36,192,133719,128,0,134451:0:0:0:0:
109,192,133719,128,0,134158:0:0:0:0:
256,192,133866,1,0,0:0:0:0:
475,192,133866,1,0,0:0:0:0:
182,192,134012,128,0,134158:0:0:0:0:
402,192,134012,1,0,0:0:0:0:
475,192,134012,1,0,0:0:0:0:
329,192,134085,1,0,0:0:0:0:
256,192,134085,1,0,0:0:0:0:
402,192,134158,1,0,0:0:0:0:
475,192,134158,1,0,0:0:0:0:
109,192,134305,128,0,134451:0:0:0:0:
182,192,134305,1,0,0:0:0:0:
329,192,134305,1,0,0:0:0:0:
256,192,134451,1,0,0:0:0:0:
402,192,134451,1,0,0:0:0:0:
182,192,134524,1,0,0:0:0:0:
109,192,134524,1,0,0:0:0:0:
36,192,134597,128,0,134817:0:0:0:0:
329,192,134597,128,0,134671:0:0:0:0:
402,192,134597,128,0,134671:0:0:0:0:
475,192,134597,128,0,134671:0:0:0:0:
256,192,134597,128,0,134817:0:0:0:0:
402,192,134744,128,0,134817:0:0:0:0:
475,192,134744,128,0,134817:0:0:0:0:
182,192,134744,1,0,0:0:0:0:
402,192,134890,128,0,135110:0:0:0:0:
109,192,134890,128,0,135110:0:0:0:0:
256,192,134890,1,0,0:0:0:0:
36,192,134890,1,0,0:0:0:0:
182,192,135036,128,0,135110:0:0:0:0:
256,192,135036,128,0,135110:0:0:0:0:
475,192,135036,1,0,0:0:0:0:
182,192,135183,128,0,135988:0:0:0:0:
329,192,135183,128,0,135402:0:0:0:0:
402,192,135183,1,0,0:0:0:0:
36,192,135183,1,0,0:0:0:0:
256,192,135256,1,0,0:0:0:0:
402,192,135329,128,0,135402:0:0:0:0:
475,192,135329,128,0,135402:0:0:0:0:
109,192,135329,1,0,0:0:0:0:
36,192,135475,128,0,135695:0:0:0:0:
256,192,135475,1,0,0:0:0:0:
475,192,135475,1,0,0:0:0:0:
109,192,135622,128,0,135695:0:0:0:0:
329,192,135622,128,0,135695:0:0:0:0:
402,192,135622,1,0,0:0:0:0:
329,192,135768,128,0,135988:0:0:0:0:
256,192,135768,1,0,0:0:0:0:
36,192,135768,1,0,0:0:0:0:
402,192,135914,128,0,135988:0:0:0:0:
475,192,135914,128,0,135988:0:0:0:0:
109,192,135914,1,0,0:0:0:0:
475,192,136061,128,0,136280:0:0:0:0:
109,192,136061,128,0,136280:0:0:0:0:
256,192,136061,1,0,0:0:0:0:
36,192,136061,1,0,0:0:0:0:
329,192,136207,128,0,136280:0:0:0:0:
256,192,136207,128,0,136280:0:0:0:0:
402,192,136207,1,0,0:0:0:0:
329,192,136354,128,0,136573:0:0:0:0:
36,192,136354,128,0,136573:0:0:0:0:
182,192,136354,1,0,0:0:0:0:
475,192,136354,1,0,0:0:0:0:
109,192,136427,1,0,0:0:0:0:
182,192,136500,128,0,136573:0:0:0:0:
256,192,136500,128,0,136573:0:0:0:0:
402,192,136500,1,0,0:0:0:0:
182,192,136646,128,0,136866:0:0:0:0:
475,192,136646,128,0,136866:0:0:0:0:
36,192,136646,1,0,0:0:0:0:
329,192,136646,1,0,0:0:0:0:
329,192,136793,128,0,136866:0:0:0:0:
256,192,136793,128,0,136866:0:0:0:0:
109,192,136793,1,0,0:0:0:0:
256,192,136939,128,0,137305:0:0:0:0:
402,192,136939,128,0,137158:0:0:0:0:
36,192,136939,128,0,137012:0:0:0:0:
182,192,136939,128,0,137012:0:0:0:0:
475,192,136939,128,0,137012:0:0:0:0:
109,192,137085,128,0,137158:0:0:0:0:
36,192,137085,128,0,137158:0:0:0:0:
329,192,137085,1,0,0:0:0:0:
475,192,137232,128,0,137451:0:0:0:0:
182,192,137232,1,0,0:0:0:0:
402,192,137232,1,0,0:0:0:0:
329,192,137378,128,0,137744:0:0:0:0:
182,192,137378,128,0,137451:0:0:0:0:
109,192,137378,128,0,137451:0:0:0:0:
36,192,137378,1,0,0:0:0:0:
36,192,137524,128,0,137744:0:0:0:0:
256,192,137524,1,0,0:0:0:0:
475,192,137524,1,0,0:0:0:0:
402,192,137597,1,0,0:0:0:0:
182,192,137671,128,0,137744:0:0:0:0:
256,192,137671,128,0,137744:0:0:0:0:
109,192,137671,1,0,0:0:0:0:
402,192,137817,128,0,138036:0:0:0:0:
109,192,137817,128,0,138036:0:0:0:0:
329,192,137817,1,0,0:0:0:0:
36,192,137817,1,0,0:0:0:0:
256,192,137963,128,0,138036:0:0:0:0:
329,192,137963,128,0,138036:0:0:0:0:
182,192,137963,1,0,0:0:0:0:
475,192,138110,128,0,138329:0:0:0:0:
256,192,138110,128,0,138329:0:0:0:0:
402,192,138110,1,0,0:0:0:0:
109,192,138110,1,0,0:0:0:0:
182,192,138183,1,0,0:0:0:0:
109,192,138256,128,0,138329:0:0:0:0:
36,192,138256,128,0,138329:0:0:0:0:
329,192,138256,1,0,0:0:0:0:
182,192,138402,128,0,138622:0:0:0:0:
475,192,138402,128,0,138622:0:0:0:0:
256,192,138402,1,0,0:0:0:0:
36,192,138402,1,0,0:0:0:0:
329,192,138549,128,0,138622:0:0:0:0:
256,192,138549,128,0,138622:0:0:0:0:
36,192,138549,1,0,0:0:0:0:
402,192,138695,128,0,138914:0:0:0:0:
109,192,138695,128,0,138914:0:0:0:0:
182,192,138695,1,0,0:0:0:0:
475,192,138695,1,0,0:0:0:0:
36,192,138768,1,0,0:0:0:0:
256,192,138841,128,0,138914:0:0:0:0:
182,192,138841,128,0,138914:0:0:0:0:
475,192,138841,1,0,0:0:0:0:
329,192,138988,128,0,139207:0:0:0:0:
36,192,138988,128,0,139207:0:0:0:0:
402,192,138988,1,0,0:0:0:0:
109,192,138988,1,0,0:0:0:0:
475,192,139061,1,0,0:0:0:0:
109,192,139134,128,0,139207:0:0:0:0:
182,192,139134,128,0,139207:0:0:0:0:
402,192,139134,1,0,0:0:0:0:
109,192,139280,128,0,140305:0:0:0:0:
256,192,139280,128,0,139354:0:0:0:0:
36,192,139280,128,0,139354:0:0:0:0:
475,192,139280,128,0,139354:0:0:0:0:
402,192,139280,128,0,139500:0:0:0:0:
256,192,139427,128,0,139500:0:0:0:0:
329,192,139427,128,0,139500:0:0:0:0:
182,192,139427,1,0,0:0:0:0:
329,192,139573,128,0,139793:0:0:0:0:
36,192,139573,1,0,0:0:0:0:
475,192,139573,1,0,0:0:0:0:
402,192,139719,128,0,139793:0:0:0:0:
475,192,139719,128,0,139793:0:0:0:0:
182,192,139719,1,0,0:0:0:0:
402,192,139866,128,0,140085:0:0:0:0:
256,192,139866,1,0,0:0:0:0:
36,192,139866,1,0,0:0:0:0:
256,192,140012,128,0,140085:0:0:0:0:
329,192,140012,128,0,140085:0:0:0:0:
182,192,140012,1,0,0:0:0:0:
329,192,140158,128,0,140378:0:0:0:0:
36,192,140158,1,0,0:0:0:0:
475,192,140158,1,0,0:0:0:0:
402,192,140305,128,0,140378:0:0:0:0:
475,192,140305,128,0,140378:0:0:0:0:
182,192,140305,1,0,0:0:0:0:
256,192,140451,128,0,140671:0:0:0:0:
402,192,140451,1,0,0:0:0:0:
36,192,140451,1,0,0:0:0:0:
329,192,140597,128,0,140671:0:0:0:0:
402,192,140597,128,0,140671:0:0:0:0:
109,192,140597,1,0,0:0:0:0:
402,192,140744,128,0,140963:0:0:0:0:
475,192,140744,1,0,0:0:0:0:
256,192,140744,1,0,0:0:0:0:
109,192,140744,128,0,140963:0:0:0:0:
256,192,140890,128,0,140963:0:0:0:0:
182,192,140890,128,0,140963:0:0:0:0:
36,192,140890,1,0,0:0:0:0:
182,192,141036,128,0,141256:0:0:0:0:
402,192,141036,128,0,141110:0:0:0:0:
475,192,141036,128,0,141110:0:0:0:0:
109,192,141036,1,0,0:0:0:0:
329,192,141110,128,0,141183:0:0:0:0:
256,192,141110,128,0,141183:0:0:0:0:
402,192,141183,128,0,141256:0:0:0:0:
475,192,141183,128,0,141256:0:0:0:0:
36,192,141183,1,0,0:0:0:0:
256,192,141256,1,0,0:0:0:0:
109,192,141329,128,0,141402:0:0:0:0:
36,192,141329,128,0,141402:0:0:0:0:
329,192,141329,128,0,141549:0:0:0:0:
402,192,141329,1,0,0:0:0:0:
182,192,141402,128,0,141475:0:0:0:0:
256,192,141402,128,0,141475:0:0:0:0:
109,192,141475,128,0,141549:0:0:0:0:
36,192,141475,128,0,141549:0:0:0:0:
475,192,141475,1,0,0:0:0:0:
402,192,141549,1,0,0:0:0:0:
256,192,141622,128,0,142134:0:0:0:0:
182,192,141622,1,0,0:0:0:0:
36,192,141622,1,0,0:0:0:0:
475,192,141622,1,0,0:0:0:0:
402,192,141695,1,0,0:0:0:0:
329,192,141695,1,0,0:0:0:0:
36,192,141768,1,0,0:0:0:0:
109,192,141768,1,0,0:0:0:0:
475,192,141841,1,0,0:0:0:0:
329,192,141841,1,0,0:0:0:0:
182,192,141914,1,0,0:0:0:0:
109,192,141914,1,0,0:0:0:0:
402,192,141988,1,0,0:0:0:0:
475,192,141988,1,0,0:0:0:0:
182,192,142061,1,0,0:0:0:0:
36,192,142061,1,0,0:0:0:0:
109,192,142134,1,0,0:0:0:0:
402,192,142134,1,0,0:0:0:0:
182,192,142207,128,0,142354:0:0:0:0:
329,192,142207,1,0,0:0:0:0:
475,192,142207,1,0,0:0:0:0:
36,192,142280,1,0,0:0:0:0:
256,192,142280,1,0,0:0:0:0:
402,192,142354,1,0,0:0:0:0:
329,192,142354,1,0,0:0:0:0:
256,192,142427,128,0,142524:0:0:0:0:
109,192,142427,1,0,0:0:0:0:
36,192,142427,1,0,0:0:0:0:
475,192,142500,1,0,0:0:0:0:
402,192,142500,1,0,0:0:0:0:
182,192,142573,1,0,0:0:0:0:
36,192,142573,1,0,0:0:0:0:
329,192,142597,128,0,142719:0:0:0:0:
475,192,142646,1,0,0:0:0:0:
256,192,142646,1,0,0:0:0:0:
182,192,142719,1,0,0:0:0:0:
109,192,142719,1,0,0:0:0:0:
402,192,142793,128,0,144402:0:0:0:0:
329,192,142793,1,0,0:0:0:0:
36,192,142793,1,0,0:0:0:0:
182,192,142866,1,0,0:0:0:0:
475,192,142866,1,0,0:0:0:0:
329,192,142939,1,0,0:0:0:0:
109,192,142939,1,0,0:0:0:0:
36,192,143012,1,0,0:0:0:0:
256,192,143012,1,0,0:0:0:0:
182,192,143085,1,0,0:0:0:0:
475,192,143085,1,0,0:0:0:0:
109,192,143158,1,0,0:0:0:0:
329,192,143158,1,0,0:0:0:0:
182,192,143232,1,0,0:0:0:0:
475,192,143232,1,0,0:0:0:0:
36,192,143305,1,0,0:0:0:0:
256,192,143305,1,0,0:0:0:0:
329,192,143378,1,0,0:0:0:0:
109,192,143378,1,0,0:0:0:0:
475,192,143451,1,0,0:0:0:0:
182,192,143451,1,0,0:0:0:0:
109,192,143524,1,0,0:0:0:0:
329,192,143524,1,0,0:0:0:0:
256,192,143597,1,0,0:0:0:0:
36,192,143597,1,0,0:0:0:0:
109,192,143671,1,0,0:0:0:0:
329,192,143671,1,0,0:0:0:0:
256,192,143744,1,0,0:0:0:0:
475,192,143744,1,0,0:0:0:0:
182,192,143817,1,0,0:0:0:0:
36,192,143817,1,0,0:0:0:0:
256,192,143890,1,0,0:0:0:0:
329,192,143963,128,0,144256:0:0:0:0:
475,192,143963,128,0,144256:0:0:0:0:
36,192,143963,128,0,144012:0:0:0:0:
109,192,143988,128,0,144061:0:0:0:0:
182,192,144012,128,0,144183:0:0:0:0:
256,192,144110,1,0,0:0:0:0:
36,192,144110,1,0,0:0:0:0:
109,192,144256,128,0,144329:0:0:0:0:
182,192,144293,128,0,144366:0:0:0:0:
256,192,144329,128,0,144475:0:0:0:0:
475,192,144402,1,0,0:0:0:0:
36,192,144402,1,0,0:0:0:0:
109,192,144402,128,0,144475:0:0:0:0:
329,192,144439,128,0,144512:0:0:0:0:
402,192,144475,128,0,144622:0:0:0:0:
475,192,144549,128,0,144597:0:0:0:0:
36,192,144549,128,0,144695:0:0:0:0:
256,192,144573,128,0,144646:0:0:0:0:
182,192,144597,128,0,144793:0:0:0:0:
109,192,144622,1,0,0:0:0:0:
329,192,144695,1,0,0:0:0:0:
475,192,144695,128,0,144768:0:0:0:0:
109,192,144744,128,0,144817:0:0:0:0:
36,192,144768,128,0,144914:0:0:0:0:
256,192,144768,1,0,0:0:0:0:
329,192,144793,128,0,144988:0:0:0:0:
402,192,144841,1,0,0:0:0:0:
475,192,144914,1,0,0:0:0:0:
256,192,144939,128,0,145012:0:0:0:0:
182,192,144963,128,0,145036:0:0:0:0:
36,192,144988,1,0,0:0:0:0:
402,192,144988,128,0,145061:0:0:0:0:
109,192,144988,128,0,145207:0:0:0:0:
329,192,145061,1,0,0:0:0:0:
36,192,145134,128,0,145183:0:0:0:0:
475,192,145134,128,0,145280:0:0:0:0:
256,192,145158,128,0,145232:0:0:0:0:
329,192,145183,128,0,145378:0:0:0:0:
402,192,145207,1,0,0:0:0:0:
182,192,145280,1,0,0:0:0:0:
36,192,145280,128,0,145354:0:0:0:0:
402,192,145329,128,0,145402:0:0:0:0:
475,192,145354,128,0,145500:0:0:0:0:
256,192,145354,1,0,0:0:0:0:
182,192,145378,128,0,145573:0:0:0:0:
109,192,145427,1,0,0:0:0:0:
36,192,145500,1,0,0:0:0:0:
256,192,145524,128,0,145597:0:0:0:0:
329,192,145549,128,0,145622:0:0:0:0:
475,192,145573,1,0,0:0:0:0:
109,192,145573,128,0,145646:0:0:0:0:
402,192,145573,128,0,145866:0:0:0:0:
182,192,145646,1,0,0:0:0:0:
36,192,145719,128,0,145939:0:0:0:0:
329,192,145719,128,0,145884:0:0:0:0:
256,192,145738,128,0,145902:0:0:0:0:
182,192,145793,1,0,0:0:0:0:
109,192,145866,128,0,145939:0:0:0:0:
475,192,145866,1,0,0:0:0:0:
329,192,145939,1,0,0:0:0:0:
182,192,146012,1,0,0:0:0:0:
36,192,146012,1,0,0:0:0:0:
402,192,146012,1,0,0:0:0:0:
256,192,146085,1,0,0:0:0:0:
109,192,146158,128,0,146232:0:0:0:0:
475,192,146158,1,0,0:0:0:0:
402,192,146158,1,0,0:0:0:0:
256,192,146232,1,0,0:0:0:0:
36,192,146305,1,0,0:0:0:0:
402,192,146305,1,0,0:0:0:0:
109,192,146305,1,0,0:0:0:0:
182,192,146305,128,0,146451:0:0:0:0:
329,192,146378,1,0,0:0:0:0:
109,192,146451,128,0,146597:0:0:0:0:
256,192,146451,1,0,0:0:0:0:
475,192,146451,1,0,0:0:0:0:
402,192,146524,1,0,0:0:0:0:
182,192,146524,128,0,146671:0:0:0:0:
329,192,146597,128,0,146695:0:0:0:0:
36,192,146597,1,0,0:0:0:0:
402,192,146622,128,0,146744:0:0:0:0:
475,192,146671,128,0,146817:0:0:0:0:
109,192,146671,1,0,0:0:0:0:
256,192,146744,1,0,0:0:0:0:
36,192,146744,128,0,146817:0:0:0:0:
329,192,146817,1,0,0:0:0:0:
475,192,146890,128,0,146963:0:0:0:0:
182,192,146890,128,0,147036:0:0:0:0:
109,192,146890,1,0,0:0:0:0:
402,192,146914,128,0,146988:0:0:0:0:
256,192,146939,128,0,147158:0:0:0:0:
329,192,146963,1,0,0:0:0:0:
36,192,147036,1,0,0:0:0:0:
109,192,147036,128,0,147110:0:0:0:0:
329,192,147110,128,0,147183:0:0:0:0:
182,192,147110,1,0,0:0:0:0:
402,192,147134,128,0,147207:0:0:0:0:
475,192,147158,128,0,147402:0:0:0:0:
109,192,147183,1,0,0:0:0:0:
256,192,147256,1,0,0:0:0:0:
329,192,147329,128,0,147402:0:0:0:0:
402,192,147329,1,0,0:0:0:0:
36,192,147329,128,0,147402:0:0:0:0:
109,192,147354,128,0,147427:0:0:0:0:
182,192,147378,128,0,147549:0:0:0:0:
256,192,147402,1,0,0:0:0:0:
329,192,147475,128,0,147622:0:0:0:0:
475,192,147475,128,0,147549:0:0:0:0:
109,192,147500,128,0,147573:0:0:0:0:
36,192,147524,128,0,147719:0:0:0:0:
256,192,147549,1,0,0:0:0:0:
402,192,147622,128,0,147695:0:0:0:0:
182,192,147622,1,0,0:0:0:0:
109,192,147671,128,0,147744:0:0:0:0:
256,192,147695,128,0,147768:0:0:0:0:
475,192,147695,1,0,0:0:0:0:
329,192,147719,128,0,147939:0:0:0:0:
402,192,147768,1,0,0:0:0:0:
109,192,147841,1,0,0:0:0:0:
475,192,147866,128,0,147939:0:0:0:0:
256,192,147890,128,0,147963:0:0:0:0:
182,192,147914,128,0,148171:0:0:0:0:
36,192,147914,128,0,147988:0:0:0:0:
402,192,147914,1,0,0:0:0:0:
109,192,147988,1,0,0:0:0:0:
329,192,148061,128,0,148207:0:0:0:0:
256,192,148061,1,0,0:0:0:0:
36,192,148061,128,0,148134:0:0:0:0:
402,192,148097,128,0,148280:0:0:0:0:
109,192,148207,128,0,148280:0:0:0:0:
36,192,148207,128,0,148427:0:0:0:0:
475,192,148207,1,0,0:0:0:0:
256,192,148280,1,0,0:0:0:0:
182,192,148354,128,0,148427:0:0:0:0:
402,192,148354,1,0,0:0:0:0:
109,192,148354,128,0,148573:0:0:0:0:
329,192,148427,1,0,0:0:0:0:
475,192,148500,1,0,0:0:0:0:
36,192,148500,1,0,0:0:0:0:
182,192,148500,128,0,148695:0:0:0:0:
256,192,148500,128,0,148573:0:0:0:0:
402,192,148573,1,0,0:0:0:0:
109,192,148646,1,0,0:0:0:0:
36,192,148646,128,0,148719:0:0:0:0:
256,192,148646,128,0,148719:0:0:0:0:
329,192,148671,128,0,148744:0:0:0:0:
402,192,148695,128,0,148793:0:0:0:0:
475,192,148719,128,0,148866:0:0:0:0:
182,192,148774,128,0,149012:0:0:0:0:
109,192,148793,128,0,148866:0:0:0:0:
36,192,148811,128,0,148884:0:0:0:0:
329,192,148866,1,0,0:0:0:0:
109,192,148939,128,0,149030:0:0:0:0:
256,192,148939,1,0,0:0:0:0:
36,192,148957,128,0,149195:0:0:0:0:
329,192,149012,1,0,0:0:0:0:
182,192,149085,128,0,149158:0:0:0:0:
402,192,149085,128,0,149158:0:0:0:0:
475,192,149085,1,0,0:0:0:0:
109,192,149104,128,0,149177:0:0:0:0:
329,192,149158,1,0,0:0:0:0:
256,192,149213,128,0,149451:0:0:0:0:
182,192,149232,128,0,149305:0:0:0:0:
475,192,149232,1,0,0:0:0:0:
109,192,149250,128,0,149323:0:0:0:0:
402,192,149305,1,0,0:0:0:0:
182,192,149378,128,0,149469:0:0:0:0:
475,192,149378,128,0,149451:0:0:0:0:
329,192,149378,1,0,0:0:0:0:
109,192,149396,128,0,149634:0:0:0:0:
402,192,149451,1,0,0:0:0:0:
256,192,149524,128,0,149780:0:0:0:0:
36,192,149524,1,0,0:0:0:0:
182,192,149543,128,0,149616:0:0:0:0:
402,192,149597,1,0,0:0:0:0:
329,192,149671,128,0,149744:0:0:0:0:
475,192,149671,1,0,0:0:0:0:
182,192,149689,128,0,149854:0:0:0:0:
36,192,149744,1,0,0:0:0:0:
475,192,149799,128,0,150036:0:0:0:0:
402,192,149817,128,0,149890:0:0:0:0:
109,192,149817,1,0,0:0:0:0:
329,192,149835,128,0,149908:0:0:0:0:
256,192,149890,1,0,0:0:0:0:
402,192,149963,128,0,150055:0:0:0:0:
182,192,149963,128,0,150036:0:0:0:0:
36,192,149963,1,0,0:0:0:0:
329,192,149982,128,0,150183:0:0:0:0:
109,192,150036,1,0,0:0:0:0:
36,192,150110,1,0,0:0:0:0:
475,192,150110,128,0,150329:0:0:0:0:
402,192,150128,128,0,150219:0:0:0:0:
182,192,150183,1,0,0:0:0:0:
256,192,150256,128,0,150451:0:0:0:0:
109,192,150256,128,0,150329:0:0:0:0:
36,192,150256,1,0,0:0:0:0:
329,192,150274,128,0,150402:0:0:0:0:
402,192,150329,1,0,0:0:0:0:
182,192,150402,128,0,150475:0:0:0:0:
475,192,150402,1,0,0:0:0:0:
109,192,150427,128,0,150549:0:0:0:0:
36,192,150451,128,0,150622:0:0:0:0:
329,192,150475,1,0,0:0:0:0:
402,192,150549,1,0,0:0:0:0:
475,192,150549,1,0,0:0:0:0:
256,192,150549,128,0,150622:0:0:0:0:
182,192,150622,1,0,0:0:0:0:
109,192,150695,1,0,0:0:0:0:
329,192,150695,1,0,0:0:0:0:
402,192,150768,1,0,0:0:0:0:
256,192,150841,128,0,150914:0:0:0:0:
36,192,150841,1,0,0:0:0:0:
475,192,150841,1,0,0:0:0:0:
109,192,150914,1,0,0:0:0:0:
402,192,150969,128,0,151207:0:0:0:0:
36,192,150988,1,0,0:0:0:0:
329,192,150988,128,0,151061:0:0:0:0:
256,192,151006,128,0,151079:0:0:0:0:
182,192,151061,1,0,0:0:0:0:
329,192,151134,128,0,151225:0:0:0:0:
475,192,151134,1,0,0:0:0:0:
36,192,151134,128,0,151207:0:0:0:0:
256,192,151152,128,0,151354:0:0:0:0:
109,192,151207,1,0,0:0:0:0:
402,192,151280,128,0,151500:0:0:0:0:
182,192,151280,1,0,0:0:0:0:
329,192,151299,128,0,151427:0:0:0:0:
36,192,151354,1,0,0:0:0:0:
109,192,151427,128,0,151500:0:0:0:0:
256,192,151427,1,0,0:0:0:0:
475,192,151427,1,0,0:0:0:0:
329,192,151500,128,0,151573:0:0:0:0:
36,192,151524,128,0,151597:0:0:0:0:
182,192,151549,128,0,151646:0:0:0:0:
256,192,151573,128,0,151719:0:0:0:0:
475,192,151573,1,0,0:0:0:0:
402,192,151646,1,0,0:0:0:0:
109,192,151719,128,0,151811:0:0:0:0:
329,192,151719,128,0,151793:0:0:0:0:
475,192,151719,1,0,0:0:0:0:
36,192,151738,128,0,152195:0:0:0:0:
256,192,151793,1,0,0:0:0:0:
182,192,151866,128,0,151957:0:0:0:0:
402,192,151866,1,0,0:0:0:0:
109,192,151884,128,0,152158:0:0:0:0:
329,192,151939,1,0,0:0:0:0:
256,192,152012,128,0,152085:0:0:0:0:
475,192,152012,128,0,152085:0:0:0:0:
182,192,152030,128,0,152122:0:0:0:0:
402,192,152085,1,0,0:0:0:0:
475,192,152158,1,0,0:0:0:0:
329,192,152158,128,0,152232:0:0:0:0:
256,192,152195,1,0,0:0:0:0:
182,192,152232,128,0,152378:0:0:0:0:
109,192,152305,128,0,152451:0:0:0:0:
402,192,152305,1,0,0:0:0:0:
329,192,152305,128,0,152396:0:0:0:0:
475,192,152305,1,0,0:0:0:0:
256,192,152323,128,0,152597:0:0:0:0:
36,192,152360,1,0,0:0:0:0:
182,192,152451,128,0,152524:0:0:0:0:
402,192,152451,128,0,152543:0:0:0:0:
329,192,152469,128,0,152671:0:0:0:0:
109,192,152524,1,0,0:0:0:0:
182,192,152597,128,0,152671:0:0:0:0:
475,192,152597,128,0,152671:0:0:0:0:
402,192,152616,128,0,152744:0:0:0:0:
36,192,152616,1,0,0:0:0:0:
256,192,152671,1,0,0:0:0:0:
475,192,152744,128,0,152817:0:0:0:0:
109,192,152744,1,0,0:0:0:0:
329,192,152768,128,0,152890:0:0:0:0:
182,192,152793,128,0,152963:0:0:0:0:
36,192,152817,128,0,153036:0:0:0:0:
256,192,152817,1,0,0:0:0:0:
402,192,152890,128,0,152963:0:0:0:0:
475,192,152890,1,0,0:0:0:0:
329,192,152963,1,0,0:0:0:0:
256,192,153036,1,0,0:0:0:0:
109,192,153036,1,0,0:0:0:0:
475,192,153036,1,0,0:0:0:0:
182,192,153110,1,0,0:0:0:0:
329,192,153110,1,0,0:0:0:0:
256,192,153183,1,0,0:0:0:0:
402,192,153183,128,0,153256:0:0:0:0:
36,192,153183,1,0,0:0:0:0:
182,192,153256,1,0,0:0:0:0:
109,192,153329,128,0,153988:0:0:0:0:
329,192,153329,128,0,153402:0:0:0:0:
36,192,153329,128,0,153402:0:0:0:0:
475,192,153329,128,0,153402:0:0:0:0:
256,192,153366,128,0,153512:0:0:0:0:
402,192,153402,1,0,0:0:0:0:
329,192,153475,128,0,153549:0:0:0:0:
36,192,153475,1,0,0:0:0:0:
475,192,153512,128,0,153658:0:0:0:0:
182,192,153549,1,0,0:0:0:0:
402,192,153622,128,0,153695:0:0:0:0:
36,192,153622,1,0,0:0:0:0:
329,192,153658,128,0,153805:0:0:0:0:
256,192,153695,1,0,0:0:0:0:
402,192,153768,128,0,153841:0:0:0:0:
182,192,153768,1,0,0:0:0:0:
475,192,153805,128,0,153951:0:0:0:0:
36,192,153841,1,0,0:0:0:0:
182,192,153914,128,0,153988:0:0:0:0:
256,192,153914,128,0,154573:0:0:0:0:
329,192,153951,128,0,154097:0:0:0:0:
36,192,153988,1,0,0:0:0:0:
402,192,154061,128,0,154134:0:0:0:0:
475,192,154061,1,0,0:0:0:0:
109,192,154097,128,0,154244:0:0:0:0:
182,192,154134,1,0,0:0:0:0:
36,192,154207,128,0,154280:0:0:0:0:
329,192,154207,1,0,0:0:0:0:
402,192,154244,128,0,154390:0:0:0:0:
182,192,154280,1,0,0:0:0:0:
475,192,154354,128,0,154427:0:0:0:0:
36,192,154354,1,0,0:0:0:0:
182,192,154390,128,0,154536:0:0:0:0:
109,192,154427,1,0,0:0:0:0:
329,192,154500,128,0,154573:0:0:0:0:
402,192,154500,128,0,155158:0:0:0:0:
36,192,154536,128,0,154683:0:0:0:0:
475,192,154573,1,0,0:0:0:0:
109,192,154646,128,0,154719:0:0:0:0:
329,192,154646,1,0,0:0:0:0:
182,192,154683,128,0,154829:0:0:0:0:
256,192,154719,1,0,0:0:0:0:
109,192,154793,128,0,154866:0:0:0:0:
475,192,154793,1,0,0:0:0:0:
36,192,154829,128,0,154975:0:0:0:0:
329,192,154866,1,0,0:0:0:0:
182,192,154939,128,0,155012:0:0:0:0:
475,192,154939,1,0,0:0:0:0:
256,192,154975,128,0,155085:0:0:0:0:
109,192,155012,1,0,0:0:0:0:
475,192,155085,128,0,155744:0:0:0:0:
329,192,155085,1,0,0:0:0:0:
36,192,155085,128,0,155158:0:0:0:0:
109,192,155110,128,0,155232:0:0:0:0:
182,192,155134,128,0,155305:0:0:0:0:
256,192,155158,1,0,0:0:0:0:
402,192,155232,1,0,0:0:0:0:
329,192,155232,128,0,155378:0:0:0:0:
36,192,155305,1,0,0:0:0:0:
182,192,155378,128,0,155451:0:0:0:0:
256,192,155378,1,0,0:0:0:0:
109,192,155414,128,0,155524:0:0:0:0:
36,192,155451,128,0,155597:0:0:0:0:
402,192,155451,1,0,0:0:0:0:
329,192,155524,1,0,0:0:0:0:
256,192,155524,128,0,155597:0:0:0:0:
182,192,155597,128,0,155671:0:0:0:0:
402,192,155671,128,0,155780:0:0:0:0:
329,192,155671,128,0,156329:0:0:0:0:
36,192,155671,1,0,0:0:0:0:
109,192,155707,1,0,0:0:0:0:
256,192,155744,1,0,0:0:0:0:
182,192,155817,128,0,155890:0:0:0:0:
475,192,155817,1,0,0:0:0:0:
109,192,155835,128,0,156018:0:0:0:0:
402,192,155890,1,0,0:0:0:0:
36,192,155963,128,0,156036:0:0:0:0:
475,192,155963,1,0,0:0:0:0:
256,192,155982,128,0,156164:0:0:0:0:
182,192,156036,1,0,0:0:0:0:
402,192,156110,128,0,156183:0:0:0:0:
36,192,156110,1,0,0:0:0:0:
475,192,156128,128,0,156311:0:0:0:0:
109,192,156183,1,0,0:0:0:0:
256,192,156256,128,0,156329:0:0:0:0:
182,192,156256,128,0,156841:0:0:0:0:
36,192,156274,128,0,156457:0:0:0:0:
402,192,156329,1,0,0:0:0:0:
109,192,156402,128,0,156475:0:0:0:0:
475,192,156402,1,0,0:0:0:0:
256,192,156421,128,0,156604:0:0:0:0:
329,192,156475,1,0,0:0:0:0:
475,192,156549,128,0,156622:0:0:0:0:
36,192,156549,1,0,0:0:0:0:
402,192,156567,128,0,156750:0:0:0:0:
109,192,156622,1,0,0:0:0:0:
329,192,156695,128,0,156768:0:0:0:0:
36,192,156695,1,0,0:0:0:0:
109,192,156732,128,0,156878:0:0:0:0:
256,192,156768,1,0,0:0:0:0:
475,192,156841,1,0,0:0:0:0:
329,192,156841,128,0,157207:0:0:0:0:
256,192,156878,128,0,157043:0:0:0:0:
182,192,156914,128,0,157061:0:0:0:0:
36,192,156914,1,0,0:0:0:0:
109,192,156988,1,0,0:0:0:0:
475,192,156988,128,0,157061:0:0:0:0:
402,192,156988,128,0,157061:0:0:0:0:
182,192,157134,128,0,157317:0:0:0:0:
475,192,157134,128,0,157354:0:0:0:0:
109,192,157171,128,0,157354:0:0:0:0:
36,192,157207,128,0,157427:0:0:0:0:
329,192,157280,128,0,157390:0:0:0:0:
402,192,157280,128,0,157372:0:0:0:0:
256,192,157280,1,0,0:0:0:0:
475,192,157427,1,0,0:0:0:0:
109,192,157427,128,0,157500:0:0:0:0:
256,192,157451,128,0,157573:0:0:0:0:
329,192,157475,128,0,157646:0:0:0:0:
402,192,157500,128,0,157719:0:0:0:0:
109,192,157573,1,0,0:0:0:0:
182,192,157573,128,0,157646:0:0:0:0:
36,192,157573,128,0,157939:0:0:0:0:
256,192,157719,128,0,157793:0:0:0:0:
182,192,157719,1,0,0:0:0:0:
109,192,157719,128,0,157939:0:0:0:0:
475,192,157719,1,0,0:0:0:0:
182,192,157866,128,0,157939:0:0:0:0:
475,192,157866,1,0,0:0:0:0:
329,192,157866,128,0,157939:0:0:0:0:
256,192,157866,1,0,0:0:0:0:
402,192,158012,128,0,158671:0:0:0:0:
182,192,158012,128,0,158085:0:0:0:0:
475,192,158012,128,0,158085:0:0:0:0:
36,192,158012,128,0,158085:0:0:0:0:
256,192,158049,128,0,158195:0:0:0:0:
109,192,158085,1,0,0:0:0:0:
182,192,158158,128,0,158232:0:0:0:0:
475,192,158158,1,0,0:0:0:0:
36,192,158195,128,0,158341:0:0:0:0:
329,192,158232,1,0,0:0:0:0:
109,192,158305,128,0,158378:0:0:0:0:
475,192,158305,1,0,0:0:0:0:
182,192,158341,128,0,158488:0:0:0:0:
256,192,158378,1,0,0:0:0:0:
109,192,158451,128,0,158524:0:0:0:0:
329,192,158451,1,0,0:0:0:0:
36,192,158488,128,0,158634:0:0:0:0:
475,192,158524,1,0,0:0:0:0:
329,192,158597,128,0,158671:0:0:0:0:
256,192,158597,128,0,159256:0:0:0:0:
182,192,158634,128,0,158780:0:0:0:0:
475,192,158671,1,0,0:0:0:0:
109,192,158744,128,0,158817:0:0:0:0:
36,192,158744,1,0,0:0:0:0:
402,192,158780,128,0,158927:0:0:0:0:
329,192,158817,1,0,0:0:0:0:
475,192,158890,128,0,158963:0:0:0:0:
182,192,158890,1,0,0:0:0:0:
109,192,158927,128,0,159073:0:0:0:0:
329,192,158963,1,0,0:0:0:0:
36,192,159036,128,0,159110:0:0:0:0:
475,192,159036,1,0,0:0:0:0:
329,192,159073,128,0,159219:0:0:0:0:
402,192,159110,1,0,0:0:0:0:
182,192,159183,128,0,159256:0:0:0:0:
109,192,159183,128,0,159841:0:0:0:0:
475,192,159219,128,0,159366:0:0:0:0:
36,192,159256,1,0,0:0:0:0:
402,192,159329,128,0,159402:0:0:0:0:
182,192,159329,1,0,0:0:0:0:
329,192,159366,128,0,159512:0:0:0:0:
256,192,159402,1,0,0:0:0:0:
402,192,159475,128,0,159549:0:0:0:0:
36,192,159475,1,0,0:0:0:0:
475,192,159512,128,0,159658:0:0:0:0:
182,192,159549,1,0,0:0:0:0:
329,192,159622,128,0,159695:0:0:0:0:
36,192,159622,1,0,0:0:0:0:
256,192,159658,128,0,159768:0:0:0:0:
402,192,159695,1,0,0:0:0:0:
36,192,159768,128,0,160354:0:0:0:0:
182,192,159768,1,0,0:0:0:0:
475,192,159768,128,0,159841:0:0:0:0:
402,192,159793,128,0,159866:0:0:0:0:
329,192,159817,128,0,159914:0:0:0:0:
256,192,159841,128,0,159988:0:0:0:0:
109,192,159914,1,0,0:0:0:0:
182,192,159914,128,0,159988:0:0:0:0:
475,192,159914,1,0,0:0:0:0:
329,192,159988,128,0,160061:0:0:0:0:
402,192,159988,1,0,0:0:0:0:
182,192,160061,1,0,0:0:0:0:
256,192,160061,128,0,160134:0:0:0:0:
109,192,160061,128,0,160134:0:0:0:0:
402,192,160134,128,0,160207:0:0:0:0:
475,192,160134,1,0,0:0:0:0:
256,192,160207,1,0,0:0:0:0:
329,192,160207,128,0,160280:0:0:0:0:
182,192,160207,128,0,160280:0:0:0:0:
475,192,160280,128,0,160354:0:0:0:0:
109,192,160280,1,0,0:0:0:0:
402,192,160354,5,0,0:0:0:0:
329,192,160354,1,0,0:0:0:0:
256,192,160354,128,0,160463:0:0:0:0:
182,192,160390,128,0,160500:0:0:0:0:
109,192,160427,128,0,160536:0:0:0:0:
36,192,160463,128,0,160573:0:0:0:0:
475,192,160500,1,0,0:0:0:0:
329,192,160500,128,0,160573:0:0:0:0:
256,192,160536,128,0,160610:0:0:0:0:
402,192,160573,1,0,0:0:0:0:
182,192,160573,128,0,160646:0:0:0:0:
109,192,160610,128,0,160975:0:0:0:0:
36,192,160646,1,0,0:0:0:0:
329,192,160646,1,0,0:0:0:0:
256,192,160719,1,0,0:0:0:0:
402,192,160719,1,0,0:0:0:0:
182,192,160793,1,0,0:0:0:0:
475,192,160793,1,0,0:0:0:0:
402,192,160866,1,0,0:0:0:0:
256,192,160866,1,0,0:0:0:0:
182,192,160939,128,0,161012:0:0:0:0:
36,192,160939,1,0,0:0:0:0:
329,192,160975,128,0,161049:0:0:0:0:
402,192,161012,128,0,161232:0:0:0:0:
475,192,161012,1,0,0:0:0:0:
256,192,161085,1,0,0:0:0:0:
109,192,161085,1,0,0:0:0:0:
36,192,161158,1,0,0:0:0:0:
329,192,161158,1,0,0:0:0:0:
256,192,161232,1,0,0:0:0:0:
109,192,161232,1,0,0:0:0:0:
182,192,161232,1,0,0:0:0:0:
329,192,161305,1,0,0:0:0:0:
402,192,161305,1,0,0:0:0:0:
475,192,161305,1,0,0:0:0:0:
36,192,161378,1,0,0:0:0:0:
182,192,161378,1,0,0:0:0:0:
109,192,161378,1,0,0:0:0:0:
329,192,161451,1,0,0:0:0:0:
475,192,161451,1,0,0:0:0:0:
256,192,161524,128,0,161744:0:0:0:0:
402,192,161524,128,0,161597:0:0:0:0:
36,192,161524,1,0,0:0:0:0:
182,192,161524,1,0,0:0:0:0:
109,192,161597,1,0,0:0:0:0:
475,192,161597,1,0,0:0:0:0:
329,192,161671,1,0,0:0:0:0:
402,192,161671,128,0,161744:0:0:0:0:
36,192,161744,1,0,0:0:0:0:
182,192,161744,1,0,0:0:0:0:
256,192,161817,128,0,162036:0:0:0:0:
329,192,161817,1,0,0:0:0:0:
475,192,161817,128,0,161890:0:0:0:0:
36,192,161890,1,0,0:0:0:0:
109,192,161890,1,0,0:0:0:0:
402,192,161963,1,0,0:0:0:0:
475,192,161963,128,0,162036:0:0:0:0:
329,192,162036,1,0,0:0:0:0:
182,192,162036,1,0,0:0:0:0:
256,192,162110,128,0,162329:0:0:0:0:
109,192,162110,1,0,0:0:0:0:
36,192,162110,128,0,162329:0:0:0:0:
475,192,162110,1,0,0:0:0:0:
402,192,162183,1,0,0:0:0:0:
329,192,162183,1,0,0:0:0:0:
182,192,162256,1,0,0:0:0:0:
109,192,162256,128,0,162329:0:0:0:0:
402,192,162329,1,0,0:0:0:0:
475,192,162329,1,0,0:0:0:0:
256,192,162402,128,0,162622:0:0:0:0:
182,192,162402,128,0,162475:0:0:0:0:
36,192,162402,128,0,162475:0:0:0:0:
109,192,162402,128,0,162475:0:0:0:0:
329,192,162475,128,0,162549:0:0:0:0:
475,192,162475,128,0,162549:0:0:0:0:
402,192,162475,1,0,0:0:0:0:
36,192,162549,1,0,0:0:0:0:
182,192,162549,1,0,0:0:0:0:
109,192,162549,128,0,162622:0:0:0:0:
329,192,162622,1,0,0:0:0:0:
475,192,162622,1,0,0:0:0:0:
402,192,162622,1,0,0:0:0:0:
256,192,162695,1,0,0:0:0:0:
36,192,162695,128,0,163061:0:0:0:0:
182,192,162695,128,0,162841:0:0:0:0:
329,192,162695,128,0,162768:0:0:0:0:
475,192,162695,128,0,162768:0:0:0:0:
109,192,162768,128,0,162914:0:0:0:0:
402,192,162768,128,0,162841:0:0:0:0:
329,192,162841,1,0,0:0:0:0:
256,192,162841,128,0,162988:0:0:0:0:
475,192,162841,128,0,162914:0:0:0:0:
402,192,162914,128,0,162988:0:0:0:0:
182,192,162914,128,0,163061:0:0:0:0:
109,192,162988,1,0,0:0:0:0:
329,192,162988,128,0,163061:0:0:0:0:
402,192,163061,1,0,0:0:0:0:
256,192,163061,128,0,163134:0:0:0:0:
109,192,163134,128,0,163280:0:0:0:0:
36,192,163134,1,0,0:0:0:0:
475,192,163134,128,0,163207:0:0:0:0:
329,192,163134,128,0,163500:0:0:0:0:
182,192,163207,128,0,163354:0:0:0:0:
402,192,163207,128,0,163280:0:0:0:0:
36,192,163280,128,0,163427:0:0:0:0:
256,192,163280,1,0,0:0:0:0:
109,192,163354,128,0,163500:0:0:0:0:
475,192,163354,128,0,163427:0:0:0:0:
182,192,163427,1,0,0:0:0:0:
402,192,163427,128,0,163500:0:0:0:0:
256,192,163427,128,0,163573:0:0:0:0:
36,192,163500,128,0,163573:0:0:0:0:
475,192,163500,1,0,0:0:0:0:
402,192,163573,128,0,163793:0:0:0:0:
329,192,163573,1,0,0:0:0:0:
182,192,163573,128,0,163646:0:0:0:0:
36,192,163646,128,0,163719:0:0:0:0:
109,192,163646,1,0,0:0:0:0:
182,192,163719,1,0,0:0:0:0:
256,192,163719,128,0,163793:0:0:0:0:
475,192,163719,128,0,163793:0:0:0:0:
329,192,163719,128,0,163866:0:0:0:0:
109,192,163793,128,0,163866:0:0:0:0:
256,192,163866,128,0,164232:0:0:0:0:
182,192,163866,128,0,163939:0:0:0:0:
36,192,163866,128,0,164012:0:0:0:0:
475,192,163866,128,0,163939:0:0:0:0:
402,192,163866,1,0,0:0:0:0:
109,192,163939,128,0,164085:0:0:0:0:
329,192,163939,128,0,164012:0:0:0:0:
475,192,164012,1,0,0:0:0:0:
402,192,164012,128,0,164085:0:0:0:0:
182,192,164012,128,0,164158:0:0:0:0:
329,192,164085,128,0,164232:0:0:0:0:
36,192,164085,128,0,164158:0:0:0:0:
475,192,164158,128,0,164232:0:0:0:0:
109,192,164158,1,0,0:0:0:0:
402,192,164232,1,0,0:0:0:0:
182,192,164232,128,0,164305:0:0:0:0:
329,192,164305,1,0,0:0:0:0:
36,192,164305,128,0,164378:0:0:0:0:
475,192,164305,128,0,164378:0:0:0:0:
256,192,164305,128,0,164524:0:0:0:0:
109,192,164378,128,0,164451:0:0:0:0:
402,192,164378,128,0,164451:0:0:0:0:
36,192,164451,1,0,0:0:0:0:
475,192,164451,128,0,164744:0:0:0:0:
182,192,164451,128,0,164524:0:0:0:0:
329,192,164524,128,0,164597:0:0:0:0:
402,192,164524,1,0,0:0:0:0:
36,192,164597,128,0,164671:0:0:0:0:
109,192,164597,128,0,164671:0:0:0:0:
182,192,164597,1,0,0:0:0:0:
329,192,164671,128,0,164963:0:0:0:0:
402,192,164671,128,0,164744:0:0:0:0:
256,192,164671,128,0,164817:0:0:0:0:
36,192,164744,1,0,0:0:0:0:
109,192,164744,128,0,164817:0:0:0:0:
182,192,164817,128,0,164890:0:0:0:0:
402,192,164817,1,0,0:0:0:0:
475,192,164890,128,0,164963:0:0:0:0:
109,192,164890,1,0,0:0:0:0:
36,192,164890,128,0,164963:0:0:0:0:
256,192,164890,128,0,164963:0:0:0:0:
182,192,164963,128,0,165036:0:0:0:0:
36,192,165036,128,0,165402:0:0:0:0:
402,192,165036,128,0,165183:0:0:0:0:
109,192,165036,128,0,165110:0:0:0:0:
256,192,165036,128,0,165110:0:0:0:0:
475,192,165036,1,0,0:0:0:0:
329,192,165110,128,0,165256:0:0:0:0:
182,192,165110,128,0,165183:0:0:0:0:
256,192,165183,128,0,165329:0:0:0:0:
475,192,165183,128,0,165256:0:0:0:0:
109,192,165183,1,0,0:0:0:0:
182,192,165256,128,0,165402:0:0:0:0:
402,192,165256,128,0,165329:0:0:0:0:
109,192,165329,128,0,165402:0:0:0:0:
329,192,165329,1,0,0:0:0:0:
256,192,165402,128,0,165475:0:0:0:0:
402,192,165402,1,0,0:0:0:0:
182,192,165475,1,0,0:0:0:0:
36,192,165475,128,0,165695:0:0:0:0:
329,192,165475,128,0,165549:0:0:0:0:
475,192,165475,128,0,165549:0:0:0:0:
256,192,165549,128,0,165622:0:0:0:0:
109,192,165549,128,0,165622:0:0:0:0:
402,192,165622,128,0,165914:0:0:0:0:
182,192,165622,128,0,165695:0:0:0:0:
475,192,165622,1,0,0:0:0:0:
109,192,165695,128,0,165768:0:0:0:0:
329,192,165695,1,0,0:0:0:0:
182,192,165768,1,0,0:0:0:0:
36,192,165768,128,0,165841:0:0:0:0:
256,192,165768,128,0,165841:0:0:0:0:
329,192,165841,128,0,166134:0:0:0:0:
475,192,165841,128,0,165988:0:0:0:0:
109,192,165841,128,0,165914:0:0:0:0:
256,192,165914,1,0,0:0:0:0:
36,192,165914,128,0,165988:0:0:0:0:
182,192,165988,1,0,0:0:0:0:
402,192,165988,128,0,166061:0:0:0:0:
475,192,166061,128,0,166134:0:0:0:0:
36,192,166061,1,0,0:0:0:0:
109,192,166061,128,0,166134:0:0:0:0:
256,192,166061,128,0,166207:0:0:0:0:
182,192,166134,128,0,166207:0:0:0:0:
109,192,166207,1,0,0:0:0:0:
36,192,166207,128,0,166354:0:0:0:0:
475,192,166207,128,0,166573:0:0:0:0:
402,192,166207,128,0,166280:0:0:0:0:
329,192,166207,128,0,166280:0:0:0:0:
182,192,166280,128,0,166427:0:0:0:0:
256,192,166280,128,0,166354:0:0:0:0:
329,192,166354,1,0,0:0:0:0:
109,192,166354,128,0,166500:0:0:0:0:
402,192,166354,128,0,166427:0:0:0:0:
36,192,166427,128,0,166573:0:0:0:0:
256,192,166427,128,0,166500:0:0:0:0:
182,192,166500,128,0,166573:0:0:0:0:
402,192,166500,1,0,0:0:0:0:
109,192,166573,128,0,166646:0:0:0:0:
329,192,166573,1,0,0:0:0:0:
475,192,166646,1,0,0:0:0:0:
256,192,166646,128,0,166719:0:0:0:0:
36,192,166646,128,0,166719:0:0:0:0:
402,192,166646,128,0,166866:0:0:0:0:
329,192,166719,128,0,166793:0:0:0:0:
182,192,166719,128,0,166793:0:0:0:0:
256,192,166793,128,0,167158:0:0:0:0:
109,192,166793,128,0,166939:0:0:0:0:
475,192,166793,1,0,0:0:0:0:
36,192,166866,128,0,166939:0:0:0:0:
329,192,166866,128,0,166939:0:0:0:0:
402,192,166939,1,0,0:0:0:0:
182,192,166939,128,0,167012:0:0:0:0:
475,192,166939,128,0,167012:0:0:0:0:
36,192,167012,1,0,0:0:0:0:
109,192,167012,128,0,167085:0:0:0:0:
329,192,167085,1,0,0:0:0:0:
402,192,167085,128,0,167158:0:0:0:0:
109,192,167158,1,0,0:0:0:0:
182,192,167158,128,0,167232:0:0:0:0:
36,192,167232,1,0,0:0:0:0:
402,192,167232,1,0,0:0:0:0:
329,192,167232,128,0,167305:0:0:0:0:
182,192,167305,1,0,0:0:0:0:
109,192,167305,128,0,167378:0:0:0:0:
329,192,167378,1,0,0:0:0:0:
256,192,167378,128,0,167524:0:0:0:0:
475,192,167378,128,0,167451:0:0:0:0:
36,192,167378,128,0,167451:0:0:0:0:
402,192,167378,128,0,167744:0:0:0:0:
182,192,167451,128,0,167524:0:0:0:0:
109,192,167451,128,0,167597:0:0:0:0:
329,192,167524,128,0,167671:0:0:0:0:
475,192,167524,1,0,0:0:0:0:
36,192,167524,128,0,167597:0:0:0:0:
182,192,167597,128,0,167744:0:0:0:0:
256,192,167597,128,0,167671:0:0:0:0:
475,192,167671,128,0,167744:0:0:0:0:
36,192,167671,1,0,0:0:0:0:
256,192,167744,128,0,167817:0:0:0:0:
109,192,167744,1,0,0:0:0:0:
402,192,167817,128,0,167890:0:0:0:0:
182,192,167817,128,0,167890:0:0:0:0:
329,192,167817,1,0,0:0:0:0:
475,192,167817,128,0,167890:0:0:0:0:
36,192,167890,128,0,167963:0:0:0:0:
256,192,167890,128,0,167963:0:0:0:0:
402,192,167963,128,0,168256:0:0:0:0:
329,192,167963,128,0,168036:0:0:0:0:
109,192,167963,1,0,0:0:0:0:
475,192,168036,128,0,168110:0:0:0:0:
182,192,168036,128,0,168110:0:0:0:0:
36,192,168110,128,0,168183:0:0:0:0:
329,192,168110,1,0,0:0:0:0:
109,192,168110,128,0,168183:0:0:0:0:
256,192,168183,128,0,168329:0:0:0:0:
182,192,168183,128,0,168475:0:0:0:0:
475,192,168183,128,0,168256:0:0:0:0:
36,192,168256,1,0,0:0:0:0:
329,192,168256,128,0,168329:0:0:0:0:
109,192,168329,128,0,168402:0:0:0:0:
402,192,168329,128,0,168402:0:0:0:0:
256,192,168402,128,0,168475:0:0:0:0:
329,192,168402,128,0,168549:0:0:0:0:
475,192,168402,1,0,0:0:0:0:
36,192,168402,128,0,168475:0:0:0:0:
402,192,168475,128,0,168549:0:0:0:0:
109,192,168549,128,0,168914:0:0:0:0:
182,192,168549,1,0,0:0:0:0:
256,192,168549,128,0,168695:0:0:0:0:
36,192,168549,128,0,168622:0:0:0:0:
475,192,168549,128,0,168622:0:0:0:0:
329,192,168622,128,0,168695:0:0:0:0:
402,192,168622,128,0,168768:0:0:0:0:
182,192,168695,128,0,168841:0:0:0:0:
36,192,168695,1,0,0:0:0:0:
475,192,168695,128,0,168768:0:0:0:0:
256,192,168768,128,0,168841:0:0:0:0:
329,192,168768,128,0,168914:0:0:0:0:
36,192,168841,128,0,168914:0:0:0:0:
402,192,168841,1,0,0:0:0:0:
256,192,168914,128,0,168988:0:0:0:0:
182,192,168914,1,0,0:0:0:0:
329,192,168988,1,0,0:0:0:0:
36,192,168988,128,0,169061:0:0:0:0:
475,192,168988,128,0,169061:0:0:0:0:
109,192,168988,128,0,169207:0:0:0:0:
182,192,169061,128,0,169134:0:0:0:0:
402,192,169061,128,0,169134:0:0:0:0:
36,192,169134,128,0,169354:0:0:0:0:
329,192,169134,128,0,169207:0:0:0:0:
475,192,169134,1,0,0:0:0:0:
256,192,169207,128,0,169354:0:0:0:0:
182,192,169207,1,0,0:0:0:0:
475,192,169280,128,0,169354:0:0:0:0:
329,192,169280,1,0,0:0:0:0:
402,192,169280,128,0,169354:0:0:0:0:
109,192,169354,1,0,0:0:0:0:
182,192,169354,128,0,169427:0:0:0:0:
256,192,169427,128,0,169500:0:0:0:0:
475,192,169427,128,0,169500:0:0:0:0:
36,192,169427,128,0,169500:0:0:0:0:
329,192,169427,128,0,169500:0:0:0:0:
109,192,169500,1,0,0:0:0:0:
182,192,169573,128,0,169646:0:0:0:0:
256,192,169573,128,0,169646:0:0:0:0:
402,192,169573,128,0,169646:0:0:0:0:
475,192,169573,128,0,169646:0:0:0:0:
109,192,169646,1,0,0:0:0:0:
256,192,169719,128,0,169866:0:0:0:0:
329,192,169719,128,0,169793:0:0:0:0:
475,192,169719,128,0,169939:0:0:0:0:
402,192,169719,1,0,0:0:0:0:
36,192,169719,128,0,170232:0:0:0:0:
182,192,169793,128,0,169939:0:0:0:0:
109,192,169866,128,0,170012:0:0:0:0:
329,192,169866,1,0,0:0:0:0:
402,192,169866,128,0,169939:0:0:0:0:
256,192,169939,128,0,170012:0:0:0:0:
475,192,170012,1,0,0:0:0:0:
182,192,170012,128,0,170085:0:0:0:0:
402,192,170012,128,0,170085:0:0:0:0:
329,192,170085,128,0,170158:0:0:0:0:
109,192,170158,128,0,170232:0:0:0:0:
182,192,170158,1,0,0:0:0:0:
475,192,170158,128,0,170524:0:0:0:0:
256,192,170158,128,0,170378:0:0:0:0:
402,192,170232,1,0,0:0:0:0:
182,192,170305,128,0,170378:0:0:0:0:
36,192,170305,128,0,170378:0:0:0:0:
329,192,170305,128,0,170671:0:0:0:0:
109,192,170378,1,0,0:0:0:0:
256,192,170451,1,0,0:0:0:0:
182,192,170451,128,0,170524:0:0:0:0:
402,192,170451,128,0,170524:0:0:0:0:
36,192,170524,1,0,0:0:0:0:
109,192,170524,128,0,170817:0:0:0:0:
256,192,170597,128,0,170671:0:0:0:0:
402,192,170597,128,0,170671:0:0:0:0:
475,192,170597,1,0,0:0:0:0:
182,192,170671,1,0,0:0:0:0:
36,192,170744,128,0,170817:0:0:0:0:
256,192,170744,128,0,170890:0:0:0:0:
475,192,170744,128,0,170817:0:0:0:0:
329,192,170744,128,0,170817:0:0:0:0:
402,192,170817,1,0,0:0:0:0:
182,192,170890,128,0,170963:0:0:0:0:
36,192,170890,128,0,171329:0:0:0:0:
109,192,170890,128,0,171036:0:0:0:0:
475,192,170890,128,0,170963:0:0:0:0:
329,192,170890,1,0,0:0:0:0:
256,192,170963,1,0,0:0:0:0:
402,192,170963,128,0,171036:0:0:0:0:
329,192,171036,128,0,171110:0:0:0:0:
182,192,171036,1,0,0:0:0:0:
109,192,171110,1,0,0:0:0:0:
256,192,171110,128,0,171183:0:0:0:0:
475,192,171183,1,0,0:0:0:0:
402,192,171183,128,0,171256:0:0:0:0:
329,192,171256,1,0,0:0:0:0:
182,192,171256,128,0,171329:0:0:0:0:
402,192,171329,1,0,0:0:0:0:
109,192,171329,128,0,171475:0:0:0:0:
475,192,171329,128,0,171402:0:0:0:0:
329,192,171402,1,0,0:0:0:0:
256,192,171402,128,0,171475:0:0:0:0:
475,192,171475,1,0,0:0:0:0:
182,192,171475,128,0,171841:0:0:0:0:
36,192,171475,128,0,171549:0:0:0:0:
402,192,171549,1,0,0:0:0:0:
329,192,171549,128,0,171622:0:0:0:0:
256,192,171622,1,0,0:0:0:0:
109,192,171622,128,0,171695:0:0:0:0:
402,192,171695,128,0,171768:0:0:0:0:
36,192,171695,1,0,0:0:0:0:
329,192,171768,128,0,171988:0:0:0:0:
256,192,171768,1,0,0:0:0:0:
475,192,171768,128,0,171841:0:0:0:0:
36,192,171841,128,0,171914:0:0:0:0:
109,192,171841,1,0,0:0:0:0:
475,192,171914,128,0,171988:0:0:0:0:
402,192,171914,1,0,0:0:0:0:
182,192,171914,128,0,172134:0:0:0:0:
36,192,171988,128,0,172061:0:0:0:0:
256,192,171988,1,0,0:0:0:0:
475,192,172061,128,0,172573:0:0:0:0:
329,192,172061,128,0,172207:0:0:0:0:
402,192,172061,128,0,172354:0:0:0:0:
109,192,172061,1,0,0:0:0:0:
182,192,172207,1,0,0:0:0:0:
36,192,172207,128,0,172427:0:0:0:0:
109,192,172207,128,0,172280:0:0:0:0:
329,192,172354,1,0,0:0:0:0:
182,192,172354,128,0,172427:0:0:0:0:
402,192,172427,1,0,0:0:0:0:
256,192,172427,1,0,0:0:0:0:
109,192,172500,128,0,172573:0:0:0:0:
36,192,172500,1,0,0:0:0:0:
182,192,172500,128,0,172719:0:0:0:0:
329,192,172500,128,0,172793:0:0:0:0:
402,192,172646,128,0,172793:0:0:0:0:
475,192,172646,128,0,172866:0:0:0:0:
256,192,172646,1,0,0:0:0:0:
36,192,172646,1,0,0:0:0:0:
36,192,172793,128,0,173012:0:0:0:0:
109,192,172793,128,0,172866:0:0:0:0:
182,192,172793,1,0,0:0:0:0:
329,192,172866,128,0,173012:0:0:0:0:
256,192,172866,128,0,173012:0:0:0:0:
475,192,172939,1,0,0:0:0:0:
182,192,172939,128,0,173012:0:0:0:0:
109,192,173012,1,0,0:0:0:0:
402,192,173012,1,0,0:0:0:0:
36,192,173085,128,0,173158:0:0:0:0:
182,192,173085,128,0,173378:0:0:0:0:
256,192,173085,128,0,173158:0:0:0:0:
475,192,173085,128,0,173305:0:0:0:0:
329,192,173085,1,0,0:0:0:0:
109,192,173232,128,0,173524:0:0:0:0:
36,192,173232,128,0,173744:0:0:0:0:
402,192,173232,128,0,173305:0:0:0:0:
329,192,173232,128,0,173305:0:0:0:0:
256,192,173232,1,0,0:0:0:0:
329,192,173378,1,0,0:0:0:0:
475,192,173378,128,0,173597:0:0:0:0:
402,192,173378,128,0,173451:0:0:0:0:
256,192,173524,1,0,0:0:0:0:
329,192,173524,128,0,173597:0:0:0:0:
329,192,173671,128,0,173890:0:0:0:0:
402,192,173671,128,0,173744:0:0:0:0:
475,192,173671,1,0,0:0:0:0:
109,192,173671,1,0,0:0:0:0:
182,192,173671,128,0,173817:0:0:0:0:
256,192,173817,128,0,174036:0:0:0:0:
475,192,173817,1,0,0:0:0:0:
109,192,173817,128,0,173963:0:0:0:0:
182,192,173890,1,0,0:0:0:0:
36,192,173890,1,0,0:0:0:0:
329,192,173963,1,0,0:0:0:0:
402,192,173963,128,0,174036:0:0:0:0:
475,192,173963,128,0,174183:0:0:0:0:
109,192,174110,128,0,174183:0:0:0:0:
182,192,174110,128,0,174329:0:0:0:0:
402,192,174110,1,0,0:0:0:0:
329,192,174110,128,0,174183:0:0:0:0:
256,192,174256,128,0,174329:0:0:0:0:
475,192,174256,128,0,174329:0:0:0:0:
36,192,174256,128,0,174475:0:0:0:0:
109,192,174256,1,0,0:0:0:0:
329,192,174256,128,0,174549:0:0:0:0:
109,192,174402,128,0,174475:0:0:0:0:
475,192,174402,128,0,174695:0:0:0:0:
402,192,174402,128,0,174914:0:0:0:0:
182,192,174402,1,0,0:0:0:0:
256,192,174402,128,0,174475:0:0:0:0:
36,192,174549,128,0,174768:0:0:0:0:
109,192,174549,1,0,0:0:0:0:
182,192,174549,128,0,174622:0:0:0:0:
329,192,174695,1,0,0:0:0:0:
109,192,174695,128,0,174768:0:0:0:0:
182,192,174768,1,0,0:0:0:0:
475,192,174768,1,0,0:0:0:0:
109,192,174841,128,0,175061:0:0:0:0:
36,192,174841,128,0,174914:0:0:0:0:
329,192,174841,128,0,175134:0:0:0:0:
256,192,174841,1,0,0:0:0:0:
256,192,174988,128,0,175134:0:0:0:0:
402,192,174988,1,0,0:0:0:0:
475,192,174988,128,0,175207:0:0:0:0:
182,192,174988,1,0,0:0:0:0:
182,192,175134,128,0,175354:0:0:0:0:
109,192,175134,1,0,0:0:0:0:
36,192,175134,128,0,175207:0:0:0:0:
329,192,175207,128,0,175354:0:0:0:0:
402,192,175207,128,0,175354:0:0:0:0:
256,192,175280,1,0,0:0:0:0:
109,192,175280,128,0,175354:0:0:0:0:
36,192,175354,1,0,0:0:0:0:
475,192,175354,1,0,0:0:0:0:
256,192,175427,128,0,175646:0:0:0:0:
182,192,175427,1,0,0:0:0:0:
109,192,175427,128,0,175500:0:0:0:0:
329,192,175427,128,0,175500:0:0:0:0:
402,192,175427,1,0,0:0:0:0:
182,192,175573,128,0,175719:0:0:0:0:
475,192,175573,128,0,175646:0:0:0:0:
36,192,175573,128,0,175866:0:0:0:0:
109,192,175573,128,0,176085:0:0:0:0:
329,192,175573,1,0,0:0:0:0:
329,192,175719,128,0,175793:0:0:0:0:
402,192,175719,1,0,0:0:0:0:
475,192,175719,128,0,175939:0:0:0:0:
182,192,175866,1,0,0:0:0:0:
329,192,175866,128,0,175939:0:0:0:0:
402,192,176012,128,0,176232:0:0:0:0:
475,192,176012,128,0,176085:0:0:0:0:
256,192,176012,1,0,0:0:0:0:
36,192,176012,1,0,0:0:0:0:
182,192,176012,128,0,176158:0:0:0:0:
256,192,176158,128,0,176305:0:0:0:0:
109,192,176158,128,0,176378:0:0:0:0:
329,192,176158,1,0,0:0:0:0:
182,192,176232,1,0,0:0:0:0:
36,192,176232,1,0,0:0:0:0:
329,192,176305,128,0,176524:0:0:0:0:
402,192,176305,1,0,0:0:0:0:
475,192,176305,128,0,176378:0:0:0:0:
182,192,176451,128,0,176671:0:0:0:0:
256,192,176451,1,0,0:0:0:0:
36,192,176451,128,0,176524:0:0:0:0:
402,192,176451,128,0,176524:0:0:0:0:
256,192,176597,128,0,176817:0:0:0:0:
329,192,176597,1,0,0:0:0:0:
402,192,176597,128,0,176671:0:0:0:0:
475,192,176597,128,0,176671:0:0:0:0:
36,192,176597,128,0,176817:0:0:0:0:
109,192,176744,128,0,176817:0:0:0:0:
182,192,176744,1,0,0:0:0:0:
475,192,176744,128,0,176890:0:0:0:0:
402,192,176744,128,0,176890:0:0:0:0:
329,192,176744,128,0,177036:0:0:0:0:
182,192,176890,128,0,177110:0:0:0:0:
109,192,176890,128,0,176963:0:0:0:0:
36,192,176890,1,0,0:0:0:0:
36,192,177036,128,0,177110:0:0:0:0:
256,192,177036,128,0,177110:0:0:0:0:
402,192,177036,128,0,177110:0:0:0:0:
475,192,177110,1,0,0:0:0:0:
329,192,177110,1,0,0:0:0:0:
109,192,177183,128,0,177402:0:0:0:0:
36,192,177183,128,0,177256:0:0:0:0:
182,192,177183,1,0,0:0:0:0:
256,192,177183,128,0,177402:0:0:0:0:
402,192,177183,128,0,177549:0:0:0:0:
182,192,177329,128,0,177402:0:0:0:0:
329,192,177329,1,0,0:0:0:0:
36,192,177475,128,0,177695:0:0:0:0:
109,192,177475,1,0,0:0:0:0:
329,192,177475,128,0,177622:0:0:0:0:
182,192,177475,128,0,177695:0:0:0:0:
475,192,177475,1,0,0:0:0:0:
109,192,177622,128,0,177695:0:0:0:0:
256,192,177622,1,0,0:0:0:0:
475,192,177622,1,0,0:0:0:0:
402,192,177695,1,0,0:0:0:0:
329,192,177695,128,0,177841:0:0:0:0:
182,192,177768,1,0,0:0:0:0:
36,192,177768,1,0,0:0:0:0:
256,192,177768,128,0,177988:0:0:0:0:
475,192,177768,128,0,177841:0:0:0:0:
109,192,177768,128,0,177841:0:0:0:0:
36,192,177914,128,0,178061:0:0:0:0:
109,192,177914,128,0,178061:0:0:0:0:
402,192,177914,128,0,177988:0:0:0:0:
475,192,177914,128,0,177988:0:0:0:0:
182,192,177914,128,0,178354:0:0:0:0:
329,192,177914,1,0,0:0:0:0:
329,192,178061,128,0,178280:0:0:0:0:
256,192,178061,1,0,0:0:0:0:
402,192,178061,128,0,178134:0:0:0:0:
475,192,178207,128,0,178280:0:0:0:0:
256,192,178207,128,0,178354:0:0:0:0:
109,192,178207,128,0,178646:0:0:0:0:
329,192,178354,1,0,0:0:0:0:
475,192,178354,128,0,178427:0:0:0:0:
402,192,178354,128,0,178573:0:0:0:0:
329,192,178500,128,0,178573:0:0:0:0:
182,192,178500,128,0,178573:0:0:0:0:
36,192,178500,128,0,178939:0:0:0:0:
256,192,178573,1,0,0:0:0:0:
475,192,178573,1,0,0:0:0:0:
402,192,178646,128,0,178719:0:0:0:0:
329,192,178646,128,0,178866:0:0:0:0:
182,192,178646,1,0,0:0:0:0:
109,192,178793,128,0,178866:0:0:0:0:
256,192,178793,128,0,178866:0:0:0:0:
475,192,178793,128,0,179012:0:0:0:0:
256,192,178939,128,0,179158:0:0:0:0:
109,192,178939,1,0,0:0:0:0:
329,192,178939,128,0,179012:0:0:0:0:
36,192,179085,1,0,0:0:0:0:
475,192,179085,1,0,0:0:0:0:
182,192,179085,128,0,179158:0:0:0:0:
402,192,179085,128,0,179451:0:0:0:0:
109,192,179158,1,0,0:0:0:0:
329,192,179158,1,0,0:0:0:0:
36,192,179232,1,0,0:0:0:0:
256,192,179232,1,0,0:0:0:0:
182,192,179305,1,0,0:0:0:0:
475,192,179305,1,0,0:0:0:0:
109,192,179378,1,0,0:0:0:0:
329,192,179378,1,0,0:0:0:0:
182,192,179451,1,0,0:0:0:0:
475,192,179451,1,0,0:0:0:0:
402,192,179524,128,0,179597:0:0:0:0:
36,192,179524,1,0,0:0:0:0:
329,192,179524,1,0,0:0:0:0:
182,192,179597,1,0,0:0:0:0:
256,192,179597,1,0,0:0:0:0:
402,192,179671,128,0,179817:0:0:0:0:
475,192,179671,1,0,0:0:0:0:
36,192,179671,1,0,0:0:0:0:
109,192,179671,1,0,0:0:0:0:
329,192,179744,1,0,0:0:0:0:
182,192,179744,1,0,0:0:0:0:
256,192,179817,1,0,0:0:0:0:
109,192,179817,1,0,0:0:0:0:
329,192,179890,128,0,180036:0:0:0:0:
36,192,179890,1,0,0:0:0:0:
402,192,179890,1,0,0:0:0:0:
256,192,179963,1,0,0:0:0:0:
109,192,179963,1,0,0:0:0:0:
182,192,180036,1,0,0:0:0:0:
475,192,180036,1,0,0:0:0:0:
402,192,180110,128,0,180183:0:0:0:0:
329,192,180110,1,0,0:0:0:0:
36,192,180110,1,0,0:0:0:0:
109,192,180183,1,0,0:0:0:0:
182,192,180183,1,0,0:0:0:0:
475,192,180256,128,0,180475:0:0:0:0:
256,192,180256,1,0,0:0:0:0:
36,192,180256,1,0,0:0:0:0:
329,192,180256,1,0,0:0:0:0:
402,192,180329,1,0,0:0:0:0:
182,192,180329,1,0,0:0:0:0:
329,192,180402,1,0,0:0:0:0:
109,192,180402,1,0,0:0:0:0:
36,192,180475,1,0,0:0:0:0:
256,192,180475,1,0,0:0:0:0:
402,192,180549,128,0,180768:0:0:0:0:
182,192,180549,1,0,0:0:0:0:
475,192,180549,1,0,0:0:0:0:
329,192,180622,1,0,0:0:0:0:
109,192,180622,1,0,0:0:0:0:
182,192,180695,1,0,0:0:0:0:
475,192,180695,1,0,0:0:0:0:
256,192,180768,1,0,0:0:0:0:
109,192,180768,1,0,0:0:0:0:
182,192,180841,128,0,181061:0:0:0:0:
36,192,180841,128,0,180988:0:0:0:0:
329,192,180841,128,0,181061:0:0:0:0:
402,192,180841,128,0,180988:0:0:0:0:
475,192,180841,128,0,180914:0:0:0:0:
109,192,181134,128,0,181280:0:0:0:0:
402,192,181134,128,0,181354:0:0:0:0:
256,192,181134,128,0,181354:0:0:0:0:
475,192,181134,128,0,181280:0:0:0:0:
182,192,181427,128,0,181939:0:0:0:0:
36,192,181427,128,0,181524:0:0:0:0:
329,192,181427,128,0,181646:0:0:0:0:
475,192,181427,128,0,181793:0:0:0:0:
402,192,181427,128,0,181500:0:0:0:0:
109,192,181524,128,0,181622:0:0:0:0:
256,192,181573,128,0,181719:0:0:0:0:
402,192,181573,1,0,0:0:0:0:
36,192,181622,128,0,181719:0:0:0:0:
109,192,181719,128,0,181817:0:0:0:0:
402,192,181719,128,0,181939:0:0:0:0:
329,192,181719,1,0,0:0:0:0:
256,192,181817,128,0,181890:0:0:0:0:
329,192,181866,128,0,182012:0:0:0:0:
475,192,181866,1,0,0:0:0:0:
109,192,181914,128,0,182012:0:0:0:0:
256,192,181963,128,0,182061:0:0:0:0:
475,192,182012,128,0,182524:0:0:0:0:
402,192,182012,128,0,182110:0:0:0:0:
36,192,182012,128,0,182232:0:0:0:0:
182,192,182012,128,0,182085:0:0:0:0:
109,192,182085,1,0,0:0:0:0:
329,192,182110,128,0,182207:0:0:0:0:
182,192,182158,128,0,182305:0:0:0:0:
256,192,182158,1,0,0:0:0:0:
402,192,182207,128,0,182305:0:0:0:0:
329,192,182305,128,0,182402:0:0:0:0:
109,192,182305,128,0,182451:0:0:0:0:
36,192,182305,1,0,0:0:0:0:
256,192,182402,128,0,182500:0:0:0:0:
36,192,182451,128,0,182597:0:0:0:0:
182,192,182451,1,0,0:0:0:0:
329,192,182500,128,0,182597:0:0:0:0:
256,192,182597,128,0,183110:0:0:0:0:
109,192,182597,128,0,182695:0:0:0:0:
402,192,182597,128,0,182817:0:0:0:0:
475,192,182597,128,0,182671:0:0:0:0:
182,192,182695,128,0,182793:0:0:0:0:
329,192,182744,128,0,182890:0:0:0:0:
36,192,182744,1,0,0:0:0:0:
109,192,182793,128,0,182890:0:0:0:0:
182,192,182890,128,0,182988:0:0:0:0:
475,192,182890,128,0,183110:0:0:0:0:
402,192,182890,1,0,0:0:0:0:
329,192,182988,128,0,183061:0:0:0:0:
402,192,183036,128,0,183183:0:0:0:0:
109,192,183036,1,0,0:0:0:0:
182,192,183085,128,0,183183:0:0:0:0:
329,192,183134,128,0,183232:0:0:0:0:
475,192,183183,128,0,183280:0:0:0:0:
109,192,183183,128,0,183402:0:0:0:0:
36,192,183183,128,0,183695:0:0:0:0:
256,192,183183,128,0,183256:0:0:0:0:
182,192,183256,1,0,0:0:0:0:
402,192,183280,128,0,183378:0:0:0:0:
256,192,183329,128,0,183475:0:0:0:0:
329,192,183329,1,0,0:0:0:0:
475,192,183378,128,0,183475:0:0:0:0:
402,192,183475,128,0,183573:0:0:0:0:
182,192,183475,128,0,183622:0:0:0:0:
109,192,183475,1,0,0:0:0:0:
329,192,183573,128,0,183671:0:0:0:0:
109,192,183622,128,0,183768:0:0:0:0:
256,192,183622,1,0,0:0:0:0:
402,192,183671,128,0,183768:0:0:0:0:
182,192,183768,128,0,184280:0:0:0:0:
36,192,183768,128,0,183866:0:0:0:0:
329,192,183768,128,0,183988:0:0:0:0:
475,192,183768,128,0,183841:0:0:0:0:
109,192,183866,128,0,183963:0:0:0:0:
256,192,183914,128,0,184061:0:0:0:0:
402,192,183914,1,0,0:0:0:0:
36,192,183963,128,0,184061:0:0:0:0:
109,192,184061,128,0,184158:0:0:0:0:
402,192,184061,128,0,184280:0:0:0:0:
329,192,184061,1,0,0:0:0:0:
256,192,184158,128,0,184232:0:0:0:0:
329,192,184207,128,0,184354:0:0:0:0:
475,192,184207,1,0,0:0:0:0:
109,192,184256,128,0,184354:0:0:0:0:
256,192,184305,128,0,184402:0:0:0:0:
475,192,184354,128,0,184866:0:0:0:0:
402,192,184354,128,0,184451:0:0:0:0:
36,192,184354,128,0,184573:0:0:0:0:
182,192,184354,128,0,184427:0:0:0:0:
109,192,184427,1,0,0:0:0:0:
329,192,184451,128,0,184549:0:0:0:0:
182,192,184500,128,0,184646:0:0:0:0:
256,192,184500,1,0,0:0:0:0:
402,192,184549,128,0,184646:0:0:0:0:
329,192,184646,128,0,184744:0:0:0:0:
109,192,184646,128,0,184866:0:0:0:0:
36,192,184646,1,0,0:0:0:0:
256,192,184744,128,0,184841:0:0:0:0:
36,192,184793,128,0,184939:0:0:0:0:
182,192,184793,1,0,0:0:0:0:
329,192,184841,128,0,184939:0:0:0:0:
109,192,184939,1,0,0:0:0:0:
402,192,184939,128,0,185012:0:0:0:0:
182,192,184939,128,0,185012:0:0:0:0:
475,192,185012,128,0,185158:0:0:0:0:
256,192,185012,128,0,185085:0:0:0:0:
182,192,185085,1,0,0:0:0:0:
402,192,185085,128,0,185232:0:0:0:0:
109,192,185085,128,0,185232:0:0:0:0:
36,192,185085,128,0,185158:0:0:0:0:
329,192,185158,128,0,185305:0:0:0:0:
256,192,185232,128,0,185378:0:0:0:0:
475,192,185232,1,0,0:0:0:0:
36,192,185232,128,0,185305:0:0:0:0:
182,192,185305,128,0,185451:0:0:0:0:
109,192,185378,128,0,185524:0:0:0:0:
329,192,185378,1,0,0:0:0:0:
402,192,185378,128,0,185524:0:0:0:0:
475,192,185378,128,0,185451:0:0:0:0:
36,192,185451,128,0,185597:0:0:0:0:
182,192,185524,128,0,185597:0:0:0:0:
329,192,185524,1,0,0:0:0:0:
475,192,185524,128,0,185597:0:0:0:0:
109,192,185597,128,0,185671:0:0:0:0:
256,192,185597,128,0,185744:0:0:0:0:
182,192,185671,128,0,185817:0:0:0:0:
36,192,185671,1,0,0:0:0:0:
475,192,185671,128,0,185817:0:0:0:0:
402,192,185671,1,0,0:0:0:0:
329,192,185744,128,0,185890:0:0:0:0:
256,192,185817,128,0,186036:0:0:0:0:
36,192,185817,128,0,185890:0:0:0:0:
109,192,185817,1,0,0:0:0:0:
475,192,185890,128,0,185963:0:0:0:0:
109,192,185963,128,0,186036:0:0:0:0:
182,192,185963,1,0,0:0:0:0:
329,192,185963,1,0,0:0:0:0:
402,192,185963,128,0,186036:0:0:0:0:
329,192,186110,128,0,186622:0:0:0:0:
475,192,186110,128,0,186207:0:0:0:0:
182,192,186110,128,0,186329:0:0:0:0:
36,192,186110,128,0,186402:0:0:0:0:
109,192,186110,128,0,186183:0:0:0:0:
402,192,186207,128,0,186305:0:0:0:0:
256,192,186256,128,0,186402:0:0:0:0:
109,192,186256,1,0,0:0:0:0:
475,192,186305,128,0,186402:0:0:0:0:
402,192,186402,128,0,186500:0:0:0:0:
109,192,186402,128,0,186622:0:0:0:0:
182,192,186402,1,0,0:0:0:0:
256,192,186500,128,0,186573:0:0:0:0:
182,192,186549,128,0,186695:0:0:0:0:
36,192,186549,1,0,0:0:0:0:
402,192,186597,128,0,186695:0:0:0:0:
256,192,186646,128,0,186744:0:0:0:0:
36,192,186695,128,0,187207:0:0:0:0:
109,192,186695,128,0,186793:0:0:0:0:
475,192,186695,128,0,186914:0:0:0:0:
329,192,186695,128,0,186768:0:0:0:0:
402,192,186768,1,0,0:0:0:0:
182,192,186793,128,0,186890:0:0:0:0:
329,192,186841,128,0,186988:0:0:0:0:
256,192,186841,1,0,0:0:0:0:
109,192,186890,128,0,186988:0:0:0:0:
182,192,186988,128,0,187085:0:0:0:0:
402,192,186988,128,0,187134:0:0:0:0:
475,192,186988,1,0,0:0:0:0:
256,192,187085,128,0,187183:0:0:0:0:
475,192,187134,128,0,187280:0:0:0:0:
329,192,187134,1,0,0:0:0:0:
182,192,187183,128,0,187280:0:0:0:0:
256,192,187280,128,0,187793:0:0:0:0:
402,192,187280,128,0,187378:0:0:0:0:
109,192,187280,128,0,187500:0:0:0:0:
36,192,187280,128,0,187354:0:0:0:0:
329,192,187378,128,0,187475:0:0:0:0:
182,192,187427,128,0,187573:0:0:0:0:
475,192,187427,1,0,0:0:0:0:
402,192,187475,128,0,187573:0:0:0:0:
329,192,187573,128,0,187671:0:0:0:0:
36,192,187573,128,0,187793:0:0:0:0:
109,192,187573,1,0,0:0:0:0:
182,192,187671,128,0,187744:0:0:0:0:
109,192,187719,128,0,187866:0:0:0:0:
402,192,187719,1,0,0:0:0:0:
329,192,187768,128,0,187866:0:0:0:0:
182,192,187817,128,0,187914:0:0:0:0:
36,192,187866,128,0,187963:0:0:0:0:
402,192,187866,128,0,188085:0:0:0:0:
475,192,187866,128,0,188378:0:0:0:0:
256,192,187866,128,0,187939:0:0:0:0:
329,192,187939,1,0,0:0:0:0:
109,192,187963,128,0,188061:0:0:0:0:
256,192,188012,128,0,188158:0:0:0:0:
182,192,188012,1,0,0:0:0:0:
36,192,188061,128,0,188158:0:0:0:0:
109,192,188158,128,0,188256:0:0:0:0:
329,192,188158,128,0,188305:0:0:0:0:
402,192,188158,1,0,0:0:0:0:
182,192,188256,128,0,188354:0:0:0:0:
402,192,188305,128,0,188451:0:0:0:0:
256,192,188305,1,0,0:0:0:0:
109,192,188354,128,0,188451:0:0:0:0:
329,192,188451,128,0,188963:0:0:0:0:
475,192,188451,128,0,188549:0:0:0:0:
182,192,188451,128,0,188671:0:0:0:0:
36,192,188451,128,0,188524:0:0:0:0:
402,192,188549,128,0,188646:0:0:0:0:
256,192,188597,128,0,188744:0:0:0:0:
109,192,188597,1,0,0:0:0:0:
475,192,188646,128,0,188744:0:0:0:0:
402,192,188744,128,0,188841:0:0:0:0:
109,192,188744,128,0,188963:0:0:0:0:
182,192,188744,1,0,0:0:0:0:
256,192,188841,128,0,188914:0:0:0:0:
182,192,188890,128,0,189036:0:0:0:0:
36,192,188890,1,0,0:0:0:0:
402,192,188939,128,0,189036:0:0:0:0:
256,192,188988,128,0,189085:0:0:0:0:
36,192,189036,128,0,189549:0:0:0:0:
109,192,189036,128,0,189134:0:0:0:0:
475,192,189036,128,0,189256:0:0:0:0:
329,192,189036,128,0,189110:0:0:0:0:
402,192,189110,1,0,0:0:0:0:
182,192,189134,128,0,189232:0:0:0:0:
329,192,189183,128,0,189329:0:0:0:0:
256,192,189183,1,0,0:0:0:0:
109,192,189232,128,0,189329:0:0:0:0:
182,192,189329,128,0,189427:0:0:0:0:
402,192,189329,128,0,189549:0:0:0:0:
475,192,189329,1,0,0:0:0:0:
256,192,189427,128,0,189524:0:0:0:0:
475,192,189475,128,0,189622:0:0:0:0:
329,192,189475,1,0,0:0:0:0:
182,192,189524,128,0,189622:0:0:0:0:
109,192,189622,128,0,189695:0:0:0:0:
402,192,189622,1,0,0:0:0:0:
329,192,189622,128,0,189695:0:0:0:0:
36,192,189695,128,0,189841:0:0:0:0:
256,192,189695,128,0,189768:0:0:0:0:
109,192,189768,128,0,189914:0:0:0:0:
329,192,189768,1,0,0:0:0:0:
402,192,189768,128,0,189914:0:0:0:0:
475,192,189768,128,0,189841:0:0:0:0:
182,192,189817,128,0,189939:0:0:0:0:
256,192,189866,128,0,189963:0:0:0:0:
329,192,189914,128,0,190110:0:0:0:0:
36,192,189914,1,0,0:0:0:0:
475,192,189914,128,0,189988:0:0:0:0:
182,192,190012,128,0,190207:0:0:0:0:
256,192,190061,1,0,0:0:0:0:
109,192,190061,1,0,0:0:0:0:
402,192,190061,128,0,190134:0:0:0:0:
36,192,190134,128,0,190280:0:0:0:0:
109,192,190207,128,0,190280:0:0:0:0:
475,192,190207,1,0,0:0:0:0:
329,192,190207,128,0,190280:0:0:0:0:
182,192,190280,128,0,190354:0:0:0:0:
402,192,190280,128,0,190427:0:0:0:0:
475,192,190354,128,0,190427:0:0:0:0:
109,192,190354,1,0,0:0:0:0:
36,192,190354,128,0,190500:0:0:0:0:
329,192,190354,128,0,190500:0:0:0:0:
256,192,190402,128,0,190524:0:0:0:0:
182,192,190451,128,0,190549:0:0:0:0:
109,192,190500,128,0,190719:0:0:0:0:
402,192,190500,128,0,190866:0:0:0:0:
475,192,190500,1,0,0:0:0:0:
329,192,190573,1,0,0:0:0:0:
256,192,190646,128,0,190719:0:0:0:0:
36,192,190646,1,0,0:0:0:0:
182,192,190646,128,0,190719:0:0:0:0:
475,192,190793,128,0,190866:0:0:0:0:
109,192,190793,128,0,190866:0:0:0:0:
36,192,190793,128,0,190866:0:0:0:0:
182,192,190793,128,0,191012:0:0:0:0:
329,192,190793,128,0,191232:0:0:0:0:
36,192,190939,128,0,191085:0:0:0:0:
256,192,190939,1,0,0:0:0:0:
402,192,190939,128,0,191012:0:0:0:0:
109,192,191085,1,0,0:0:0:0:
182,192,191085,1,0,0:0:0:0:
256,192,191085,128,0,191305:0:0:0:0:
109,192,191232,128,0,191378:0:0:0:0:
402,192,191232,1,0,0:0:0:0:
475,192,191232,128,0,191305:0:0:0:0:
402,192,191378,128,0,191890:0:0:0:0:
256,192,191378,1,0,0:0:0:0:
36,192,191378,1,0,0:0:0:0:
329,192,191427,128,0,191597:0:0:0:0:
109,192,191451,1,0,0:0:0:0:
182,192,191524,128,0,191719:0:0:0:0:
256,192,191524,128,0,191597:0:0:0:0:
475,192,191524,1,0,0:0:0:0:
36,192,191622,128,0,191817:0:0:0:0:
329,192,191671,1,0,0:0:0:0:
475,192,191671,128,0,191890:0:0:0:0:
109,192,191671,1,0,0:0:0:0:
256,192,191719,128,0,191890:0:0:0:0:
109,192,191817,128,0,191963:0:0:0:0:
182,192,191817,128,0,191890:0:0:0:0:
329,192,191817,1,0,0:0:0:0:
36,192,191914,128,0,192061:0:0:0:0:
182,192,191963,128,0,192061:0:0:0:0:
475,192,191963,128,0,192475:0:0:0:0:
329,192,191963,128,0,192183:0:0:0:0:
256,192,191963,1,0,0:0:0:0:
109,192,192061,128,0,192158:0:0:0:0:
256,192,192110,128,0,192256:0:0:0:0:
402,192,192110,1,0,0:0:0:0:
36,192,192158,128,0,192256:0:0:0:0:
182,192,192256,128,0,192451:0:0:0:0:
329,192,192256,1,0,0:0:0:0:
402,192,192256,128,0,192475:0:0:0:0:
109,192,192402,128,0,192500:0:0:0:0:
329,192,192402,128,0,192549:0:0:0:0:
256,192,192402,1,0,0:0:0:0:
36,192,192451,128,0,192622:0:0:0:0:
256,192,192549,128,0,193061:0:0:0:0:
402,192,192549,1,0,0:0:0:0:
475,192,192549,128,0,192622:0:0:0:0:
182,192,192549,128,0,192914:0:0:0:0:
109,192,192622,1,0,0:0:0:0:
329,192,192695,1,0,0:0:0:0:
36,192,192695,128,0,192768:0:0:0:0:
402,192,192768,128,0,192939:0:0:0:0:
36,192,192841,1,0,0:0:0:0:
109,192,192841,128,0,192914:0:0:0:0:
475,192,192939,128,0,193036:0:0:0:0:
109,192,192988,1,0,0:0:0:0:
182,192,192988,128,0,193061:0:0:0:0:
329,192,192988,128,0,193134:0:0:0:0:
109,192,193134,128,0,193646:0:0:0:0:
182,192,193134,128,0,193354:0:0:0:0:
256,192,193134,1,0,0:0:0:0:
402,192,193134,128,0,193232:0:0:0:0:
475,192,193232,128,0,193427:0:0:0:0:
256,192,193280,128,0,193427:0:0:0:0:
329,192,193280,1,0,0:0:0:0:
402,192,193354,128,0,193622:0:0:0:0:
36,192,193427,128,0,193646:0:0:0:0:
182,192,193427,1,0,0:0:0:0:
329,192,193524,128,0,193719:0:0:0:0:
182,192,193573,128,0,193719:0:0:0:0:
256,192,193573,1,0,0:0:0:0:
36,192,193719,128,0,194232:0:0:0:0:
402,192,193719,128,0,193841:0:0:0:0:
475,192,193719,128,0,193939:0:0:0:0:
109,192,193719,1,0,0:0:0:0:
256,192,193768,128,0,194036:0:0:0:0:
182,192,193793,1,0,0:0:0:0:
109,192,193866,128,0,194012:0:0:0:0:
329,192,193866,1,0,0:0:0:0:
402,192,193963,128,0,194232:0:0:0:0:
182,192,194012,128,0,194232:0:0:0:0:
475,192,194012,1,0,0:0:0:0:
256,192,194110,128,0,194305:0:0:0:0:
475,192,194158,128,0,194305:0:0:0:0:
329,192,194158,1,0,0:0:0:0:
36,192,194305,1,0,0:0:0:0:
182,192,194305,128,0,194378:0:0:0:0:
109,192,194305,128,0,194524:0:0:0:0:
402,192,194354,128,0,194671:0:0:0:0:
329,192,194378,128,0,194524:0:0:0:0:
256,192,194451,1,0,0:0:0:0:
36,192,194451,1,0,0:0:0:0:
182,192,194451,128,0,194671:0:0:0:0:
475,192,194451,1,0,0:0:0:0:
109,192,194597,128,0,194671:0:0:0:0:
36,192,194597,128,0,194817:0:0:0:0:
329,192,194597,128,0,194744:0:0:0:0:
182,192,194744,128,0,194817:0:0:0:0:
256,192,194744,128,0,194963:0:0:0:0:
402,192,194744,1,0,0:0:0:0:
475,192,194744,128,0,194963:0:0:0:0:
182,192,194890,128,0,194963:0:0:0:0:
109,192,194890,128,0,195110:0:0:0:0:
402,192,194890,128,0,195061:0:0:0:0:
36,192,194963,1,0,0:0:0:0:
329,192,195036,128,0,195158:0:0:0:0:
475,192,195036,128,0,195183:0:0:0:0:
256,192,195036,128,0,195110:0:0:0:0:
182,192,195036,1,0,0:0:0:0:
402,192,195134,128,0,195256:0:0:0:0:
182,192,195183,128,0,195256:0:0:0:0:
329,192,195232,128,0,195329:0:0:0:0:
36,192,195256,128,0,195402:0:0:0:0:
402,192,195329,128,0,195402:0:0:0:0:
256,192,195329,128,0,195402:0:0:0:0:
475,192,195329,1,0,0:0:0:0:
109,192,195329,128,0,195475:0:0:0:0:
329,192,195402,128,0,195475:0:0:0:0:
36,192,195475,1,0,0:0:0:0:
182,192,195475,128,0,195988:0:0:0:0:
256,192,195475,128,0,195695:0:0:0:0:
475,192,195475,128,0,195695:0:0:0:0:
402,192,195475,1,0,0:0:0:0:
329,192,195622,1,0,0:0:0:0:
402,192,195622,128,0,195768:0:0:0:0:
36,192,195622,128,0,195695:0:0:0:0:
475,192,195768,1,0,0:0:0:0:
109,192,195768,128,0,195914:0:0:0:0:
256,192,195768,1,0,0:0:0:0:
329,192,195817,1,0,0:0:0:0:
402,192,195866,128,0,195939:0:0:0:0:
475,192,195914,128,0,195988:0:0:0:0:
256,192,195914,128,0,196134:0:0:0:0:
36,192,195963,128,0,196036:0:0:0:0:
109,192,196012,128,0,196085:0:0:0:0:
329,192,196061,128,0,196573:0:0:0:0:
182,192,196061,1,0,0:0:0:0:
402,192,196061,128,0,196280:0:0:0:0:
475,192,196061,1,0,0:0:0:0:
36,192,196134,128,0,196280:0:0:0:0:
256,192,196207,1,0,0:0:0:0:
475,192,196207,128,0,196354:0:0:0:0:
109,192,196207,128,0,196354:0:0:0:0:
182,192,196280,128,0,196427:0:0:0:0:
402,192,196354,1,0,0:0:0:0:
256,192,196354,128,0,196500:0:0:0:0:
36,192,196354,128,0,196427:0:0:0:0:
475,192,196427,128,0,196500:0:0:0:0:
109,192,196427,128,0,196500:0:0:0:0:
182,192,196500,128,0,196573:0:0:0:0:
36,192,196500,1,0,0:0:0:0:
402,192,196500,128,0,196719:0:0:0:0:
109,192,196573,128,0,196646:0:0:0:0:
475,192,196646,128,0,197158:0:0:0:0:
36,192,196646,128,0,196744:0:0:0:0:
329,192,196646,128,0,196866:0:0:0:0:
256,192,196646,1,0,0:0:0:0:
109,192,196744,128,0,196841:0:0:0:0:
402,192,196793,128,0,196939:0:0:0:0:
256,192,196793,1,0,0:0:0:0:
182,192,196841,128,0,196939:0:0:0:0:
256,192,196890,128,0,196988:0:0:0:0:
329,192,196939,128,0,197036:0:0:0:0:
36,192,196939,128,0,197158:0:0:0:0:
109,192,196939,1,0,0:0:0:0:
402,192,197036,128,0,197134:0:0:0:0:
109,192,197085,128,0,197232:0:0:0:0:
182,192,197085,1,0,0:0:0:0:
256,192,197134,128,0,197232:0:0:0:0:
36,192,197232,128,0,197744:0:0:0:0:
402,192,197232,1,0,0:0:0:0:
329,192,197232,128,0,197305:0:0:0:0:
475,192,197232,128,0,197305:0:0:0:0:
109,192,197305,1,0,0:0:0:0:
182,192,197305,128,0,197451:0:0:0:0:
329,192,197378,1,0,0:0:0:0:
256,192,197378,128,0,197451:0:0:0:0:
402,192,197378,128,0,197451:0:0:0:0:
475,192,197451,1,0,0:0:0:0:
109,192,197451,128,0,197597:0:0:0:0:
256,192,197524,1,0,0:0:0:0:
182,192,197524,128,0,197597:0:0:0:0:
329,192,197524,128,0,197597:0:0:0:0:
402,192,197597,1,0,0:0:0:0:
475,192,197597,128,0,197817:0:0:0:0:
182,192,197671,1,0,0:0:0:0:
109,192,197671,128,0,197744:0:0:0:0:
256,192,197671,128,0,197744:0:0:0:0:
329,192,197744,1,0,0:0:0:0:
402,192,197744,128,0,197817:0:0:0:0:
109,192,197817,128,0,197890:0:0:0:0:
36,192,197817,1,0,0:0:0:0:
256,192,197817,1,0,0:0:0:0:
182,192,197890,128,0,198036:0:0:0:0:
402,192,197890,1,0,0:0:0:0:
475,192,197890,1,0,0:0:0:0:
109,192,197963,128,0,198183:0:0:0:0:
329,192,197963,1,0,0:0:0:0:
36,192,197963,1,0,0:0:0:0:
256,192,198036,1,0,0:0:0:0:
402,192,198036,1,0,0:0:0:0:
475,192,198036,1,0,0:0:0:0:
329,192,198110,1,0,0:0:0:0:
182,192,198110,1,0,0:0:0:0:
475,192,198183,1,0,0:0:0:0:
256,192,198256,128,0,198329:0:0:0:0:
402,192,198256,1,0,0:0:0:0:
36,192,198256,1,0,0:0:0:0:
109,192,198329,1,0,0:0:0:0:
182,192,198402,128,0,198549:0:0:0:0:
36,192,198402,1,0,0:0:0:0:
329,192,198402,1,0,0:0:0:0:
402,192,198475,1,0,0:0:0:0:
475,192,198549,1,0,0:0:0:0:
109,192,198549,1,0,0:0:0:0:
256,192,198622,128,0,198768:0:0:0:0:
402,192,198622,1,0,0:0:0:0:
109,192,198695,1,0,0:0:0:0:
36,192,198695,1,0,0:0:0:0:
329,192,198695,1,0,0:0:0:0:
402,192,198768,1,0,0:0:0:0:
475,192,198768,1,0,0:0:0:0:
182,192,198768,1,0,0:0:0:0:
329,192,198841,128,0,198914:0:0:0:0:
109,192,198841,1,0,0:0:0:0:
36,192,198841,1,0,0:0:0:0:
182,192,198914,1,0,0:0:0:0:
402,192,198914,1,0,0:0:0:0:
475,192,198914,1,0,0:0:0:0:
329,192,198988,128,0,199036:0:0:0:0:
109,192,198988,1,0,0:0:0:0:
36,192,198988,1,0,0:0:0:0:
256,192,199036,128,0,199110:0:0:0:0:
475,192,199061,1,0,0:0:0:0:
182,192,199085,128,0,199183:0:0:0:0:
402,192,199134,1,0,0:0:0:0:
109,192,199134,128,0,199256:0:0:0:0:
36,192,199183,128,0,199354:0:0:0:0:
329,192,199207,1,0,0:0:0:0:
256,192,199232,128,0,199354:0:0:0:0:
182,192,199280,1,0,0:0:0:0:
475,192,199280,128,0,199427:0:0:0:0:
402,192,199329,128,0,199451:0:0:0:0:
109,192,199354,1,0,0:0:0:0:
329,192,199378,128,0,199475:0:0:0:0:
36,192,199427,1,0,0:0:0:0:
256,192,199427,128,0,199524:0:0:0:0:
182,192,199475,128,0,199719:0:0:0:0:
475,192,199500,1,0,0:0:0:0:
402,192,199524,128,0,199622:0:0:0:0:
329,192,199573,128,0,199939:0:0:0:0:
109,192,199573,1,0,0:0:0:0:
256,192,199646,1,0,0:0:0:0:
475,192,199719,1,0,0:0:0:0:
36,192,199719,1,0,0:0:0:0:
182,192,199793,1,0,0:0:0:0:
109,192,199793,128,0,200085:0:0:0:0:
475,192,199866,1,0,0:0:0:0:
402,192,199866,1,0,0:0:0:0:
256,192,199939,1,0,0:0:0:0:
182,192,199939,1,0,0:0:0:0:
402,192,200012,128,0,200085:0:0:0:0:
36,192,200012,1,0,0:0:0:0:
475,192,200012,1,0,0:0:0:0:
329,192,200085,1,0,0:0:0:0:
256,192,200085,1,0,0:0:0:0:
109,192,200158,1,0,0:0:0:0:
402,192,200158,1,0,0:0:0:0:
36,192,200158,1,0,0:0:0:0:
475,192,200158,128,0,200963:0:0:0:0:
182,192,200158,128,0,200305:0:0:0:0:
256,192,200232,1,0,0:0:0:0:
329,192,200305,128,0,200451:0:0:0:0:
109,192,200305,1,0,0:0:0:0:
36,192,200305,1,0,0:0:0:0:
109,192,200451,128,0,200597:0:0:0:0:
182,192,200451,1,0,0:0:0:0:
402,192,200451,1,0,0:0:0:0:
36,192,200524,1,0,0:0:0:0:
329,192,200597,128,0,200817:0:0:0:0:
182,192,200597,1,0,0:0:0:0:
402,192,200597,1,0,0:0:0:0:
36,192,200744,128,0,200890:0:0:0:0:
109,192,200744,128,0,200817:0:0:0:0:
256,192,200744,128,0,200817:0:0:0:0:
402,192,200744,1,0,0:0:0:0:
329,192,200890,128,0,201036:0:0:0:0:
256,192,200890,1,0,0:0:0:0:
109,192,200890,1,0,0:0:0:0:
182,192,200963,128,0,201110:0:0:0:0:
36,192,200963,1,0,0:0:0:0:
109,192,201036,128,0,201183:0:0:0:0:
475,192,201036,1,0,0:0:0:0:
402,192,201036,128,0,201110:0:0:0:0:
329,192,201110,128,0,201183:0:0:0:0:
402,192,201183,128,0,201329:0:0:0:0:
256,192,201183,1,0,0:0:0:0:
36,192,201183,1,0,0:0:0:0:
182,192,201256,1,0,0:0:0:0:
109,192,201329,128,0,201475:0:0:0:0:
256,192,201329,1,0,0:0:0:0:
475,192,201329,1,0,0:0:0:0:
329,192,201402,128,0,201475:0:0:0:0:
402,192,201475,128,0,201622:0:0:0:0:
36,192,201475,1,0,0:0:0:0:
256,192,201475,1,0,0:0:0:0:
109,192,201549,128,0,201622:0:0:0:0:
256,192,201622,128,0,201768:0:0:0:0:
182,192,201622,1,0,0:0:0:0:
475,192,201622,1,0,0:0:0:0:
402,192,201695,128,0,201841:0:0:0:0:
36,192,201695,1,0,0:0:0:0:
182,192,201768,128,0,201841:0:0:0:0:
109,192,201768,1,0,0:0:0:0:
475,192,201768,1,0,0:0:0:0:
329,192,201841,128,0,201914:0:0:0:0:
109,192,201914,128,0,201988:0:0:0:0:
36,192,201914,128,0,201988:0:0:0:0:
256,192,201914,128,0,202110:0:0:0:0:
402,192,201914,1,0,0:0:0:0:
329,192,202012,128,0,202207:0:0:0:0:
475,192,202061,1,0,0:0:0:0:
109,192,202061,128,0,202354:0:0:0:0:
182,192,202061,1,0,0:0:0:0:
36,192,202061,1,0,0:0:0:0:
402,192,202110,128,0,202354:0:0:0:0:
256,192,202280,128,0,202427:0:0:0:0:
182,192,202378,128,0,202500:0:0:0:0:
36,192,202451,128,0,202646:0:0:0:0:
402,192,202500,1,0,0:0:0:0:
475,192,202500,1,0,0:0:0:0:
256,192,202573,1,0,0:0:0:0:
182,192,202646,128,0,202793:0:0:0:0:
402,192,202646,1,0,0:0:0:0:
475,192,202646,1,0,0:0:0:0:
36,192,202793,128,0,202939:0:0:0:0:
329,192,202793,1,0,0:0:0:0:
256,192,202793,1,0,0:0:0:0:
475,192,202866,1,0,0:0:0:0:
109,192,202939,128,0,203085:0:0:0:0:
329,192,202939,1,0,0:0:0:0:
256,192,202939,1,0,0:0:0:0:
256,192,203085,128,0,203232:0:0:0:0:
402,192,203085,128,0,203158:0:0:0:0:
475,192,203085,128,0,203158:0:0:0:0:
36,192,203085,1,0,0:0:0:0:
329,192,203232,128,0,203378:0:0:0:0:
182,192,203232,1,0,0:0:0:0:
109,192,203232,1,0,0:0:0:0:
475,192,203305,1,0,0:0:0:0:
256,192,203378,128,0,203524:0:0:0:0:
36,192,203378,1,0,0:0:0:0:
109,192,203378,1,0,0:0:0:0:
109,192,203524,128,0,203671:0:0:0:0:
329,192,203524,1,0,0:0:0:0:
402,192,203524,1,0,0:0:0:0:
36,192,203597,1,0,0:0:0:0:
182,192,203671,128,0,203817:0:0:0:0:
402,192,203671,1,0,0:0:0:0:
475,192,203671,1,0,0:0:0:0:
256,192,203671,1,0,0:0:0:0:
256,192,203817,128,0,203963:0:0:0:0:
329,192,203817,1,0,0:0:0:0:
475,192,203817,1,0,0:0:0:0:
182,192,203963,128,0,204073:0:0:0:0:
402,192,203963,1,0,0:0:0:0:
475,192,203963,1,0,0:0:0:0:
329,192,204036,1,0,0:0:0:0:
109,192,204073,128,0,204183:0:0:0:0:
402,192,204110,1,0,0:0:0:0:
256,192,204110,1,0,0:0:0:0:
182,192,204183,128,0,204256:0:0:0:0:
109,192,204256,128,0,204329:0:0:0:0:
329,192,204256,128,0,204329:0:0:0:0:
402,192,204256,128,0,204329:0:0:0:0:
475,192,204256,1,0,0:0:0:0:
182,192,204329,128,0,204402:0:0:0:0:
109,192,204402,128,0,204475:0:0:0:0:
329,192,204402,128,0,204695:0:0:0:0:
475,192,204402,1,0,0:0:0:0:
256,192,204402,128,0,204695:0:0:0:0:
36,192,204475,128,0,204768:0:0:0:0:
182,192,204841,128,0,205573:0:0:0:0:
256,192,204841,1,0,0:0:0:0:
402,192,204841,1,0,0:0:0:0:
475,192,204841,1,0,0:0:0:0:
109,192,204914,1,0,0:0:0:0:
402,192,204988,1,0,0:0:0:0:
475,192,204988,1,0,0:0:0:0:
109,192,205134,1,0,0:0:0:0:
36,192,205134,1,0,0:0:0:0:
329,192,205207,1,0,0:0:0:0:
109,192,205280,1,0,0:0:0:0:
36,192,205280,1,0,0:0:0:0:
475,192,205427,128,0,205500:0:0:0:0:
402,192,205427,128,0,205500:0:0:0:0:
256,192,205427,1,0,0:0:0:0:
329,192,205573,1,0,0:0:0:0:
36,192,205573,1,0,0:0:0:0:
402,192,205646,1,0,0:0:0:0:
182,192,205719,128,0,205866:0:0:0:0:
329,192,205719,1,0,0:0:0:0:
36,192,205719,1,0,0:0:0:0:
256,192,205866,128,0,206012:0:0:0:0:
109,192,205866,1,0,0:0:0:0:
402,192,205866,1,0,0:0:0:0:
36,192,205939,1,0,0:0:0:0:
329,192,206012,128,0,207110:0:0:0:0:
109,192,206012,1,0,0:0:0:0:
402,192,206012,1,0,0:0:0:0:
182,192,206158,1,0,0:0:0:0:
475,192,206158,1,0,0:0:0:0:
402,192,206305,1,0,0:0:0:0:
475,192,206305,1,0,0:0:0:0:
109,192,206378,1,0,0:0:0:0:
402,192,206451,1,0,0:0:0:0:
475,192,206451,1,0,0:0:0:0:
109,192,206597,128,0,206817:0:0:0:0:
182,192,206597,128,0,206671:0:0:0:0:
36,192,206597,1,0,0:0:0:0:
36,192,206744,128,0,206963:0:0:0:0:
256,192,206744,128,0,206817:0:0:0:0:
402,192,206744,1,0,0:0:0:0:
475,192,206744,1,0,0:0:0:0:
182,192,206890,128,0,207110:0:0:0:0:
109,192,206890,128,0,206963:0:0:0:0:
256,192,206890,1,0,0:0:0:0:
402,192,206890,1,0,0:0:0:0:
109,192,207036,128,0,207329:0:0:0:0:
402,192,207036,128,0,207329:0:0:0:0:
36,192,207036,1,0,0:0:0:0:
256,192,207036,1,0,0:0:0:0:
475,192,207036,128,0,207110:0:0:0:0:
329,192,207329,128,0,207475:0:0:0:0:
36,192,207329,1,0,0:0:0:0:
256,192,207329,1,0,0:0:0:0:
475,192,207402,128,0,207549:0:0:0:0:
256,192,207475,128,0,207622:0:0:0:0:
182,192,207475,1,0,0:0:0:0:
109,192,207475,1,0,0:0:0:0:
402,192,207549,1,0,0:0:0:0:
329,192,207622,128,0,207768:0:0:0:0:
36,192,207622,1,0,0:0:0:0:
109,192,207622,1,0,0:0:0:0:
475,192,207768,128,0,207841:0:0:0:0:
256,192,207768,128,0,207914:0:0:0:0:
109,192,207768,128,0,207841:0:0:0:0:
402,192,207768,1,0,0:0:0:0:
182,192,207914,128,0,208061:0:0:0:0:
329,192,207914,1,0,0:0:0:0:
36,192,207914,1,0,0:0:0:0:
36,192,208061,128,0,208207:0:0:0:0:
402,192,208061,128,0,208134:0:0:0:0:
256,192,208061,128,0,208134:0:0:0:0:
475,192,208061,1,0,0:0:0:0:
402,192,208207,128,0,208500:0:0:0:0:
182,192,208207,128,0,208354:0:0:0:0:
329,192,208207,1,0,0:0:0:0:
109,192,208207,1,0,0:0:0:0:
109,192,208354,128,0,208427:0:0:0:0:
182,192,208427,128,0,208500:0:0:0:0:
109,192,208500,128,0,208646:0:0:0:0:
329,192,208500,1,0,0:0:0:0:
475,192,208500,1,0,0:0:0:0:
256,192,208646,128,0,208793:0:0:0:0:
475,192,208646,1,0,0:0:0:0:
329,192,208646,1,0,0:0:0:0:
182,192,208719,1,0,0:0:0:0:
402,192,208793,128,0,208939:0:0:0:0:
475,192,208793,1,0,0:0:0:0:
329,192,208793,1,0,0:0:0:0:
109,192,208866,128,0,209085:0:0:0:0:
256,192,208939,128,0,209085:0:0:0:0:
182,192,208939,1,0,0:0:0:0:
329,192,209012,1,0,0:0:0:0:
475,192,209085,128,0,209232:0:0:0:0:
36,192,209085,1,0,0:0:0:0:
182,192,209085,1,0,0:0:0:0:
402,192,209232,128,0,209305:0:0:0:0:
256,192,209232,1,0,0:0:0:0:
182,192,209232,1,0,0:0:0:0:
475,192,209305,128,0,209378:0:0:0:0:
36,192,209305,1,0,0:0:0:0:
109,192,209305,1,0,0:0:0:0:
329,192,209378,128,0,211354:0:0:0:0:
256,192,209378,1,0,0:0:0:0:
402,192,209378,1,0,0:0:0:0:
182,192,209451,1,0,0:0:0:0:
109,192,209451,1,0,0:0:0:0:
475,192,209524,1,0,0:0:0:0:
402,192,209524,1,0,0:0:0:0:
36,192,209524,1,0,0:0:0:0:
256,192,209597,1,0,0:0:0:0:
402,192,209671,1,0,0:0:0:0:
475,192,209671,1,0,0:0:0:0:
109,192,209817,1,0,0:0:0:0:
36,192,209817,1,0,0:0:0:0:
256,192,209890,1,0,0:0:0:0:
109,192,209963,1,0,0:0:0:0:
36,192,209963,1,0,0:0:0:0:
109,192,210110,128,0,210183:0:0:0:0:
182,192,210110,128,0,210183:0:0:0:0:
475,192,210110,1,0,0:0:0:0:
256,192,210256,1,0,0:0:0:0:
36,192,210256,1,0,0:0:0:0:
182,192,210329,1,0,0:0:0:0:
256,192,210402,1,0,0:0:0:0:
36,192,210402,1,0,0:0:0:0:
475,192,210549,1,0,0:0:0:0:
109,192,210549,1,0,0:0:0:0:
402,192,210622,1,0,0:0:0:0:
475,192,210695,1,0,0:0:0:0:
182,192,210695,1,0,0:0:0:0:
256,192,210841,1,0,0:0:0:0:
36,192,210841,1,0,0:0:0:0:
36,192,210988,1,0,0:0:0:0:
475,192,210988,1,0,0:0:0:0:
402,192,211061,1,0,0:0:0:0:
36,192,211134,1,0,0:0:0:0:
182,192,211134,1,0,0:0:0:0:
109,192,211280,128,0,211354:0:0:0:0:
36,192,211280,128,0,211354:0:0:0:0:
256,192,211280,128,0,211500:0:0:0:0:
475,192,211280,1,0,0:0:0:0:
402,192,211427,128,0,211646:0:0:0:0:
109,192,211427,128,0,211793:0:0:0:0:
182,192,211427,1,0,0:0:0:0:
475,192,211427,1,0,0:0:0:0:
256,192,211573,128,0,211719:0:0:0:0:
402,192,211719,128,0,211866:0:0:0:0:
329,192,211866,128,0,212085:0:0:0:0:
256,192,211866,1,0,0:0:0:0:
109,192,211866,1,0,0:0:0:0:
36,192,211866,1,0,0:0:0:0:
182,192,212012,128,0,212232:0:0:0:0:
402,192,212012,1,0,0:0:0:0:
109,192,212012,1,0,0:0:0:0:
36,192,212012,1,0,0:0:0:0:
329,192,212158,128,0,212305:0:0:0:0:
402,192,212158,1,0,0:0:0:0:
475,192,212158,1,0,0:0:0:0:
109,192,212232,1,0,0:0:0:0:
182,192,212305,128,0,212524:0:0:0:0:
402,192,212305,1,0,0:0:0:0:
475,192,212305,1,0,0:0:0:0:
329,192,212451,128,0,212524:0:0:0:0:
402,192,212451,128,0,212524:0:0:0:0:
109,192,212451,128,0,212671:0:0:0:0:
36,192,212451,1,0,0:0:0:0:
182,192,212597,128,0,212744:0:0:0:0:
402,192,212597,1,0,0:0:0:0:
475,192,212597,1,0,0:0:0:0:
256,192,212671,1,0,0:0:0:0:
109,192,212744,128,0,212963:0:0:0:0:
402,192,212744,1,0,0:0:0:0:
329,192,212744,1,0,0:0:0:0:
36,192,212890,128,0,213475:0:0:0:0:
329,192,212890,1,0,0:0:0:0:
256,192,212890,1,0,0:0:0:0:
475,192,212963,1,0,0:0:0:0:
256,192,213036,1,0,0:0:0:0:
182,192,213036,1,0,0:0:0:0:
182,192,213183,1,0,0:0:0:0:
402,192,213183,1,0,0:0:0:0:
329,192,213329,1,0,0:0:0:0:
475,192,213329,1,0,0:0:0:0:
109,192,213402,1,0,0:0:0:0:
182,192,213475,128,0,213695:0:0:0:0:
329,192,213475,1,0,0:0:0:0:
475,192,213475,1,0,0:0:0:0:
36,192,213622,128,0,214134:0:0:0:0:
402,192,213622,128,0,213695:0:0:0:0:
256,192,213622,128,0,213695:0:0:0:0:
109,192,213622,1,0,0:0:0:0:
256,192,213768,128,0,214061:0:0:0:0:
475,192,213768,1,0,0:0:0:0:
329,192,213768,128,0,214061:0:0:0:0:
182,192,213768,1,0,0:0:0:0:
475,192,214207,128,0,216036:0:0:0:0:
109,192,214207,1,0,0:0:0:0:
402,192,214207,1,0,0:0:0:0:
36,192,214207,1,0,0:0:0:0:
256,192,214280,1,0,0:0:0:0:
109,192,214354,1,0,0:0:0:0:
36,192,214354,1,0,0:0:0:0:
329,192,214500,1,0,0:0:0:0:
402,192,214500,1,0,0:0:0:0:
182,192,214573,1,0,0:0:0:0:
329,192,214646,1,0,0:0:0:0:
402,192,214646,1,0,0:0:0:0:
182,192,214793,128,0,214866:0:0:0:0:
109,192,214793,128,0,214866:0:0:0:0:
329,192,214793,1,0,0:0:0:0:
256,192,214939,1,0,0:0:0:0:
36,192,214939,1,0,0:0:0:0:
402,192,215012,1,0,0:0:0:0:
256,192,215085,1,0,0:0:0:0:
36,192,215085,1,0,0:0:0:0:
182,192,215232,1,0,0:0:0:0:
402,192,215232,1,0,0:0:0:0:
36,192,215305,1,0,0:0:0:0:
402,192,215378,1,0,0:0:0:0:
182,192,215378,1,0,0:0:0:0:
109,192,215524,1,0,0:0:0:0:
329,192,215524,1,0,0:0:0:0:
256,192,215671,1,0,0:0:0:0:
36,192,215671,1,0,0:0:0:0:
402,192,215744,1,0,0:0:0:0:
256,192,215817,1,0,0:0:0:0:
36,192,215817,1,0,0:0:0:0:
182,192,215963,128,0,216036:0:0:0:0:
329,192,215963,128,0,216646:0:0:0:0:
256,192,215963,128,0,216036:0:0:0:0:
182,192,216110,128,0,216329:0:0:0:0:
109,192,216110,128,0,216183:0:0:0:0:
36,192,216110,1,0,0:0:0:0:
475,192,216110,1,0,0:0:0:0:
402,192,216256,128,0,216329:0:0:0:0:
475,192,216256,128,0,216475:0:0:0:0:
109,192,216256,1,0,0:0:0:0:
256,192,216256,1,0,0:0:0:0:
109,192,216402,128,0,216695:0:0:0:0:
36,192,216402,128,0,216475:0:0:0:0:
182,192,216402,1,0,0:0:0:0:
402,192,216402,1,0,0:0:0:0:
256,192,216549,1,0,0:0:0:0:
475,192,216549,1,0,0:0:0:0:
256,192,216646,128,0,216841:0:0:0:0:
182,192,216695,1,0,0:0:0:0:
36,192,216695,1,0,0:0:0:0:
402,192,216744,1,0,0:0:0:0:
402,192,216841,128,0,217134:0:0:0:0:
109,192,216841,1,0,0:0:0:0:
36,192,216841,1,0,0:0:0:0:
182,192,216914,1,0,0:0:0:0:
329,192,216939,128,0,217036:0:0:0:0:
109,192,216988,1,0,0:0:0:0:
36,192,216988,1,0,0:0:0:0:
475,192,217036,128,0,217134:0:0:0:0:
329,192,217134,128,0,217354:0:0:0:0:
182,192,217134,128,0,217207:0:0:0:0:
109,192,217134,128,0,217207:0:0:0:0:
256,192,217134,1,0,0:0:0:0:
475,192,217280,128,0,217427:0:0:0:0:
182,192,217280,1,0,0:0:0:0:
402,192,217280,1,0,0:0:0:0:
256,192,217427,128,0,217646:0:0:0:0:
109,192,217427,128,0,217500:0:0:0:0:
36,192,217427,128,0,217500:0:0:0:0:
182,192,217427,1,0,0:0:0:0:
402,192,217573,128,0,217719:0:0:0:0:
329,192,217573,1,0,0:0:0:0:
109,192,217573,1,0,0:0:0:0:
475,192,217573,128,0,217866:0:0:0:0:
182,192,217719,128,0,217866:0:0:0:0:
36,192,217756,128,0,218085:0:0:0:0:
256,192,217866,1,0,0:0:0:0:
402,192,217866,1,0,0:0:0:0:
256,192,218012,128,0,218158:0:0:0:0:
109,192,218012,1,0,0:0:0:0:
182,192,218012,1,0,0:0:0:0:
402,192,218085,1,0,0:0:0:0:
36,192,218158,128,0,218378:0:0:0:0:
329,192,218158,1,0,0:0:0:0:
109,192,218158,1,0,0:0:0:0:
329,192,218305,128,0,218451:0:0:0:0:
182,192,218305,1,0,0:0:0:0:
256,192,218305,1,0,0:0:0:0:
475,192,218378,1,0,0:0:0:0:
36,192,218451,128,0,218671:0:0:0:0:
402,192,218451,1,0,0:0:0:0:
182,192,218451,1,0,0:0:0:0:
402,192,218597,128,0,218744:0:0:0:0:
256,192,218597,1,0,0:0:0:0:
329,192,218597,1,0,0:0:0:0:
182,192,218671,1,0,0:0:0:0:
109,192,218671,1,0,0:0:0:0:
36,192,218744,128,0,219402:0:0:0:0:
329,192,218744,1,0,0:0:0:0:
475,192,218744,1,0,0:0:0:0:
182,192,218817,1,0,0:0:0:0:
475,192,218890,128,0,219988:0:0:0:0:
109,192,218890,128,0,219036:0:0:0:0:
256,192,218890,1,0,0:0:0:0:
402,192,218890,128,0,219036:0:0:0:0:
329,192,218890,128,0,218963:0:0:0:0:
182,192,218963,128,0,219110:0:0:0:0:
256,192,219036,128,0,219183:0:0:0:0:
329,192,219110,128,0,219329:0:0:0:0:
109,192,219183,1,0,0:0:0:0:
402,192,219183,128,0,219256:0:0:0:0:
182,192,219219,1,0,0:0:0:0:
256,192,219256,128,0,219402:0:0:0:0:
182,192,219329,128,0,219475:0:0:0:0:
109,192,219402,128,0,219622:0:0:0:0:
36,192,219475,128,0,219549:0:0:0:0:
402,192,219475,1,0,0:0:0:0:
329,192,219475,128,0,219549:0:0:0:0:
182,192,219549,128,0,219695:0:0:0:0:
256,192,219622,128,0,219841:0:0:0:0:
36,192,219622,1,0,0:0:0:0:
402,192,219622,1,0,0:0:0:0:
329,192,219695,128,0,219768:0:0:0:0:
182,192,219768,128,0,219914:0:0:0:0:
36,192,219768,1,0,0:0:0:0:
402,192,219805,1,0,0:0:0:0:
109,192,219841,128,0,219988:0:0:0:0:
36,192,219914,128,0,220061:0:0:0:0:
329,192,219914,1,0,0:0:0:0:
256,192,219988,128,0,220061:0:0:0:0:
329,192,220061,128,0,220207:0:0:0:0:
475,192,220061,1,0,0:0:0:0:
109,192,220061,128,0,220134:0:0:0:0:
402,192,220061,128,0,220134:0:0:0:0:
182,192,220134,128,0,220280:0:0:0:0:
109,192,220207,128,0,220354:0:0:0:0:
36,192,220280,128,0,220427:0:0:0:0:
256,192,220354,128,0,220427:0:0:0:0:
402,192,220354,128,0,220500:0:0:0:0:
475,192,220354,1,0,0:0:0:0:
329,192,220354,1,0,0:0:0:0:
109,192,220427,128,0,220500:0:0:0:0:
36,192,220500,1,0,0:0:0:0:
182,192,220500,1,0,0:0:0:0:
256,192,220500,128,0,220573:0:0:0:0:
329,192,220573,128,0,220646:0:0:0:0:
182,192,220646,128,0,220793:0:0:0:0:
329,192,220719,128,0,220866:0:0:0:0:
402,192,220793,128,0,220939:0:0:0:0:
109,192,220793,1,0,0:0:0:0:
36,192,220793,1,0,0:0:0:0:
475,192,220866,128,0,221012:0:0:0:0:
109,192,220939,128,0,221085:0:0:0:0:
182,192,220939,1,0,0:0:0:0:
256,192,220939,128,0,221012:0:0:0:0:
36,192,220939,1,0,0:0:0:0:
402,192,221012,128,0,221085:0:0:0:0:
256,192,221085,128,0,221158:0:0:0:0:
182,192,221158,128,0,221232:0:0:0:0:
36,192,221232,128,0,221744:0:0:0:0:
329,192,221232,1,0,0:0:0:0:
475,192,221232,1,0,0:0:0:0:
475,192,221524,1,0,0:0:0:0:
329,192,221524,1,0,0:0:0:0:
256,192,221524,1,0,0:0:0:0:
182,192,221524,1,0,0:0:0:0:
36,192,221817,128,0,221914:0:0:0:0:
256,192,221817,1,0,0:0:0:0:
109,192,221914,128,0,222012:0:0:0:0:
329,192,221963,1,0,0:0:0:0:
475,192,221963,1,0,0:0:0:0:
182,192,222012,128,0,222110:0:0:0:0:
109,192,222110,128,0,222207:0:0:0:0:
475,192,222110,1,0,0:0:0:0:
329,192,222110,1,0,0:0:0:0:
256,192,222110,1,0,0:0:0:0:
182,192,222207,128,0,222305:0:0:0:0:
402,192,222305,128,0,222402:0:0:0:0:
256,192,222354,128,0,222451:0:0:0:0:
109,192,222402,128,0,222500:0:0:0:0:
36,192,222402,1,0,0:0:0:0:
329,192,222402,1,0,0:0:0:0:
182,192,222500,128,0,222597:0:0:0:0:
36,192,222549,1,0,0:0:0:0:
329,192,222549,1,0,0:0:0:0:
256,192,222597,128,0,222695:0:0:0:0:
182,192,222695,128,0,222793:0:0:0:0:
109,192,222695,1,0,0:0:0:0:
402,192,222695,1,0,0:0:0:0:
475,192,222695,1,0,0:0:0:0:
256,192,222793,128,0,222890:0:0:0:0:
36,192,222841,1,0,0:0:0:0:
402,192,222841,1,0,0:0:0:0:
475,192,222890,128,0,222988:0:0:0:0:
329,192,222939,128,0,223036:0:0:0:0:
182,192,222988,128,0,223427:0:0:0:0:
36,192,223134,1,0,0:0:0:0:
256,192,223134,1,0,0:0:0:0:
109,192,223280,1,0,0:0:0:0:
329,192,223280,1,0,0:0:0:0:
402,192,223280,1,0,0:0:0:0:
475,192,223280,1,0,0:0:0:0:
329,192,223573,128,0,223646:0:0:0:0:
256,192,223573,128,0,223646:0:0:0:0:
182,192,223573,128,0,223646:0:0:0:0:
36,192,223573,128,0,223646:0:0:0:0:
475,192,223573,128,0,223719:0:0:0:0:
402,192,223719,128,0,223866:0:0:0:0:
329,192,223866,128,0,224012:0:0:0:0:
109,192,223866,1,0,0:0:0:0:
36,192,223866,1,0,0:0:0:0:
182,192,223866,1,0,0:0:0:0:
256,192,224012,128,0,224158:0:0:0:0:
36,192,224158,128,0,224305:0:0:0:0:
182,192,224158,1,0,0:0:0:0:
475,192,224158,1,0,0:0:0:0:
402,192,224305,128,0,224451:0:0:0:0:
182,192,224305,1,0,0:0:0:0:
475,192,224305,1,0,0:0:0:0:
256,192,224451,128,0,224597:0:0:0:0:
329,192,224451,1,0,0:0:0:0:
109,192,224451,1,0,0:0:0:0:
36,192,224451,1,0,0:0:0:0:
109,192,224597,128,0,224744:0:0:0:0:
36,192,224744,128,0,224890:0:0:0:0:
329,192,224744,128,0,224817:0:0:0:0:
402,192,224744,128,0,224817:0:0:0:0:
475,192,224744,128,0,224817:0:0:0:0:
182,192,224744,1,0,0:0:0:0:
329,192,224890,128,0,225036:0:0:0:0:
182,192,225036,128,0,225183:0:0:0:0:
256,192,225036,1,0,0:0:0:0:
402,192,225036,1,0,0:0:0:0:
475,192,225036,1,0,0:0:0:0:
36,192,225183,128,0,225329:0:0:0:0:
402,192,225183,1,0,0:0:0:0:
329,192,225183,1,0,0:0:0:0:
475,192,225329,128,0,225475:0:0:0:0:
256,192,225329,1,0,0:0:0:0:
329,192,225475,128,0,225622:0:0:0:0:
182,192,225475,1,0,0:0:0:0:
109,192,225475,1,0,0:0:0:0:
256,192,225622,128,0,225768:0:0:0:0:
109,192,225622,1,0,0:0:0:0:
36,192,225622,1,0,0:0:0:0:
475,192,225622,1,0,0:0:0:0:
182,192,225768,128,0,225988:0:0:0:0:
109,192,225914,128,0,225988:0:0:0:0:
36,192,225914,128,0,225988:0:0:0:0:
402,192,225914,128,0,225988:0:0:0:0:
475,192,225914,128,0,225988:0:0:0:0:
329,192,225914,128,0,226043:0:0:0:0:
182,192,226061,128,0,226189:0:0:0:0:
329,192,226207,128,0,226335:0:0:0:0:
256,192,226207,1,0,0:0:0:0:
109,192,226207,1,0,0:0:0:0:
36,192,226207,1,0,0:0:0:0:
402,192,226354,128,0,226482:0:0:0:0:
109,192,226354,1,0,0:0:0:0:
182,192,226354,1,0,0:0:0:0:
475,192,226500,128,0,226628:0:0:0:0:
329,192,226500,1,0,0:0:0:0:
36,192,226646,128,0,226774:0:0:0:0:
256,192,226646,1,0,0:0:0:0:
182,192,226646,1,0,0:0:0:0:
109,192,226793,128,0,226921:0:0:0:0:
256,192,226793,1,0,0:0:0:0:
329,192,226793,1,0,0:0:0:0:
402,192,226793,1,0,0:0:0:0:
182,192,226939,128,0,227067:0:0:0:0:
329,192,226939,1,0,0:0:0:0:
475,192,226939,1,0,0:0:0:0:
402,192,227085,128,0,227268:0:0:0:0:
36,192,227085,1,0,0:0:0:0:
475,192,227232,1,0,0:0:0:0:
109,192,227232,1,0,0:0:0:0:
256,192,227268,128,0,227396:0:0:0:0:
36,192,227378,1,0,0:0:0:0:
475,192,227378,1,0,0:0:0:0:
402,192,227378,1,0,0:0:0:0:
182,192,227396,128,0,227524:0:0:0:0:
109,192,227524,128,0,227671:0:0:0:0:
36,192,227524,1,0,0:0:0:0:
329,192,227524,1,0,0:0:0:0:
329,192,227671,128,0,227744:0:0:0:0:
182,192,227671,1,0,0:0:0:0:
475,192,227671,1,0,0:0:0:0:
402,192,227744,128,0,227890:0:0:0:0:
256,192,227744,1,0,0:0:0:0:
36,192,227744,1,0,0:0:0:0:
329,192,227817,128,0,228036:0:0:0:0:
475,192,227817,1,0,0:0:0:0:
109,192,227817,1,0,0:0:0:0:
256,192,227890,1,0,0:0:0:0:
402,192,227963,128,0,228110:0:0:0:0:
182,192,227963,1,0,0:0:0:0:
475,192,227963,1,0,0:0:0:0:
36,192,227963,1,0,0:0:0:0:
256,192,228110,1,0,0:0:0:0:
109,192,228110,1,0,0:0:0:0:
329,192,228110,128,0,228329:0:0:0:0:
109,192,228256,128,0,228329:0:0:0:0:
36,192,228256,128,0,228329:0:0:0:0:
402,192,228256,128,0,228329:0:0:0:0:
182,192,228256,128,0,228768:0:0:0:0:
475,192,228256,128,0,230524:0:0:0:0:
329,192,228549,1,0,0:0:0:0:
256,192,228549,1,0,0:0:0:0:
36,192,228549,1,0,0:0:0:0:
109,192,228549,1,0,0:0:0:0:
36,192,228841,128,0,228988:0:0:0:0:
256,192,228841,1,0,0:0:0:0:
402,192,228841,1,0,0:0:0:0:
182,192,228988,128,0,229280:0:0:0:0:
402,192,228988,1,0,0:0:0:0:
256,192,228988,1,0,0:0:0:0:
36,192,229134,128,0,229427:0:0:0:0:
329,192,229134,1,0,0:0:0:0:
402,192,229134,1,0,0:0:0:0:
109,192,229134,1,0,0:0:0:0:
256,192,229280,128,0,229427:0:0:0:0:
182,192,229427,1,0,0:0:0:0:
402,192,229427,1,0,0:0:0:0:
109,192,229427,128,0,229573:0:0:0:0:
256,192,229573,128,0,229866:0:0:0:0:
402,192,229719,128,0,229866:0:0:0:0:
182,192,229719,1,0,0:0:0:0:
36,192,229719,1,0,0:0:0:0:
329,192,229719,1,0,0:0:0:0:
182,192,229866,128,0,230158:0:0:0:0:
109,192,229866,1,0,0:0:0:0:
36,192,229866,1,0,0:0:0:0:
402,192,230012,128,0,230305:0:0:0:0:
109,192,230158,128,0,230305:0:0:0:0:
256,192,230158,1,0,0:0:0:0:
329,192,230158,1,0,0:0:0:0:
329,192,230305,128,0,230597:0:0:0:0:
256,192,230305,1,0,0:0:0:0:
182,192,230305,1,0,0:0:0:0:
36,192,230305,1,0,0:0:0:0:
109,192,230451,128,0,230597:0:0:0:0:
256,192,230597,128,0,230744:0:0:0:0:
182,192,230597,1,0,0:0:0:0:
475,192,230597,1,0,0:0:0:0:
36,192,230597,128,0,232866:0:0:0:0:
402,192,230744,128,0,231036:0:0:0:0:
256,192,230890,128,0,231183:0:0:0:0:
329,192,230890,1,0,0:0:0:0:
182,192,230890,1,0,0:0:0:0:
109,192,230890,1,0,0:0:0:0:
475,192,231036,128,0,231183:0:0:0:0:
329,192,231183,128,0,231475:0:0:0:0:
109,192,231183,1,0,0:0:0:0:
475,192,231329,128,0,231622:0:0:0:0:
402,192,231329,1,0,0:0:0:0:
182,192,231329,1,0,0:0:0:0:
182,192,231475,128,0,231622:0:0:0:0:
402,192,231475,1,0,0:0:0:0:
256,192,231475,1,0,0:0:0:0:
109,192,231475,1,0,0:0:0:0:
329,192,231622,128,0,231768:0:0:0:0:
475,192,231768,128,0,231914:0:0:0:0:
256,192,231768,1,0,0:0:0:0:
109,192,231768,1,0,0:0:0:0:
402,192,231768,1,0,0:0:0:0:
329,192,231914,128,0,232061:0:0:0:0:
256,192,231914,1,0,0:0:0:0:
109,192,231914,1,0,0:0:0:0:
182,192,232061,128,0,232207:0:0:0:0:
402,192,232061,1,0,0:0:0:0:
475,192,232061,1,0,0:0:0:0:
256,192,232061,1,0,0:0:0:0:
109,192,232207,128,0,232354:0:0:0:0:
329,192,232207,1,0,0:0:0:0:
402,192,232207,1,0,0:0:0:0:
182,192,232354,128,0,232793:0:0:0:0:
475,192,232354,1,0,0:0:0:0:
402,192,232500,1,0,0:0:0:0:
329,192,232500,1,0,0:0:0:0:
329,192,232646,1,0,0:0:0:0:
256,192,232646,1,0,0:0:0:0:
475,192,232646,1,0,0:0:0:0:
109,192,232939,128,0,233085:0:0:0:0:
36,192,232939,128,0,233012:0:0:0:0:
329,192,232939,128,0,233012:0:0:0:0:
402,192,232939,128,0,233085:0:0:0:0:
475,192,232939,128,0,233158:0:0:0:0:
256,192,232939,1,0,0:0:0:0:
182,192,233012,128,0,233158:0:0:0:0:
256,192,233085,128,0,233232:0:0:0:0:
329,192,233158,128,0,233305:0:0:0:0:
475,192,233232,1,0,0:0:0:0:
36,192,233232,1,0,0:0:0:0:
109,192,233232,1,0,0:0:0:0:
402,192,233232,128,0,233378:0:0:0:0:
182,192,233305,128,0,233378:0:0:0:0:
329,192,233378,128,0,233451:0:0:0:0:
109,192,233378,128,0,233524:0:0:0:0:
182,192,233451,128,0,233597:0:0:0:0:
36,192,233524,1,0,0:0:0:0:
256,192,233524,128,0,233671:0:0:0:0:
475,192,233524,1,0,0:0:0:0:
329,192,233597,128,0,233744:0:0:0:0:
36,192,233671,1,0,0:0:0:0:
402,192,233671,128,0,233817:0:0:0:0:
182,192,233671,1,0,0:0:0:0:
475,192,233744,128,0,233890:0:0:0:0:
256,192,233817,1,0,0:0:0:0:
329,192,233817,1,0,0:0:0:0:
182,192,233817,1,0,0:0:0:0:
36,192,233817,128,0,233963:0:0:0:0:
109,192,233890,128,0,234036:0:0:0:0:
256,192,233963,128,0,234110:0:0:0:0:
402,192,234036,128,0,234219:0:0:0:0:
182,192,234110,128,0,234183:0:0:0:0:
329,192,234110,1,0,0:0:0:0:
109,192,234110,128,0,234183:0:0:0:0:
36,192,234110,128,0,234183:0:0:0:0:
475,192,234146,128,0,234256:0:0:0:0:
256,192,234183,128,0,234329:0:0:0:0:
182,192,234256,128,0,234402:0:0:0:0:
36,192,234329,128,0,234402:0:0:0:0:
256,192,234402,128,0,234475:0:0:0:0:
475,192,234402,1,0,0:0:0:0:
109,192,234402,1,0,0:0:0:0:
329,192,234475,128,0,234549:0:0:0:0:
402,192,234549,128,0,234622:0:0:0:0:
182,192,234549,1,0,0:0:0:0:
36,192,234549,1,0,0:0:0:0:
329,192,234622,128,0,234805:0:0:0:0:
109,192,234695,128,0,234768:0:0:0:0:
475,192,234695,1,0,0:0:0:0:
402,192,234732,128,0,234841:0:0:0:0:
182,192,234768,128,0,234914:0:0:0:0:
109,192,234841,128,0,234988:0:0:0:0:
256,192,234841,1,0,0:0:0:0:
36,192,234841,1,0,0:0:0:0:
475,192,234914,128,0,234988:0:0:0:0:
182,192,234988,128,0,235061:0:0:0:0:
36,192,234988,1,0,0:0:0:0:
329,192,234988,1,0,0:0:0:0:
402,192,234988,1,0,0:0:0:0:
256,192,235061,128,0,235134:0:0:0:0:
329,192,235134,128,0,235207:0:0:0:0:
256,192,235207,128,0,235390:0:0:0:0:
36,192,235280,128,0,235354:0:0:0:0:
182,192,235280,1,0,0:0:0:0:
402,192,235280,128,0,235354:0:0:0:0:
475,192,235280,128,0,235354:0:0:0:0:
329,192,235317,128,0,235427:0:0:0:0:
109,192,235354,128,0,235500:0:0:0:0:
36,192,235427,128,0,235573:0:0:0:0:
109,192,235573,128,0,235646:0:0:0:0:
256,192,235573,1,0,0:0:0:0:
402,192,235573,1,0,0:0:0:0:
475,192,235573,1,0,0:0:0:0:
329,192,235646,128,0,235793:0:0:0:0:
182,192,235719,128,0,235866:0:0:0:0:
109,192,235793,128,0,235902:0:0:0:0:
36,192,235866,128,0,235939:0:0:0:0:
402,192,235866,1,0,0:0:0:0:
256,192,235902,128,0,236012:0:0:0:0:
475,192,235939,128,0,236085:0:0:0:0:
329,192,236012,128,0,236085:0:0:0:0:
109,192,236012,1,0,0:0:0:0:
36,192,236012,1,0,0:0:0:0:
182,192,236085,128,0,236158:0:0:0:0:
475,192,236158,128,0,236305:0:0:0:0:
329,192,236158,1,0,0:0:0:0:
256,192,236158,1,0,0:0:0:0:
109,192,236158,1,0,0:0:0:0:
402,192,236158,128,0,236451:0:0:0:0:
36,192,236305,128,0,236378:0:0:0:0:
182,192,236305,128,0,236378:0:0:0:0:
256,192,236305,128,0,236378:0:0:0:0:
109,192,236305,128,0,236378:0:0:0:0:
329,192,236451,128,0,236524:0:0:0:0:
36,192,236451,128,0,236524:0:0:0:0:
475,192,236488,128,0,237622:0:0:0:0:
182,192,236524,128,0,236597:0:0:0:0:
109,192,236597,128,0,236671:0:0:0:0:
329,192,236597,1,0,0:0:0:0:
256,192,236646,1,0,0:0:0:0:
36,192,236671,128,0,236817:0:0:0:0:
109,192,236744,128,0,236890:0:0:0:0:
329,192,236744,1,0,0:0:0:0:
182,192,236817,128,0,236963:0:0:0:0:
256,192,236890,128,0,237085:0:0:0:0:
36,192,237036,1,0,0:0:0:0:
402,192,237085,128,0,237134:0:0:0:0:
109,192,237085,1,0,0:0:0:0:
256,192,237134,128,0,237256:0:0:0:0:
402,192,237183,128,0,237329:0:0:0:0:
36,192,237183,1,0,0:0:0:0:
329,192,237329,128,0,237427:0:0:0:0:
109,192,237329,1,0,0:0:0:0:
182,192,237378,1,0,0:0:0:0:
402,192,237427,128,0,237524:0:0:0:0:
109,192,237475,1,0,0:0:0:0:
329,192,237524,128,0,237622:0:0:0:0:
256,192,237622,128,0,240549:0:0:0:0:
182,192,237622,1,0,0:0:0:0:
36,192,237622,1,0,0:0:0:0:
109,192,237622,1,0,0:0:0:0:
402,192,237671,1,0,0:0:0:0:
475,192,237719,1,0,0:0:0:0:
329,192,237768,1,0,0:0:0:0:
182,192,237768,1,0,0:0:0:0:
36,192,237817,1,0,0:0:0:0:
109,192,237866,1,0,0:0:0:0:
475,192,237914,1,0,0:0:0:0:
329,192,237914,1,0,0:0:0:0:
182,192,237963,1,0,0:0:0:0:
109,192,238012,1,0,0:0:0:0:
36,192,238061,1,0,0:0:0:0:
475,192,238061,1,0,0:0:0:0:
402,192,238110,1,0,0:0:0:0:
329,192,238158,1,0,0:0:0:0:
182,192,238207,1,0,0:0:0:0:
36,192,238207,1,0,0:0:0:0:
475,192,238256,1,0,0:0:0:0:
329,192,238305,1,0,0:0:0:0:
402,192,238354,1,0,0:0:0:0:
109,192,238354,1,0,0:0:0:0:
182,192,238402,1,0,0:0:0:0:
36,192,238451,1,0,0:0:0:0:
329,192,238500,1,0,0:0:0:0:
475,192,238500,1,0,0:0:0:0:
182,192,238549,1,0,0:0:0:0:
36,192,238597,1,0,0:0:0:0:
109,192,238646,1,0,0:0:0:0:
402,192,238646,1,0,0:0:0:0:
475,192,238695,1,0,0:0:0:0:
329,192,238744,1,0,0:0:0:0:
182,192,238793,1,0,0:0:0:0:
36,192,238793,1,0,0:0:0:0:
475,192,238829,1,0,0:0:0:0:
402,192,238866,1,0,0:0:0:0:
109,192,238902,1,0,0:0:0:0:
329,192,238939,1,0,0:0:0:0:
182,192,238988,1,0,0:0:0:0:
402,192,239036,1,0,0:0:0:0:
329,192,239085,1,0,0:0:0:0:
475,192,239085,1,0,0:0:0:0:
36,192,239122,1,0,0:0:0:0:
109,192,239158,1,0,0:0:0:0:
402,192,239195,1,0,0:0:0:0:
182,192,239232,1,0,0:0:0:0:
329,192,239280,1,0,0:0:0:0:
109,192,239329,1,0,0:0:0:0:
182,192,239378,1,0,0:0:0:0:
36,192,239378,1,0,0:0:0:0:
475,192,239414,1,0,0:0:0:0:
329,192,239451,1,0,0:0:0:0:
402,192,239488,1,0,0:0:0:0:
109,192,239524,1,0,0:0:0:0:
36,192,239573,1,0,0:0:0:0:
182,192,239622,1,0,0:0:0:0:
329,192,239671,1,0,0:0:0:0:
475,192,239671,1,0,0:0:0:0:
36,192,239707,1,0,0:0:0:0:
182,192,239744,1,0,0:0:0:0:
109,192,239780,1,0,0:0:0:0:
402,192,239817,1,0,0:0:0:0:
329,192,239866,1,0,0:0:0:0:
475,192,239914,1,0,0:0:0:0:
182,192,239963,1,0,0:0:0:0:
36,192,239963,1,0,0:0:0:0:
329,192,240000,1,0,0:0:0:0:
402,192,240036,1,0,0:0:0:0:
475,192,240073,1,0,0:0:0:0:
36,192,240110,1,0,0:0:0:0:
109,192,240146,1,0,0:0:0:0:
182,192,240183,1,0,0:0:0:0:
329,192,240219,1,0,0:0:0:0:
402,192,240238,1,0,0:0:0:0:
475,192,240256,1,0,0:0:0:0:
36,192,240256,1,0,0:0:0:0:
109,192,240329,1,0,0:0:0:0:
329,192,240402,1,0,0:0:0:0:
402,192,240402,1,0,0:0:0:0:
475,192,240402,1,0,0:0:0:0:
36,192,240451,1,0,0:0:0:0:
182,192,240500,1,0,0:0:0:0:
109,192,240549,1,0,0:0:0:0:
402,192,240549,1,0,0:0:0:0:
329,192,240597,1,0,0:0:0:0:
475,192,240646,1,0,0:0:0:0:
256,192,240695,1,0,0:0:0:0:
182,192,240695,1,0,0:0:0:0:
109,192,240695,1,0,0:0:0:0:
256,192,240841,1,0,0:0:0:0:
109,192,240841,1,0,0:0:0:0:
329,192,240866,1,0,0:0:0:0:
402,192,240890,1,0,0:0:0:0:
475,192,240914,1,0,0:0:0:0:
36,192,240914,1,0,0:0:0:0:
109,192,240951,1,0,0:0:0:0:
329,192,240988,1,0,0:0:0:0:
182,192,240988,1,0,0:0:0:0:
402,192,241061,1,0,0:0:0:0:
36,192,241134,1,0,0:0:0:0:
329,192,241134,1,0,0:0:0:0:
109,192,241158,1,0,0:0:0:0:
182,192,241183,1,0,0:0:0:0:
256,192,241207,1,0,0:0:0:0:
475,192,241207,1,0,0:0:0:0:
402,192,241244,1,0,0:0:0:0:
329,192,241280,1,0,0:0:0:0:
36,192,241280,1,0,0:0:0:0:
182,192,241354,1,0,0:0:0:0:
109,192,241427,1,0,0:0:0:0:
256,192,241427,1,0,0:0:0:0:
329,192,241451,1,0,0:0:0:0:
402,192,241475,1,0,0:0:0:0:
475,192,241500,1,0,0:0:0:0:
36,192,241500,1,0,0:0:0:0:
109,192,241536,1,0,0:0:0:0:
182,192,241573,1,0,0:0:0:0:
402,192,241573,1,0,0:0:0:0:
256,192,241646,1,0,0:0:0:0:
36,192,241719,1,0,0:0:0:0:
329,192,241719,1,0,0:0:0:0:
109,192,241744,1,0,0:0:0:0:
182,192,241768,1,0,0:0:0:0:
475,192,241793,1,0,0:0:0:0:
256,192,241793,1,0,0:0:0:0:
402,192,241829,1,0,0:0:0:0:
36,192,241866,1,0,0:0:0:0:
329,192,241866,1,0,0:0:0:0:
109,192,241939,1,0,0:0:0:0:
256,192,242012,1,0,0:0:0:0:
475,192,242012,1,0,0:0:0:0:
182,192,242036,1,0,0:0:0:0:
109,192,242061,1,0,0:0:0:0:
36,192,242085,1,0,0:0:0:0:
329,192,242085,1,0,0:0:0:0:
402,192,242122,1,0,0:0:0:0:
475,192,242158,1,0,0:0:0:0:
182,192,242158,1,0,0:0:0:0:
329,192,242232,1,0,0:0:0:0:
182,192,242305,1,0,0:0:0:0:
36,192,242305,1,0,0:0:0:0:
475,192,242305,1,0,0:0:0:0:
402,192,242341,1,0,0:0:0:0:
256,192,242378,1,0,0:0:0:0:
109,192,242414,1,0,0:0:0:0:
329,192,242451,1,0,0:0:0:0:
475,192,242451,1,0,0:0:0:0:
256,192,242488,1,0,0:0:0:0:
182,192,242524,1,0,0:0:0:0:
109,192,242561,1,0,0:0:0:0:
402,192,242597,1,0,0:0:0:0:
36,192,242597,1,0,0:0:0:0:
182,192,242671,1,0,0:0:0:0:
256,192,242744,1,0,0:0:0:0:
329,192,242744,1,0,0:0:0:0:
475,192,242744,1,0,0:0:0:0:
182,192,242890,1,0,0:0:0:0:
36,192,242890,1,0,0:0:0:0:
182,192,243036,1,0,0:0:0:0:
256,192,243036,1,0,0:0:0:0:
402,192,243036,1,0,0:0:0:0:
109,192,243183,1,0,0:0:0:0:
402,192,243183,1,0,0:0:0:0:
329,192,243207,1,0,0:0:0:0:
256,192,243232,1,0,0:0:0:0:
182,192,243256,1,0,0:0:0:0:
36,192,243256,1,0,0:0:0:0:
475,192,243293,1,0,0:0:0:0:
329,192,243329,1,0,0:0:0:0:
109,192,243329,1,0,0:0:0:0:
402,192,243402,1,0,0:0:0:0:
329,192,243475,1,0,0:0:0:0:
36,192,243475,1,0,0:0:0:0:
256,192,243500,1,0,0:0:0:0:
182,192,243524,1,0,0:0:0:0:
109,192,243549,1,0,0:0:0:0:
475,192,243549,1,0,0:0:0:0:
402,192,243585,1,0,0:0:0:0:
256,192,243622,1,0,0:0:0:0:
36,192,243622,1,0,0:0:0:0:
329,192,243695,1,0,0:0:0:0:
256,192,243768,1,0,0:0:0:0:
475,192,243768,1,0,0:0:0:0:
182,192,243793,1,0,0:0:0:0:
109,192,243817,1,0,0:0:0:0:
36,192,243841,1,0,0:0:0:0:
402,192,243841,1,0,0:0:0:0:
329,192,243878,1,0,0:0:0:0:
475,192,243914,1,0,0:0:0:0:
256,192,243914,1,0,0:0:0:0:
109,192,243988,1,0,0:0:0:0:
475,192,244061,1,0,0:0:0:0:
182,192,244061,1,0,0:0:0:0:
402,192,244085,1,0,0:0:0:0:
329,192,244110,1,0,0:0:0:0:
36,192,244134,1,0,0:0:0:0:
256,192,244134,1,0,0:0:0:0:
109,192,244171,1,0,0:0:0:0:
182,192,244207,1,0,0:0:0:0:
475,192,244207,1,0,0:0:0:0:
329,192,244280,1,0,0:0:0:0:
256,192,244354,1,0,0:0:0:0:
402,192,244354,1,0,0:0:0:0:
182,192,244378,1,0,0:0:0:0:
109,192,244402,1,0,0:0:0:0:
36,192,244427,1,0,0:0:0:0:
475,192,244427,1,0,0:0:0:0:
402,192,244463,1,0,0:0:0:0:
329,192,244500,1,0,0:0:0:0:
109,192,244500,1,0,0:0:0:0:
256,192,244573,1,0,0:0:0:0:
36,192,244646,1,0,0:0:0:0:
329,192,244646,1,0,0:0:0:0:
475,192,244646,1,0,0:0:0:0:
109,192,244683,1,0,0:0:0:0:
182,192,244719,1,0,0:0:0:0:
36,192,244756,1,0,0:0:0:0:
256,192,244793,1,0,0:0:0:0:
402,192,244793,1,0,0:0:0:0:
109,192,244829,1,0,0:0:0:0:
182,192,244866,1,0,0:0:0:0:
256,192,244902,1,0,0:0:0:0:
329,192,244939,1,0,0:0:0:0:
475,192,244939,1,0,0:0:0:0:
182,192,245012,1,0,0:0:0:0:
109,192,245085,1,0,0:0:0:0:
36,192,245085,1,0,0:0:0:0:
329,192,245085,1,0,0:0:0:0:
475,192,245122,1,0,0:0:0:0:
256,192,245158,1,0,0:0:0:0:
402,192,245195,1,0,0:0:0:0:
36,192,245232,1,0,0:0:0:0:
182,192,245232,1,0,0:0:0:0:
329,192,245305,1,0,0:0:0:0:
475,192,245378,1,0,0:0:0:0:
402,192,245378,1,0,0:0:0:0:
182,192,245378,1,0,0:0:0:0:
36,192,245414,1,0,0:0:0:0:
256,192,245451,1,0,0:0:0:0:
109,192,245488,1,0,0:0:0:0:
475,192,245524,1,0,0:0:0:0:
329,192,245524,1,0,0:0:0:0:
182,192,245597,1,0,0:0:0:0:
475,192,245671,1,0,0:0:0:0:
36,192,245671,1,0,0:0:0:0:
109,192,245671,1,0,0:0:0:0:
402,192,245707,1,0,0:0:0:0:
256,192,245744,1,0,0:0:0:0:
329,192,245780,1,0,0:0:0:0:
475,192,245817,1,0,0:0:0:0:
182,192,245817,1,0,0:0:0:0:
36,192,245817,1,0,0:0:0:0:
402,192,245866,1,0,0:0:0:0:
109,192,245890,1,0,0:0:0:0:
329,192,245914,1,0,0:0:0:0:
256,192,245963,1,0,0:0:0:0:
36,192,245963,1,0,0:0:0:0:
182,192,246012,1,0,0:0:0:0:
402,192,246036,1,0,0:0:0:0:
109,192,246061,1,0,0:0:0:0:
36,192,246110,1,0,0:0:0:0:
256,192,246110,1,0,0:0:0:0:
475,192,246110,1,0,0:0:0:0:
109,192,246158,1,0,0:0:0:0:
182,192,246207,1,0,0:0:0:0:
256,192,246256,1,0,0:0:0:0:
475,192,246256,1,0,0:0:0:0:
329,192,246305,1,0,0:0:0:0:
109,192,246354,1,0,0:0:0:0:
402,192,246354,1,0,0:0:0:0:
475,192,246402,1,0,0:0:0:0:
256,192,246402,1,0,0:0:0:0:
36,192,246402,1,0,0:0:0:0:
402,192,246451,1,0,0:0:0:0:
109,192,246475,1,0,0:0:0:0:
329,192,246500,1,0,0:0:0:0:
256,192,246549,1,0,0:0:0:0:
36,192,246549,1,0,0:0:0:0:
182,192,246597,1,0,0:0:0:0:
402,192,246622,1,0,0:0:0:0:
109,192,246646,1,0,0:0:0:0:
329,192,246695,128,0,246914:0:0:0:0:
475,192,246695,128,0,246914:0:0:0:0:
36,192,246695,1,0,0:0:0:0:
182,192,246732,1,0,0:0:0:0:
256,192,246841,1,0,0:0:0:0:
36,192,246988,1,0,0:0:0:0:
475,192,246988,1,0,0:0:0:0:
182,192,246988,1,0,0:0:0:0:
109,192,246988,1,0,0:0:0:0:
402,192,247024,1,0,0:0:0:0:
329,192,247061,1,0,0:0:0:0:
256,192,247097,1,0,0:0:0:0:
36,192,247134,1,0,0:0:0:0:
182,192,247134,1,0,0:0:0:0:
475,192,247134,1,0,0:0:0:0:
329,192,247183,1,0,0:0:0:0:
402,192,247232,1,0,0:0:0:0:
256,192,247280,1,0,0:0:0:0:
475,192,247280,1,0,0:0:0:0:
36,192,247280,1,0,0:0:0:0:
109,192,247317,1,0,0:0:0:0:
182,192,247354,1,0,0:0:0:0:
402,192,247354,1,0,0:0:0:0:
329,192,247390,1,0,0:0:0:0:
109,192,247427,1,0,0:0:0:0:
475,192,247427,1,0,0:0:0:0:
256,192,247500,1,0,0:0:0:0:
36,192,247573,1,0,0:0:0:0:
182,192,247573,1,0,0:0:0:0:
329,192,247610,1,0,0:0:0:0:
402,192,247646,1,0,0:0:0:0:
475,192,247683,1,0,0:0:0:0:
256,192,247719,1,0,0:0:0:0:
36,192,247719,1,0,0:0:0:0:
329,192,247793,1,0,0:0:0:0:
256,192,247866,1,0,0:0:0:0:
402,192,247866,1,0,0:0:0:0:
182,192,247902,1,0,0:0:0:0:
109,192,247939,1,0,0:0:0:0:
36,192,247975,1,0,0:0:0:0:
256,192,248012,1,0,0:0:0:0:
475,192,248012,1,0,0:0:0:0:
402,192,248049,1,0,0:0:0:0:
182,192,248085,1,0,0:0:0:0:
329,192,248158,1,0,0:0:0:0:
475,192,248158,1,0,0:0:0:0:
36,192,248158,1,0,0:0:0:0:
109,192,248195,1,0,0:0:0:0:
256,192,248232,1,0,0:0:0:0:
182,192,248268,1,0,0:0:0:0:
36,192,248305,1,0,0:0:0:0:
402,192,248305,1,0,0:0:0:0:
329,192,248341,1,0,0:0:0:0:
109,192,248378,1,0,0:0:0:0:
182,192,248414,1,0,0:0:0:0:
475,192,248451,1,0,0:0:0:0:
256,192,248451,1,0,0:0:0:0:
256,192,248597,1,0,0:0:0:0:
36,192,248597,1,0,0:0:0:0:
109,192,248597,1,0,0:0:0:0:
329,192,248744,1,0,0:0:0:0:
475,192,248744,1,0,0:0:0:0:
329,192,248890,1,0,0:0:0:0:
182,192,248890,1,0,0:0:0:0:
109,192,248890,1,0,0:0:0:0:
109,192,249036,1,0,0:0:0:0:
475,192,249036,1,0,0:0:0:0:
329,192,249073,1,0,0:0:0:0:
182,192,249110,1,0,0:0:0:0:
402,192,249146,1,0,0:0:0:0:
256,192,249183,1,0,0:0:0:0:
36,192,249183,1,0,0:0:0:0:
109,192,249219,1,0,0:0:0:0:
329,192,249256,1,0,0:0:0:0:
182,192,249293,1,0,0:0:0:0:
36,192,249329,1,0,0:0:0:0:
475,192,249329,1,0,0:0:0:0:
402,192,249329,1,0,0:0:0:0:
109,192,249366,1,0,0:0:0:0:
182,192,249402,1,0,0:0:0:0:
256,192,249439,1,0,0:0:0:0:
329,192,249475,1,0,0:0:0:0:
475,192,249475,1,0,0:0:0:0:
109,192,249524,1,0,0:0:0:0:
402,192,249573,1,0,0:0:0:0:
182,192,249622,1,0,0:0:0:0:
36,192,249622,1,0,0:0:0:0:
329,192,249695,1,0,0:0:0:0:
256,192,249768,1,0,0:0:0:0:
475,192,249768,1,0,0:0:0:0:
109,192,249768,1,0,0:0:0:0:
36,192,249805,1,0,0:0:0:0:
329,192,249841,1,0,0:0:0:0:
182,192,249878,1,0,0:0:0:0:
109,192,249914,1,0,0:0:0:0:
402,192,249914,1,0,0:0:0:0:
329,192,249951,1,0,0:0:0:0:
182,192,249988,1,0,0:0:0:0:
475,192,250024,1,0,0:0:0:0:
402,192,250061,1,0,0:0:0:0:
256,192,250061,1,0,0:0:0:0:
36,192,250061,1,0,0:0:0:0:
109,192,250134,1,0,0:0:0:0:
329,192,250207,1,0,0:0:0:0:
475,192,250207,1,0,0:0:0:0:
182,192,250244,1,0,0:0:0:0:
109,192,250280,1,0,0:0:0:0:
36,192,250317,1,0,0:0:0:0:
256,192,250354,1,0,0:0:0:0:
475,192,250354,1,0,0:0:0:0:
402,192,250402,1,0,0:0:0:0:
329,192,250451,1,0,0:0:0:0:
36,192,250500,1,0,0:0:0:0:
182,192,250500,1,0,0:0:0:0:
256,192,250536,1,0,0:0:0:0:
329,192,250573,1,0,0:0:0:0:
402,192,250610,1,0,0:0:0:0:
109,192,250646,1,0,0:0:0:0:
475,192,250646,1,0,0:0:0:0:
256,192,250695,1,0,0:0:0:0:
402,192,250744,1,0,0:0:0:0:
36,192,250793,1,0,0:0:0:0:
329,192,250793,1,0,0:0:0:0:
109,192,250841,1,0,0:0:0:0:
36,192,250890,1,0,0:0:0:0:
329,192,250939,1,0,0:0:0:0:
256,192,250939,1,0,0:0:0:0:
182,192,250939,1,0,0:0:0:0:
36,192,251085,1,0,0:0:0:0:
402,192,251085,1,0,0:0:0:0:
109,192,251122,1,0,0:0:0:0:
182,192,251158,1,0,0:0:0:0:
109,192,251195,1,0,0:0:0:0:
36,192,251232,1,0,0:0:0:0:
402,192,251232,1,0,0:0:0:0:
256,192,251232,1,0,0:0:0:0:
475,192,251378,1,0,0:0:0:0:
109,192,251378,1,0,0:0:0:0:
329,192,251414,1,0,0:0:0:0:
182,192,251451,1,0,0:0:0:0:
402,192,251488,1,0,0:0:0:0:
256,192,251524,1,0,0:0:0:0:
36,192,251524,1,0,0:0:0:0:
109,192,251561,1,0,0:0:0:0:
329,192,251597,1,0,0:0:0:0:
182,192,251634,1,0,0:0:0:0:
36,192,251671,1,0,0:0:0:0:
475,192,251671,1,0,0:0:0:0:
402,192,251671,1,0,0:0:0:0:
256,192,251707,1,0,0:0:0:0:
182,192,251744,1,0,0:0:0:0:
109,192,251780,1,0,0:0:0:0:
329,192,251817,1,0,0:0:0:0:
475,192,251817,1,0,0:0:0:0:
256,192,251854,1,0,0:0:0:0:
182,192,251890,1,0,0:0:0:0:
402,192,251927,1,0,0:0:0:0:
36,192,251963,1,0,0:0:0:0:
329,192,251963,1,0,0:0:0:0:
256,192,252036,1,0,0:0:0:0:
475,192,252110,1,0,0:0:0:0:
402,192,252110,1,0,0:0:0:0:
109,192,252110,1,0,0:0:0:0:
256,192,252158,1,0,0:0:0:0:
329,192,252207,1,0,0:0:0:0:
475,192,252256,1,0,0:0:0:0:
182,192,252256,1,0,0:0:0:0:
402,192,252329,1,0,0:0:0:0:
329,192,252402,1,0,0:0:0:0:
182,192,252402,1,0,0:0:0:0:
36,192,252402,1,0,0:0:0:0:
402,192,252451,1,0,0:0:0:0:
475,192,252500,1,0,0:0:0:0:
256,192,252549,1,0,0:0:0:0:
109,192,252549,1,0,0:0:0:0:
329,192,252573,1,0,0:0:0:0:
402,192,252597,1,0,0:0:0:0:
475,192,252622,1,0,0:0:0:0:
36,192,252622,1,0,0:0:0:0:
109,192,252658,1,0,0:0:0:0:
329,192,252695,1,0,0:0:0:0:
182,192,252695,1,0,0:0:0:0:
402,192,252768,1,0,0:0:0:0:
109,192,252841,1,0,0:0:0:0:
475,192,252841,1,0,0:0:0:0:
329,192,252878,1,0,0:0:0:0:
256,192,252914,1,0,0:0:0:0:
182,192,252951,1,0,0:0:0:0:
36,192,252988,1,0,0:0:0:0:
402,192,252988,1,0,0:0:0:0:
329,192,253061,1,0,0:0:0:0:
36,192,253134,1,0,0:0:0:0:
402,192,253134,1,0,0:0:0:0:
109,192,253171,1,0,0:0:0:0:
182,192,253207,1,0,0:0:0:0:
256,192,253244,1,0,0:0:0:0:
329,192,253280,1,0,0:0:0:0:
475,192,253280,1,0,0:0:0:0:
182,192,253354,1,0,0:0:0:0:
36,192,253427,1,0,0:0:0:0:
402,192,253427,1,0,0:0:0:0:
256,192,253463,1,0,0:0:0:0:
475,192,253500,1,0,0:0:0:0:
182,192,253500,1,0,0:0:0:0:
109,192,253536,1,0,0:0:0:0:
36,192,253573,1,0,0:0:0:0:
402,192,253573,1,0,0:0:0:0:
329,192,253646,1,0,0:0:0:0:
109,192,253719,1,0,0:0:0:0:
475,192,253719,1,0,0:0:0:0:
256,192,253756,1,0,0:0:0:0:
36,192,253793,1,0,0:0:0:0:
329,192,253793,1,0,0:0:0:0:
402,192,253829,1,0,0:0:0:0:
475,192,253866,1,0,0:0:0:0:
109,192,253866,1,0,0:0:0:0:
182,192,253939,1,0,0:0:0:0:
402,192,254012,1,0,0:0:0:0:
36,192,254012,1,0,0:0:0:0:
109,192,254049,1,0,0:0:0:0:
182,192,254085,1,0,0:0:0:0:
475,192,254085,1,0,0:0:0:0:
256,192,254122,1,0,0:0:0:0:
329,192,254158,1,0,0:0:0:0:
36,192,254158,1,0,0:0:0:0:
256,192,254232,1,0,0:0:0:0:
402,192,254305,1,0,0:0:0:0:
109,192,254305,1,0,0:0:0:0:
182,192,254341,1,0,0:0:0:0:
256,192,254378,1,0,0:0:0:0:
475,192,254378,1,0,0:0:0:0:
329,192,254414,1,0,0:0:0:0:
402,192,254451,1,0,0:0:0:0:
109,192,254451,1,0,0:0:0:0:
329,192,254524,1,0,0:0:0:0:
182,192,254597,1,0,0:0:0:0:
475,192,254597,1,0,0:0:0:0:
36,192,254597,1,0,0:0:0:0:
256,192,254634,1,0,0:0:0:0:
329,192,254671,1,0,0:0:0:0:
109,192,254671,1,0,0:0:0:0:
402,192,254707,1,0,0:0:0:0:
475,192,254744,1,0,0:0:0:0:
182,192,254744,1,0,0:0:0:0:
256,192,254817,1,0,0:0:0:0:
36,192,254817,1,0,0:0:0:0:
402,192,254890,1,0,0:0:0:0:
109,192,254890,1,0,0:0:0:0:
329,192,254927,1,0,0:0:0:0:
256,192,254963,1,0,0:0:0:0:
36,192,254963,1,0,0:0:0:0:
182,192,255000,1,0,0:0:0:0:
109,192,255036,1,0,0:0:0:0:
402,192,255036,1,0,0:0:0:0:
182,192,255110,1,0,0:0:0:0:
475,192,255110,1,0,0:0:0:0:
329,192,255183,1,0,0:0:0:0:
36,192,255183,1,0,0:0:0:0:
256,192,255219,1,0,0:0:0:0:
182,192,255256,1,0,0:0:0:0:
109,192,255293,1,0,0:0:0:0:
36,192,255329,1,0,0:0:0:0:
329,192,255329,1,0,0:0:0:0:
475,192,255402,1,0,0:0:0:0:
256,192,255427,1,0,0:0:0:0:
109,192,255475,1,0,0:0:0:0:
402,192,255475,1,0,0:0:0:0:
182,192,255524,1,0,0:0:0:0:
329,192,255549,1,0,0:0:0:0:
109,192,255573,1,0,0:0:0:0:
402,192,255622,1,0,0:0:0:0:
329,192,255695,1,0,0:0:0:0:
256,192,255768,1,0,0:0:0:0:
475,192,255768,1,0,0:0:0:0:
402,192,255805,1,0,0:0:0:0:
109,192,255841,1,0,0:0:0:0:
329,192,255841,1,0,0:0:0:0:
256,192,255878,1,0,0:0:0:0:
182,192,255914,1,0,0:0:0:0:
402,192,255914,1,0,0:0:0:0:
109,192,255988,1,0,0:0:0:0:
475,192,255988,1,0,0:0:0:0:
329,192,256024,1,0,0:0:0:0:
36,192,256061,1,0,0:0:0:0:
256,192,256061,1,0,0:0:0:0:
182,192,256097,1,0,0:0:0:0:
109,192,256134,1,0,0:0:0:0:
329,192,256134,1,0,0:0:0:0:
36,192,256207,1,0,0:0:0:0:
256,192,256244,1,0,0:0:0:0:
329,192,256280,1,0,0:0:0:0:
109,192,256280,1,0,0:0:0:0:
402,192,256317,1,0,0:0:0:0:
475,192,256354,1,0,0:0:0:0:
256,192,256354,128,0,256573:0:0:0:0:
182,192,256354,128,0,256500:0:0:0:0:
36,192,256354,128,0,256719:0:0:0:0:
329,192,256646,1,0,0:0:0:0:
475,192,256646,1,0,0:0:0:0:
109,192,256646,1,0,0:0:0:0:
402,192,256646,128,0,256719:0:0:0:0:
256,192,256646,1,0,0:0:0:0:
402,192,256793,128,0,256866:0:0:0:0:
36,192,256793,128,0,257158:0:0:0:0:
402,192,256939,128,0,257012:0:0:0:0:
256,192,256939,1,0,0:0:0:0:
182,192,256939,1,0,0:0:0:0:
402,192,257085,128,0,257158:0:0:0:0:
182,192,257085,1,0,0:0:0:0:
182,192,257232,128,0,257451:0:0:0:0:
329,192,257232,1,0,0:0:0:0:
109,192,257232,1,0,0:0:0:0:
36,192,257232,1,0,0:0:0:0:
475,192,257232,1,0,0:0:0:0:
402,192,257232,128,0,257305:0:0:0:0:
402,192,257378,128,0,257451:0:0:0:0:
402,192,257524,128,0,257744:0:0:0:0:
475,192,257524,128,0,257671:0:0:0:0:
256,192,257524,1,0,0:0:0:0:
109,192,257524,1,0,0:0:0:0:
36,192,257524,128,0,257890:0:0:0:0:
182,192,257817,1,0,0:0:0:0:
256,192,257817,1,0,0:0:0:0:
475,192,257817,1,0,0:0:0:0:
109,192,257817,1,0,0:0:0:0:
329,192,257817,128,0,257890:0:0:0:0:
329,192,257963,128,0,258183:0:0:0:0:
36,192,257963,1,0,0:0:0:0:
475,192,257963,128,0,258256:0:0:0:0:
109,192,257963,128,0,258329:0:0:0:0:
256,192,258110,1,0,0:0:0:0:
182,192,258256,1,0,0:0:0:0:
36,192,258256,1,0,0:0:0:0:
402,192,258256,128,0,258402:0:0:0:0:
329,192,258402,128,0,258549:0:0:0:0:
256,192,258402,1,0,0:0:0:0:
475,192,258402,1,0,0:0:0:0:
109,192,258402,1,0,0:0:0:0:
36,192,258402,1,0,0:0:0:0:
182,192,258402,128,0,258622:0:0:0:0:
475,192,258549,128,0,258695:0:0:0:0:
109,192,258695,128,0,259719:0:0:0:0:
36,192,258695,128,0,258841:0:0:0:0:
182,192,258695,1,0,0:0:0:0:
402,192,258695,1,0,0:0:0:0:
256,192,258695,128,0,258914:0:0:0:0:
329,192,258988,128,0,259061:0:0:0:0:
182,192,258988,1,0,0:0:0:0:
402,192,258988,1,0,0:0:0:0:
475,192,258988,1,0,0:0:0:0:
36,192,258988,1,0,0:0:0:0:
329,192,259134,128,0,259207:0:0:0:0:
329,192,259280,128,0,259354:0:0:0:0:
475,192,259280,1,0,0:0:0:0:
329,192,259427,128,0,259500:0:0:0:0:
36,192,259427,1,0,0:0:0:0:
256,192,259427,1,0,0:0:0:0:
329,192,259573,128,0,259646:0:0:0:0:
402,192,259573,1,0,0:0:0:0:
475,192,259573,1,0,0:0:0:0:
182,192,259573,1,0,0:0:0:0:
36,192,259573,1,0,0:0:0:0:
329,192,259719,128,0,259793:0:0:0:0:
256,192,259866,128,0,260085:0:0:0:0:
182,192,259866,128,0,260012:0:0:0:0:
36,192,259866,1,0,0:0:0:0:
402,192,259866,1,0,0:0:0:0:
402,192,260012,128,0,260085:0:0:0:0:
475,192,260012,1,0,0:0:0:0:
109,192,260012,1,0,0:0:0:0:
402,192,260158,128,0,260232:0:0:0:0:
475,192,260158,1,0,0:0:0:0:
329,192,260158,1,0,0:0:0:0:
182,192,260158,1,0,0:0:0:0:
36,192,260158,1,0,0:0:0:0:
329,192,260305,128,0,260451:0:0:0:0:
256,192,260305,128,0,260524:0:0:0:0:
36,192,260305,1,0,0:0:0:0:
402,192,260451,1,0,0:0:0:0:
109,192,260451,128,0,260671:0:0:0:0:
402,192,260597,128,0,260890:0:0:0:0:
329,192,260597,1,0,0:0:0:0:
182,192,260597,1,0,0:0:0:0:
329,192,260744,128,0,261036:0:0:0:0:
475,192,260744,1,0,0:0:0:0:
109,192,260744,1,0,0:0:0:0:
36,192,260744,1,0,0:0:0:0:
256,192,260744,1,0,0:0:0:0:
182,192,260744,128,0,260963:0:0:0:0:
109,192,261036,128,0,261256:0:0:0:0:
36,192,261036,128,0,261183:0:0:0:0:
402,192,261036,128,0,261110:0:0:0:0:
475,192,261036,128,0,261110:0:0:0:0:
182,192,261036,1,0,0:0:0:0:
256,192,261036,128,0,261402:0:0:0:0:
402,192,261329,128,0,261402:0:0:0:0:
329,192,261329,1,0,0:0:0:0:
475,192,261329,1,0,0:0:0:0:
182,192,261329,1,0,0:0:0:0:
36,192,261329,1,0,0:0:0:0:
402,192,261475,128,0,261549:0:0:0:0:
109,192,261475,128,0,261841:0:0:0:0:
402,192,261622,128,0,261695:0:0:0:0:
256,192,261622,1,0,0:0:0:0:
475,192,261622,1,0,0:0:0:0:
182,192,261622,1,0,0:0:0:0:
402,192,261768,128,0,261841:0:0:0:0:
256,192,261768,1,0,0:0:0:0:
475,192,261768,1,0,0:0:0:0:
402,192,261914,128,0,261988:0:0:0:0:
475,192,261914,1,0,0:0:0:0:
36,192,261914,1,0,0:0:0:0:
256,192,261914,1,0,0:0:0:0:
329,192,261914,1,0,0:0:0:0:
109,192,261914,128,0,262134:0:0:0:0:
402,192,262061,128,0,262134:0:0:0:0:
109,192,262207,1,0,0:0:0:0:
256,192,262207,128,0,262354:0:0:0:0:
36,192,262207,128,0,262427:0:0:0:0:
329,192,262207,128,0,262280:0:0:0:0:
475,192,262207,128,0,262280:0:0:0:0:
182,192,262207,128,0,262573:0:0:0:0:
329,192,262500,128,0,262573:0:0:0:0:
256,192,262500,1,0,0:0:0:0:
109,192,262500,1,0,0:0:0:0:
402,192,262500,1,0,0:0:0:0:
475,192,262500,1,0,0:0:0:0:
329,192,262646,128,0,262719:0:0:0:0:
109,192,262646,1,0,0:0:0:0:
475,192,262646,1,0,0:0:0:0:
36,192,262646,128,0,263012:0:0:0:0:
329,192,262793,128,0,262866:0:0:0:0:
182,192,262793,1,0,0:0:0:0:
329,192,262939,128,0,263012:0:0:0:0:
256,192,262939,1,0,0:0:0:0:
475,192,262939,1,0,0:0:0:0:
329,192,263085,128,0,263158:0:0:0:0:
475,192,263085,1,0,0:0:0:0:
256,192,263085,1,0,0:0:0:0:
109,192,263085,1,0,0:0:0:0:
36,192,263085,1,0,0:0:0:0:
182,192,263085,128,0,263305:0:0:0:0:
329,192,263232,128,0,263305:0:0:0:0:
109,192,263378,128,0,264549:0:0:0:0:
36,192,263378,1,0,0:0:0:0:
475,192,263378,128,0,263451:0:0:0:0:
256,192,263378,128,0,263451:0:0:0:0:
402,192,263378,128,0,263451:0:0:0:0:
475,192,263524,128,0,263597:0:0:0:0:
329,192,263671,128,0,263890:0:0:0:0:
182,192,263671,128,0,263817:0:0:0:0:
256,192,263671,1,0,0:0:0:0:
36,192,263671,1,0,0:0:0:0:
475,192,263671,1,0,0:0:0:0:
402,192,263963,128,0,264036:0:0:0:0:
256,192,263963,1,0,0:0:0:0:
256,192,264110,128,0,264256:0:0:0:0:
402,192,264110,128,0,264402:0:0:0:0:
36,192,264110,1,0,0:0:0:0:
182,192,264256,1,0,0:0:0:0:
329,192,264256,1,0,0:0:0:0:
36,192,264256,1,0,0:0:0:0:
475,192,264256,1,0,0:0:0:0:
329,192,264402,128,0,264695:0:0:0:0:
182,192,264402,1,0,0:0:0:0:
475,192,264402,1,0,0:0:0:0:
402,192,264549,1,0,0:0:0:0:
475,192,264695,128,0,264841:0:0:0:0:
256,192,264695,1,0,0:0:0:0:
109,192,264695,1,0,0:0:0:0:
256,192,264841,1,0,0:0:0:0:
182,192,264841,1,0,0:0:0:0:
109,192,264841,1,0,0:0:0:0:
36,192,264841,1,0,0:0:0:0:
329,192,264841,128,0,265061:0:0:0:0:
475,192,264988,1,0,0:0:0:0:
182,192,264988,128,0,265061:0:0:0:0:
36,192,264988,1,0,0:0:0:0:
402,192,265134,1,0,0:0:0:0:
475,192,265134,1,0,0:0:0:0:
109,192,265134,128,0,265207:0:0:0:0:
256,192,265207,1,0,0:0:0:0:
182,192,265207,1,0,0:0:0:0:
36,192,265280,128,0,265354:0:0:0:0:
329,192,265280,1,0,0:0:0:0:
402,192,265280,1,0,0:0:0:0:
182,192,265354,1,0,0:0:0:0:
109,192,265354,1,0,0:0:0:0:
256,192,265427,1,0,0:0:0:0:
329,192,265427,1,0,0:0:0:0:
475,192,265427,1,0,0:0:0:0:
402,192,265427,128,0,265646:0:0:0:0:
36,192,265427,1,0,0:0:0:0:
256,192,265573,128,0,265646:0:0:0:0:
256,192,265719,128,0,265939:0:0:0:0:
329,192,265719,128,0,265866:0:0:0:0:
182,192,265719,1,0,0:0:0:0:
109,192,265719,128,0,265793:0:0:0:0:
36,192,265719,128,0,265793:0:0:0:0:
475,192,265719,128,0,266085:0:0:0:0:
182,192,266012,1,0,0:0:0:0:
36,192,266012,1,0,0:0:0:0:
402,192,266012,1,0,0:0:0:0:
109,192,266012,128,0,266085:0:0:0:0:
256,192,266012,1,0,0:0:0:0:
109,192,266158,128,0,266232:0:0:0:0:
475,192,266158,128,0,266524:0:0:0:0:
109,192,266305,128,0,266378:0:0:0:0:
256,192,266305,1,0,0:0:0:0:
329,192,266305,1,0,0:0:0:0:
109,192,266451,128,0,266524:0:0:0:0:
329,192,266451,1,0,0:0:0:0:
182,192,266597,1,0,0:0:0:0:
402,192,266597,1,0,0:0:0:0:
475,192,266597,1,0,0:0:0:0:
36,192,266597,1,0,0:0:0:0:
109,192,266597,128,0,266671:0:0:0:0:
329,192,266597,128,0,266817:0:0:0:0:
109,192,266744,128,0,266817:0:0:0:0:
109,192,266890,128,0,267110:0:0:0:0:
36,192,266890,128,0,267036:0:0:0:0:
256,192,266890,1,0,0:0:0:0:
402,192,266890,1,0,0:0:0:0:
475,192,266890,128,0,267256:0:0:0:0:
329,192,267183,1,0,0:0:0:0:
256,192,267183,1,0,0:0:0:0:
36,192,267183,1,0,0:0:0:0:
402,192,267183,1,0,0:0:0:0:
182,192,267183,128,0,267256:0:0:0:0:
182,192,267329,128,0,267549:0:0:0:0:
329,192,267329,1,0,0:0:0:0:
36,192,267329,128,0,267622:0:0:0:0:
402,192,267329,128,0,267695:0:0:0:0:
256,192,267475,1,0,0:0:0:0:
329,192,267622,1,0,0:0:0:0:
475,192,267622,1,0,0:0:0:0:
109,192,267622,128,0,267768:0:0:0:0:
182,192,267768,128,0,267914:0:0:0:0:
256,192,267768,1,0,0:0:0:0:
36,192,267768,1,0,0:0:0:0:
402,192,267768,1,0,0:0:0:0:
475,192,267768,1,0,0:0:0:0:
329,192,267768,128,0,267988:0:0:0:0:
36,192,267914,128,0,268061:0:0:0:0:
402,192,268061,128,0,269085:0:0:0:0:
475,192,268061,128,0,268207:0:0:0:0:
329,192,268061,1,0,0:0:0:0:
109,192,268061,1,0,0:0:0:0:
256,192,268061,128,0,268280:0:0:0:0:
182,192,268354,128,0,268427:0:0:0:0:
329,192,268354,1,0,0:0:0:0:
109,192,268354,1,0,0:0:0:0:
36,192,268354,1,0,0:0:0:0:
475,192,268354,1,0,0:0:0:0:
182,192,268500,128,0,268573:0:0:0:0:
182,192,268646,128,0,268719:0:0:0:0:
36,192,268646,1,0,0:0:0:0:
182,192,268793,128,0,268866:0:0:0:0:
475,192,268793,1,0,0:0:0:0:
256,192,268793,1,0,0:0:0:0:
182,192,268939,128,0,269012:0:0:0:0:
109,192,268939,1,0,0:0:0:0:
36,192,268939,1,0,0:0:0:0:
475,192,268939,1,0,0:0:0:0:
329,192,268939,128,0,269305:0:0:0:0:
182,192,269085,128,0,269158:0:0:0:0:
402,192,269232,128,0,269451:0:0:0:0:
109,192,269232,128,0,269378:0:0:0:0:
36,192,269232,128,0,269451:0:0:0:0:
256,192,269232,1,0,0:0:0:0:
475,192,269232,1,0,0:0:0:0:
256,192,269378,128,0,269451:0:0:0:0:
329,192,269378,1,0,0:0:0:0:
182,192,269378,1,0,0:0:0:0:
182,192,269524,128,0,269597:0:0:0:0:
256,192,269524,128,0,269597:0:0:0:0:
475,192,269524,1,0,0:0:0:0:
109,192,269524,1,0,0:0:0:0:
36,192,269524,1,0,0:0:0:0:
109,192,269671,128,0,269817:0:0:0:0:
182,192,269671,128,0,269890:0:0:0:0:
329,192,269671,1,0,0:0:0:0:
475,192,269671,1,0,0:0:0:0:
402,192,269817,128,0,270036:0:0:0:0:
36,192,269817,1,0,0:0:0:0:
256,192,269817,128,0,269890:0:0:0:0:
109,192,269963,128,0,270256:0:0:0:0:
182,192,269963,1,0,0:0:0:0:
329,192,269963,1,0,0:0:0:0:
329,192,270110,128,0,270329:0:0:0:0:
182,192,270110,128,0,270402:0:0:0:0:
36,192,270110,1,0,0:0:0:0:
402,192,270110,1,0,0:0:0:0:
475,192,270110,1,0,0:0:0:0:
256,192,270110,1,0,0:0:0:0:
256,192,270402,128,0,270768:0:0:0:0:
329,192,270402,1,0,0:0:0:0:
402,192,270402,128,0,270622:0:0:0:0:
475,192,270402,128,0,270549:0:0:0:0:
109,192,270402,128,0,270475:0:0:0:0:
36,192,270402,128,0,270475:0:0:0:0:
109,192,270695,128,0,270768:0:0:0:0:
182,192,270695,1,0,0:0:0:0:
36,192,270695,1,0,0:0:0:0:
329,192,270695,1,0,0:0:0:0:
475,192,270695,1,0,0:0:0:0:
109,192,270841,128,0,270914:0:0:0:0:
402,192,270841,128,0,271207:0:0:0:0:
109,192,270988,128,0,271061:0:0:0:0:
256,192,270988,1,0,0:0:0:0:
36,192,270988,1,0,0:0:0:0:
329,192,270988,1,0,0:0:0:0:
109,192,271134,128,0,271207:0:0:0:0:
256,192,271134,1,0,0:0:0:0:
36,192,271134,1,0,0:0:0:0:
109,192,271280,128,0,271354:0:0:0:0:
402,192,271280,128,0,271500:0:0:0:0:
36,192,271280,1,0,0:0:0:0:
475,192,271280,1,0,0:0:0:0:
256,192,271280,1,0,0:0:0:0:
182,192,271280,1,0,0:0:0:0:
109,192,271427,128,0,271500:0:0:0:0:
329,192,271573,128,0,271939:0:0:0:0:
402,192,271573,1,0,0:0:0:0:
256,192,271573,128,0,271719:0:0:0:0:
475,192,271573,128,0,271793:0:0:0:0:
182,192,271573,128,0,271646:0:0:0:0:
36,192,271573,128,0,271646:0:0:0:0:
182,192,271866,128,0,271939:0:0:0:0:
256,192,271866,1,0,0:0:0:0:
402,192,271866,1,0,0:0:0:0:
109,192,271866,1,0,0:0:0:0:
36,192,271866,1,0,0:0:0:0:
475,192,272012,128,0,272378:0:0:0:0:
182,192,272012,128,0,272085:0:0:0:0:
402,192,272012,1,0,0:0:0:0:
36,192,272012,1,0,0:0:0:0:
182,192,272158,128,0,272232:0:0:0:0:
329,192,272158,1,0,0:0:0:0:
182,192,272305,128,0,272378:0:0:0:0:
256,192,272305,1,0,0:0:0:0:
36,192,272305,1,0,0:0:0:0:
329,192,272451,128,0,272671:0:0:0:0:
182,192,272451,128,0,272524:0:0:0:0:
36,192,272451,1,0,0:0:0:0:
256,192,272451,1,0,0:0:0:0:
402,192,272451,1,0,0:0:0:0:
475,192,272451,1,0,0:0:0:0:
182,192,272597,128,0,272671:0:0:0:0:
402,192,272744,128,0,273695:0:0:0:0:
475,192,272744,1,0,0:0:0:0:
36,192,272744,128,0,272817:0:0:0:0:
256,192,272744,128,0,272817:0:0:0:0:
109,192,272744,128,0,272817:0:0:0:0:
36,192,272890,128,0,272963:0:0:0:0:
182,192,273036,128,0,273256:0:0:0:0:
329,192,273036,128,0,273183:0:0:0:0:
256,192,273036,1,0,0:0:0:0:
475,192,273036,1,0,0:0:0:0:
36,192,273036,1,0,0:0:0:0:
109,192,273329,128,0,273402:0:0:0:0:
256,192,273329,1,0,0:0:0:0:
256,192,273475,128,0,273622:0:0:0:0:
109,192,273475,128,0,273768:0:0:0:0:
475,192,273475,1,0,0:0:0:0:
329,192,273622,1,0,0:0:0:0:
182,192,273622,1,0,0:0:0:0:
475,192,273622,1,0,0:0:0:0:
36,192,273622,1,0,0:0:0:0:
182,192,273768,128,0,274061:0:0:0:0:
36,192,273768,1,0,0:0:0:0:
256,192,273768,128,0,273841:0:0:0:0:
402,192,273768,128,0,273841:0:0:0:0:
475,192,273768,128,0,273841:0:0:0:0:
329,192,273768,128,0,273841:0:0:0:0:
36,192,274061,128,0,274207:0:0:0:0:
402,192,274061,1,0,0:0:0:0:
329,192,274110,1,0,0:0:0:0:
182,192,274207,128,0,274354:0:0:0:0:
402,192,274207,1,0,0:0:0:0:
329,192,274354,128,0,274427:0:0:0:0:
36,192,274354,1,0,0:0:0:0:
402,192,274500,128,0,274719:0:0:0:0:
109,192,274500,1,0,0:0:0:0:
182,192,274549,1,0,0:0:0:0:
329,192,274646,128,0,274719:0:0:0:0:
109,192,274646,1,0,0:0:0:0:
475,192,274793,128,0,275012:0:0:0:0:
182,192,274793,1,0,0:0:0:0:
256,192,274841,1,0,0:0:0:0:
402,192,274939,128,0,275012:0:0:0:0:
182,192,274939,1,0,0:0:0:0:
256,192,275085,1,0,0:0:0:0:
36,192,275085,1,0,0:0:0:0:
475,192,275085,1,0,0:0:0:0:
109,192,275232,1,0,0:0:0:0:
182,192,275378,1,0,0:0:0:0:
109,192,275524,1,0,0:0:0:0:
402,192,275671,1,0,0:0:0:0:
256,192,275671,1,0,0:0:0:0:
36,192,275817,1,0,0:0:0:0:
182,192,275963,1,0,0:0:0:0:
329,192,276110,1,0,0:0:0:0:
256,192,276256,1,0,0:0:0:0:
475,192,276256,1,0,0:0:0:0:
402,192,276402,1,0,0:0:0:0:
256,192,276549,1,0,0:0:0:0:
182,192,276695,1,0,0:0:0:0:
329,192,276841,1,0,0:0:0:0:
109,192,276841,1,0,0:0:0:0:
402,192,276988,1,0,0:0:0:0:
182,192,277134,1,0,0:0:0:0:
475,192,277280,1,0,0:0:0:0:
402,192,277427,1,0,0:0:0:0:
256,192,277427,1,0,0:0:0:0:
182,192,277573,1,0,0:0:0:0:
109,192,277719,1,0,0:0:0:0:
36,192,277866,1,0,0:0:0:0:
182,192,278012,1,0,0:0:0:0:
329,192,278012,1,0,0:0:0:0:
36,192,278158,1,0,0:0:0:0:
256,192,278305,1,0,0:0:0:0:
402,192,278451,1,0,0:0:0:0:
109,192,278597,1,0,0:0:0:0:
475,192,278597,1,0,0:0:0:0:
402,192,278744,1,0,0:0:0:0:
329,192,278890,1,0,0:0:0:0:
256,192,279036,1,0,0:0:0:0:
182,192,279183,1,0,0:0:0:0:
402,192,279183,1,0,0:0:0:0:
36,192,279329,1,0,0:0:0:0:
182,192,279475,1,0,0:0:0:0:
329,192,279622,1,0,0:0:0:0:
256,192,279768,1,0,0:0:0:0:
475,192,279768,1,0,0:0:0:0:
109,192,279914,1,0,0:0:0:0:
182,192,280061,1,0,0:0:0:0:
109,192,280207,1,0,0:0:0:0:
402,192,280354,1,0,0:0:0:0:
256,192,280354,1,0,0:0:0:0:
36,192,280500,1,0,0:0:0:0:
182,192,280646,1,0,0:0:0:0:
329,192,280793,1,0,0:0:0:0:
256,192,280939,1,0,0:0:0:0:
475,192,280939,1,0,0:0:0:0:
402,192,281085,1,0,0:0:0:0:
256,192,281232,1,0,0:0:0:0:
182,192,281378,1,0,0:0:0:0:
329,192,281524,1,0,0:0:0:0:
109,192,281524,1,0,0:0:0:0:
402,192,281671,1,0,0:0:0:0:
182,192,281817,1,0,0:0:0:0:
475,192,281963,1,0,0:0:0:0:
402,192,282110,1,0,0:0:0:0:
256,192,282110,1,0,0:0:0:0:
182,192,282256,1,0,0:0:0:0:
109,192,282402,1,0,0:0:0:0:
36,192,282549,1,0,0:0:0:0:
182,192,282695,1,0,0:0:0:0:
329,192,282695,1,0,0:0:0:0:
36,192,282841,1,0,0:0:0:0:
256,192,282988,1,0,0:0:0:0:
402,192,283134,1,0,0:0:0:0:
475,192,283280,1,0,0:0:0:0:
36,192,283280,1,0,0:0:0:0:
256,192,283280,128,0,283354:0:0:0:0:
109,192,283354,1,0,0:0:0:0:
475,192,283427,128,0,283939:0:0:0:0:
402,192,283427,1,0,0:0:0:0:
329,192,283573,1,0,0:0:0:0:
402,192,283573,128,0,283975:0:0:0:0:
256,192,283719,1,0,0:0:0:0:
329,192,283719,128,0,284378:0:0:0:0:
182,192,283866,1,0,0:0:0:0:
256,192,283866,128,0,284378:0:0:0:0:
109,192,284012,1,0,0:0:0:0:
182,192,284012,128,0,284378:0:0:0:0:
475,192,284012,1,0,0:0:0:0:
402,192,284061,1,0,0:0:0:0:
36,192,284158,1,0,0:0:0:0:
109,192,284158,128,0,284378:0:0:0:0:
475,192,284158,128,0,284378:0:0:0:0:
36,192,284305,128,0,284378:0:0:0:0:
402,192,284305,1,0,0:0:0:0:
109,192,284451,1,0,0:0:0:0:
182,192,284451,128,0,284914:0:0:0:0:
256,192,284451,128,0,284939:0:0:0:0:
329,192,284451,128,0,284963:0:0:0:0:
36,192,284451,128,0,284890:0:0:0:0:
475,192,284451,128,0,284963:0:0:0:0:
402,192,284451,128,0,285500:0:0:0:0:
329,192,285036,128,0,285524:0:0:0:0:
475,192,285036,128,0,285475:0:0:0:0:
256,192,285036,128,0,285549:0:0:0:0:
36,192,285036,128,0,285549:0:0:0:0:
109,192,285036,128,0,286116:0:0:0:0:
182,192,285036,1,0,0:0:0:0:
36,192,285622,128,0,286134:0:0:0:0:
256,192,285622,128,0,286079:0:0:0:0:
182,192,285622,128,0,286097:0:0:0:0:
475,192,285622,128,0,286719:0:0:0:0:
329,192,285622,128,0,286061:0:0:0:0:
402,192,285622,1,0,0:0:0:0:
256,192,286207,128,0,286664:0:0:0:0:
329,192,286207,128,0,286683:0:0:0:0:
182,192,286207,128,0,286646:0:0:0:0:
36,192,286207,128,0,287232:0:0:0:0:
402,192,286207,128,0,286701:0:0:0:0:
109,192,286207,1,0,0:0:0:0:
256,192,286793,1,0,0:0:0:0:
109,192,286793,128,0,287268:0:0:0:0:
182,192,286793,128,0,287305:0:0:0:0:
402,192,286793,128,0,287305:0:0:0:0:
475,192,286793,128,0,287305:0:0:0:0:
329,192,286793,128,0,287817:0:0:0:0:
109,192,287378,128,0,287890:0:0:0:0:
36,192,287378,128,0,287890:0:0:0:0:
475,192,287378,128,0,287890:0:0:0:0:
402,192,287378,1,0,0:0:0:0:
256,192,287378,128,0,287854:0:0:0:0:
182,192,287378,128,0,288329:0:0:0:0:
329,192,287963,1,0,0:0:0:0:
109,192,287963,128,0,288183:0:0:0:0:
256,192,287963,128,0,288036:0:0:0:0:
402,192,287963,128,0,288036:0:0:0:0:
475,192,287963,128,0,288036:0:0:0:0:
36,192,287963,1,0,0:0:0:0:
402,192,288110,128,0,288256:0:0:0:0:
475,192,288110,128,0,288256:0:0:0:0:
256,192,288110,128,0,288256:0:0:0:0:
36,192,288256,128,0,288402:0:0:0:0:
182,192,288402,1,0,0:0:0:0:
402,192,288402,128,0,288475:0:0:0:0:
475,192,288402,128,0,288475:0:0:0:0:
329,192,288402,128,0,288475:0:0:0:0:
109,192,288451,1,0,0:0:0:0:
182,192,288549,1,0,0:0:0:0:
402,192,288549,128,0,288768:0:0:0:0:
475,192,288549,128,0,288914:0:0:0:0:
329,192,288549,128,0,288622:0:0:0:0:
109,192,288695,128,0,288768:0:0:0:0:
329,192,288695,128,0,288841:0:0:0:0:
36,192,288695,128,0,289061:0:0:0:0:
256,192,288768,1,0,0:0:0:0:
182,192,288841,128,0,288914:0:0:0:0:
402,192,288841,128,0,288988:0:0:0:0:
109,192,288841,128,0,289061:0:0:0:0:
329,192,288914,1,0,0:0:0:0:
182,192,288988,128,0,289061:0:0:0:0:
256,192,288988,128,0,289061:0:0:0:0:
475,192,288988,128,0,289061:0:0:0:0:
402,192,289061,1,0,0:0:0:0:
329,192,289061,128,0,289134:0:0:0:0:
256,192,289134,1,0,0:0:0:0:
109,192,289134,128,0,289793:0:0:0:0:
182,192,289134,128,0,289207:0:0:0:0:
36,192,289134,128,0,289207:0:0:0:0:
475,192,289134,128,0,289207:0:0:0:0:
256,192,289280,1,0,0:0:0:0:
402,192,289280,1,0,0:0:0:0:
182,192,289354,1,0,0:0:0:0:
329,192,289427,128,0,289500:0:0:0:0:
402,192,289427,128,0,289500:0:0:0:0:
475,192,289427,128,0,289500:0:0:0:0:
36,192,289427,1,0,0:0:0:0:
329,192,289573,1,0,0:0:0:0:
182,192,289573,1,0,0:0:0:0:
256,192,289719,128,0,289793:0:0:0:0:
182,192,289719,128,0,289793:0:0:0:0:
329,192,289719,128,0,289793:0:0:0:0:
402,192,289719,128,0,290378:0:0:0:0:
36,192,289719,1,0,0:0:0:0:
475,192,289719,1,0,0:0:0:0:
109,192,289866,1,0,0:0:0:0:
256,192,289866,1,0,0:0:0:0:
329,192,289939,1,0,0:0:0:0:
182,192,290012,128,0,290085:0:0:0:0:
109,192,290012,128,0,290085:0:0:0:0:
36,192,290012,128,0,290085:0:0:0:0:
475,192,290012,1,0,0:0:0:0:
329,192,290158,1,0,0:0:0:0:
182,192,290158,1,0,0:0:0:0:
256,192,290305,128,0,290378:0:0:0:0:
182,192,290305,128,0,290378:0:0:0:0:
109,192,290305,128,0,290378:0:0:0:0:
36,192,290305,128,0,290963:0:0:0:0:
475,192,290305,1,0,0:0:0:0:
329,192,290305,1,0,0:0:0:0:
402,192,290451,1,0,0:0:0:0:
109,192,290451,1,0,0:0:0:0:
182,192,290524,1,0,0:0:0:0:
329,192,290597,128,0,290671:0:0:0:0:
402,192,290597,128,0,290671:0:0:0:0:
475,192,290597,128,0,290671:0:0:0:0:
256,192,290597,1,0,0:0:0:0:
182,192,290744,1,0,0:0:0:0:
329,192,290744,1,0,0:0:0:0:
109,192,290817,1,0,0:0:0:0:
256,192,290890,128,0,290963:0:0:0:0:
329,192,290890,128,0,290963:0:0:0:0:
402,192,290890,128,0,290963:0:0:0:0:
475,192,290890,128,0,291549:0:0:0:0:
182,192,290890,1,0,0:0:0:0:
109,192,291036,1,0,0:0:0:0:
402,192,291036,1,0,0:0:0:0:
402,192,291183,1,0,0:0:0:0:
182,192,291183,128,0,291256:0:0:0:0:
36,192,291183,128,0,291256:0:0:0:0:
109,192,291183,128,0,291256:0:0:0:0:
256,192,291183,1,0,0:0:0:0:
182,192,291329,1,0,0:0:0:0:
329,192,291329,1,0,0:0:0:0:
329,192,291475,128,0,291549:0:0:0:0:
402,192,291475,128,0,291549:0:0:0:0:
109,192,291475,128,0,291549:0:0:0:0:
256,192,291475,128,0,292719:0:0:0:0:
182,192,291475,1,0,0:0:0:0:
36,192,291475,1,0,0:0:0:0:
36,192,291622,1,0,0:0:0:0:
402,192,291622,1,0,0:0:0:0:
109,192,291695,1,0,0:0:0:0:
182,192,291768,128,0,291841:0:0:0:0:
402,192,291768,128,0,291841:0:0:0:0:
475,192,291768,128,0,291841:0:0:0:0:
329,192,291768,1,0,0:0:0:0:
329,192,291914,1,0,0:0:0:0:
36,192,291914,1,0,0:0:0:0:
109,192,292061,128,0,292134:0:0:0:0:
402,192,292061,128,0,292134:0:0:0:0:
182,192,292061,128,0,292134:0:0:0:0:
36,192,292061,1,0,0:0:0:0:
475,192,292061,1,0,0:0:0:0:
475,192,292207,1,0,0:0:0:0:
109,192,292207,1,0,0:0:0:0:
402,192,292280,1,0,0:0:0:0:
109,192,292354,128,0,292427:0:0:0:0:
36,192,292354,128,0,292427:0:0:0:0:
329,192,292354,128,0,292427:0:0:0:0:
182,192,292500,1,0,0:0:0:0:
475,192,292500,1,0,0:0:0:0:
109,192,292646,128,0,292719:0:0:0:0:
402,192,292646,128,0,292719:0:0:0:0:
475,192,292646,1,0,0:0:0:0:
329,192,292646,1,0,0:0:0:0:
182,192,292646,128,0,292719:0:0:0:0:
36,192,292646,128,0,292793:0:0:0:0:
329,192,292744,1,0,0:0:0:0:
475,192,292744,1,0,0:0:0:0:
109,192,292793,128,0,292866:0:0:0:0:
402,192,292841,1,0,0:0:0:0:
256,192,292841,1,0,0:0:0:0:
109,192,292939,128,0,293012:0:0:0:0:
329,192,292939,1,0,0:0:0:0:
182,192,292939,1,0,0:0:0:0:
36,192,292939,1,0,0:0:0:0:
109,192,293085,128,0,293158:0:0:0:0:
475,192,293085,1,0,0:0:0:0:
256,192,293085,1,0,0:0:0:0:
182,192,293140,1,0,0:0:0:0:
402,192,293140,1,0,0:0:0:0:
109,192,293232,128,0,293451:0:0:0:0:
36,192,293232,1,0,0:0:0:0:
329,192,293232,1,0,0:0:0:0:
256,192,293329,1,0,0:0:0:0:
475,192,293329,1,0,0:0:0:0:
182,192,293378,128,0,293451:0:0:0:0:
329,192,293427,1,0,0:0:0:0:
475,192,293427,1,0,0:0:0:0:
182,192,293524,128,0,293744:0:0:0:0:
109,192,293524,128,0,293597:0:0:0:0:
36,192,293524,1,0,0:0:0:0:
402,192,293524,1,0,0:0:0:0:
256,192,293622,1,0,0:0:0:0:
475,192,293622,1,0,0:0:0:0:
329,192,293719,1,0,0:0:0:0:
475,192,293719,1,0,0:0:0:0:
256,192,293817,1,0,0:0:0:0:
182,192,293817,128,0,293890:0:0:0:0:
109,192,293817,128,0,293963:0:0:0:0:
36,192,293817,128,0,294329:0:0:0:0:
329,192,293817,128,0,293963:0:0:0:0:
402,192,293890,128,0,294036:0:0:0:0:
182,192,293963,1,0,0:0:0:0:
475,192,293963,128,0,294110:0:0:0:0:
256,192,293963,128,0,294110:0:0:0:0:
329,192,294036,128,0,294329:0:0:0:0:
109,192,294036,128,0,294110:0:0:0:0:
402,192,294110,1,0,0:0:0:0:
182,192,294110,128,0,294183:0:0:0:0:
256,192,294183,128,0,294256:0:0:0:0:
109,192,294256,128,0,294329:0:0:0:0:
402,192,294256,128,0,294329:0:0:0:0:
182,192,294256,1,0,0:0:0:0:
475,192,294256,128,0,294329:0:0:0:0:
256,192,294329,128,0,294402:0:0:0:0:
109,192,294402,128,0,294914:0:0:0:0:
329,192,294402,1,0,0:0:0:0:
36,192,294402,1,0,0:0:0:0:
182,192,294402,128,0,294549:0:0:0:0:
402,192,294402,128,0,294549:0:0:0:0:
475,192,294475,128,0,294622:0:0:0:0:
36,192,294549,128,0,294695:0:0:0:0:
256,192,294549,1,0,0:0:0:0:
329,192,294549,128,0,294695:0:0:0:0:
182,192,294622,128,0,294695:0:0:0:0:
402,192,294622,128,0,294914:0:0:0:0:
256,192,294695,128,0,294768:0:0:0:0:
475,192,294695,1,0,0:0:0:0:
329,192,294768,128,0,294841:0:0:0:0:
475,192,294841,128,0,294914:0:0:0:0:
256,192,294841,1,0,0:0:0:0:
182,192,294841,128,0,294914:0:0:0:0:
36,192,294841,128,0,294914:0:0:0:0:
329,192,294914,128,0,294988:0:0:0:0:
36,192,294988,1,0,0:0:0:0:
402,192,294988,1,0,0:0:0:0:
182,192,294988,128,0,295500:0:0:0:0:
256,192,294988,128,0,295134:0:0:0:0:
475,192,294988,128,0,295061:0:0:0:0:
109,192,295061,128,0,295207:0:0:0:0:
36,192,295134,128,0,295207:0:0:0:0:
402,192,295134,128,0,295280:0:0:0:0:
475,192,295207,128,0,295500:0:0:0:0:
256,192,295207,128,0,295354:0:0:0:0:
329,192,295207,1,0,0:0:0:0:
36,192,295280,128,0,295354:0:0:0:0:
109,192,295280,1,0,0:0:0:0:
329,192,295354,128,0,295427:0:0:0:0:
256,192,295427,1,0,0:0:0:0:
109,192,295427,128,0,295500:0:0:0:0:
36,192,295427,128,0,295500:0:0:0:0:
402,192,295427,128,0,295500:0:0:0:0:
329,192,295500,128,0,295573:0:0:0:0:
402,192,295573,128,0,295793:0:0:0:0:
36,192,295573,128,0,296085:0:0:0:0:
182,192,295573,1,0,0:0:0:0:
109,192,295573,128,0,295866:0:0:0:0:
475,192,295573,1,0,0:0:0:0:
256,192,295646,1,0,0:0:0:0:
329,192,295719,128,0,295793:0:0:0:0:
475,192,295719,128,0,295793:0:0:0:0:
182,192,295719,1,0,0:0:0:0:
402,192,295866,1,0,0:0:0:0:
256,192,295866,1,0,0:0:0:0:
475,192,295866,1,0,0:0:0:0:
402,192,296012,128,0,296085:0:0:0:0:
256,192,296012,128,0,296085:0:0:0:0:
109,192,296012,1,0,0:0:0:0:
402,192,296158,128,0,296524:0:0:0:0:
109,192,296158,1,0,0:0:0:0:
182,192,296158,128,0,296305:0:0:0:0:
329,192,296158,128,0,296232:0:0:0:0:
475,192,296158,128,0,296305:0:0:0:0:
256,192,296232,128,0,296378:0:0:0:0:
109,192,296305,128,0,296451:0:0:0:0:
36,192,296305,128,0,296378:0:0:0:0:
329,192,296305,1,0,0:0:0:0:
182,192,296378,128,0,296671:0:0:0:0:
475,192,296378,128,0,296451:0:0:0:0:
329,192,296451,128,0,296671:0:0:0:0:
36,192,296451,1,0,0:0:0:0:
256,192,296524,128,0,296597:0:0:0:0:
402,192,296597,1,0,0:0:0:0:
109,192,296597,128,0,296671:0:0:0:0:
36,192,296597,128,0,296671:0:0:0:0:
475,192,296597,128,0,296671:0:0:0:0:
256,192,296671,128,0,296744:0:0:0:0:
109,192,296744,128,0,297110:0:0:0:0:
182,192,296744,128,0,296817:0:0:0:0:
36,192,296744,128,0,296890:0:0:0:0:
402,192,296744,1,0,0:0:0:0:
329,192,296744,128,0,296890:0:0:0:0:
256,192,296817,128,0,296963:0:0:0:0:
402,192,296890,128,0,297036:0:0:0:0:
475,192,296890,128,0,296963:0:0:0:0:
182,192,296890,1,0,0:0:0:0:
329,192,296963,128,0,297256:0:0:0:0:
36,192,296963,128,0,297036:0:0:0:0:
182,192,297036,128,0,297256:0:0:0:0:
475,192,297036,1,0,0:0:0:0:
256,192,297110,128,0,297183:0:0:0:0:
402,192,297183,128,0,297256:0:0:0:0:
36,192,297183,128,0,297256:0:0:0:0:
109,192,297183,1,0,0:0:0:0:
475,192,297183,128,0,297256:0:0:0:0:
256,192,297256,128,0,297329:0:0:0:0:
475,192,297329,128,0,297549:0:0:0:0:
182,192,297329,128,0,297768:0:0:0:0:
36,192,297329,1,0,0:0:0:0:
402,192,297329,1,0,0:0:0:0:
329,192,297329,128,0,297402:0:0:0:0:
109,192,297402,128,0,297475:0:0:0:0:
402,192,297475,128,0,297622:0:0:0:0:
256,192,297475,128,0,297549:0:0:0:0:
109,192,297549,1,0,0:0:0:0:
36,192,297549,128,0,297695:0:0:0:0:
329,192,297549,128,0,297841:0:0:0:0:
256,192,297622,1,0,0:0:0:0:
475,192,297622,128,0,297695:0:0:0:0:
109,192,297695,128,0,297841:0:0:0:0:
402,192,297695,128,0,297768:0:0:0:0:
36,192,297768,128,0,297988:0:0:0:0:
256,192,297768,128,0,297914:0:0:0:0:
475,192,297841,1,0,0:0:0:0:
182,192,297914,1,0,0:0:0:0:
109,192,297914,1,0,0:0:0:0:
329,192,297914,128,0,298134:0:0:0:0:
402,192,297914,128,0,298427:0:0:0:0:
256,192,297988,1,0,0:0:0:0:
36,192,298061,128,0,298134:0:0:0:0:
182,192,298061,128,0,298134:0:0:0:0:
475,192,298061,1,0,0:0:0:0:
256,192,298207,1,0,0:0:0:0:
109,192,298207,1,0,0:0:0:0:
36,192,298207,1,0,0:0:0:0:
329,192,298280,1,0,0:0:0:0:
109,192,298354,128,0,298427:0:0:0:0:
256,192,298354,128,0,298427:0:0:0:0:
475,192,298354,1,0,0:0:0:0:
36,192,298500,128,0,299012:0:0:0:0:
182,192,298500,128,0,298573:0:0:0:0:
256,192,298500,128,0,298646:0:0:0:0:
402,192,298500,1,0,0:0:0:0:
475,192,298500,128,0,298573:0:0:0:0:
329,192,298573,128,0,298793:0:0:0:0:
109,192,298646,1,0,0:0:0:0:
402,192,298646,128,0,298719:0:0:0:0:
182,192,298646,128,0,298719:0:0:0:0:
256,192,298719,128,0,299012:0:0:0:0:
475,192,298719,128,0,298866:0:0:0:0:
109,192,298793,128,0,298866:0:0:0:0:
402,192,298793,1,0,0:0:0:0:
182,192,298866,128,0,298939:0:0:0:0:
109,192,298939,128,0,299012:0:0:0:0:
475,192,298939,128,0,299012:0:0:0:0:
329,192,298939,1,0,0:0:0:0:
402,192,298939,128,0,299085:0:0:0:0:
182,192,299012,128,0,299085:0:0:0:0:
109,192,299085,128,0,299597:0:0:0:0:
256,192,299085,128,0,299158:0:0:0:0:
329,192,299085,128,0,299232:0:0:0:0:
475,192,299085,1,0,0:0:0:0:
36,192,299085,128,0,299158:0:0:0:0:
402,192,299158,128,0,299378:0:0:0:0:
475,192,299232,128,0,299305:0:0:0:0:
182,192,299232,1,0,0:0:0:0:
256,192,299232,128,0,299305:0:0:0:0:
329,192,299305,128,0,299597:0:0:0:0:
36,192,299305,128,0,299451:0:0:0:0:
182,192,299378,128,0,299451:0:0:0:0:
475,192,299378,1,0,0:0:0:0:
256,192,299451,128,0,299524:0:0:0:0:
182,192,299524,128,0,299597:0:0:0:0:
402,192,299524,1,0,0:0:0:0:
36,192,299524,128,0,299597:0:0:0:0:
475,192,299524,128,0,299671:0:0:0:0:
256,192,299597,128,0,299671:0:0:0:0:
182,192,299671,128,0,300183:0:0:0:0:
329,192,299671,1,0,0:0:0:0:
402,192,299671,128,0,299744:0:0:0:0:
109,192,299671,128,0,299744:0:0:0:0:
36,192,299671,1,0,0:0:0:0:
256,192,299744,128,0,299890:0:0:0:0:
402,192,299817,128,0,299963:0:0:0:0:
109,192,299817,128,0,299890:0:0:0:0:
36,192,299890,128,0,300183:0:0:0:0:
329,192,299890,1,0,0:0:0:0:
475,192,299890,128,0,300036:0:0:0:0:
109,192,299963,1,0,0:0:0:0:
256,192,299963,128,0,300036:0:0:0:0:
329,192,300036,128,0,300110:0:0:0:0:
109,192,300110,128,0,300183:0:0:0:0:
256,192,300110,1,0,0:0:0:0:
402,192,300110,128,0,300183:0:0:0:0:
475,192,300110,128,0,300183:0:0:0:0:
329,192,300183,128,0,300256:0:0:0:0:
402,192,300256,128,0,300475:0:0:0:0:
109,192,300256,128,0,300768:0:0:0:0:
36,192,300256,1,0,0:0:0:0:
182,192,300256,128,0,300549:0:0:0:0:
256,192,300329,1,0,0:0:0:0:
329,192,300402,128,0,300475:0:0:0:0:
475,192,300402,128,0,300475:0:0:0:0:
36,192,300402,1,0,0:0:0:0:
402,192,300549,1,0,0:0:0:0:
256,192,300549,1,0,0:0:0:0:
475,192,300549,1,0,0:0:0:0:
402,192,300695,128,0,300768:0:0:0:0:
256,192,300695,128,0,300768:0:0:0:0:
36,192,300695,1,0,0:0:0:0:
329,192,300841,128,0,301207:0:0:0:0:
475,192,300841,128,0,300914:0:0:0:0:
36,192,300841,128,0,300988:0:0:0:0:
109,192,300841,128,0,300914:0:0:0:0:
256,192,300841,1,0,0:0:0:0:
182,192,300914,128,0,301061:0:0:0:0:
475,192,300988,1,0,0:0:0:0:
109,192,300988,128,0,301134:0:0:0:0:
402,192,300988,128,0,301061:0:0:0:0:
256,192,301061,128,0,301354:0:0:0:0:
36,192,301061,128,0,301134:0:0:0:0:
475,192,301134,128,0,301354:0:0:0:0:
182,192,301134,1,0,0:0:0:0:
109,192,301207,128,0,301280:0:0:0:0:
329,192,301280,128,0,301354:0:0:0:0:
36,192,301280,128,0,301354:0:0:0:0:
182,192,301280,128,0,301354:0:0:0:0:
402,192,301280,1,0,0:0:0:0:
109,192,301354,128,0,301427:0:0:0:0:
475,192,301427,128,0,301573:0:0:0:0:
182,192,301427,128,0,301793:0:0:0:0:
402,192,301427,128,0,301500:0:0:0:0:
36,192,301427,128,0,301500:0:0:0:0:
256,192,301427,1,0,0:0:0:0:
329,192,301500,128,0,301646:0:0:0:0:
109,192,301573,128,0,301646:0:0:0:0:
402,192,301573,128,0,301719:0:0:0:0:
36,192,301573,1,0,0:0:0:0:
256,192,301646,128,0,301939:0:0:0:0:
475,192,301646,128,0,301719:0:0:0:0:
329,192,301719,1,0,0:0:0:0:
36,192,301719,128,0,301939:0:0:0:0:
402,192,301793,128,0,301866:0:0:0:0:
182,192,301866,128,0,301939:0:0:0:0:
475,192,301866,128,0,301939:0:0:0:0:
109,192,301866,1,0,0:0:0:0:
329,192,301866,128,0,301939:0:0:0:0:
402,192,301939,128,0,302012:0:0:0:0:
36,192,302012,1,0,0:0:0:0:
475,192,302012,128,0,302232:0:0:0:0:
109,192,302012,128,0,302524:0:0:0:0:
182,192,302012,128,0,302085:0:0:0:0:
329,192,302012,1,0,0:0:0:0:
256,192,302085,128,0,302158:0:0:0:0:
402,192,302158,128,0,302305:0:0:0:0:
36,192,302158,128,0,302232:0:0:0:0:
256,192,302232,1,0,0:0:0:0:
182,192,302232,128,0,302378:0:0:0:0:
329,192,302232,128,0,302524:0:0:0:0:
36,192,302305,1,0,0:0:0:0:
475,192,302305,128,0,302378:0:0:0:0:
402,192,302378,128,0,302451:0:0:0:0:
256,192,302378,128,0,302451:0:0:0:0:
36,192,302451,128,0,302671:0:0:0:0:
182,192,302451,128,0,302671:0:0:0:0:
475,192,302451,1,0,0:0:0:0:
256,192,302524,1,0,0:0:0:0:
329,192,302597,1,0,0:0:0:0:
109,192,302597,1,0,0:0:0:0:
475,192,302597,128,0,302817:0:0:0:0:
402,192,302597,128,0,303110:0:0:0:0:
256,192,302671,1,0,0:0:0:0:
36,192,302744,128,0,302817:0:0:0:0:
182,192,302744,128,0,302817:0:0:0:0:
329,192,302744,1,0,0:0:0:0:
256,192,302890,1,0,0:0:0:0:
109,192,302890,1,0,0:0:0:0:
36,192,302890,1,0,0:0:0:0:
329,192,302963,1,0,0:0:0:0:
475,192,303036,1,0,0:0:0:0:
256,192,303036,128,0,303110:0:0:0:0:
109,192,303036,128,0,303110:0:0:0:0:
329,192,303183,128,0,303256:0:0:0:0:
402,192,303183,128,0,303329:0:0:0:0:
475,192,303183,128,0,303695:0:0:0:0:
182,192,303183,128,0,303329:0:0:0:0:
36,192,303183,1,0,0:0:0:0:
109,192,303256,128,0,303402:0:0:0:0:
329,192,303329,1,0,0:0:0:0:
36,192,303329,128,0,303475:0:0:0:0:
256,192,303329,128,0,303475:0:0:0:0:
182,192,303402,128,0,303695:0:0:0:0:
402,192,303402,128,0,303475:0:0:0:0:
109,192,303475,1,0,0:0:0:0:
329,192,303475,128,0,303549:0:0:0:0:
256,192,303549,128,0,303622:0:0:0:0:
402,192,303622,128,0,303695:0:0:0:0:
109,192,303622,128,0,303695:0:0:0:0:
329,192,303622,1,0,0:0:0:0:
36,192,303622,128,0,303695:0:0:0:0:
256,192,303695,128,0,303768:0:0:0:0:
402,192,303768,128,0,304280:0:0:0:0:
182,192,303768,1,0,0:0:0:0:
475,192,303768,1,0,0:0:0:0:
329,192,303768,128,0,303914:0:0:0:0:
109,192,303768,128,0,303914:0:0:0:0:
36,192,303841,128,0,303988:0:0:0:0:
475,192,303914,128,0,304061:0:0:0:0:
256,192,303914,1,0,0:0:0:0:
182,192,303914,128,0,304061:0:0:0:0:
329,192,303988,128,0,304061:0:0:0:0:
109,192,303988,128,0,304280:0:0:0:0:
256,192,304061,128,0,304134:0:0:0:0:
36,192,304061,1,0,0:0:0:0:
182,192,304134,128,0,304207:0:0:0:0:
36,192,304207,128,0,304280:0:0:0:0:
256,192,304207,1,0,0:0:0:0:
329,192,304207,128,0,304280:0:0:0:0:
475,192,304207,128,0,304280:0:0:0:0:
182,192,304280,128,0,304354:0:0:0:0:
475,192,304354,1,0,0:0:0:0:
109,192,304354,1,0,0:0:0:0:
329,192,304354,128,0,304866:0:0:0:0:
256,192,304354,128,0,304500:0:0:0:0:
36,192,304354,128,0,304427:0:0:0:0:
402,192,304427,128,0,304573:0:0:0:0:
475,192,304500,128,0,304573:0:0:0:0:
109,192,304500,128,0,304646:0:0:0:0:
36,192,304573,128,0,304866:0:0:0:0:
256,192,304573,128,0,304719:0:0:0:0:
182,192,304573,1,0,0:0:0:0:
475,192,304646,128,0,304719:0:0:0:0:
402,192,304646,1,0,0:0:0:0:
182,192,304719,128,0,304793:0:0:0:0:
256,192,304793,1,0,0:0:0:0:
402,192,304793,128,0,304866:0:0:0:0:
475,192,304793,128,0,304866:0:0:0:0:
109,192,304793,128,0,304866:0:0:0:0:
182,192,304866,128,0,304939:0:0:0:0:
109,192,304939,128,0,305158:0:0:0:0:
475,192,304939,128,0,305451:0:0:0:0:
329,192,304939,1,0,0:0:0:0:
402,192,304939,128,0,305232:0:0:0:0:
36,192,304939,1,0,0:0:0:0:
256,192,305012,1,0,0:0:0:0:
182,192,305085,128,0,305158:0:0:0:0:
36,192,305085,128,0,305158:0:0:0:0:
329,192,305085,1,0,0:0:0:0:
109,192,305232,1,0,0:0:0:0:
256,192,305232,1,0,0:0:0:0:
36,192,305232,1,0,0:0:0:0:
109,192,305378,128,0,305451:0:0:0:0:
256,192,305378,128,0,305451:0:0:0:0:
402,192,305378,1,0,0:0:0:0:
109,192,305524,128,0,305890:0:0:0:0:
402,192,305524,1,0,0:0:0:0:
329,192,305524,128,0,305671:0:0:0:0:
182,192,305524,128,0,305597:0:0:0:0:
36,192,305524,128,0,305671:0:0:0:0:
256,192,305597,128,0,305744:0:0:0:0:
402,192,305671,128,0,305817:0:0:0:0:
475,192,305671,128,0,305744:0:0:0:0:
182,192,305671,1,0,0:0:0:0:
329,192,305744,128,0,306036:0:0:0:0:
36,192,305744,128,0,305817:0:0:0:0:
182,192,305817,128,0,306036:0:0:0:0:
475,192,305817,1,0,0:0:0:0:
256,192,305890,128,0,305963:0:0:0:0:
109,192,305963,1,0,0:0:0:0:
402,192,305963,128,0,306036:0:0:0:0:
475,192,305963,128,0,306036:0:0:0:0:
36,192,305963,128,0,306036:0:0:0:0:
256,192,306036,128,0,306110:0:0:0:0:
402,192,306110,128,0,306475:0:0:0:0:
329,192,306110,128,0,306183:0:0:0:0:
475,192,306110,128,0,306256:0:0:0:0:
109,192,306110,1,0,0:0:0:0:
182,192,306110,128,0,306256:0:0:0:0:
256,192,306183,128,0,306329:0:0:0:0:
109,192,306256,128,0,306402:0:0:0:0:
36,192,306256,128,0,306329:0:0:0:0:
329,192,306256,1,0,0:0:0:0:
182,192,306329,128,0,306622:0:0:0:0:
475,192,306329,128,0,306402:0:0:0:0:
329,192,306402,128,0,306622:0:0:0:0:
36,192,306402,1,0,0:0:0:0:
256,192,306475,128,0,306549:0:0:0:0:
109,192,306549,128,0,306622:0:0:0:0:
475,192,306549,128,0,306622:0:0:0:0:
402,192,306549,1,0,0:0:0:0:
36,192,306549,128,0,306622:0:0:0:0:
256,192,306622,128,0,306695:0:0:0:0:
36,192,306695,128,0,306914:0:0:0:0:
329,192,306695,128,0,307134:0:0:0:0:
475,192,306695,1,0,0:0:0:0:
109,192,306695,1,0,0:0:0:0:
182,192,306695,128,0,306768:0:0:0:0:
402,192,306768,128,0,306841:0:0:0:0:
109,192,306841,128,0,306988:0:0:0:0:
256,192,306841,128,0,306914:0:0:0:0:
402,192,306914,1,0,0:0:0:0:
475,192,306914,128,0,307061:0:0:0:0:
182,192,306914,128,0,307207:0:0:0:0:
256,192,306988,1,0,0:0:0:0:
36,192,306988,128,0,307061:0:0:0:0:
402,192,307061,128,0,307207:0:0:0:0:
109,192,307061,128,0,307134:0:0:0:0:
475,192,307134,128,0,307354:0:0:0:0:
256,192,307134,128,0,307280:0:0:0:0:
36,192,307207,1,0,0:0:0:0:
329,192,307280,1,0,0:0:0:0:
402,192,307280,1,0,0:0:0:0:
182,192,307280,128,0,307500:0:0:0:0:
109,192,307280,128,0,307793:0:0:0:0:
256,192,307354,1,0,0:0:0:0:
475,192,307427,128,0,307500:0:0:0:0:
329,192,307427,128,0,307500:0:0:0:0:
36,192,307427,1,0,0:0:0:0:
256,192,307573,1,0,0:0:0:0:
402,192,307573,1,0,0:0:0:0:
475,192,307573,1,0,0:0:0:0:
182,192,307646,1,0,0:0:0:0:
402,192,307719,128,0,307793:0:0:0:0:
256,192,307719,128,0,307793:0:0:0:0:
36,192,307719,1,0,0:0:0:0:
475,192,307866,128,0,308378:0:0:0:0:
329,192,307866,128,0,307939:0:0:0:0:
256,192,307866,128,0,308012:0:0:0:0:
109,192,307866,1,0,0:0:0:0:
36,192,307866,128,0,307939:0:0:0:0:
182,192,307939,128,0,308158:0:0:0:0:
402,192,308012,1,0,0:0:0:0:
109,192,308012,128,0,308085:0:0:0:0:
329,192,308012,128,0,308085:0:0:0:0:
256,192,308085,128,0,308378:0:0:0:0:
36,192,308085,128,0,308232:0:0:0:0:
402,192,308158,128,0,308232:0:0:0:0:
109,192,308158,1,0,0:0:0:0:
329,192,308232,128,0,308305:0:0:0:0:
402,192,308305,128,0,308378:0:0:0:0:
36,192,308305,128,0,308378:0:0:0:0:
182,192,308305,1,0,0:0:0:0:
109,192,308305,128,0,308451:0:0:0:0:
329,192,308378,128,0,308451:0:0:0:0:
402,192,308451,128,0,308963:0:0:0:0:
256,192,308451,128,0,308524:0:0:0:0:
182,192,308451,128,0,308597:0:0:0:0:
36,192,308451,1,0,0:0:0:0:
475,192,308451,128,0,308524:0:0:0:0:
109,192,308524,128,0,308744:0:0:0:0:
36,192,308597,128,0,308671:0:0:0:0:
329,192,308597,1,0,0:0:0:0:
256,192,308597,128,0,308671:0:0:0:0:
182,192,308671,128,0,308963:0:0:0:0:
475,192,308671,128,0,308817:0:0:0:0:
329,192,308744,128,0,308817:0:0:0:0:
36,192,308744,1,0,0:0:0:0:
256,192,308817,128,0,308890:0:0:0:0:
329,192,308890,128,0,308963:0:0:0:0:
109,192,308890,1,0,0:0:0:0:
475,192,308890,128,0,308963:0:0:0:0:
36,192,308890,128,0,309036:0:0:0:0:
256,192,308963,128,0,309036:0:0:0:0:
329,192,309036,128,0,309549:0:0:0:0:
182,192,309036,1,0,0:0:0:0:
109,192,309036,128,0,309110:0:0:0:0:
402,192,309036,128,0,309110:0:0:0:0:
475,192,309036,1,0,0:0:0:0:
256,192,309110,128,0,309256:0:0:0:0:
109,192,309183,128,0,309329:0:0:0:0:
402,192,309183,128,0,309256:0:0:0:0:
475,192,309256,128,0,309549:0:0:0:0:
182,192,309256,1,0,0:0:0:0:
36,192,309256,128,0,309402:0:0:0:0:
402,192,309329,1,0,0:0:0:0:
256,192,309329,128,0,309402:0:0:0:0:
182,192,309402,128,0,309475:0:0:0:0:
402,192,309475,128,0,309549:0:0:0:0:
256,192,309475,1,0,0:0:0:0:
109,192,309475,128,0,309549:0:0:0:0:
36,192,309475,128,0,309549:0:0:0:0:
182,192,309549,128,0,309622:0:0:0:0:
109,192,309622,128,0,309841:0:0:0:0:
402,192,309622,128,0,310134:0:0:0:0:
475,192,309622,1,0,0:0:0:0:
329,192,309622,1,0,0:0:0:0:
36,192,309622,128,0,309768:0:0:0:0:
256,192,309695,128,0,309768:0:0:0:0:
182,192,309695,1,0,0:0:0:0:
475,192,309768,1,0,0:0:0:0:
329,192,309768,1,0,0:0:0:0:
256,192,309841,1,0,0:0:0:0:
182,192,309841,128,0,309914:0:0:0:0:
109,192,309914,128,0,309988:0:0:0:0:
36,192,309914,128,0,309988:0:0:0:0:
475,192,309914,1,0,0:0:0:0:
329,192,309988,1,0,0:0:0:0:
256,192,309988,128,0,310061:0:0:0:0:
109,192,310061,128,0,310134:0:0:0:0:
182,192,310061,128,0,310134:0:0:0:0:
36,192,310061,1,0,0:0:0:0:
475,192,310134,1,0,0:0:0:0:
329,192,310134,128,0,310207:0:0:0:0:
256,192,310207,1,0,0:0:0:0:
36,192,310207,1,0,0:0:0:0:
182,192,310207,128,0,310354:0:0:0:0:
109,192,310280,128,0,310427:0:0:0:0:
402,192,310280,1,0,0:0:0:0:
475,192,310280,1,0,0:0:0:0:
36,192,310354,128,0,310500:0:0:0:0:
329,192,310354,1,0,0:0:0:0:
256,192,310354,1,0,0:0:0:0:
182,192,310427,128,0,310500:0:0:0:0:
402,192,310427,1,0,0:0:0:0:
475,192,310427,1,0,0:0:0:0:
109,192,310500,128,0,310573:0:0:0:0:
256,192,310500,128,0,310646:0:0:0:0:
182,192,310573,128,0,310719:0:0:0:0:
402,192,310573,1,0,0:0:0:0:
329,192,310646,128,0,310719:0:0:0:0:
36,192,310646,1,0,0:0:0:0:
256,192,310719,128,0,310793:0:0:0:0:
475,192,310719,1,0,0:0:0:0:
402,192,310793,1,0,0:0:0:0:
329,192,310793,128,0,310939:0:0:0:0:
36,192,310866,1,0,0:0:0:0:
256,192,310866,128,0,311012:0:0:0:0:
109,192,310939,1,0,0:0:0:0:
402,192,310939,128,0,311012:0:0:0:0:
182,192,311012,1,0,0:0:0:0:
329,192,311012,128,0,311232:0:0:0:0:
109,192,311085,1,0,0:0:0:0:
36,192,311085,1,0,0:0:0:0:
475,192,311085,128,0,311158:0:0:0:0:
402,192,311158,128,0,311305:0:0:0:0:
182,192,311158,1,0,0:0:0:0:
256,192,311158,1,0,0:0:0:0:
109,192,311232,1,0,0:0:0:0:
36,192,311232,1,0,0:0:0:0:
475,192,311232,128,0,311305:0:0:0:0:
329,192,311305,128,0,311378:0:0:0:0:
256,192,311305,1,0,0:0:0:0:
182,192,311305,1,0,0:0:0:0:
36,192,311378,1,0,0:0:0:0:
475,192,311378,128,0,311744:0:0:0:0:
109,192,311378,128,0,311524:0:0:0:0:
402,192,311378,128,0,311451:0:0:0:0:
182,192,311451,1,0,0:0:0:0:
256,192,311451,128,0,311597:0:0:0:0:
329,192,311524,1,0,0:0:0:0:
402,192,311524,128,0,311671:0:0:0:0:
109,192,311597,1,0,0:0:0:0:
36,192,311597,128,0,311671:0:0:0:0:
256,192,311671,128,0,311890:0:0:0:0:
329,192,311671,1,0,0:0:0:0:
182,192,311671,128,0,311744:0:0:0:0:
36,192,311744,1,0,0:0:0:0:
109,192,311744,128,0,311817:0:0:0:0:
402,192,311817,1,0,0:0:0:0:
329,192,311817,128,0,311890:0:0:0:0:
109,192,311890,1,0,0:0:0:0:
182,192,311890,128,0,311963:0:0:0:0:
256,192,311963,128,0,312256:0:0:0:0:
402,192,311963,128,0,312036:0:0:0:0:
475,192,311963,1,0,0:0:0:0:
109,192,312036,128,0,312110:0:0:0:0:
36,192,312036,1,0,0:0:0:0:
329,192,312110,128,0,312183:0:0:0:0:
402,192,312110,1,0,0:0:0:0:
182,192,312183,128,0,312256:0:0:0:0:
109,192,312183,1,0,0:0:0:0:
36,192,312256,1,0,0:0:0:0:
402,192,312256,128,0,312329:0:0:0:0:
475,192,312256,1,0,0:0:0:0:
109,192,312329,1,0,0:0:0:0:
256,192,312329,128,0,312402:0:0:0:0:
402,192,312402,1,0,0:0:0:0:
329,192,312402,1,0,0:0:0:0:
475,192,312402,128,0,312475:0:0:0:0:
182,192,312475,1,0,0:0:0:0:
109,192,312475,1,0,0:0:0:0:
36,192,312475,1,0,0:0:0:0:
256,192,312549,1,0,0:0:0:0:
475,192,312549,128,0,312914:0:0:0:0:
329,192,312549,128,0,312695:0:0:0:0:
182,192,312549,128,0,312622:0:0:0:0:
36,192,312549,128,0,312622:0:0:0:0:
402,192,312622,128,0,312768:0:0:0:0:
109,192,312622,128,0,312695:0:0:0:0:
182,192,312695,1,0,0:0:0:0:
256,192,312695,128,0,312841:0:0:0:0:
36,192,312695,128,0,312768:0:0:0:0:
109,192,312768,128,0,312841:0:0:0:0:
329,192,312768,128,0,312914:0:0:0:0:
402,192,312841,1,0,0:0:0:0:
182,192,312841,128,0,312914:0:0:0:0:
109,192,312914,1,0,0:0:0:0:
256,192,312914,128,0,312988:0:0:0:0:
402,192,312988,128,0,313134:0:0:0:0:
475,192,312988,1,0,0:0:0:0:
36,192,312988,128,0,313061:0:0:0:0:
182,192,312988,128,0,313354:0:0:0:0:
329,192,313061,128,0,313207:0:0:0:0:
109,192,313061,128,0,313134:0:0:0:0:
475,192,313134,128,0,313280:0:0:0:0:
256,192,313134,1,0,0:0:0:0:
402,192,313207,128,0,313354:0:0:0:0:
36,192,313207,128,0,313280:0:0:0:0:
329,192,313280,1,0,0:0:0:0:
109,192,313280,128,0,313354:0:0:0:0:
256,192,313280,128,0,313427:0:0:0:0:
475,192,313354,128,0,313427:0:0:0:0:
36,192,313354,1,0,0:0:0:0:
109,192,313427,128,0,313646:0:0:0:0:
182,192,313427,1,0,0:0:0:0:
329,192,313427,128,0,313500:0:0:0:0:
475,192,313500,128,0,313573:0:0:0:0:
402,192,313500,1,0,0:0:0:0:
329,192,313573,1,0,0:0:0:0:
256,192,313573,128,0,313646:0:0:0:0:
36,192,313573,128,0,313646:0:0:0:0:
182,192,313573,128,0,313719:0:0:0:0:
402,192,313646,128,0,313719:0:0:0:0:
256,192,313719,128,0,314085:0:0:0:0:
329,192,313719,128,0,313793:0:0:0:0:
475,192,313719,128,0,313866:0:0:0:0:
36,192,313719,128,0,313793:0:0:0:0:
109,192,313719,1,0,0:0:0:0:
402,192,313793,128,0,313939:0:0:0:0:
182,192,313793,128,0,313866:0:0:0:0:
36,192,313866,1,0,0:0:0:0:
109,192,313866,128,0,313939:0:0:0:0:
329,192,313866,128,0,314012:0:0:0:0:
182,192,313939,128,0,314085:0:0:0:0:
475,192,313939,128,0,314012:0:0:0:0:
36,192,314012,128,0,314085:0:0:0:0:
402,192,314012,1,0,0:0:0:0:
109,192,314085,1,0,0:0:0:0:
329,192,314085,128,0,314158:0:0:0:0:
182,192,314158,1,0,0:0:0:0:
475,192,314158,128,0,314232:0:0:0:0:
36,192,314158,128,0,314232:0:0:0:0:
256,192,314158,128,0,314378:0:0:0:0:
402,192,314232,128,0,314305:0:0:0:0:
109,192,314232,128,0,314305:0:0:0:0:
475,192,314305,1,0,0:0:0:0:
36,192,314305,128,0,314597:0:0:0:0:
329,192,314305,128,0,314378:0:0:0:0:
182,192,314378,128,0,314451:0:0:0:0:
109,192,314378,1,0,0:0:0:0:
475,192,314451,128,0,314524:0:0:0:0:
402,192,314451,128,0,314524:0:0:0:0:
329,192,314451,1,0,0:0:0:0:
182,192,314524,128,0,314817:0:0:0:0:
109,192,314524,128,0,314597:0:0:0:0:
256,192,314524,128,0,314671:0:0:0:0:
475,192,314597,1,0,0:0:0:0:
402,192,314597,128,0,314671:0:0:0:0:
329,192,314671,128,0,314744:0:0:0:0:
109,192,314671,1,0,0:0:0:0:
36,192,314744,128,0,314817:0:0:0:0:
402,192,314744,1,0,0:0:0:0:
475,192,314744,128,0,314817:0:0:0:0:
256,192,314744,128,0,314817:0:0:0:0:
329,192,314817,128,0,314890:0:0:0:0:
475,192,314890,128,0,315256:0:0:0:0:
109,192,314890,128,0,315036:0:0:0:0:
402,192,314890,128,0,314963:0:0:0:0:
256,192,314890,128,0,314963:0:0:0:0:
36,192,314890,1,0,0:0:0:0:
182,192,314963,128,0,315110:0:0:0:0:
329,192,314963,128,0,315036:0:0:0:0:
256,192,315036,128,0,315183:0:0:0:0:
36,192,315036,128,0,315110:0:0:0:0:
402,192,315036,1,0,0:0:0:0:
329,192,315110,128,0,315256:0:0:0:0:
109,192,315110,128,0,315183:0:0:0:0:
402,192,315183,128,0,315256:0:0:0:0:
182,192,315183,1,0,0:0:0:0:
256,192,315256,128,0,315329:0:0:0:0:
109,192,315256,1,0,0:0:0:0:
329,192,315329,1,0,0:0:0:0:
475,192,315329,128,0,315549:0:0:0:0:
182,192,315329,128,0,315402:0:0:0:0:
36,192,315329,128,0,315402:0:0:0:0:
256,192,315402,128,0,315475:0:0:0:0:
402,192,315402,128,0,315475:0:0:0:0:
182,192,315475,128,0,315549:0:0:0:0:
36,192,315475,1,0,0:0:0:0:
109,192,315475,128,0,315695:0:0:0:0:
256,192,315549,1,0,0:0:0:0:
329,192,315549,128,0,315622:0:0:0:0:
475,192,315622,1,0,0:0:0:0:
402,192,315622,128,0,315841:0:0:0:0:
36,192,315622,128,0,315695:0:0:0:0:
182,192,315622,128,0,315695:0:0:0:0:
329,192,315695,1,0,0:0:0:0:
256,192,315695,128,0,315768:0:0:0:0:
36,192,315768,128,0,315988:0:0:0:0:
109,192,315768,1,0,0:0:0:0:
475,192,315768,128,0,315841:0:0:0:0:
256,192,315841,1,0,0:0:0:0:
182,192,315841,128,0,315914:0:0:0:0:
329,192,315914,128,0,316061:0:0:0:0:
475,192,315914,1,0,0:0:0:0:
109,192,315914,128,0,315988:0:0:0:0:
402,192,315914,128,0,315988:0:0:0:0:
256,192,315988,128,0,316061:0:0:0:0:
402,192,316061,1,0,0:0:0:0:
475,192,316061,128,0,316207:0:0:0:0:
36,192,316061,128,0,316427:0:0:0:0:
109,192,316061,128,0,316134:0:0:0:0:
182,192,316061,128,0,316134:0:0:0:0:
329,192,316134,128,0,316280:0:0:0:0:
256,192,316134,128,0,316207:0:0:0:0:
182,192,316207,1,0,0:0:0:0:
402,192,316207,128,0,316354:0:0:0:0:
109,192,316207,128,0,316280:0:0:0:0:
475,192,316280,128,0,316427:0:0:0:0:
256,192,316280,128,0,316354:0:0:0:0:
329,192,316354,128,0,316427:0:0:0:0:
109,192,316354,1,0,0:0:0:0:
402,192,316427,128,0,316500:0:0:0:0:
182,192,316427,1,0,0:0:0:0:
36,192,316500,1,0,0:0:0:0:
256,192,316500,128,0,316573:0:0:0:0:
475,192,316500,128,0,316573:0:0:0:0:
109,192,316500,128,0,316719:0:0:0:0:
182,192,316573,128,0,316646:0:0:0:0:
329,192,316573,128,0,316646:0:0:0:0:
256,192,316646,128,0,317012:0:0:0:0:
402,192,316646,128,0,316793:0:0:0:0:
36,192,316646,1,0,0:0:0:0:
475,192,316719,128,0,316793:0:0:0:0:
182,192,316719,128,0,316793:0:0:0:0:
109,192,316793,1,0,0:0:0:0:
329,192,316793,128,0,316866:0:0:0:0:
36,192,316793,128,0,316866:0:0:0:0:
475,192,316866,1,0,0:0:0:0:
402,192,316866,128,0,316939:0:0:0:0:
182,192,316939,1,0,0:0:0:0:
109,192,316939,128,0,317012:0:0:0:0:
402,192,317012,1,0,0:0:0:0:
329,192,317012,128,0,317085:0:0:0:0:
475,192,317085,1,0,0:0:0:0:
109,192,317085,1,0,0:0:0:0:
182,192,317085,128,0,317158:0:0:0:0:
329,192,317158,1,0,0:0:0:0:
402,192,317158,128,0,317232:0:0:0:0:
182,192,317232,1,0,0:0:0:0:
256,192,317232,128,0,317378:0:0:0:0:
36,192,317232,128,0,317305:0:0:0:0:
475,192,317232,128,0,317305:0:0:0:0:
109,192,317232,128,0,317597:0:0:0:0:
329,192,317305,128,0,317378:0:0:0:0:
402,192,317305,128,0,317451:0:0:0:0:
182,192,317378,128,0,317524:0:0:0:0:
36,192,317378,1,0,0:0:0:0:
475,192,317378,128,0,317451:0:0:0:0:
329,192,317451,128,0,317597:0:0:0:0:
256,192,317451,128,0,317524:0:0:0:0:
36,192,317524,128,0,317597:0:0:0:0:
475,192,317524,1,0,0:0:0:0:
256,192,317597,128,0,317671:0:0:0:0:
402,192,317597,1,0,0:0:0:0:
109,192,317671,128,0,317744:0:0:0:0:
329,192,317671,128,0,317744:0:0:0:0:
182,192,317671,1,0,0:0:0:0:
36,192,317671,128,0,317744:0:0:0:0:
475,192,317744,128,0,317817:0:0:0:0:
256,192,317744,128,0,317817:0:0:0:0:
109,192,317817,128,0,318110:0:0:0:0:
182,192,317817,128,0,317890:0:0:0:0:
402,192,317817,1,0,0:0:0:0:
36,192,317890,128,0,317963:0:0:0:0:
329,192,317890,128,0,317963:0:0:0:0:
475,192,317963,128,0,318036:0:0:0:0:
182,192,317963,1,0,0:0:0:0:
402,192,317963,128,0,318036:0:0:0:0:
256,192,318036,128,0,318183:0:0:0:0:
329,192,318036,128,0,318329:0:0:0:0:
36,192,318036,128,0,318110:0:0:0:0:
475,192,318110,1,0,0:0:0:0:
182,192,318110,128,0,318183:0:0:0:0:
402,192,318183,128,0,318256:0:0:0:0:
109,192,318183,128,0,318256:0:0:0:0:
256,192,318256,128,0,318329:0:0:0:0:
182,192,318256,128,0,318402:0:0:0:0:
36,192,318256,1,0,0:0:0:0:
475,192,318256,128,0,318329:0:0:0:0:
109,192,318329,128,0,318402:0:0:0:0:
402,192,318402,128,0,318768:0:0:0:0:
329,192,318402,1,0,0:0:0:0:
256,192,318402,128,0,318549:0:0:0:0:
475,192,318402,128,0,318475:0:0:0:0:
36,192,318402,128,0,318475:0:0:0:0:
182,192,318475,128,0,318549:0:0:0:0:
109,192,318475,128,0,318622:0:0:0:0:
329,192,318549,128,0,318695:0:0:0:0:
475,192,318549,1,0,0:0:0:0:
36,192,318549,128,0,318622:0:0:0:0:
256,192,318622,128,0,318695:0:0:0:0:
182,192,318622,128,0,318768:0:0:0:0:
475,192,318695,128,0,318768:0:0:0:0:
109,192,318695,1,0,0:0:0:0:
256,192,318768,128,0,318841:0:0:0:0:
329,192,318768,1,0,0:0:0:0:
182,192,318841,1,0,0:0:0:0:
475,192,318841,128,0,318914:0:0:0:0:
36,192,318841,128,0,318914:0:0:0:0:
402,192,318841,128,0,319061:0:0:0:0:
329,192,318914,128,0,318988:0:0:0:0:
109,192,318914,128,0,318988:0:0:0:0:
475,192,318988,128,0,319207:0:0:0:0:
182,192,318988,128,0,319061:0:0:0:0:
36,192,318988,1,0,0:0:0:0:
256,192,319061,128,0,319207:0:0:0:0:
329,192,319061,1,0,0:0:0:0:
36,192,319134,128,0,319207:0:0:0:0:
182,192,319134,1,0,0:0:0:0:
109,192,319134,128,0,319207:0:0:0:0:
402,192,319207,1,0,0:0:0:0:
329,192,319207,128,0,319280:0:0:0:0:
256,192,319280,128,0,319354:0:0:0:0:
36,192,319280,128,0,319354:0:0:0:0:
475,192,319280,128,0,319354:0:0:0:0:
182,192,319280,128,0,319354:0:0:0:0:
402,192,319354,1,0,0:0:0:0:
329,192,319427,128,0,319500:0:0:0:0:
256,192,319427,128,0,319500:0:0:0:0:
109,192,319427,128,0,319500:0:0:0:0:
36,192,319427,128,0,319500:0:0:0:0:
402,192,319500,1,0,0:0:0:0:
256,192,319573,128,0,319719:0:0:0:0:
182,192,319573,128,0,319646:0:0:0:0:
36,192,319573,128,0,319793:0:0:0:0:
109,192,319573,1,0,0:0:0:0:
475,192,319573,128,0,320085:0:0:0:0:
329,192,319646,128,0,319793:0:0:0:0:
402,192,319719,128,0,319866:0:0:0:0:
182,192,319719,1,0,0:0:0:0:
109,192,319719,128,0,319793:0:0:0:0:
256,192,319793,128,0,319866:0:0:0:0:
36,192,319866,1,0,0:0:0:0:
329,192,319866,128,0,319939:0:0:0:0:
109,192,319866,128,0,319939:0:0:0:0:
182,192,319939,128,0,320012:0:0:0:0:
402,192,320012,128,0,320085:0:0:0:0:
329,192,320012,1,0,0:0:0:0:
36,192,320012,128,0,320378:0:0:0:0:
256,192,320012,128,0,320232:0:0:0:0:
109,192,320085,1,0,0:0:0:0:
329,192,320158,128,0,320232:0:0:0:0:
475,192,320158,128,0,320232:0:0:0:0:
182,192,320158,128,0,320524:0:0:0:0:
402,192,320232,1,0,0:0:0:0:
256,192,320305,1,0,0:0:0:0:
329,192,320305,128,0,320378:0:0:0:0:
109,192,320305,128,0,320378:0:0:0:0:
475,192,320378,1,0,0:0:0:0:
402,192,320378,128,0,320671:0:0:0:0:
256,192,320451,128,0,320524:0:0:0:0:
109,192,320451,128,0,320524:0:0:0:0:
36,192,320451,1,0,0:0:0:0:
329,192,320524,1,0,0:0:0:0:
475,192,320597,128,0,320671:0:0:0:0:
256,192,320597,128,0,320744:0:0:0:0:
36,192,320597,128,0,320671:0:0:0:0:
182,192,320597,128,0,320671:0:0:0:0:
109,192,320671,1,0,0:0:0:0:
475,192,320744,128,0,321183:0:0:0:0:
36,192,320744,128,0,320817:0:0:0:0:
402,192,320744,128,0,320890:0:0:0:0:
182,192,320744,1,0,0:0:0:0:
329,192,320744,128,0,320817:0:0:0:0:
256,192,320817,1,0,0:0:0:0:
109,192,320817,128,0,320890:0:0:0:0:
329,192,320890,1,0,0:0:0:0:
182,192,320890,128,0,320963:0:0:0:0:
256,192,320963,128,0,321036:0:0:0:0:
402,192,320963,1,0,0:0:0:0:
36,192,321036,1,0,0:0:0:0:
109,192,321036,128,0,321110:0:0:0:0:
182,192,321110,1,0,0:0:0:0:
329,192,321110,128,0,321183:0:0:0:0:
402,192,321183,128,0,321329:0:0:0:0:
109,192,321183,1,0,0:0:0:0:
36,192,321183,128,0,321256:0:0:0:0:
256,192,321256,128,0,321329:0:0:0:0:
182,192,321256,1,0,0:0:0:0:
36,192,321329,1,0,0:0:0:0:
329,192,321329,128,0,321695:0:0:0:0:
475,192,321329,128,0,321402:0:0:0:0:
182,192,321402,128,0,321475:0:0:0:0:
109,192,321402,1,0,0:0:0:0:
256,192,321475,1,0,0:0:0:0:
402,192,321475,128,0,321549:0:0:0:0:
109,192,321549,128,0,321622:0:0:0:0:
475,192,321549,1,0,0:0:0:0:
36,192,321622,128,0,321695:0:0:0:0:
182,192,321622,128,0,321841:0:0:0:0:
256,192,321622,1,0,0:0:0:0:
475,192,321695,128,0,321768:0:0:0:0:
402,192,321695,1,0,0:0:0:0:
109,192,321768,1,0,0:0:0:0:
329,192,321768,128,0,321988:0:0:0:0:
36,192,321768,128,0,321841:0:0:0:0:
475,192,321841,128,0,321914:0:0:0:0:
256,192,321841,1,0,0:0:0:0:
109,192,321914,128,0,322207:0:0:0:0:
36,192,321914,128,0,322427:0:0:0:0:
182,192,321914,128,0,322061:0:0:0:0:
402,192,321914,1,0,0:0:0:0:
475,192,322061,128,0,322280:0:0:0:0:
402,192,322061,128,0,322134:0:0:0:0:
329,192,322061,1,0,0:0:0:0:
329,192,322207,128,0,322280:0:0:0:0:
182,192,322207,1,0,0:0:0:0:
109,192,322280,1,0,0:0:0:0:
256,192,322280,128,0,322354:0:0:0:0:
182,192,322354,128,0,322646:0:0:0:0:
402,192,322354,128,0,322427:0:0:0:0:
475,192,322354,1,0,0:0:0:0:
329,192,322354,128,0,322573:0:0:0:0:
475,192,322500,1,0,0:0:0:0:
256,192,322500,1,0,0:0:0:0:
109,192,322500,128,0,322646:0:0:0:0:
36,192,322500,128,0,322719:0:0:0:0:
475,192,322646,128,0,322866:0:0:0:0:
329,192,322646,1,0,0:0:0:0:
402,192,322646,128,0,322719:0:0:0:0:
256,192,322719,128,0,322866:0:0:0:0:
182,192,322719,128,0,322866:0:0:0:0:
36,192,322793,1,0,0:0:0:0:
329,192,322793,128,0,322866:0:0:0:0:
402,192,322866,1,0,0:0:0:0:
109,192,322866,128,0,322939:0:0:0:0:
475,192,322939,128,0,323012:0:0:0:0:
256,192,322939,128,0,323012:0:0:0:0:
36,192,322939,128,0,323158:0:0:0:0:
182,192,322939,1,0,0:0:0:0:
329,192,322939,128,0,323232:0:0:0:0:
256,192,323085,1,0,0:0:0:0:
182,192,323085,128,0,323158:0:0:0:0:
475,192,323085,128,0,323597:0:0:0:0:
402,192,323085,128,0,323378:0:0:0:0:
109,192,323085,128,0,323158:0:0:0:0:
109,192,323232,128,0,323305:0:0:0:0:
36,192,323232,128,0,323451:0:0:0:0:
182,192,323232,1,0,0:0:0:0:
182,192,323378,128,0,323451:0:0:0:0:
256,192,323378,1,0,0:0:0:0:
109,192,323524,128,0,323597:0:0:0:0:
36,192,323524,1,0,0:0:0:0:
182,192,323524,128,0,323744:0:0:0:0:
329,192,323524,128,0,323597:0:0:0:0:
402,192,323524,1,0,0:0:0:0:
256,192,323671,128,0,323890:0:0:0:0:
36,192,323671,1,0,0:0:0:0:
402,192,323671,128,0,323890:0:0:0:0:
475,192,323744,1,0,0:0:0:0:
329,192,323744,128,0,323817:0:0:0:0:
36,192,323817,128,0,324036:0:0:0:0:
182,192,323817,1,0,0:0:0:0:
109,192,323817,128,0,323890:0:0:0:0:
182,192,323963,128,0,324036:0:0:0:0:
109,192,323963,1,0,0:0:0:0:
402,192,323963,128,0,324036:0:0:0:0:
329,192,323963,128,0,324183:0:0:0:0:
256,192,324110,128,0,324183:0:0:0:0:
36,192,324110,128,0,324183:0:0:0:0:
475,192,324110,128,0,324329:0:0:0:0:
402,192,324110,1,0,0:0:0:0:
182,192,324110,128,0,324402:0:0:0:0:
402,192,324256,128,0,324329:0:0:0:0:
36,192,324256,128,0,324549:0:0:0:0:
109,192,324256,128,0,324768:0:0:0:0:
329,192,324256,1,0,0:0:0:0:
256,192,324256,128,0,324329:0:0:0:0:
402,192,324402,1,0,0:0:0:0:
329,192,324402,128,0,324475:0:0:0:0:
475,192,324402,128,0,324622:0:0:0:0:
402,192,324549,128,0,324622:0:0:0:0:
182,192,324549,1,0,0:0:0:0:
36,192,324622,1,0,0:0:0:0:
329,192,324622,128,0,324695:0:0:0:0:
402,192,324695,128,0,324914:0:0:0:0:
475,192,324695,128,0,324768:0:0:0:0:
182,192,324695,128,0,324988:0:0:0:0:
256,192,324695,1,0,0:0:0:0:
329,192,324841,1,0,0:0:0:0:
36,192,324841,128,0,325061:0:0:0:0:
256,192,324841,128,0,324988:0:0:0:0:
109,192,324841,1,0,0:0:0:0:
475,192,324988,128,0,325061:0:0:0:0:
402,192,324988,1,0,0:0:0:0:
329,192,324988,128,0,325207:0:0:0:0:
182,192,325061,128,0,325207:0:0:0:0:
109,192,325061,128,0,325207:0:0:0:0:
256,192,325134,1,0,0:0:0:0:
402,192,325134,128,0,325207:0:0:0:0:
36,192,325207,1,0,0:0:0:0:
475,192,325207,128,0,325280:0:0:0:0:
256,192,325280,128,0,325500:0:0:0:0:
329,192,325280,1,0,0:0:0:0:
402,192,325280,128,0,325354:0:0:0:0:
182,192,325280,128,0,325354:0:0:0:0:
109,192,325280,1,0,0:0:0:0:
329,192,325427,128,0,325573:0:0:0:0:
36,192,325427,128,0,325500:0:0:0:0:
475,192,325427,128,0,325719:0:0:0:0:
402,192,325427,128,0,325939:0:0:0:0:
182,192,325427,1,0,0:0:0:0:
109,192,325573,1,0,0:0:0:0:
36,192,325573,128,0,325793:0:0:0:0:
182,192,325573,128,0,325646:0:0:0:0:
182,192,325719,128,0,325793:0:0:0:0:
329,192,325719,1,0,0:0:0:0:
256,192,325866,1,0,0:0:0:0:
109,192,325866,128,0,326085:0:0:0:0:
36,192,325866,128,0,325939:0:0:0:0:
475,192,325866,1,0,0:0:0:0:
329,192,325866,128,0,325939:0:0:0:0:
182,192,326012,1,0,0:0:0:0:
402,192,326012,128,0,326232:0:0:0:0:
256,192,326012,128,0,326232:0:0:0:0:
475,192,326085,1,0,0:0:0:0:
329,192,326085,128,0,326158:0:0:0:0:
109,192,326158,1,0,0:0:0:0:
36,192,326158,128,0,326232:0:0:0:0:
182,192,326158,128,0,326378:0:0:0:0:
475,192,326305,128,0,326378:0:0:0:0:
329,192,326305,128,0,326524:0:0:0:0:
109,192,326305,128,0,326378:0:0:0:0:
256,192,326305,1,0,0:0:0:0:
36,192,326451,128,0,326524:0:0:0:0:
109,192,326451,128,0,326524:0:0:0:0:
475,192,326451,128,0,326671:0:0:0:0:
182,192,326451,1,0,0:0:0:0:
256,192,326451,128,0,326671:0:0:0:0:
402,192,326597,128,0,326671:0:0:0:0:
182,192,326597,128,0,326890:0:0:0:0:
36,192,326597,128,0,326744:0:0:0:0:
329,192,326597,1,0,0:0:0:0:
109,192,326597,128,0,326744:0:0:0:0:
475,192,326744,1,0,0:0:0:0:
329,192,326744,128,0,326963:0:0:0:0:
402,192,326744,128,0,326817:0:0:0:0:
109,192,326890,128,0,326963:0:0:0:0:
475,192,326890,128,0,326963:0:0:0:0:
256,192,326890,128,0,326963:0:0:0:0:
36,192,326963,1,0,0:0:0:0:
182,192,326963,128,0,327036:0:0:0:0:
402,192,327036,128,0,327256:0:0:0:0:
109,192,327036,128,0,327402:0:0:0:0:
329,192,327036,1,0,0:0:0:0:
475,192,327036,128,0,327110:0:0:0:0:
256,192,327036,128,0,327256:0:0:0:0:
182,192,327183,1,0,0:0:0:0:
329,192,327183,128,0,327256:0:0:0:0:
329,192,327329,128,0,327549:0:0:0:0:
36,192,327329,1,0,0:0:0:0:
475,192,327329,128,0,327549:0:0:0:0:
402,192,327329,1,0,0:0:0:0:
182,192,327329,128,0,327475:0:0:0:0:
256,192,327475,1,0,0:0:0:0:
402,192,327475,128,0,327549:0:0:0:0:
36,192,327475,1,0,0:0:0:0:
182,192,327549,128,0,327695:0:0:0:0:
109,192,327549,1,0,0:0:0:0:
329,192,327622,1,0,0:0:0:0:
475,192,327622,1,0,0:0:0:0:
256,192,327622,128,0,327841:0:0:0:0:
36,192,327622,128,0,327695:0:0:0:0:
402,192,327622,128,0,327695:0:0:0:0:
109,192,327768,128,0,327841:0:0:0:0:
36,192,327768,128,0,327841:0:0:0:0:
329,192,327768,128,0,328207:0:0:0:0:
182,192,327768,1,0,0:0:0:0:
475,192,327768,128,0,327914:0:0:0:0:
402,192,327768,128,0,327914:0:0:0:0:
256,192,327914,1,0,0:0:0:0:
109,192,327914,128,0,327988:0:0:0:0:
182,192,327914,128,0,328134:0:0:0:0:
36,192,328061,128,0,328134:0:0:0:0:
402,192,328061,128,0,328500:0:0:0:0:
256,192,328061,128,0,328207:0:0:0:0:
182,192,328207,1,0,0:0:0:0:
109,192,328207,128,0,328427:0:0:0:0:
36,192,328207,128,0,328280:0:0:0:0:
182,192,328354,128,0,328427:0:0:0:0:
329,192,328354,128,0,328427:0:0:0:0:
475,192,328354,128,0,328719:0:0:0:0:
256,192,328427,1,0,0:0:0:0:
36,192,328427,128,0,328500:0:0:0:0:
329,192,328500,1,0,0:0:0:0:
109,192,328500,128,0,328573:0:0:0:0:
182,192,328500,128,0,328719:0:0:0:0:
402,192,328646,128,0,328719:0:0:0:0:
36,192,328646,128,0,328866:0:0:0:0:
256,192,328646,128,0,328719:0:0:0:0:
256,192,328793,128,0,329012:0:0:0:0:
182,192,328793,128,0,328866:0:0:0:0:
402,192,328793,1,0,0:0:0:0:
475,192,328793,128,0,329012:0:0:0:0:
109,192,328793,1,0,0:0:0:0:
109,192,328939,128,0,329305:0:0:0:0:
329,192,328939,128,0,329012:0:0:0:0:
36,192,328939,1,0,0:0:0:0:
402,192,329012,1,0,0:0:0:0:
182,192,329012,1,0,0:0:0:0:
475,192,329085,1,0,0:0:0:0:
256,192,329085,1,0,0:0:0:0:
36,192,329158,1,0,0:0:0:0:
329,192,329158,1,0,0:0:0:0:
402,192,329232,1,0,0:0:0:0:
182,192,329232,1,0,0:0:0:0:
329,192,329305,1,0,0:0:0:0:
36,192,329305,1,0,0:0:0:0:
182,192,329378,1,0,0:0:0:0:
109,192,329378,128,0,329451:0:0:0:0:
475,192,329378,1,0,0:0:0:0:
329,192,329451,1,0,0:0:0:0:
256,192,329451,1,0,0:0:0:0:
402,192,329524,1,0,0:0:0:0:
109,192,329524,128,0,329671:0:0:0:0:
36,192,329524,1,0,0:0:0:0:
475,192,329524,1,0,0:0:0:0:
182,192,329597,1,0,0:0:0:0:
329,192,329597,1,0,0:0:0:0:
256,192,329671,1,0,0:0:0:0:
402,192,329671,1,0,0:0:0:0:
475,192,329744,1,0,0:0:0:0:
109,192,329744,1,0,0:0:0:0:
182,192,329744,128,0,329890:0:0:0:0:
402,192,329817,1,0,0:0:0:0:
256,192,329817,1,0,0:0:0:0:
36,192,329890,1,0,0:0:0:0:
329,192,329890,1,0,0:0:0:0:
109,192,329963,128,0,330036:0:0:0:0:
475,192,329963,1,0,0:0:0:0:
182,192,329963,1,0,0:0:0:0:
402,192,330036,1,0,0:0:0:0:
329,192,330036,1,0,0:0:0:0:
182,192,330110,1,0,0:0:0:0:
475,192,330110,1,0,0:0:0:0:
36,192,330110,128,0,330329:0:0:0:0:
256,192,330110,1,0,0:0:0:0:
109,192,330183,1,0,0:0:0:0:
329,192,330183,1,0,0:0:0:0:
182,192,330256,1,0,0:0:0:0:
402,192,330256,1,0,0:0:0:0:
256,192,330329,1,0,0:0:0:0:
475,192,330329,1,0,0:0:0:0:
329,192,330402,1,0,0:0:0:0:
36,192,330402,1,0,0:0:0:0:
182,192,330402,128,0,330622:0:0:0:0:
402,192,330475,1,0,0:0:0:0:
109,192,330475,1,0,0:0:0:0:
329,192,330549,1,0,0:0:0:0:
36,192,330549,1,0,0:0:0:0:
256,192,330622,1,0,0:0:0:0:
402,192,330622,1,0,0:0:0:0:
329,192,330695,128,0,330914:0:0:0:0:
475,192,330695,1,0,0:0:0:0:
109,192,330695,1,0,0:0:0:0:
36,192,330768,1,0,0:0:0:0:
256,192,330768,1,0,0:0:0:0:
182,192,330841,1,0,0:0:0:0:
475,192,330841,1,0,0:0:0:0:
256,192,330914,1,0,0:0:0:0:
36,192,330914,1,0,0:0:0:0:
475,192,330988,128,0,331207:0:0:0:0:
182,192,330988,1,0,0:0:0:0:
402,192,330988,1,0,0:0:0:0:
329,192,331061,1,0,0:0:0:0:
109,192,331061,1,0,0:0:0:0:
36,192,331134,1,0,0:0:0:0:
256,192,331134,1,0,0:0:0:0:
329,192,331207,1,0,0:0:0:0:
182,192,331207,1,0,0:0:0:0:
109,192,331280,128,0,331580:0:0:0:0:
256,192,331280,128,0,331580:0:0:0:0:
36,192,331280,128,0,331580:0:0:0:0:
402,192,331280,128,0,331580:0:0:0:0:
475,192,331280,128,0,331580:0:0:0:0:
36,192,350480,5,0,0:0:0:0:
402,192,350480,1,0,0:0:0:0:
256,192,350480,128,0,352430:0:0:0:0:
329,192,350480,1,0,0:0:0:0:
475,192,350480,128,0,350930:0:0:0:0:
182,192,350480,1,0,0:0:0:0:
36,192,350630,128,0,350780:0:0:0:0:
329,192,350780,128,0,351830:0:0:0:0:
36,192,350930,128,0,351080:0:0:0:0:
475,192,351080,128,0,351530:0:0:0:0:
36,192,351230,128,0,351380:0:0:0:0:
182,192,351380,128,0,352130:0:0:0:0:
36,192,351530,128,0,351680:0:0:0:0:
402,192,351680,1,0,0:0:0:0:
475,192,351680,128,0,351980:0:0:0:0:
36,192,351830,128,0,351980:0:0:0:0:
329,192,351980,128,0,352280:0:0:0:0:
36,192,352130,128,0,352280:0:0:0:0:
182,192,352280,128,0,352580:0:0:0:0:
36,192,352430,128,0,352730:0:0:0:0:
256,192,352580,128,0,352655:0:0:0:0:
329,192,352655,128,0,352730:0:0:0:0:
109,192,352730,128,0,352805:0:0:0:0:
182,192,352805,128,0,352880:0:0:0:0:
475,192,352880,128,0,353630:0:0:0:0:
402,192,352880,1,0,0:0:0:0:
256,192,352880,128,0,354980:0:0:0:0:
36,192,353030,128,0,353180:0:0:0:0:
329,192,353180,128,0,354230:0:0:0:0:
36,192,353330,128,0,353480:0:0:0:0:
182,192,353480,128,0,353930:0:0:0:0:
36,192,353630,128,0,353780:0:0:0:0:
475,192,353780,128,0,354530:0:0:0:0:
36,192,353930,128,0,354080:0:0:0:0:
182,192,354080,128,0,354380:0:0:0:0:
402,192,354080,1,0,0:0:0:0:
36,192,354230,128,0,354530:0:0:0:0:
329,192,354380,128,0,354680:0:0:0:0:
182,192,354530,128,0,354830:0:0:0:0:
475,192,354680,128,0,354980:0:0:0:0:
329,192,354830,128,0,355130:0:0:0:0:
109,192,354980,128,0,355055:0:0:0:0:
182,192,355055,128,0,355205:0:0:0:0:
402,192,355130,128,0,355205:0:0:0:0:
256,192,355205,128,0,355280:0:0:0:0:
475,192,355280,128,0,355730:0:0:0:0:
402,192,355280,1,0,0:0:0:0:
109,192,355280,128,0,356330:0:0:0:0:
36,192,355430,128,0,355580:0:0:0:0:
329,192,355580,128,0,356630:0:0:0:0:
36,192,355730,128,0,355880:0:0:0:0:
475,192,355880,128,0,356330:0:0:0:0:
36,192,356030,128,0,356180:0:0:0:0:
182,192,356180,128,0,356930:0:0:0:0:
36,192,356330,128,0,356480:0:0:0:0:
402,192,356480,1,0,0:0:0:0:
475,192,356480,128,0,356780:0:0:0:0:
256,192,356480,128,0,357530:0:0:0:0:
36,192,356630,128,0,356780:0:0:0:0:
329,192,356780,128,0,357230:0:0:0:0:
109,192,356930,128,0,357080:0:0:0:0:
182,192,357080,128,0,357380:0:0:0:0:
402,192,357230,128,0,357380:0:0:0:0:
329,192,357380,128,0,357680:0:0:0:0:
109,192,357530,128,0,357680:0:0:0:0:
402,192,357680,128,0,358730:0:0:0:0:
182,192,357680,128,0,357980:0:0:0:0:
475,192,357680,128,0,358130:0:0:0:0:
36,192,357830,128,0,358280:0:0:0:0:
329,192,357980,128,0,358430:0:0:0:0:
182,192,358130,128,0,358580:0:0:0:0:
475,192,358280,128,0,358430:0:0:0:0:
36,192,358430,128,0,358730:0:0:0:0:
329,192,358580,128,0,358730:0:0:0:0:
182,192,358730,128,0,358880:0:0:0:0:
256,192,358880,128,0,359855:0:0:0:0:
402,192,358880,128,0,359180:0:0:0:0:
475,192,358880,128,0,359030:0:0:0:0:
109,192,359030,128,0,359330:0:0:0:0:
36,192,359180,128,0,359480:0:0:0:0:
329,192,359330,128,0,359480:0:0:0:0:
402,192,359480,128,0,359705:0:0:0:0:
182,192,359555,128,0,359630:0:0:0:0:
109,192,359630,128,0,359855:0:0:0:0:
329,192,359705,128,0,359780:0:0:0:0:
402,192,359780,128,0,359930:0:0:0:0:
182,192,359855,128,0,359930:0:0:0:0:
109,192,359930,128,0,360080:0:0:0:0:
329,192,360005,128,0,360080:0:0:0:0:
475,192,360080,5,0,0:0:0:0:
256,192,360080,128,0,362030:0:0:0:0:
36,192,360080,128,0,360530:0:0:0:0:
402,192,360080,1,0,0:0:0:0:
475,192,360230,128,0,360380:0:0:0:0:
182,192,360380,128,0,361430:0:0:0:0:
475,192,360530,128,0,360680:0:0:0:0:
36,192,360680,128,0,361130:0:0:0:0:
475,192,360830,128,0,360980:0:0:0:0:
329,192,360980,128,0,361730:0:0:0:0:
475,192,361130,128,0,361280:0:0:0:0:
109,192,361280,1,0,0:0:0:0:
36,192,361280,128,0,361580:0:0:0:0:
475,192,361430,128,0,361580:0:0:0:0:
182,192,361580,128,0,361880:0:0:0:0:
475,192,361730,128,0,361880:0:0:0:0:
329,192,361880,128,0,362180:0:0:0:0:
475,192,362030,128,0,362330:0:0:0:0:
256,192,362180,128,0,362255:0:0:0:0:
182,192,362255,128,0,362330:0:0:0:0:
402,192,362330,128,0,362405:0:0:0:0:
329,192,362405,128,0,362480:0:0:0:0:
36,192,362480,128,0,363230:0:0:0:0:
109,192,362480,1,0,0:0:0:0:
256,192,362480,128,0,364580:0:0:0:0:
475,192,362630,128,0,362780:0:0:0:0:
182,192,362780,128,0,363830:0:0:0:0:
475,192,362930,128,0,363080:0:0:0:0:
329,192,363080,128,0,363530:0:0:0:0:
475,192,363230,128,0,363380:0:0:0:0:
36,192,363380,128,0,364130:0:0:0:0:
475,192,363530,128,0,363680:0:0:0:0:
329,192,363680,128,0,363980:0:0:0:0:
109,192,363680,1,0,0:0:0:0:
475,192,363830,128,0,364130:0:0:0:0:
182,192,363980,128,0,364280:0:0:0:0:
329,192,364130,128,0,364430:0:0:0:0:
36,192,364280,128,0,364580:0:0:0:0:
182,192,364430,128,0,364730:0:0:0:0:
402,192,364580,128,0,364655:0:0:0:0:
329,192,364655,128,0,364805:0:0:0:0:
109,192,364730,128,0,364805:0:0:0:0:
256,192,364805,128,0,364880:0:0:0:0:
36,192,364880,128,0,365330:0:0:0:0:
109,192,364880,1,0,0:0:0:0:
402,192,364880,128,0,365930:0:0:0:0:
475,192,365030,128,0,365180:0:0:0:0:
182,192,365180,128,0,366230:0:0:0:0:
475,192,365330,128,0,365480:0:0:0:0:
36,192,365480,128,0,365930:0:0:0:0:
475,192,365630,128,0,365780:0:0:0:0:
329,192,365780,128,0,366530:0:0:0:0:
475,192,365930,128,0,366080:0:0:0:0:
109,192,366080,1,0,0:0:0:0:
36,192,366080,128,0,366380:0:0:0:0:
256,192,366080,128,0,367130:0:0:0:0:
475,192,366230,128,0,366380:0:0:0:0:
182,192,366380,128,0,366830:0:0:0:0:
402,192,366530,128,0,366680:0:0:0:0:
329,192,366680,128,0,366980:0:0:0:0:
109,192,366830,128,0,366980:0:0:0:0:
182,192,366980,128,0,367280:0:0:0:0:
402,192,367130,128,0,367280:0:0:0:0:
109,192,367280,128,0,368330:0:0:0:0:
329,192,367280,128,0,367580:0:0:0:0:
36,192,367280,128,0,367730:0:0:0:0:
475,192,367430,128,0,367880:0:0:0:0:
182,192,367580,128,0,368030:0:0:0:0:
329,192,367730,128,0,368180:0:0:0:0:
36,192,367880,128,0,368030:0:0:0:0:
475,192,368030,128,0,368330:0:0:0:0:
182,192,368180,128,0,368330:0:0:0:0:
329,192,368330,128,0,368480:0:0:0:0:
256,192,368480,128,0,369431:0:0:0:0:
109,192,368480,128,0,368772:0:0:0:0:
36,192,368480,128,0,368626:0:0:0:0:
402,192,368626,128,0,368772:0:0:0:0:
475,192,368772,128,0,368919:0:0:0:0:
182,192,368772,1,0,0:0:0:0:
36,192,368772,1,0,0:0:0:0:
182,192,368870,1,0,0:0:0:0:
36,192,368870,1,0,0:0:0:0:
402,192,368919,128,0,369065:0:0:0:0:
329,192,368967,1,0,0:0:0:0:
109,192,369065,128,0,369284:0:0:0:0:
182,192,369065,1,0,0:0:0:0:
36,192,369065,1,0,0:0:0:0:
475,192,369065,1,0,0:0:0:0:
329,192,369138,128,0,369211:0:0:0:0:
402,192,369211,128,0,369431:0:0:0:0:
475,192,369211,1,0,0:0:0:0:
182,192,369284,128,0,369358:0:0:0:0:
329,192,369284,1,0,0:0:0:0:
109,192,369358,128,0,369577:0:0:0:0:
36,192,369358,1,0,0:0:0:0:
329,192,369431,128,0,369504:0:0:0:0:
182,192,369431,1,0,0:0:0:0:
475,192,369504,1,0,0:0:0:0:
402,192,369504,128,0,369577:0:0:0:0:
182,192,369577,1,0,0:0:0:0:
256,192,369577,128,0,369650:0:0:0:0:
329,192,369650,1,0,0:0:0:0:
475,192,369650,1,0,0:0:0:0:
36,192,369650,1,0,0:0:0:0:
402,192,369650,128,0,371991:0:0:0:0:
109,192,369650,128,0,370820:0:0:0:0:
36,192,370089,1,0,0:0:0:0:
256,192,370089,1,0,0:0:0:0:
182,192,370235,1,0,0:0:0:0:
256,192,370235,1,0,0:0:0:0:
475,192,370235,1,0,0:0:0:0:
329,192,370235,1,0,0:0:0:0:
475,192,370528,1,0,0:0:0:0:
256,192,370820,128,0,371113:0:0:0:0:
475,192,370820,1,0,0:0:0:0:
182,192,371113,128,0,371406:0:0:0:0:
36,192,371113,1,0,0:0:0:0:
109,192,371113,1,0,0:0:0:0:
36,192,371406,128,0,371698:0:0:0:0:
109,192,371406,1,0,0:0:0:0:
256,192,371406,1,0,0:0:0:0:
329,192,371406,1,0,0:0:0:0:
475,192,371406,1,0,0:0:0:0:
256,192,371698,128,0,372869:0:0:0:0:
182,192,371698,1,0,0:0:0:0:
329,192,371698,1,0,0:0:0:0:
182,192,371991,1,0,0:0:0:0:
36,192,371991,1,0,0:0:0:0:
475,192,371991,1,0,0:0:0:0:
475,192,372284,1,0,0:0:0:0:
109,192,372430,1,0,0:0:0:0:
36,192,372430,1,0,0:0:0:0:
109,192,372576,1,0,0:0:0:0:
182,192,372576,1,0,0:0:0:0:
402,192,372576,1,0,0:0:0:0:
329,192,372576,1,0,0:0:0:0:
109,192,372869,128,0,373015:0:0:0:0:
402,192,372869,1,0,0:0:0:0:
475,192,372869,1,0,0:0:0:0:
36,192,373015,128,0,373162:0:0:0:0:
256,192,373162,128,0,373308:0:0:0:0:
109,192,373162,1,0,0:0:0:0:
402,192,373162,1,0,0:0:0:0:
109,192,373308,128,0,373454:0:0:0:0:
329,192,373454,128,0,373601:0:0:0:0:
475,192,373454,128,0,373601:0:0:0:0:
182,192,373454,1,0,0:0:0:0:
36,192,373454,1,0,0:0:0:0:
182,192,373601,128,0,373747:0:0:0:0:
402,192,373601,1,0,0:0:0:0:
109,192,373601,1,0,0:0:0:0:
256,192,373747,1,0,0:0:0:0:
402,192,373747,128,0,373893:0:0:0:0:
475,192,373747,128,0,373893:0:0:0:0:
36,192,373747,1,0,0:0:0:0:
329,192,373747,1,0,0:0:0:0:
256,192,373893,128,0,374040:0:0:0:0:
109,192,373893,1,0,0:0:0:0:
36,192,373893,1,0,0:0:0:0:
475,192,374040,128,0,374186:0:0:0:0:
182,192,374040,128,0,374186:0:0:0:0:
402,192,374040,1,0,0:0:0:0:
402,192,374186,128,0,374332:0:0:0:0:
109,192,374186,128,0,374332:0:0:0:0:
329,192,374186,1,0,0:0:0:0:
36,192,374332,128,0,374479:0:0:0:0:
256,192,374332,128,0,374479:0:0:0:0:
182,192,374332,1,0,0:0:0:0:
475,192,374332,1,0,0:0:0:0:
109,192,374479,128,0,374625:0:0:0:0:
329,192,374479,128,0,374771:0:0:0:0:
475,192,374479,1,0,0:0:0:0:
182,192,374625,1,0,0:0:0:0:
402,192,374625,1,0,0:0:0:0:
182,192,374771,128,0,374918:0:0:0:0:
256,192,374771,1,0,0:0:0:0:
109,192,374771,1,0,0:0:0:0:
109,192,374918,128,0,375064:0:0:0:0:
402,192,374918,128,0,375064:0:0:0:0:
36,192,374918,1,0,0:0:0:0:
256,192,374918,1,0,0:0:0:0:
329,192,374918,1,0,0:0:0:0:
475,192,374918,1,0,0:0:0:0:
182,192,375064,128,0,375210:0:0:0:0:
475,192,375064,128,0,375210:0:0:0:0:
256,192,375210,128,0,375357:0:0:0:0:
402,192,375210,128,0,375357:0:0:0:0:
36,192,375210,1,0,0:0:0:0:
109,192,375357,1,0,0:0:0:0:
475,192,375357,1,0,0:0:0:0:
256,192,375503,128,0,375650:0:0:0:0:
475,192,375503,128,0,375650:0:0:0:0:
402,192,375503,1,0,0:0:0:0:
402,192,375650,128,0,375796:0:0:0:0:
182,192,375650,128,0,375942:0:0:0:0:
329,192,375796,1,0,0:0:0:0:
36,192,375796,1,0,0:0:0:0:
109,192,375796,1,0,0:0:0:0:
36,192,375942,128,0,376089:0:0:0:0:
182,192,376089,128,0,376235:0:0:0:0:
329,192,376089,128,0,376381:0:0:0:0:
256,192,376089,1,0,0:0:0:0:
402,192,376089,1,0,0:0:0:0:
475,192,376089,1,0,0:0:0:0:
109,192,376235,1,0,0:0:0:0:
109,192,376381,1,0,0:0:0:0:
256,192,376381,1,0,0:0:0:0:
402,192,376381,1,0,0:0:0:0:
109,192,376528,1,0,0:0:0:0:
256,192,376674,128,0,377113:0:0:0:0:
402,192,376674,128,0,377406:0:0:0:0:
329,192,376674,1,0,0:0:0:0:
475,192,376674,1,0,0:0:0:0:
109,192,376967,1,0,0:0:0:0:
36,192,376967,1,0,0:0:0:0:
109,192,377113,128,0,377259:0:0:0:0:
329,192,377113,1,0,0:0:0:0:
475,192,377113,1,0,0:0:0:0:
256,192,377259,1,0,0:0:0:0:
329,192,377259,1,0,0:0:0:0:
182,192,377259,1,0,0:0:0:0:
36,192,377259,1,0,0:0:0:0:
256,192,377406,128,0,377552:0:0:0:0:
402,192,377552,1,0,0:0:0:0:
475,192,377552,1,0,0:0:0:0:
109,192,377552,1,0,0:0:0:0:
402,192,377698,128,0,377845:0:0:0:0:
256,192,377845,128,0,378869:0:0:0:0:
182,192,377845,1,0,0:0:0:0:
36,192,377845,1,0,0:0:0:0:
36,192,378137,1,0,0:0:0:0:
329,192,378137,1,0,0:0:0:0:
329,192,378284,1,0,0:0:0:0:
36,192,378284,1,0,0:0:0:0:
109,192,378430,1,0,0:0:0:0:
182,192,378430,1,0,0:0:0:0:
402,192,378430,1,0,0:0:0:0:
475,192,378430,1,0,0:0:0:0:
329,192,378576,1,0,0:0:0:0:
36,192,378576,1,0,0:0:0:0:
475,192,378723,1,0,0:0:0:0:
109,192,378869,1,0,0:0:0:0:
402,192,378942,1,0,0:0:0:0:
182,192,379015,1,0,0:0:0:0:
109,192,379015,1,0,0:0:0:0:
36,192,379015,1,0,0:0:0:0:
475,192,379015,1,0,0:0:0:0:
329,192,379015,128,0,379162:0:0:0:0:
182,192,379162,128,0,379308:0:0:0:0:
36,192,379162,128,0,379454:0:0:0:0:
256,192,379308,1,0,0:0:0:0:
109,192,379308,1,0,0:0:0:0:
402,192,379308,128,0,379454:0:0:0:0:
256,192,379454,128,0,379601:0:0:0:0:
109,192,379454,128,0,379747:0:0:0:0:
475,192,379454,1,0,0:0:0:0:
329,192,379454,1,0,0:0:0:0:
329,192,379601,1,0,0:0:0:0:
182,192,379601,1,0,0:0:0:0:
36,192,379601,1,0,0:0:0:0:
402,192,379601,1,0,0:0:0:0:
475,192,379601,128,0,379747:0:0:0:0:
329,192,379747,128,0,379893:0:0:0:0:
182,192,379747,128,0,380040:0:0:0:0:
36,192,379893,128,0,380040:0:0:0:0:
402,192,379893,1,0,0:0:0:0:
475,192,379893,1,0,0:0:0:0:
402,192,380040,128,0,380332:0:0:0:0:
256,192,380040,128,0,380186:0:0:0:0:
182,192,380186,1,0,0:0:0:0:
329,192,380186,1,0,0:0:0:0:
36,192,380186,128,0,380332:0:0:0:0:
182,192,380332,128,0,380479:0:0:0:0:
329,192,380332,128,0,380625:0:0:0:0:
109,192,380479,1,0,0:0:0:0:
475,192,380479,128,0,380625:0:0:0:0:
256,192,380479,1,0,0:0:0:0:
36,192,380479,1,0,0:0:0:0:
109,192,380625,128,0,380918:0:0:0:0:
256,192,380625,128,0,380771:0:0:0:0:
329,192,380771,1,0,0:0:0:0:
402,192,380771,1,0,0:0:0:0:
182,192,380771,1,0,0:0:0:0:
36,192,380771,1,0,0:0:0:0:
475,192,380771,128,0,380918:0:0:0:0:
329,192,380918,128,0,381064:0:0:0:0:
182,192,380918,128,0,381210:0:0:0:0:
402,192,381064,128,0,381210:0:0:0:0:
109,192,381064,1,0,0:0:0:0:
475,192,381064,1,0,0:0:0:0:
36,192,381064,128,0,381357:0:0:0:0:
256,192,381137,128,0,381284:0:0:0:0:
475,192,381210,128,0,381284:0:0:0:0:
402,192,381284,128,0,381357:0:0:0:0:
329,192,381357,1,0,0:0:0:0:
256,192,381357,1,0,0:0:0:0:
182,192,381357,1,0,0:0:0:0:
475,192,381357,1,0,0:0:0:0:
109,192,381357,128,0,381503:0:0:0:0:
182,192,381503,128,0,381796:0:0:0:0:
329,192,381503,128,0,381650:0:0:0:0:
256,192,381650,1,0,0:0:0:0:
402,192,381650,1,0,0:0:0:0:
36,192,381650,128,0,381796:0:0:0:0:
256,192,381796,128,0,382089:0:0:0:0:
402,192,381796,128,0,381942:0:0:0:0:
475,192,381796,1,0,0:0:0:0:
329,192,381796,1,0,0:0:0:0:
329,192,381942,1,0,0:0:0:0:
475,192,381942,1,0,0:0:0:0:
182,192,381942,1,0,0:0:0:0:
36,192,381942,1,0,0:0:0:0:
109,192,381942,128,0,382089:0:0:0:0:
329,192,382089,128,0,382235:0:0:0:0:
475,192,382089,128,0,382381:0:0:0:0:
256,192,382235,1,0,0:0:0:0:
402,192,382235,1,0,0:0:0:0:
109,192,382235,128,0,382381:0:0:0:0:
36,192,382235,1,0,0:0:0:0:
256,192,382381,128,0,382528:0:0:0:0:
402,192,382381,128,0,382674:0:0:0:0:
182,192,382528,1,0,0:0:0:0:
329,192,382528,1,0,0:0:0:0:
36,192,382528,128,0,382674:0:0:0:0:
182,192,382674,128,0,382820:0:0:0:0:
329,192,382674,128,0,382967:0:0:0:0:
36,192,382820,1,0,0:0:0:0:
475,192,382820,128,0,382967:0:0:0:0:
256,192,382820,1,0,0:0:0:0:
36,192,382967,128,0,383259:0:0:0:0:
182,192,382967,128,0,383113:0:0:0:0:
109,192,382967,1,0,0:0:0:0:
402,192,382967,1,0,0:0:0:0:
256,192,383113,1,0,0:0:0:0:
109,192,383113,1,0,0:0:0:0:
402,192,383113,128,0,383259:0:0:0:0:
329,192,383113,1,0,0:0:0:0:
475,192,383113,1,0,0:0:0:0:
329,192,383259,1,0,0:0:0:0:
475,192,383259,1,0,0:0:0:0:
256,192,383259,128,0,383406:0:0:0:0:
109,192,383259,128,0,383552:0:0:0:0:
475,192,383406,128,0,383698:0:0:0:0:
402,192,383406,1,0,0:0:0:0:
182,192,383406,1,0,0:0:0:0:
329,192,383406,128,0,383552:0:0:0:0:
36,192,383479,128,0,383625:0:0:0:0:
256,192,383552,128,0,383625:0:0:0:0:
109,192,383625,128,0,383698:0:0:0:0:
256,192,383698,1,0,0:0:0:0:
329,192,383698,1,0,0:0:0:0:
402,192,383698,1,0,0:0:0:0:
36,192,383698,1,0,0:0:0:0:
182,192,383698,128,0,383845:0:0:0:0:
329,192,383845,128,0,383991:0:0:0:0:
475,192,383845,128,0,384137:0:0:0:0:
256,192,383991,1,0,0:0:0:0:
402,192,383991,1,0,0:0:0:0:
109,192,383991,128,0,384137:0:0:0:0:
256,192,384137,128,0,384284:0:0:0:0:
402,192,384137,128,0,384430:0:0:0:0:
36,192,384137,1,0,0:0:0:0:
182,192,384137,1,0,0:0:0:0:
182,192,384284,1,0,0:0:0:0:
329,192,384284,1,0,0:0:0:0:
475,192,384284,1,0,0:0:0:0:
109,192,384284,1,0,0:0:0:0:
36,192,384284,128,0,384430:0:0:0:0:
182,192,384430,128,0,384576:0:0:0:0:
329,192,384430,128,0,384723:0:0:0:0:
475,192,384576,128,0,384723:0:0:0:0:
109,192,384576,1,0,0:0:0:0:
36,192,384576,1,0,0:0:0:0:
109,192,384723,128,0,385015:0:0:0:0:
256,192,384723,128,0,384869:0:0:0:0:
329,192,384869,1,0,0:0:0:0:
182,192,384869,1,0,0:0:0:0:
475,192,384869,128,0,385015:0:0:0:0:
329,192,385015,128,0,385162:0:0:0:0:
182,192,385015,128,0,385308:0:0:0:0:
402,192,385162,1,0,0:0:0:0:
36,192,385162,128,0,385308:0:0:0:0:
256,192,385162,1,0,0:0:0:0:
475,192,385162,1,0,0:0:0:0:
256,192,385308,128,0,385601:0:0:0:0:
402,192,385308,128,0,385454:0:0:0:0:
182,192,385454,1,0,0:0:0:0:
329,192,385454,1,0,0:0:0:0:
475,192,385454,1,0,0:0:0:0:
36,192,385454,1,0,0:0:0:0:
109,192,385454,128,0,385601:0:0:0:0:
329,192,385601,128,0,385747:0:0:0:0:
475,192,385601,128,0,385893:0:0:0:0:
256,192,385747,1,0,0:0:0:0:
402,192,385747,1,0,0:0:0:0:
36,192,385747,128,0,385893:0:0:0:0:
182,192,385747,128,0,385893:0:0:0:0:
256,192,385893,128,0,386040:0:0:0:0:
402,192,385893,128,0,386040:0:0:0:0:
36,192,386040,1,0,0:0:0:0:
109,192,386040,128,0,386186:0:0:0:0:
182,192,386040,128,0,386332:0:0:0:0:
329,192,386040,128,0,386552:0:0:0:0:
475,192,386040,128,0,386552:0:0:0:0:
36,192,386186,128,0,386625:0:0:0:0:
109,192,386332,128,0,386479:0:0:0:0:
256,192,386479,1,0,0:0:0:0:
402,192,386479,1,0,0:0:0:0:
182,192,386479,128,0,386771:0:0:0:0:
109,192,386625,128,0,387210:0:0:0:0:
402,192,386625,128,0,386698:0:0:0:0:
329,192,386625,128,0,387137:0:0:0:0:
475,192,386625,128,0,387137:0:0:0:0:
36,192,386771,128,0,386918:0:0:0:0:
182,192,386918,128,0,387064:0:0:0:0:
402,192,386918,1,0,0:0:0:0:
256,192,386918,1,0,0:0:0:0:
36,192,387064,128,0,387503:0:0:0:0:
182,192,387210,1,0,0:0:0:0:
329,192,387210,1,0,0:0:0:0:
402,192,387210,128,0,387723:0:0:0:0:
475,192,387210,128,0,387357:0:0:0:0:
256,192,387210,128,0,387650:0:0:0:0:
182,192,387357,1,0,0:0:0:0:
329,192,387357,1,0,0:0:0:0:
109,192,387357,128,0,387723:0:0:0:0:
475,192,387503,128,0,387723:0:0:0:0:
182,192,387650,1,0,0:0:0:0:
329,192,387650,1,0,0:0:0:0:
36,192,387650,128,0,387723:0:0:0:0:
182,192,387796,128,0,388015:0:0:0:0:
256,192,387796,1,0,0:0:0:0:
475,192,387796,1,0,0:0:0:0:
402,192,387796,128,0,387942:0:0:0:0:
329,192,387796,128,0,388015:0:0:0:0:
36,192,387796,128,0,387869:0:0:0:0:
109,192,387942,128,0,388015:0:0:0:0:
36,192,387942,1,0,0:0:0:0:
256,192,387942,1,0,0:0:0:0:
402,192,388015,128,0,388162:0:0:0:0:
109,192,388089,128,0,388308:0:0:0:0:
256,192,388089,128,0,388308:0:0:0:0:
329,192,388089,128,0,388162:0:0:0:0:
182,192,388089,1,0,0:0:0:0:
475,192,388089,1,0,0:0:0:0:
36,192,388235,128,0,388308:0:0:0:0:
329,192,388235,128,0,388381:0:0:0:0:
402,192,388235,1,0,0:0:0:0:
182,192,388381,128,0,388454:0:0:0:0:
109,192,388381,128,0,388491:0:0:0:0:
36,192,388381,128,0,388747:0:0:0:0:
475,192,388381,128,0,388528:0:0:0:0:
256,192,388381,1,0,0:0:0:0:
402,192,388418,128,0,388564:0:0:0:0:
329,192,388454,128,0,388601:0:0:0:0:
256,192,388491,128,0,388637:0:0:0:0:
182,192,388528,128,0,389406:0:0:0:0:
109,192,388674,1,0,0:0:0:0:
329,192,388674,128,0,388747:0:0:0:0:
475,192,388674,128,0,388747:0:0:0:0:
402,192,388674,128,0,388967:0:0:0:0:
36,192,388820,128,0,389186:0:0:0:0:
475,192,388820,1,0,0:0:0:0:
256,192,388820,128,0,388967:0:0:0:0:
256,192,389113,128,0,389186:0:0:0:0:
402,192,389113,128,0,389186:0:0:0:0:
109,192,389259,128,0,389406:0:0:0:0:
36,192,389259,128,0,389662:0:0:0:0:
256,192,389259,1,0,0:0:0:0:
402,192,389259,128,0,389479:0:0:0:0:
329,192,389259,128,0,389332:0:0:0:0:
475,192,389259,128,0,389332:0:0:0:0:
475,192,389406,1,0,0:0:0:0:
329,192,389406,128,0,389589:0:0:0:0:
402,192,389552,128,0,389625:0:0:0:0:
109,192,389552,128,0,389698:0:0:0:0:
475,192,389552,128,0,389771:0:0:0:0:
182,192,389589,128,0,389735:0:0:0:0:
256,192,389625,128,0,389771:0:0:0:0:
329,192,389662,128,0,389808:0:0:0:0:
402,192,389698,128,0,390284:0:0:0:0:
475,192,389845,1,0,0:0:0:0:
182,192,389845,128,0,389918:0:0:0:0:
36,192,389845,128,0,389918:0:0:0:0:
109,192,389845,128,0,390210:0:0:0:0:
256,192,389845,128,0,390064:0:0:0:0:
256,192,390137,128,0,390210:0:0:0:0:
475,192,390137,128,0,390357:0:0:0:0:
329,192,390137,128,0,390576:0:0:0:0:
36,192,390284,1,0,0:0:0:0:
182,192,390284,128,0,390357:0:0:0:0:
402,192,390430,128,0,390576:0:0:0:0:
256,192,390430,1,0,0:0:0:0:
109,192,390430,128,0,390576:0:0:0:0:
475,192,390430,128,0,390832:0:0:0:0:
182,192,390430,128,0,390759:0:0:0:0:
36,192,390430,128,0,390503:0:0:0:0:
36,192,390723,128,0,390942:0:0:0:0:
109,192,390723,128,0,390796:0:0:0:0:
402,192,390723,128,0,390869:0:0:0:0:
329,192,390759,128,0,390906:0:0:0:0:
256,192,390796,128,0,390942:0:0:0:0:
182,192,390832,128,0,390979:0:0:0:0:
109,192,390869,128,0,391454:0:0:0:0:
36,192,391015,1,0,0:0:0:0:
256,192,391015,1,0,0:0:0:0:
402,192,391015,128,0,391089:0:0:0:0:
475,192,391015,128,0,391089:0:0:0:0:
329,192,391015,128,0,391381:0:0:0:0:
36,192,391162,128,0,391747:0:0:0:0:
475,192,391162,1,0,0:0:0:0:
182,192,391162,128,0,391381:0:0:0:0:
402,192,391454,128,0,391528:0:0:0:0:
256,192,391454,128,0,391528:0:0:0:0:
109,192,391601,128,0,391747:0:0:0:0:
182,192,391601,128,0,391893:0:0:0:0:
402,192,391601,128,0,391820:0:0:0:0:
475,192,391601,128,0,391674:0:0:0:0:
329,192,391601,1,0,0:0:0:0:
256,192,391601,128,0,391674:0:0:0:0:
329,192,391747,128,0,391967:0:0:0:0:
475,192,391747,1,0,0:0:0:0:
402,192,391893,128,0,391967:0:0:0:0:
475,192,391893,128,0,392113:0:0:0:0:
36,192,391893,128,0,392040:0:0:0:0:
109,192,391930,128,0,392076:0:0:0:0:
182,192,391967,128,0,392113:0:0:0:0:
256,192,392003,128,0,392150:0:0:0:0:
329,192,392040,128,0,392698:0:0:0:0:
36,192,392186,1,0,0:0:0:0:
402,192,392186,1,0,0:0:0:0:
475,192,392186,128,0,392259:0:0:0:0:
109,192,392186,128,0,392259:0:0:0:0:
182,192,392186,128,0,392552:0:0:0:0:
402,192,392479,128,0,392625:0:0:0:0:
109,192,392479,128,0,392698:0:0:0:0:
475,192,392479,128,0,392918:0:0:0:0:
256,192,392479,1,0,0:0:0:0:
256,192,392625,128,0,392698:0:0:0:0:
36,192,392625,128,0,392698:0:0:0:0:
256,192,392771,128,0,392845:0:0:0:0:
109,192,392771,1,0,0:0:0:0:
329,192,392771,1,0,0:0:0:0:
182,192,392771,128,0,392991:0:0:0:0:
36,192,392771,128,0,392991:0:0:0:0:
402,192,392771,128,0,393174:0:0:0:0:
36,192,393064,1,0,0:0:0:0:
329,192,393064,128,0,393210:0:0:0:0:
475,192,393064,1,0,0:0:0:0:
109,192,393064,1,0,0:0:0:0:
256,192,393101,128,0,393247:0:0:0:0:
182,192,393137,128,0,393284:0:0:0:0:
109,192,393174,128,0,393320:0:0:0:0:
36,192,393210,128,0,395259:0:0:0:0:
402,192,393357,128,0,393430:0:0:0:0:
256,192,393357,128,0,393723:0:0:0:0:
182,192,393357,128,0,393576:0:0:0:0:
329,192,393357,128,0,393430:0:0:0:0:
475,192,393357,1,0,0:0:0:0:
475,192,393503,128,0,394015:0:0:0:0:
402,192,393503,128,0,393723:0:0:0:0:
109,192,393503,1,0,0:0:0:0:
402,192,393796,128,0,393869:0:0:0:0:
256,192,393796,128,0,393869:0:0:0:0:
256,192,393942,1,0,0:0:0:0:
402,192,393942,128,0,394015:0:0:0:0:
182,192,393942,128,0,394015:0:0:0:0:
329,192,393942,128,0,394308:0:0:0:0:
109,192,393942,128,0,394015:0:0:0:0:
475,192,394089,1,0,0:0:0:0:
182,192,394089,128,0,394308:0:0:0:0:
475,192,394235,128,0,394601:0:0:0:0:
256,192,394235,1,0,0:0:0:0:
182,192,394381,128,0,394454:0:0:0:0:
329,192,394381,128,0,394454:0:0:0:0:
402,192,394528,128,0,394601:0:0:0:0:
109,192,394528,128,0,394747:0:0:0:0:
182,192,394528,1,0,0:0:0:0:
329,192,394528,128,0,394893:0:0:0:0:
256,192,394528,128,0,394747:0:0:0:0:
475,192,394674,128,0,395259:0:0:0:0:
402,192,394674,128,0,395040:0:0:0:0:
256,192,394820,128,0,394893:0:0:0:0:
109,192,394820,128,0,394893:0:0:0:0:
329,192,394967,128,0,395040:0:0:0:0:
182,192,394967,128,0,395040:0:0:0:0:
256,192,395113,128,0,395332:0:0:0:0:
182,192,395113,1,0,0:0:0:0:
109,192,395113,128,0,395259:0:0:0:0:
329,192,395113,1,0,0:0:0:0:
402,192,395113,128,0,395406:0:0:0:0:
182,192,395406,128,0,395552:0:0:0:0:
109,192,395406,128,0,395515:0:0:0:0:
36,192,395406,128,0,395479:0:0:0:0:
475,192,395406,1,0,0:0:0:0:
256,192,395442,128,0,395589:0:0:0:0:
329,192,395479,128,0,395625:0:0:0:0:
402,192,395515,128,0,395662:0:0:0:0:
475,192,395552,128,0,395991:0:0:0:0:
329,192,395698,1,0,0:0:0:0:
109,192,395698,128,0,395771:0:0:0:0:
182,192,395698,128,0,395771:0:0:0:0:
36,192,395698,128,0,396064:0:0:0:0:
256,192,395698,128,0,395771:0:0:0:0:
256,192,395845,1,0,0:0:0:0:
402,192,395845,128,0,395991:0:0:0:0:
329,192,395845,128,0,396357:0:0:0:0:
182,192,395845,128,0,396064:0:0:0:0:
36,192,396137,128,0,396210:0:0:0:0:
182,192,396137,128,0,396210:0:0:0:0:
475,192,396284,128,0,396686:0:0:0:0:
182,192,396284,1,0,0:0:0:0:
402,192,396284,128,0,396357:0:0:0:0:
36,192,396284,128,0,396357:0:0:0:0:
109,192,396284,128,0,396503:0:0:0:0:
256,192,396284,128,0,396503:0:0:0:0:
329,192,396430,128,0,396503:0:0:0:0:
402,192,396430,1,0,0:0:0:0:
402,192,396576,128,0,396723:0:0:0:0:
36,192,396576,128,0,396796:0:0:0:0:
109,192,396576,128,0,396650:0:0:0:0:
182,192,396576,1,0,0:0:0:0:
329,192,396613,128,0,396759:0:0:0:0:
256,192,396650,128,0,396796:0:0:0:0:
182,192,396686,128,0,396832:0:0:0:0:
109,192,396723,128,0,397089:0:0:0:0:
36,192,396869,128,0,397015:0:0:0:0:
475,192,396869,128,0,397308:0:0:0:0:
402,192,396869,128,0,397162:0:0:0:0:
256,192,396869,128,0,397015:0:0:0:0:
329,192,396869,128,0,397089:0:0:0:0:
182,192,397162,128,0,397381:0:0:0:0:
109,192,397162,1,0,0:0:0:0:
36,192,397162,128,0,397235:0:0:0:0:
256,192,397235,1,0,0:0:0:0:
402,192,397235,128,0,397308:0:0:0:0:
36,192,397308,1,0,0:0:0:0:
109,192,397308,128,0,397381:0:0:0:0:
329,192,397381,1,0,0:0:0:0:
475,192,397381,128,0,397454:0:0:0:0:
109,192,397454,1,0,0:0:0:0:
402,192,397454,1,0,0:0:0:0:
256,192,397454,128,0,397674:0:0:0:0:
182,192,397454,128,0,397528:0:0:0:0:
402,192,397601,1,0,0:0:0:0:
109,192,397601,1,0,0:0:0:0:
329,192,397601,128,0,397674:0:0:0:0:
402,192,397747,128,0,397857:0:0:0:0:
475,192,397747,128,0,398113:0:0:0:0:
256,192,397747,1,0,0:0:0:0:
329,192,397747,128,0,397820:0:0:0:0:
36,192,397747,128,0,397893:0:0:0:0:
109,192,397784,128,0,397930:0:0:0:0:
182,192,397820,128,0,397967:0:0:0:0:
256,192,397857,128,0,398003:0:0:0:0:
329,192,397893,128,0,398771:0:0:0:0:
402,192,398040,1,0,0:0:0:0:
182,192,398040,128,0,398113:0:0:0:0:
36,192,398040,128,0,398113:0:0:0:0:
109,192,398040,128,0,398332:0:0:0:0:
475,192,398186,128,0,398552:0:0:0:0:
36,192,398186,1,0,0:0:0:0:
256,192,398186,128,0,398332:0:0:0:0:
256,192,398479,128,0,398552:0:0:0:0:
109,192,398479,128,0,398552:0:0:0:0:
402,192,398625,128,0,398771:0:0:0:0:
475,192,398625,128,0,399028:0:0:0:0:
256,192,398625,1,0,0:0:0:0:
109,192,398625,128,0,398845:0:0:0:0:
182,192,398625,128,0,398698:0:0:0:0:
36,192,398625,128,0,398698:0:0:0:0:
36,192,398771,1,0,0:0:0:0:
182,192,398771,128,0,398954:0:0:0:0:
109,192,398918,128,0,398991:0:0:0:0:
402,192,398918,128,0,399064:0:0:0:0:
36,192,398918,128,0,399137:0:0:0:0:
329,192,398954,128,0,399101:0:0:0:0:
256,192,398991,128,0,399137:0:0:0:0:
182,192,399028,128,0,399174:0:0:0:0:
109,192,399064,128,0,399650:0:0:0:0:
36,192,399210,1,0,0:0:0:0:
329,192,399210,128,0,399284:0:0:0:0:
475,192,399210,128,0,399284:0:0:0:0:
402,192,399210,128,0,399576:0:0:0:0:
256,192,399210,128,0,399430:0:0:0:0:
256,192,399503,128,0,399576:0:0:0:0:
36,192,399503,128,0,399723:0:0:0:0:
182,192,399503,128,0,399942:0:0:0:0:
475,192,399650,1,0,0:0:0:0:
329,192,399650,128,0,399723:0:0:0:0:
109,192,399796,128,0,399942:0:0:0:0:
256,192,399796,1,0,0:0:0:0:
402,192,399796,128,0,399942:0:0:0:0:
36,192,399796,128,0,400198:0:0:0:0:
329,192,399796,128,0,400125:0:0:0:0:
475,192,399796,128,0,399869:0:0:0:0:
475,192,400089,128,0,400308:0:0:0:0:
402,192,400089,128,0,400162:0:0:0:0:
109,192,400089,128,0,400235:0:0:0:0:
182,192,400125,128,0,400271:0:0:0:0:
256,192,400162,128,0,400308:0:0:0:0:
329,192,400198,128,0,400345:0:0:0:0:
402,192,400235,128,0,400820:0:0:0:0:
475,192,400381,1,0,0:0:0:0:
256,192,400381,1,0,0:0:0:0:
109,192,400381,128,0,400454:0:0:0:0:
36,192,400381,128,0,400454:0:0:0:0:
182,192,400381,128,0,400747:0:0:0:0:
475,192,400528,128,0,401113:0:0:0:0:
36,192,400528,1,0,0:0:0:0:
329,192,400528,128,0,400747:0:0:0:0:
109,192,400820,128,0,400893:0:0:0:0:
256,192,400820,128,0,400893:0:0:0:0:
402,192,400967,128,0,401113:0:0:0:0:
329,192,400967,128,0,401259:0:0:0:0:
109,192,400967,128,0,401186:0:0:0:0:
36,192,400967,128,0,401040:0:0:0:0:
182,192,400967,1,0,0:0:0:0:
256,192,400967,128,0,401040:0:0:0:0:
182,192,401113,128,0,401332:0:0:0:0:
36,192,401113,1,0,0:0:0:0:
109,192,401259,128,0,401332:0:0:0:0:
36,192,401259,128,0,401479:0:0:0:0:
475,192,401259,128,0,401406:0:0:0:0:
402,192,401296,128,0,401442:0:0:0:0:
329,192,401332,128,0,401479:0:0:0:0:
256,192,401369,128,0,401515:0:0:0:0:
182,192,401406,128,0,402064:0:0:0:0:
475,192,401552,1,0,0:0:0:0:
109,192,401552,1,0,0:0:0:0:
36,192,401552,128,0,401625:0:0:0:0:
402,192,401552,128,0,401625:0:0:0:0:
329,192,401552,128,0,401918:0:0:0:0:
109,192,401845,128,0,401991:0:0:0:0:
402,192,401845,128,0,402064:0:0:0:0:
36,192,401845,128,0,402284:0:0:0:0:
256,192,401845,1,0,0:0:0:0:
256,192,401991,128,0,402064:0:0:0:0:
475,192,401991,128,0,402064:0:0:0:0:
256,192,402137,128,0,402210:0:0:0:0:
402,192,402137,1,0,0:0:0:0:
182,192,402137,1,0,0:0:0:0:
329,192,402137,128,0,402357:0:0:0:0:
475,192,402137,128,0,402357:0:0:0:0:
109,192,402137,128,0,402540:0:0:0:0:
475,192,402430,1,0,0:0:0:0:
182,192,402430,128,0,402576:0:0:0:0:
36,192,402430,1,0,0:0:0:0:
402,192,402430,1,0,0:0:0:0:
256,192,402467,128,0,402613:0:0:0:0:
329,192,402503,128,0,402650:0:0:0:0:
402,192,402540,128,0,402686:0:0:0:0:
475,192,402576,128,0,404625:0:0:0:0:
256,192,402723,128,0,403089:0:0:0:0:
36,192,402723,128,0,402796:0:0:0:0:
329,192,402723,128,0,402942:0:0:0:0:
109,192,402723,128,0,402796:0:0:0:0:
182,192,402723,128,0,403089:0:0:0:0:
36,192,402869,128,0,403381:0:0:0:0:
109,192,402869,128,0,403089:0:0:0:0:
402,192,402869,1,0,0:0:0:0:
256,192,403162,128,0,403235:0:0:0:0:
402,192,403162,128,0,403235:0:0:0:0:
256,192,403308,1,0,0:0:0:0:
109,192,403308,128,0,403381:0:0:0:0:
329,192,403308,128,0,403381:0:0:0:0:
182,192,403308,128,0,403674:0:0:0:0:
402,192,403308,128,0,403381:0:0:0:0:
36,192,403454,1,0,0:0:0:0:
329,192,403454,128,0,403674:0:0:0:0:
36,192,403601,128,0,403967:0:0:0:0:
256,192,403601,1,0,0:0:0:0:
329,192,403747,128,0,403820:0:0:0:0:
182,192,403747,128,0,403820:0:0:0:0:
109,192,403893,128,0,403967:0:0:0:0:
402,192,403893,128,0,404113:0:0:0:0:
329,192,403893,1,0,0:0:0:0:
182,192,403893,128,0,404259:0:0:0:0:
256,192,403893,128,0,404113:0:0:0:0:
36,192,404040,128,0,404625:0:0:0:0:
109,192,404040,128,0,404406:0:0:0:0:
256,192,404186,128,0,404259:0:0:0:0:
402,192,404186,128,0,404259:0:0:0:0:
182,192,404332,128,0,404406:0:0:0:0:
329,192,404332,128,0,404406:0:0:0:0:
256,192,404479,128,0,404698:0:0:0:0:
329,192,404479,1,0,0:0:0:0:
402,192,404479,128,0,404625:0:0:0:0:
182,192,404479,1,0,0:0:0:0:
109,192,404479,128,0,404771:0:0:0:0:
329,192,404771,128,0,404918:0:0:0:0:
402,192,404771,128,0,404881:0:0:0:0:
475,192,404771,128,0,404845:0:0:0:0:
36,192,404771,1,0,0:0:0:0:
256,192,404808,128,0,404954:0:0:0:0:
182,192,404845,128,0,404991:0:0:0:0:
109,192,404881,128,0,405028:0:0:0:0:
36,192,404918,128,0,405357:0:0:0:0:
182,192,405064,1,0,0:0:0:0:
402,192,405064,128,0,405137:0:0:0:0:
329,192,405064,128,0,405137:0:0:0:0:
475,192,405064,128,0,405430:0:0:0:0:
256,192,405064,128,0,405137:0:0:0:0:
256,192,405210,1,0,0:0:0:0:
109,192,405210,128,0,405357:0:0:0:0:
182,192,405210,128,0,405723:0:0:0:0:
329,192,405210,128,0,405430:0:0:0:0:
475,192,405503,128,0,405576:0:0:0:0:
329,192,405503,128,0,405576:0:0:0:0:
36,192,405649,128,0,406052:0:0:0:0:
329,192,405649,1,0,0:0:0:0:
109,192,405649,128,0,405723:0:0:0:0:
475,192,405649,128,0,405723:0:0:0:0:
402,192,405649,128,0,405869:0:0:0:0:
256,192,405649,128,0,405869:0:0:0:0:
182,192,405796,128,0,405869:0:0:0:0:
109,192,405796,1,0,0:0:0:0:
109,192,405942,128,0,406089:0:0:0:0:
475,192,405942,128,0,406162:0:0:0:0:
402,192,405942,128,0,406015:0:0:0:0:
329,192,405942,1,0,0:0:0:0:
182,192,405979,128,0,406125:0:0:0:0:
256,192,406015,128,0,406162:0:0:0:0:
329,192,406052,128,0,406198:0:0:0:0:
402,192,406089,128,0,406454:0:0:0:0:
475,192,406235,128,0,406381:0:0:0:0:
36,192,406235,128,0,406674:0:0:0:0:
109,192,406235,128,0,406528:0:0:0:0:
256,192,406235,128,0,406381:0:0:0:0:
182,192,406235,128,0,406454:0:0:0:0:
329,192,406528,128,0,406747:0:0:0:0:
402,192,406528,1,0,0:0:0:0:
475,192,406528,128,0,406601:0:0:0:0:
256,192,406601,1,0,0:0:0:0:
109,192,406601,128,0,406674:0:0:0:0:
475,192,406674,1,0,0:0:0:0:
402,192,406674,128,0,406747:0:0:0:0:
182,192,406747,1,0,0:0:0:0:
36,192,406747,128,0,406820:0:0:0:0:
402,192,406820,1,0,0:0:0:0:
109,192,406820,1,0,0:0:0:0:
256,192,406820,128,0,407040:0:0:0:0:
329,192,406820,128,0,406893:0:0:0:0:
109,192,406967,1,0,0:0:0:0:
402,192,406967,1,0,0:0:0:0:
182,192,406967,128,0,407040:0:0:0:0:
256,192,407113,1,0,0:0:0:0:
36,192,407113,1,0,0:0:0:0:
475,192,407113,1,0,0:0:0:0:
109,192,407113,128,0,408869:0:0:0:0:
402,192,407113,128,0,408284:0:0:0:0:
256,192,407332,1,0,0:0:0:0:
256,192,407552,1,0,0:0:0:0:
256,192,407771,1,0,0:0:0:0:
256,192,407991,1,0,0:0:0:0:
329,192,407991,1,0,0:0:0:0:
475,192,407991,1,0,0:0:0:0:
256,192,408210,1,0,0:0:0:0:
256,192,408430,1,0,0:0:0:0:
329,192,408576,128,0,409308:0:0:0:0:
256,192,408649,1,0,0:0:0:0:
475,192,408869,128,0,409015:0:0:0:0:
182,192,408869,1,0,0:0:0:0:
256,192,408869,1,0,0:0:0:0:
36,192,408869,1,0,0:0:0:0:
256,192,409162,1,0,0:0:0:0:
36,192,409162,1,0,0:0:0:0:
475,192,409162,1,0,0:0:0:0:
182,192,409162,128,0,409308:0:0:0:0:
36,192,409308,1,0,0:0:0:0:
475,192,409308,1,0,0:0:0:0:
36,192,409454,128,0,410186:0:0:0:0:
329,192,409454,128,0,410186:0:0:0:0:
475,192,409454,128,0,410186:0:0:0:0:
256,192,409454,1,0,0:0:0:0:
109,192,409454,128,0,410186:0:0:0:0:
402,192,409454,128,0,410186:0:0:0:0:
182,192,409454,128,0,410186:0:0:0:0:
109,192,410332,128,0,410552:0:0:0:0:
256,192,410332,128,0,410479:0:0:0:0:
182,192,410625,128,0,410991:0:0:0:0:
329,192,410625,128,0,410845:0:0:0:0:
475,192,410918,1,0,0:0:0:0:
402,192,410918,1,0,0:0:0:0:
109,192,411064,128,0,411430:0:0:0:0:
256,192,411064,128,0,411357:0:0:0:0:
402,192,411210,1,0,0:0:0:0:
36,192,411503,128,0,411723:0:0:0:0:
182,192,411503,128,0,411649:0:0:0:0:
402,192,411503,1,0,0:0:0:0:
256,192,411723,128,0,411869:0:0:0:0:
475,192,411796,1,0,0:0:0:0:
109,192,411796,128,0,412967:0:0:0:0:
36,192,411796,128,0,411869:0:0:0:0:
329,192,411796,1,0,0:0:0:0:
402,192,411796,128,0,411942:0:0:0:0:
182,192,411796,1,0,0:0:0:0:
475,192,411942,128,0,412089:0:0:0:0:
329,192,412089,128,0,412381:0:0:0:0:
256,192,412089,1,0,0:0:0:0:
36,192,412089,1,0,0:0:0:0:
402,192,412089,1,0,0:0:0:0:
182,192,412089,1,0,0:0:0:0:
475,192,412235,128,0,412528:0:0:0:0:
256,192,412381,128,0,412820:0:0:0:0:
402,192,412381,1,0,0:0:0:0:
36,192,412381,1,0,0:0:0:0:
402,192,412528,128,0,412674:0:0:0:0:
36,192,412528,1,0,0:0:0:0:
182,192,412528,1,0,0:0:0:0:
475,192,412674,128,0,413113:0:0:0:0:
329,192,412674,1,0,0:0:0:0:
182,192,412674,1,0,0:0:0:0:
36,192,412674,1,0,0:0:0:0:
329,192,412820,128,0,413113:0:0:0:0:
182,192,412967,128,0,413113:0:0:0:0:
256,192,412967,1,0,0:0:0:0:
402,192,412967,1,0,0:0:0:0:
36,192,412967,1,0,0:0:0:0:
109,192,413113,128,0,413406:0:0:0:0:
182,192,413259,128,0,413552:0:0:0:0:
329,192,413259,1,0,0:0:0:0:
402,192,413259,1,0,0:0:0:0:
475,192,413259,1,0,0:0:0:0:
36,192,413259,1,0,0:0:0:0:
256,192,413406,128,0,413698:0:0:0:0:
475,192,413406,1,0,0:0:0:0:
402,192,413406,1,0,0:0:0:0:
109,192,413552,1,0,0:0:0:0:
182,192,413698,128,0,413991:0:0:0:0:
402,192,413698,1,0,0:0:0:0:
475,192,413698,1,0,0:0:0:0:
36,192,413845,1,0,0:0:0:0:
329,192,413845,128,0,413991:0:0:0:0:
402,192,413845,1,0,0:0:0:0:
256,192,413845,1,0,0:0:0:0:
109,192,413845,1,0,0:0:0:0:
36,192,413991,128,0,414284:0:0:0:0:
475,192,414137,128,0,414430:0:0:0:0:
182,192,414137,1,0,0:0:0:0:
329,192,414137,1,0,0:0:0:0:
256,192,414137,1,0,0:0:0:0:
329,192,414284,128,0,414576:0:0:0:0:
402,192,414284,1,0,0:0:0:0:
402,192,414430,128,0,414723:0:0:0:0:
182,192,414430,1,0,0:0:0:0:
109,192,414430,1,0,0:0:0:0:
36,192,414430,1,0,0:0:0:0:
256,192,414576,128,0,414869:0:0:0:0:
36,192,414723,128,0,415015:0:0:0:0:
109,192,414723,1,0,0:0:0:0:
109,192,414869,128,0,415015:0:0:0:0:
182,192,414869,1,0,0:0:0:0:
402,192,414869,1,0,0:0:0:0:
182,192,415015,128,0,415308:0:0:0:0:
256,192,415015,1,0,0:0:0:0:
329,192,415015,1,0,0:0:0:0:
402,192,415015,1,0,0:0:0:0:
475,192,415015,1,0,0:0:0:0:
109,192,415162,128,0,415454:0:0:0:0:
36,192,415308,1,0,0:0:0:0:
329,192,415308,1,0,0:0:0:0:
475,192,415308,1,0,0:0:0:0:
182,192,415454,128,0,415528:0:0:0:0:
475,192,415454,1,0,0:0:0:0:
329,192,415454,1,0,0:0:0:0:
256,192,415528,128,0,415601:0:0:0:0:
329,192,415601,128,0,416186:0:0:0:0:
475,192,415601,1,0,0:0:0:0:
36,192,415601,1,0,0:0:0:0:
109,192,415601,1,0,0:0:0:0:
402,192,415601,1,0,0:0:0:0:
182,192,415747,128,0,416332:0:0:0:0:
36,192,415747,1,0,0:0:0:0:
256,192,415747,1,0,0:0:0:0:
475,192,415893,1,0,0:0:0:0:
109,192,416040,1,0,0:0:0:0:
402,192,416040,1,0,0:0:0:0:
475,192,416186,1,0,0:0:0:0:
36,192,416186,1,0,0:0:0:0:
256,192,416186,1,0,0:0:0:0:
109,192,416186,1,0,0:0:0:0:
182,192,416479,128,0,416552:0:0:0:0:
256,192,416479,128,0,416552:0:0:0:0:
402,192,416479,128,0,416552:0:0:0:0:
475,192,416479,128,0,416552:0:0:0:0:
36,192,416479,1,0,0:0:0:0:
36,192,416625,128,0,416918:0:0:0:0:
182,192,416771,128,0,417064:0:0:0:0:
256,192,416771,1,0,0:0:0:0:
329,192,416771,1,0,0:0:0:0:
402,192,416771,1,0,0:0:0:0:
475,192,416771,1,0,0:0:0:0:
329,192,416918,128,0,417210:0:0:0:0:
109,192,417064,128,0,417357:0:0:0:0:
256,192,417064,1,0,0:0:0:0:
36,192,417064,1,0,0:0:0:0:
256,192,417210,128,0,417503:0:0:0:0:
402,192,417210,1,0,0:0:0:0:
475,192,417210,1,0,0:0:0:0:
402,192,417357,128,0,417796:0:0:0:0:
329,192,417357,1,0,0:0:0:0:
182,192,417357,1,0,0:0:0:0:
36,192,417357,1,0,0:0:0:0:
475,192,417357,1,0,0:0:0:0:
475,192,417503,128,0,417649:0:0:0:0:
329,192,417649,128,0,417942:0:0:0:0:
256,192,417649,128,0,417723:0:0:0:0:
182,192,417649,128,0,417723:0:0:0:0:
109,192,417649,128,0,417723:0:0:0:0:
36,192,417649,128,0,417723:0:0:0:0:
475,192,417796,128,0,418235:0:0:0:0:
182,192,417942,128,0,418235:0:0:0:0:
256,192,417942,1,0,0:0:0:0:
109,192,417942,1,0,0:0:0:0:
36,192,417942,1,0,0:0:0:0:
402,192,417942,1,0,0:0:0:0:
329,192,418089,128,0,418381:0:0:0:0:
109,192,418089,1,0,0:0:0:0:
36,192,418089,1,0,0:0:0:0:
109,192,418235,128,0,418528:0:0:0:0:
256,192,418235,1,0,0:0:0:0:
256,192,418381,128,0,418528:0:0:0:0:
475,192,418381,1,0,0:0:0:0:
402,192,418381,1,0,0:0:0:0:
182,192,418528,128,0,418893:0:0:0:0:
329,192,418528,1,0,0:0:0:0:
402,192,418528,1,0,0:0:0:0:
475,192,418528,1,0,0:0:0:0:
36,192,418528,1,0,0:0:0:0:
36,192,418674,128,0,418967:0:0:0:0:
329,192,418820,128,0,419259:0:0:0:0:
256,192,418820,128,0,418893:0:0:0:0:
402,192,418820,128,0,418893:0:0:0:0:
475,192,418820,128,0,418893:0:0:0:0:
109,192,418967,128,0,419113:0:0:0:0:
256,192,419113,128,0,419259:0:0:0:0:
182,192,419113,1,0,0:0:0:0:
36,192,419113,1,0,0:0:0:0:
402,192,419113,1,0,0:0:0:0:
475,192,419113,1,0,0:0:0:0:
109,192,419259,128,0,419406:0:0:0:0:
329,192,419406,128,0,419845:0:0:0:0:
475,192,419406,1,0,0:0:0:0:
256,192,419406,1,0,0:0:0:0:
109,192,419552,128,0,419698:0:0:0:0:
402,192,419552,1,0,0:0:0:0:
182,192,419552,1,0,0:0:0:0:
256,192,419698,128,0,419845:0:0:0:0:
402,192,419698,1,0,0:0:0:0:
475,192,419698,1,0,0:0:0:0:
36,192,419698,1,0,0:0:0:0:
182,192,419698,1,0,0:0:0:0:
109,192,419845,128,0,419991:0:0:0:0:
36,192,419845,1,0,0:0:0:0:
475,192,419845,1,0,0:0:0:0:
402,192,419991,128,0,420137:0:0:0:0:
256,192,419991,1,0,0:0:0:0:
329,192,420137,128,0,420210:0:0:0:0:
109,192,420137,1,0,0:0:0:0:
475,192,420137,1,0,0:0:0:0:
402,192,420210,128,0,420284:0:0:0:0:
182,192,420284,128,0,420430:0:0:0:0:
256,192,420284,1,0,0:0:0:0:
475,192,420284,1,0,0:0:0:0:
36,192,420284,1,0,0:0:0:0:
109,192,420284,1,0,0:0:0:0:
36,192,420430,128,0,420576:0:0:0:0:
402,192,420430,1,0,0:0:0:0:
329,192,420430,1,0,0:0:0:0:
182,192,420576,128,0,420723:0:0:0:0:
402,192,420576,1,0,0:0:0:0:
256,192,420576,1,0,0:0:0:0:
109,192,420649,1,0,0:0:0:0:
36,192,420649,1,0,0:0:0:0:
256,192,420723,128,0,420869:0:0:0:0:
475,192,420723,1,0,0:0:0:0:
329,192,420723,1,0,0:0:0:0:
182,192,420796,1,0,0:0:0:0:
109,192,420796,1,0,0:0:0:0:
329,192,420869,128,0,421015:0:0:0:0:
36,192,420869,1,0,0:0:0:0:
475,192,420869,1,0,0:0:0:0:
402,192,420869,1,0,0:0:0:0:
402,192,421015,128,0,421162:0:0:0:0:
182,192,421015,1,0,0:0:0:0:
36,192,421015,1,0,0:0:0:0:
475,192,421162,128,0,422259:0:0:0:0:
256,192,421162,128,0,421454:0:0:0:0:
329,192,421162,1,0,0:0:0:0:
36,192,421162,128,0,421235:0:0:0:0:
109,192,421162,128,0,421235:0:0:0:0:
182,192,421162,128,0,421235:0:0:0:0:
109,192,421454,128,0,421601:0:0:0:0:
182,192,421454,1,0,0:0:0:0:
329,192,421454,1,0,0:0:0:0:
402,192,421454,1,0,0:0:0:0:
36,192,421454,1,0,0:0:0:0:
256,192,421601,128,0,421747:0:0:0:0:
36,192,421747,128,0,421893:0:0:0:0:
109,192,421747,1,0,0:0:0:0:
329,192,421747,1,0,0:0:0:0:
182,192,421893,128,0,422040:0:0:0:0:
402,192,421893,1,0,0:0:0:0:
256,192,421893,1,0,0:0:0:0:
329,192,422040,128,0,422332:0:0:0:0:
256,192,422040,1,0,0:0:0:0:
402,192,422040,1,0,0:0:0:0:
109,192,422040,1,0,0:0:0:0:
36,192,422040,1,0,0:0:0:0:
182,192,422186,128,0,422479:0:0:0:0:
109,192,422332,128,0,423430:0:0:0:0:
402,192,422332,128,0,422479:0:0:0:0:
36,192,422332,1,0,0:0:0:0:
475,192,422332,1,0,0:0:0:0:
256,192,422332,1,0,0:0:0:0:
256,192,422479,128,0,422625:0:0:0:0:
475,192,422625,128,0,422771:0:0:0:0:
329,192,422625,1,0,0:0:0:0:
402,192,422625,1,0,0:0:0:0:
182,192,422625,1,0,0:0:0:0:
36,192,422625,1,0,0:0:0:0:
329,192,422771,128,0,422918:0:0:0:0:
182,192,422771,1,0,0:0:0:0:
402,192,422771,1,0,0:0:0:0:
475,192,422918,128,0,423064:0:0:0:0:
256,192,422918,1,0,0:0:0:0:
256,192,423064,128,0,423210:0:0:0:0:
36,192,423064,1,0,0:0:0:0:
402,192,423064,1,0,0:0:0:0:
402,192,423210,128,0,423357:0:0:0:0:
329,192,423210,1,0,0:0:0:0:
475,192,423210,1,0,0:0:0:0:
182,192,423210,1,0,0:0:0:0:
36,192,423210,1,0,0:0:0:0:
329,192,423357,128,0,423503:0:0:0:0:
402,192,423503,128,0,424601:0:0:0:0:
256,192,423503,1,0,0:0:0:0:
36,192,423503,1,0,0:0:0:0:
475,192,423503,1,0,0:0:0:0:
182,192,423503,128,0,423649:0:0:0:0:
36,192,423649,128,0,423796:0:0:0:0:
256,192,423796,128,0,423942:0:0:0:0:
109,192,423796,1,0,0:0:0:0:
329,192,423796,1,0,0:0:0:0:
475,192,423796,1,0,0:0:0:0:
182,192,423796,1,0,0:0:0:0:
109,192,423942,128,0,424089:0:0:0:0:
256,192,424089,128,0,424235:0:0:0:0:
329,192,424089,1,0,0:0:0:0:
182,192,424235,1,0,0:0:0:0:
475,192,424235,1,0,0:0:0:0:
36,192,424235,128,0,424528:0:0:0:0:
329,192,424381,1,0,0:0:0:0:
256,192,424381,1,0,0:0:0:0:
475,192,424381,1,0,0:0:0:0:
109,192,424381,1,0,0:0:0:0:
182,192,424381,128,0,424528:0:0:0:0:
256,192,424528,128,0,424674:0:0:0:0:
36,192,424674,128,0,425771:0:0:0:0:
329,192,424674,128,0,425552:0:0:0:0:
475,192,424674,1,0,0:0:0:0:
182,192,424674,1,0,0:0:0:0:
109,192,424674,1,0,0:0:0:0:
182,192,424820,1,0,0:0:0:0:
475,192,424820,1,0,0:0:0:0:
256,192,424967,1,0,0:0:0:0:
402,192,424967,1,0,0:0:0:0:
475,192,424967,1,0,0:0:0:0:
109,192,424967,1,0,0:0:0:0:
182,192,425113,128,0,425698:0:0:0:0:
402,192,425113,1,0,0:0:0:0:
109,192,425113,1,0,0:0:0:0:
256,192,425259,1,0,0:0:0:0:
109,192,425406,1,0,0:0:0:0:
402,192,425406,1,0,0:0:0:0:
256,192,425552,1,0,0:0:0:0:
109,192,425552,1,0,0:0:0:0:
402,192,425552,1,0,0:0:0:0:
475,192,425552,1,0,0:0:0:0:
329,192,425845,128,0,428113:0:0:0:0:
402,192,425845,128,0,425918:0:0:0:0:
475,192,425845,128,0,425918:0:0:0:0:
256,192,425845,128,0,425918:0:0:0:0:
109,192,425845,128,0,425918:0:0:0:0:
36,192,425845,1,0,0:0:0:0:
256,192,426137,1,0,0:0:0:0:
182,192,426137,1,0,0:0:0:0:
109,192,426137,1,0,0:0:0:0:
36,192,426137,1,0,0:0:0:0:
402,192,426430,128,0,426942:0:0:0:0:
109,192,426430,1,0,0:0:0:0:
256,192,426430,1,0,0:0:0:0:
256,192,426576,1,0,0:0:0:0:
109,192,426576,1,0,0:0:0:0:
182,192,426723,1,0,0:0:0:0:
109,192,426723,1,0,0:0:0:0:
36,192,426723,1,0,0:0:0:0:
475,192,426723,1,0,0:0:0:0:
402,192,427015,128,0,428040:0:0:0:0:
109,192,427015,128,0,427089:0:0:0:0:
36,192,427015,128,0,427089:0:0:0:0:
256,192,427015,128,0,427089:0:0:0:0:
475,192,427015,128,0,427089:0:0:0:0:
256,192,427308,1,0,0:0:0:0:
182,192,427308,1,0,0:0:0:0:
36,192,427308,1,0,0:0:0:0:
475,192,427308,1,0,0:0:0:0:
182,192,427454,1,0,0:0:0:0:
36,192,427454,1,0,0:0:0:0:
256,192,427601,1,0,0:0:0:0:
109,192,427747,1,0,0:0:0:0:
36,192,427747,1,0,0:0:0:0:
36,192,427893,1,0,0:0:0:0:
256,192,427893,1,0,0:0:0:0:
475,192,427893,1,0,0:0:0:0:
109,192,427893,1,0,0:0:0:0:
182,192,428186,128,0,429284:0:0:0:0:
109,192,428186,128,0,429210:0:0:0:0:
256,192,428186,128,0,428259:0:0:0:0:
402,192,428186,128,0,428259:0:0:0:0:
475,192,428186,128,0,428259:0:0:0:0:
36,192,428186,1,0,0:0:0:0:
256,192,428479,1,0,0:0:0:0:
329,192,428479,1,0,0:0:0:0:
402,192,428479,1,0,0:0:0:0:
475,192,428479,1,0,0:0:0:0:
475,192,428771,1,0,0:0:0:0:
329,192,428918,1,0,0:0:0:0:
256,192,428918,1,0,0:0:0:0:
329,192,429064,128,0,429284:0:0:0:0:
402,192,429064,1,0,0:0:0:0:
36,192,429064,1,0,0:0:0:0:
402,192,429210,128,0,429284:0:0:0:0:
475,192,429210,128,0,429284:0:0:0:0:
256,192,429210,1,0,0:0:0:0:
36,192,429210,1,0,0:0:0:0:
182,192,429357,128,0,430454:0:0:0:0:
475,192,429357,128,0,430528:0:0:0:0:
329,192,429357,1,0,0:0:0:0:
109,192,429503,1,0,0:0:0:0:
36,192,429552,1,0,0:0:0:0:
109,192,429649,1,0,0:0:0:0:
402,192,429796,1,0,0:0:0:0:
256,192,429942,1,0,0:0:0:0:
36,192,429942,1,0,0:0:0:0:
329,192,429991,1,0,0:0:0:0:
256,192,430089,1,0,0:0:0:0:
402,192,430235,1,0,0:0:0:0:
109,192,430235,1,0,0:0:0:0:
329,192,430284,1,0,0:0:0:0:
402,192,430381,1,0,0:0:0:0:
109,192,430528,1,0,0:0:0:0:
36,192,430528,1,0,0:0:0:0:
329,192,430528,1,0,0:0:0:0:
256,192,430528,128,0,432869:0:0:0:0:
36,192,431113,1,0,0:0:0:0:
109,192,431259,1,0,0:0:0:0:
329,192,431406,1,0,0:0:0:0:
475,192,431406,1,0,0:0:0:0:
402,192,431698,1,0,0:0:0:0:
182,192,431698,1,0,0:0:0:0:
109,192,432137,1,0,0:0:0:0:
329,192,432137,1,0,0:0:0:0:
182,192,432576,1,0,0:0:0:0:
36,192,432576,1,0,0:0:0:0:
109,192,432869,1,0,0:0:0:0:
402,192,432869,1,0,0:0:0:0:
36,192,433015,1,0,0:0:0:0:
109,192,433162,1,0,0:0:0:0:
182,192,433308,1,0,0:0:0:0:
475,192,433308,1,0,0:0:0:0:
329,192,433454,1,0,0:0:0:0:
109,192,433601,1,0,0:0:0:0:
329,192,433747,1,0,0:0:0:0:
475,192,433747,1,0,0:0:0:0:
182,192,433893,1,0,0:0:0:0:
256,192,434040,1,0,0:0:0:0:
402,192,434040,1,0,0:0:0:0:
36,192,434186,1,0,0:0:0:0:
109,192,434332,1,0,0:0:0:0:
402,192,434479,1,0,0:0:0:0:
329,192,434625,1,0,0:0:0:0:
182,192,434625,1,0,0:0:0:0:
475,192,434771,1,0,0:0:0:0:
256,192,434918,1,0,0:0:0:0:
109,192,434918,1,0,0:0:0:0:
402,192,435064,1,0,0:0:0:0:
182,192,435210,1,0,0:0:0:0:
329,192,435210,1,0,0:0:0:0:
36,192,435357,1,0,0:0:0:0:
109,192,435503,1,0,0:0:0:0:
329,192,435649,1,0,0:0:0:0:
182,192,435649,1,0,0:0:0:0:
402,192,435796,1,0,0:0:0:0:
109,192,435942,1,0,0:0:0:0:
402,192,436089,1,0,0:0:0:0:
475,192,436137,1,0,0:0:0:0:
182,192,436235,1,0,0:0:0:0:
402,192,436381,1,0,0:0:0:0:
256,192,436381,1,0,0:0:0:0:
36,192,436528,1,0,0:0:0:0:
109,192,436674,1,0,0:0:0:0:
182,192,436820,1,0,0:0:0:0:
329,192,436820,1,0,0:0:0:0:
109,192,436967,1,0,0:0:0:0:
402,192,437113,1,0,0:0:0:0:
256,192,437259,1,0,0:0:0:0:
109,192,437259,1,0,0:0:0:0:
475,192,437406,1,0,0:0:0:0:
256,192,437552,1,0,0:0:0:0:
402,192,437552,1,0,0:0:0:0:
36,192,437698,1,0,0:0:0:0:
182,192,437845,1,0,0:0:0:0:
329,192,437991,1,0,0:0:0:0:
475,192,437991,1,0,0:0:0:0:
109,192,438137,1,0,0:0:0:0:
182,192,438284,1,0,0:0:0:0:
256,192,438430,1,0,0:0:0:0:
402,192,438430,1,0,0:0:0:0:
36,192,438576,1,0,0:0:0:0:
182,192,438723,1,0,0:0:0:0:
329,192,438723,1,0,0:0:0:0:
475,192,438796,1,0,0:0:0:0:
329,192,438869,1,0,0:0:0:0:
36,192,438869,1,0,0:0:0:0:
109,192,439015,1,0,0:0:0:0:
256,192,439162,1,0,0:0:0:0:
329,192,439308,1,0,0:0:0:0:
36,192,439308,1,0,0:0:0:0:
182,192,439454,1,0,0:0:0:0:
109,192,439601,1,0,0:0:0:0:
402,192,439601,1,0,0:0:0:0:
256,192,439747,1,0,0:0:0:0:
182,192,439893,1,0,0:0:0:0:
475,192,439893,1,0,0:0:0:0:
402,192,440040,1,0,0:0:0:0:
256,192,440186,1,0,0:0:0:0:
36,192,440332,1,0,0:0:0:0:
329,192,440332,1,0,0:0:0:0:
109,192,440479,1,0,0:0:0:0:
256,192,440625,1,0,0:0:0:0:
182,192,440771,1,0,0:0:0:0:
475,192,440771,1,0,0:0:0:0:
329,192,440918,1,0,0:0:0:0:
109,192,441064,1,0,0:0:0:0:
402,192,441064,1,0,0:0:0:0:
36,192,441210,1,0,0:0:0:0:
182,192,441357,1,0,0:0:0:0:
402,192,441503,1,0,0:0:0:0:
329,192,441649,1,0,0:0:0:0:
109,192,441649,1,0,0:0:0:0:
475,192,441796,1,0,0:0:0:0:
256,192,441942,1,0,0:0:0:0:
36,192,441942,1,0,0:0:0:0:
402,192,442089,1,0,0:0:0:0:
109,192,442235,1,0,0:0:0:0:
329,192,442235,1,0,0:0:0:0:
36,192,442381,1,0,0:0:0:0:
109,192,442528,1,0,0:0:0:0:
256,192,442674,1,0,0:0:0:0:
402,192,442674,1,0,0:0:0:0:
36,192,442820,1,0,0:0:0:0:
182,192,442967,1,0,0:0:0:0:
329,192,443113,1,0,0:0:0:0:
475,192,443113,1,0,0:0:0:0:
182,192,443259,1,0,0:0:0:0:
329,192,443406,1,0,0:0:0:0:
36,192,443406,1,0,0:0:0:0:
109,192,443552,1,0,0:0:0:0:
182,192,443698,1,0,0:0:0:0:
329,192,443845,1,0,0:0:0:0:
109,192,443991,1,0,0:0:0:0:
402,192,443991,1,0,0:0:0:0:
256,192,444137,1,0,0:0:0:0:
329,192,444284,1,0,0:0:0:0:
36,192,444284,1,0,0:0:0:0:
475,192,444430,1,0,0:0:0:0:
402,192,444576,1,0,0:0:0:0:
182,192,444576,1,0,0:0:0:0:
109,192,444723,1,0,0:0:0:0:
256,192,444869,1,0,0:0:0:0:
109,192,445015,1,0,0:0:0:0:
36,192,445015,1,0,0:0:0:0:
182,192,445162,1,0,0:0:0:0:
329,192,445308,1,0,0:0:0:0:
402,192,445454,1,0,0:0:0:0:
475,192,445454,1,0,0:0:0:0:
256,192,445601,1,0,0:0:0:0:
36,192,445747,1,0,0:0:0:0:
256,192,445893,1,0,0:0:0:0:
329,192,446040,1,0,0:0:0:0:
109,192,446040,1,0,0:0:0:0:
36,192,446186,1,0,0:0:0:0:
182,192,446332,1,0,0:0:0:0:
402,192,446332,1,0,0:0:0:0:
109,192,446479,1,0,0:0:0:0:
475,192,446625,1,0,0:0:0:0:
256,192,446625,1,0,0:0:0:0:
329,192,446771,1,0,0:0:0:0:
402,192,446918,1,0,0:0:0:0:
182,192,446918,1,0,0:0:0:0:
36,192,447064,1,0,0:0:0:0:
256,192,447210,1,0,0:0:0:0:
402,192,447357,1,0,0:0:0:0:
109,192,447357,1,0,0:0:0:0:
182,192,447503,1,0,0:0:0:0:
36,192,447649,1,0,0:0:0:0:
329,192,447796,1,0,0:0:0:0:
182,192,447796,1,0,0:0:0:0:
475,192,447942,1,0,0:0:0:0:
256,192,448089,1,0,0:0:0:0:
109,192,448089,1,0,0:0:0:0:
475,192,448235,1,0,0:0:0:0:
182,192,448381,1,0,0:0:0:0:
36,192,448381,1,0,0:0:0:0:
402,192,448528,1,0,0:0:0:0:
256,192,448674,1,0,0:0:0:0:
109,192,448674,128,0,448967:0:0:0:0:
475,192,448674,1,0,0:0:0:0:
182,192,448820,128,0,449113:0:0:0:0:
329,192,448820,1,0,0:0:0:0:
256,192,448967,128,0,449259:0:0:0:0:
402,192,448967,1,0,0:0:0:0:
36,192,448967,1,0,0:0:0:0:
329,192,449113,128,0,449406:0:0:0:0:
475,192,449113,1,0,0:0:0:0:
182,192,449259,1,0,0:0:0:0:
36,192,449259,1,0,0:0:0:0:
109,192,449259,1,0,0:0:0:0:
402,192,449259,128,0,449845:0:0:0:0:
109,192,449552,1,0,0:0:0:0:
36,192,449649,1,0,0:0:0:0:
256,192,449649,1,0,0:0:0:0:
182,192,449747,1,0,0:0:0:0:
36,192,449845,1,0,0:0:0:0:
256,192,449845,1,0,0:0:0:0:
402,192,450137,128,0,450284:0:0:0:0:
182,192,450137,1,0,0:0:0:0:
182,192,450235,1,0,0:0:0:0:
36,192,450235,1,0,0:0:0:0:
256,192,450332,1,0,0:0:0:0:
329,192,450430,128,0,450723:0:0:0:0:
109,192,450430,1,0,0:0:0:0:
475,192,450430,1,0,0:0:0:0:
109,192,450723,1,0,0:0:0:0:
402,192,450820,1,0,0:0:0:0:
475,192,450820,1,0,0:0:0:0:
256,192,450869,128,0,451162:0:0:0:0:
109,192,450918,1,0,0:0:0:0:
329,192,451015,1,0,0:0:0:0:
402,192,451015,1,0,0:0:0:0:
182,192,451113,1,0,0:0:0:0:
36,192,451113,1,0,0:0:0:0:
402,192,451210,1,0,0:0:0:0:
475,192,451210,1,0,0:0:0:0:
182,192,451308,128,0,451454:0:0:0:0:
329,192,451308,1,0,0:0:0:0:
36,192,451308,1,0,0:0:0:0:
109,192,451406,1,0,0:0:0:0:
329,192,451406,1,0,0:0:0:0:
475,192,451503,1,0,0:0:0:0:
402,192,451503,1,0,0:0:0:0:
256,192,451601,128,0,451893:0:0:0:0:
182,192,451601,1,0,0:0:0:0:
36,192,451601,1,0,0:0:0:0:
402,192,451893,1,0,0:0:0:0:
182,192,451991,1,0,0:0:0:0:
329,192,451991,1,0,0:0:0:0:
36,192,452040,128,0,452332:0:0:0:0:
402,192,452089,1,0,0:0:0:0:
329,192,452186,1,0,0:0:0:0:
182,192,452186,1,0,0:0:0:0:
256,192,452479,128,0,452625:0:0:0:0:
109,192,452479,1,0,0:0:0:0:
109,192,452576,1,0,0:0:0:0:
475,192,452576,1,0,0:0:0:0:
402,192,452674,1,0,0:0:0:0:
182,192,452771,128,0,453064:0:0:0:0:
329,192,452771,1,0,0:0:0:0:
475,192,452771,1,0,0:0:0:0:
402,192,453064,1,0,0:0:0:0:
256,192,453162,1,0,0:0:0:0:
36,192,453162,1,0,0:0:0:0:
402,192,453259,1,0,0:0:0:0:
109,192,453357,128,0,453503:0:0:0:0:
182,192,453357,1,0,0:0:0:0:
329,192,453357,1,0,0:0:0:0:
475,192,453454,1,0,0:0:0:0:
402,192,453454,1,0,0:0:0:0:
182,192,453552,1,0,0:0:0:0:
256,192,453552,1,0,0:0:0:0:
36,192,453649,128,0,453796:0:0:0:0:
329,192,453649,1,0,0:0:0:0:
475,192,453649,1,0,0:0:0:0:
109,192,453747,1,0,0:0:0:0:
475,192,453747,1,0,0:0:0:0:
256,192,453845,1,0,0:0:0:0:
402,192,453845,1,0,0:0:0:0:
109,192,453942,128,0,454235:0:0:0:0:
329,192,453942,1,0,0:0:0:0:
475,192,453942,1,0,0:0:0:0:
329,192,454235,1,0,0:0:0:0:
256,192,454332,1,0,0:0:0:0:
475,192,454332,1,0,0:0:0:0:
109,192,454381,128,0,454674:0:0:0:0:
402,192,454430,1,0,0:0:0:0:
475,192,454528,1,0,0:0:0:0:
256,192,454528,1,0,0:0:0:0:
402,192,454820,128,0,454967:0:0:0:0:
36,192,454820,1,0,0:0:0:0:
36,192,454918,1,0,0:0:0:0:
256,192,454918,1,0,0:0:0:0:
182,192,455015,1,0,0:0:0:0:
329,192,455113,128,0,455406:0:0:0:0:
475,192,455113,1,0,0:0:0:0:
109,192,455113,1,0,0:0:0:0:
109,192,455406,1,0,0:0:0:0:
402,192,455503,1,0,0:0:0:0:
475,192,455503,1,0,0:0:0:0:
182,192,455552,128,0,455845:0:0:0:0:
256,192,455601,1,0,0:0:0:0:
36,192,455698,1,0,0:0:0:0:
402,192,455698,1,0,0:0:0:0:
109,192,455796,1,0,0:0:0:0:
475,192,455796,1,0,0:0:0:0:
36,192,455893,1,0,0:0:0:0:
256,192,455893,1,0,0:0:0:0:
182,192,455991,128,0,456137:0:0:0:0:
402,192,455991,1,0,0:0:0:0:
329,192,455991,1,0,0:0:0:0:
402,192,456089,1,0,0:0:0:0:
109,192,456089,1,0,0:0:0:0:
256,192,456186,1,0,0:0:0:0:
329,192,456186,1,0,0:0:0:0:
402,192,456284,128,0,456576:0:0:0:0:
182,192,456284,1,0,0:0:0:0:
36,192,456284,1,0,0:0:0:0:
256,192,456576,1,0,0:0:0:0:
109,192,456674,1,0,0:0:0:0:
329,192,456674,1,0,0:0:0:0:
475,192,456723,128,0,457015:0:0:0:0:
182,192,456771,1,0,0:0:0:0:
109,192,456869,1,0,0:0:0:0:
329,192,456869,1,0,0:0:0:0:
182,192,457064,1,0,0:0:0:0:
402,192,457162,128,0,457308:0:0:0:0:
256,192,457162,1,0,0:0:0:0:
36,192,457162,1,0,0:0:0:0:
256,192,457259,1,0,0:0:0:0:
36,192,457357,1,0,0:0:0:0:
109,192,457357,1,0,0:0:0:0:
256,192,457454,128,0,457601:0:0:0:0:
329,192,457454,1,0,0:0:0:0:
475,192,457454,1,0,0:0:0:0:
402,192,457747,1,0,0:0:0:0:
182,192,457845,1,0,0:0:0:0:
36,192,457845,1,0,0:0:0:0:
402,192,457942,1,0,0:0:0:0:
329,192,458040,128,0,458186:0:0:0:0:
182,192,458040,1,0,0:0:0:0:
36,192,458040,1,0,0:0:0:0:
402,192,458137,1,0,0:0:0:0:
475,192,458137,1,0,0:0:0:0:
256,192,458235,1,0,0:0:0:0:
182,192,458235,1,0,0:0:0:0:
402,192,458332,128,0,458479:0:0:0:0:
36,192,458332,1,0,0:0:0:0:
475,192,458332,1,0,0:0:0:0:
36,192,458430,1,0,0:0:0:0:
329,192,458430,1,0,0:0:0:0:
109,192,458528,1,0,0:0:0:0:
182,192,458528,1,0,0:0:0:0:
256,192,458625,128,0,458918:0:0:0:0:
475,192,458625,128,0,459210:0:0:0:0:
182,192,458918,1,0,0:0:0:0:
329,192,459015,1,0,0:0:0:0:
109,192,459064,128,0,459357:0:0:0:0:
402,192,459064,128,0,459649:0:0:0:0:
182,192,459113,1,0,0:0:0:0:
329,192,459210,1,0,0:0:0:0:
36,192,459210,1,0,0:0:0:0:
256,192,459503,128,0,459649:0:0:0:0:
475,192,459503,128,0,459942:0:0:0:0:
109,192,459503,1,0,0:0:0:0:
109,192,459601,1,0,0:0:0:0:
329,192,459698,1,0,0:0:0:0:
36,192,459796,128,0,460528:0:0:0:0:
182,192,459796,128,0,460089:0:0:0:0:
256,192,459796,1,0,0:0:0:0:
475,192,460089,1,0,0:0:0:0:
329,192,460186,1,0,0:0:0:0:
475,192,460284,1,0,0:0:0:0:
109,192,460381,128,0,460820:0:0:0:0:
329,192,460381,128,0,460528:0:0:0:0:
402,192,460381,1,0,0:0:0:0:
256,192,460381,1,0,0:0:0:0:
182,192,460479,1,0,0:0:0:0:
256,192,460576,1,0,0:0:0:0:
402,192,460674,128,0,460820:0:0:0:0:
182,192,460674,128,0,461113:0:0:0:0:
475,192,460674,1,0,0:0:0:0:
329,192,460674,1,0,0:0:0:0:
256,192,460771,1,0,0:0:0:0:
475,192,460869,1,0,0:0:0:0:
329,192,460967,128,0,461552:0:0:0:0:
36,192,460967,128,0,461259:0:0:0:0:
256,192,460967,1,0,0:0:0:0:
109,192,460967,1,0,0:0:0:0:
256,192,461259,1,0,0:0:0:0:
182,192,461357,1,0,0:0:0:0:
402,192,461406,128,0,461991:0:0:0:0:
109,192,461406,128,0,461698:0:0:0:0:
256,192,461454,1,0,0:0:0:0:
182,192,461552,1,0,0:0:0:0:
36,192,461552,1,0,0:0:0:0:
475,192,461845,128,0,462284:0:0:0:0:
182,192,461845,128,0,461991:0:0:0:0:
329,192,461845,1,0,0:0:0:0:
329,192,461942,1,0,0:0:0:0:
256,192,462040,1,0,0:0:0:0:
109,192,462137,128,0,462430:0:0:0:0:
329,192,462137,128,0,462869:0:0:0:0:
36,192,462137,1,0,0:0:0:0:
182,192,462137,1,0,0:0:0:0:
182,192,462430,1,0,0:0:0:0:
36,192,462528,1,0,0:0:0:0:
182,192,462625,1,0,0:0:0:0:
256,192,462723,128,0,463162:0:0:0:0:
36,192,462723,1,0,0:0:0:0:
475,192,462723,1,0,0:0:0:0:
109,192,462820,1,0,0:0:0:0:
402,192,462918,1,0,0:0:0:0:
182,192,463015,128,0,463454:0:0:0:0:
475,192,463015,1,0,0:0:0:0:
36,192,463015,1,0,0:0:0:0:
402,192,463113,1,0,0:0:0:0:
36,192,463162,1,0,0:0:0:0:
329,192,463210,1,0,0:0:0:0:
109,192,463235,1,0,0:0:0:0:
256,192,463308,128,0,463893:0:0:0:0:
36,192,463308,1,0,0:0:0:0:
475,192,463308,128,0,463381:0:0:0:0:
402,192,463308,128,0,463601:0:0:0:0:
36,192,463601,128,0,463747:0:0:0:0:
182,192,463601,1,0,0:0:0:0:
329,192,463601,1,0,0:0:0:0:
475,192,463601,1,0,0:0:0:0:
109,192,463893,128,0,464040:0:0:0:0:
402,192,463893,1,0,0:0:0:0:
182,192,463893,1,0,0:0:0:0:
329,192,463967,1,0,0:0:0:0:
36,192,464040,1,0,0:0:0:0:
256,192,464040,1,0,0:0:0:0:
402,192,464040,1,0,0:0:0:0:
329,192,464186,128,0,464332:0:0:0:0:
109,192,464186,1,0,0:0:0:0:
182,192,464332,1,0,0:0:0:0:
475,192,464332,1,0,0:0:0:0:
402,192,464479,128,0,465064:0:0:0:0:
182,192,464479,128,0,464771:0:0:0:0:
109,192,464479,128,0,464552:0:0:0:0:
36,192,464479,128,0,464552:0:0:0:0:
256,192,464479,128,0,464552:0:0:0:0:
475,192,464479,128,0,464552:0:0:0:0:
329,192,464625,1,0,0:0:0:0:
36,192,464625,1,0,0:0:0:0:
256,192,464918,128,0,465210:0:0:0:0:
109,192,464918,1,0,0:0:0:0:
329,192,464991,1,0,0:0:0:0:
182,192,465064,1,0,0:0:0:0:
475,192,465064,1,0,0:0:0:0:
109,192,465064,1,0,0:0:0:0:
182,192,465210,1,0,0:0:0:0:
475,192,465210,1,0,0:0:0:0:
329,192,465357,128,0,465503:0:0:0:0:
36,192,465357,1,0,0:0:0:0:
256,192,465357,1,0,0:0:0:0:
109,192,465430,1,0,0:0:0:0:
36,192,465503,1,0,0:0:0:0:
182,192,465503,1,0,0:0:0:0:
402,192,465503,1,0,0:0:0:0:
109,192,465649,128,0,465942:0:0:0:0:
256,192,465649,1,0,0:0:0:0:
329,192,465649,1,0,0:0:0:0:
182,192,465649,1,0,0:0:0:0:
475,192,465649,1,0,0:0:0:0:
36,192,465649,1,0,0:0:0:0:
329,192,465942,1,0,0:0:0:0:
475,192,465942,1,0,0:0:0:0:
182,192,465942,1,0,0:0:0:0:
256,192,466015,128,0,466357:0:0:0:0:
475,192,466040,1,0,0:0:0:0:
329,192,466040,1,0,0:0:0:0:
182,192,466137,1,0,0:0:0:0:
36,192,466137,1,0,0:0:0:0:
182,192,466235,1,0,0:0:0:0:
36,192,466235,1,0,0:0:0:0:
402,192,466235,1,0,0:0:0:0:
475,192,466235,1,0,0:0:0:0:
109,192,466430,1,0,0:0:0:0:
36,192,466430,1,0,0:0:0:0:
329,192,466430,1,0,0:0:0:0:
402,192,466430,128,0,466674:0:0:0:0:
256,192,466619,1,0,0:0:0:0:
182,192,466656,1,0,0:0:0:0:
475,192,466674,1,0,0:0:0:0:
109,192,466692,1,0,0:0:0:0:
475,192,466820,128,0,466967:0:0:0:0:
402,192,466820,1,0,0:0:0:0:
256,192,466820,1,0,0:0:0:0:
36,192,466820,1,0,0:0:0:0:
329,192,466820,1,0,0:0:0:0:
36,192,467015,1,0,0:0:0:0:
182,192,467015,1,0,0:0:0:0:
256,192,467113,1,0,0:0:0:0:
475,192,467113,1,0,0:0:0:0:
402,192,467210,1,0,0:0:0:0:
109,192,467308,1,0,0:0:0:0:
256,192,467308,1,0,0:0:0:0:
329,192,467406,1,0,0:0:0:0:
402,192,467406,1,0,0:0:0:0:
475,192,467406,1,0,0:0:0:0:
36,192,467406,128,0,467552:0:0:0:0:
182,192,467406,1,0,0:0:0:0:
329,192,467503,1,0,0:0:0:0:
402,192,467503,1,0,0:0:0:0:
475,192,467503,1,0,0:0:0:0:
402,192,467601,1,0,0:0:0:0:
256,192,467601,1,0,0:0:0:0:
109,192,467601,1,0,0:0:0:0:
256,192,467698,128,0,467845:0:0:0:0:
475,192,467698,1,0,0:0:0:0:
36,192,467698,1,0,0:0:0:0:
182,192,467796,1,0,0:0:0:0:
329,192,467796,1,0,0:0:0:0:
402,192,467893,1,0,0:0:0:0:
109,192,467893,1,0,0:0:0:0:
256,192,467991,5,0,0:0:0:0:
109,192,467991,128,0,468284:0:0:0:0:
36,192,467991,128,0,468210:0:0:0:0:
182,192,467991,128,0,468723:0:0:0:0:
329,192,467991,128,0,468723:0:0:0:0:
402,192,467991,128,0,468284:0:0:0:0:
475,192,467991,128,0,468210:0:0:0:0:
109,192,468430,128,0,468869:0:0:0:0:
402,192,468430,128,0,468869:0:0:0:0:
182,192,468869,128,0,469015:0:0:0:0:
329,192,468869,128,0,469015:0:0:0:0:
109,192,469015,128,0,469162:0:0:0:0:
402,192,469015,128,0,469162:0:0:0:0:
36,192,469162,128,0,469381:0:0:0:0:
182,192,469162,128,0,469454:0:0:0:0:
329,192,469162,128,0,469454:0:0:0:0:
475,192,469162,128,0,469381:0:0:0:0:
256,192,469162,128,0,469454:0:0:0:0:
329,192,469601,128,0,469845:0:0:0:0:
182,192,469601,128,0,469845:0:0:0:0:
256,192,469747,128,0,469845:0:0:0:0:
402,192,469747,128,0,469845:0:0:0:0:
475,192,469747,128,0,469845:0:0:0:0:
36,192,469747,128,0,469845:0:0:0:0:
109,192,469747,128,0,470040:0:0:0:0:
36,192,469942,128,0,470040:0:0:0:0:
182,192,469942,128,0,470040:0:0:0:0:
256,192,469942,128,0,470040:0:0:0:0:
329,192,469942,128,0,470040:0:0:0:0:
402,192,469942,128,0,470235:0:0:0:0:
475,192,469942,128,0,470040:0:0:0:0:
182,192,470137,1,0,0:0:0:0:
109,192,470137,1,0,0:0:0:0:
36,192,470137,1,0,0:0:0:0:
329,192,470137,128,0,470235:0:0:0:0:
475,192,470137,128,0,470235:0:0:0:0:
256,192,470137,128,0,470479:0:0:0:0:
109,192,470235,1,0,0:0:0:0:
182,192,470332,128,0,470552:0:0:0:0:
109,192,470332,128,0,470625:0:0:0:0:
36,192,470332,128,0,470771:0:0:0:0:
402,192,470332,128,0,470625:0:0:0:0:
329,192,470332,128,0,470552:0:0:0:0:
475,192,470332,128,0,470771:0:0:0:0:
256,192,470625,1,0,0:0:0:0:
182,192,470723,1,0,0:0:0:0:
329,192,470723,1,0,0:0:0:0:
402,192,470771,128,0,470918:0:0:0:0:
109,192,470771,128,0,470918:0:0:0:0:
256,192,470820,1,0,0:0:0:0:
36,192,470918,1,0,0:0:0:0:
475,192,470918,1,0,0:0:0:0:
182,192,470918,128,0,471064:0:0:0:0:
329,192,470918,128,0,471357:0:0:0:0:
256,192,470918,128,0,471064:0:0:0:0:
402,192,471064,128,0,471210:0:0:0:0:
475,192,471064,128,0,471210:0:0:0:0:
36,192,471064,1,0,0:0:0:0:
109,192,471113,1,0,0:0:0:0:
182,192,471210,128,0,471649:0:0:0:0:
109,192,471357,128,0,471503:0:0:0:0:
36,192,471357,128,0,471503:0:0:0:0:
475,192,471357,1,0,0:0:0:0:
402,192,471406,1,0,0:0:0:0:
256,192,471503,128,0,471649:0:0:0:0:
329,192,471503,128,0,471796:0:0:0:0:
475,192,471503,128,0,472015:0:0:0:0:
256,192,471796,1,0,0:0:0:0:
182,192,471796,1,0,0:0:0:0:
109,192,471796,1,0,0:0:0:0:
36,192,471796,1,0,0:0:0:0:
109,192,471893,1,0,0:0:0:0:
402,192,471942,128,0,472015:0:0:0:0:
182,192,471991,1,0,0:0:0:0:
402,192,472089,128,0,472162:0:0:0:0:
329,192,472089,128,0,472381:0:0:0:0:
256,192,472089,1,0,0:0:0:0:
36,192,472089,1,0,0:0:0:0:
475,192,472089,1,0,0:0:0:0:
182,192,472089,1,0,0:0:0:0:
36,192,472186,1,0,0:0:0:0:
182,192,472284,1,0,0:0:0:0:
109,192,472381,1,0,0:0:0:0:
402,192,472381,1,0,0:0:0:0:
256,192,472479,1,0,0:0:0:0:
402,192,472576,1,0,0:0:0:0:
256,192,472674,1,0,0:0:0:0:
182,192,472674,128,0,472967:0:0:0:0:
109,192,472674,128,0,473332:0:0:0:0:
36,192,472674,128,0,472967:0:0:0:0:
329,192,472674,128,0,472893:0:0:0:0:
475,192,472674,128,0,473040:0:0:0:0:
402,192,472967,128,0,473040:0:0:0:0:
329,192,472967,1,0,0:0:0:0:
182,192,473113,128,0,473552:0:0:0:0:
36,192,473113,1,0,0:0:0:0:
402,192,473113,128,0,473186:0:0:0:0:
36,192,473259,128,0,473552:0:0:0:0:
256,192,473259,128,0,473332:0:0:0:0:
402,192,473259,128,0,473332:0:0:0:0:
475,192,473259,1,0,0:0:0:0:
329,192,473259,1,0,0:0:0:0:
402,192,473406,128,0,473625:0:0:0:0:
109,192,473479,128,0,473698:0:0:0:0:
256,192,473479,128,0,474284:0:0:0:0:
475,192,473552,1,0,0:0:0:0:
182,192,473698,128,0,474723:0:0:0:0:
36,192,473698,128,0,474284:0:0:0:0:
402,192,473698,128,0,473771:0:0:0:0:
109,192,473845,128,0,474137:0:0:0:0:
329,192,473845,128,0,474137:0:0:0:0:
475,192,473845,128,0,474064:0:0:0:0:
402,192,473845,1,0,0:0:0:0:
475,192,474137,128,0,474210:0:0:0:0:
402,192,474137,1,0,0:0:0:0:
109,192,474284,1,0,0:0:0:0:
475,192,474284,128,0,474357:0:0:0:0:
329,192,474284,128,0,474576:0:0:0:0:
36,192,474430,128,0,474723:0:0:0:0:
402,192,474430,1,0,0:0:0:0:
475,192,474430,128,0,474503:0:0:0:0:
109,192,474430,128,0,474576:0:0:0:0:
256,192,474430,128,0,474869:0:0:0:0:
475,192,474576,128,0,474649:0:0:0:0:
402,192,474723,1,0,0:0:0:0:
329,192,474723,128,0,475454:0:0:0:0:
475,192,474723,1,0,0:0:0:0:
109,192,474723,128,0,474942:0:0:0:0:
182,192,474869,128,0,475454:0:0:0:0:
402,192,474869,128,0,475674:0:0:0:0:
109,192,475015,1,0,0:0:0:0:
36,192,475015,128,0,475235:0:0:0:0:
256,192,475015,128,0,475308:0:0:0:0:
475,192,475015,128,0,475308:0:0:0:0:
36,192,475308,128,0,475381:0:0:0:0:
475,192,475454,128,0,475893:0:0:0:0:
36,192,475454,128,0,475528:0:0:0:0:
109,192,475454,1,0,0:0:0:0:
256,192,475454,128,0,475674:0:0:0:0:
182,192,475601,128,0,475893:0:0:0:0:
329,192,475601,128,0,475893:0:0:0:0:
109,192,475601,1,0,0:0:0:0:
36,192,475601,128,0,475674:0:0:0:0:
36,192,475747,128,0,475967:0:0:0:0:
256,192,475820,128,0,476040:0:0:0:0:
402,192,475820,128,0,476040:0:0:0:0:
109,192,475893,1,0,0:0:0:0:
475,192,476040,128,0,476625:0:0:0:0:
329,192,476040,128,0,476479:0:0:0:0:
36,192,476040,128,0,476113:0:0:0:0:
36,192,476186,1,0,0:0:0:0:
256,192,476186,128,0,476845:0:0:0:0:
402,192,476186,128,0,476479:0:0:0:0:
109,192,476186,128,0,476406:0:0:0:0:
182,192,476186,1,0,0:0:0:0:
109,192,476479,128,0,476552:0:0:0:0:
182,192,476479,1,0,0:0:0:0:
402,192,476625,1,0,0:0:0:0:
329,192,476625,128,0,476991:0:0:0:0:
109,192,476625,128,0,476698:0:0:0:0:
36,192,476625,1,0,0:0:0:0:
402,192,476771,128,0,477137:0:0:0:0:
475,192,476771,1,0,0:0:0:0:
109,192,476771,128,0,476845:0:0:0:0:
36,192,476771,128,0,476845:0:0:0:0:
182,192,476771,1,0,0:0:0:0:
475,192,476918,128,0,477284:0:0:0:0:
109,192,476918,128,0,476991:0:0:0:0:
182,192,476918,128,0,476991:0:0:0:0:
256,192,476918,1,0,0:0:0:0:
329,192,477064,1,0,0:0:0:0:
256,192,477064,128,0,477137:0:0:0:0:
182,192,477064,128,0,477137:0:0:0:0:
36,192,477064,128,0,477284:0:0:0:0:
329,192,477210,128,0,477284:0:0:0:0:
402,192,477210,1,0,0:0:0:0:
256,192,477210,128,0,477284:0:0:0:0:
109,192,477210,128,0,477284:0:0:0:0:
36,192,477357,128,0,477723:0:0:0:0:
109,192,477357,128,0,477723:0:0:0:0:
182,192,477357,128,0,477869:0:0:0:0:
329,192,477357,128,0,477723:0:0:0:0:
402,192,477357,128,0,478052:0:0:0:0:
475,192,477357,128,0,477723:0:0:0:0:
256,192,477649,1,0,0:0:0:0:
329,192,477796,1,0,0:0:0:0:
475,192,477796,1,0,0:0:0:0:
109,192,477796,128,0,477869:0:0:0:0:
109,192,477942,128,0,478454:0:0:0:0:
256,192,477942,128,0,478235:0:0:0:0:
329,192,477942,128,0,478052:0:0:0:0:
475,192,477942,128,0,478454:0:0:0:0:
36,192,477942,128,0,478308:0:0:0:0:
402,192,478162,128,0,478454:0:0:0:0:
329,192,478162,128,0,478235:0:0:0:0:
182,192,478235,1,0,0:0:0:0:
256,192,478381,128,0,478454:0:0:0:0:
329,192,478381,128,0,478454:0:0:0:0:
36,192,478381,128,0,478454:0:0:0:0:
402,192,478528,128,0,478747:0:0:0:0:
475,192,478528,128,0,478747:0:0:0:0:
329,192,478528,128,0,479040:0:0:0:0:
182,192,478528,128,0,478893:0:0:0:0:
109,192,478528,128,0,479040:0:0:0:0:
36,192,478528,128,0,478893:0:0:0:0:
402,192,478820,128,0,479040:0:0:0:0:
256,192,478820,1,0,0:0:0:0:
36,192,478967,1,0,0:0:0:0:
182,192,478967,128,0,479406:0:0:0:0:
109,192,479113,128,0,479259:0:0:0:0:
36,192,479113,128,0,479259:0:0:0:0:
256,192,479113,128,0,479625:0:0:0:0:
402,192,479113,128,0,479625:0:0:0:0:
475,192,479113,128,0,479332:0:0:0:0:
475,192,479406,128,0,479625:0:0:0:0:
36,192,479406,128,0,479625:0:0:0:0:
329,192,479406,1,0,0:0:0:0:
109,192,479406,1,0,0:0:0:0:
109,192,479552,128,0,479625:0:0:0:0:
182,192,479552,128,0,479625:0:0:0:0:
36,192,479698,128,0,479991:0:0:0:0:
182,192,479698,128,0,479991:0:0:0:0:
329,192,479698,128,0,480210:0:0:0:0:
475,192,479698,128,0,480064:0:0:0:0:
402,192,479698,128,0,480064:0:0:0:0:
256,192,479698,128,0,480064:0:0:0:0:
109,192,479991,1,0,0:0:0:0:
182,192,480137,1,0,0:0:0:0:
36,192,480137,1,0,0:0:0:0:
402,192,480137,128,0,480796:0:0:0:0:
256,192,480284,128,0,480576:0:0:0:0:
182,192,480284,128,0,480393:0:0:0:0:
109,192,480284,128,0,480393:0:0:0:0:
475,192,480284,128,0,480503:0:0:0:0:
36,192,480284,128,0,480796:0:0:0:0:
182,192,480503,128,0,480576:0:0:0:0:
109,192,480503,128,0,480796:0:0:0:0:
329,192,480576,1,0,0:0:0:0:
475,192,480576,128,0,480796:0:0:0:0:
182,192,480723,128,0,480796:0:0:0:0:
256,192,480723,128,0,480796:0:0:0:0:
36,192,480869,128,0,481235:0:0:0:0:
182,192,480869,128,0,481381:0:0:0:0:
109,192,480869,128,0,481235:0:0:0:0:
329,192,480869,128,0,481162:0:0:0:0:
475,192,480869,128,0,481162:0:0:0:0:
256,192,480869,128,0,481235:0:0:0:0:
402,192,481162,1,0,0:0:0:0:
475,192,481308,1,0,0:0:0:0:
109,192,481308,128,0,481381:0:0:0:0:
329,192,481308,128,0,481747:0:0:0:0:
36,192,481454,128,0,481528:0:0:0:0:
256,192,481454,128,0,481967:0:0:0:0:
475,192,481454,128,0,481601:0:0:0:0:
402,192,481454,128,0,481601:0:0:0:0:
109,192,481454,128,0,481967:0:0:0:0:
36,192,481601,128,0,481967:0:0:0:0:
182,192,481747,1,0,0:0:0:0:
475,192,481747,128,0,481967:0:0:0:0:
402,192,481747,1,0,0:0:0:0:
402,192,481893,128,0,481967:0:0:0:0:
329,192,481893,128,0,481967:0:0:0:0:
475,192,482040,128,0,482406:0:0:0:0:
36,192,482040,128,0,482259:0:0:0:0:
109,192,482040,128,0,482406:0:0:0:0:
182,192,482040,128,0,482259:0:0:0:0:
256,192,482040,128,0,482406:0:0:0:0:
329,192,482040,128,0,482552:0:0:0:0:
36,192,482332,128,0,482552:0:0:0:0:
182,192,482332,128,0,482552:0:0:0:0:
402,192,482332,1,0,0:0:0:0:
475,192,482479,1,0,0:0:0:0:
256,192,482479,128,0,482991:0:0:0:0:
109,192,482479,128,0,483137:0:0:0:0:
475,192,482625,128,0,482698:0:0:0:0:
329,192,482625,1,0,0:0:0:0:
182,192,482625,1,0,0:0:0:0:
36,192,482625,1,0,0:0:0:0:
402,192,482625,128,0,482991:0:0:0:0:
182,192,482771,128,0,482991:0:0:0:0:
36,192,482771,128,0,482991:0:0:0:0:
475,192,482918,1,0,0:0:0:0:
182,192,483064,128,0,483430:0:0:0:0:
329,192,483064,128,0,483137:0:0:0:0:
36,192,483210,128,0,483430:0:0:0:0:
256,192,483210,128,0,483723:0:0:0:0:
329,192,483210,128,0,483430:0:0:0:0:
475,192,483210,128,0,483723:0:0:0:0:
402,192,483210,128,0,483430:0:0:0:0:
36,192,483503,1,0,0:0:0:0:
182,192,483503,128,0,483723:0:0:0:0:
329,192,483503,128,0,484015:0:0:0:0:
36,192,483796,128,0,483869:0:0:0:0:
475,192,483796,1,0,0:0:0:0:
402,192,483796,128,0,484308:0:0:0:0:
256,192,483796,128,0,484015:0:0:0:0:
109,192,483796,128,0,484015:0:0:0:0:
329,192,484089,128,0,484308:0:0:0:0:
109,192,484089,1,0,0:0:0:0:
475,192,484089,128,0,484308:0:0:0:0:
182,192,484235,128,0,484503:0:0:0:0:
36,192,484381,1,0,0:0:0:0:
329,192,484381,128,0,484674:0:0:0:0:
475,192,484381,128,0,484479:0:0:0:0:
402,192,484381,128,0,484479:0:0:0:0:
256,192,484381,128,0,484528:0:0:0:0:
109,192,484381,128,0,484479:0:0:0:0:
256,192,484576,1,0,0:0:0:0:
402,192,484576,128,0,484893:0:0:0:0:
475,192,484576,128,0,484674:0:0:0:0:
182,192,484576,128,0,484698:0:0:0:0:
109,192,484576,128,0,484674:0:0:0:0:
36,192,484576,128,0,484649:0:0:0:0:
256,192,484771,1,0,0:0:0:0:
182,192,484771,1,0,0:0:0:0:
475,192,484771,128,0,484893:0:0:0:0:
109,192,484771,128,0,485064:0:0:0:0:
36,192,484771,128,0,484869:0:0:0:0:
329,192,484771,1,0,0:0:0:0:
256,192,484869,1,0,0:0:0:0:
475,192,484967,1,0,0:0:0:0:
36,192,484967,128,0,485064:0:0:0:0:
182,192,484967,128,0,485259:0:0:0:0:
256,192,484967,128,0,485113:0:0:0:0:
329,192,484967,128,0,485089:0:0:0:0:
402,192,484967,128,0,485040:0:0:0:0:
109,192,485162,128,0,485479:0:0:0:0:
36,192,485162,128,0,485259:0:0:0:0:
256,192,485162,1,0,0:0:0:0:
329,192,485162,128,0,485284:0:0:0:0:
402,192,485162,128,0,485259:0:0:0:0:
475,192,485162,128,0,485235:0:0:0:0:
36,192,485357,128,0,485479:0:0:0:0:
402,192,485357,128,0,485674:0:0:0:0:
475,192,485357,128,0,485454:0:0:0:0:
182,192,485357,128,0,485406:0:0:0:0:
256,192,485357,128,0,485430:0:0:0:0:
329,192,485357,128,0,485406:0:0:0:0:
109,192,485552,128,0,485674:0:0:0:0:
36,192,485552,128,0,485649:0:0:0:0:
182,192,485552,128,0,485649:0:0:0:0:
475,192,485552,128,0,485747:0:0:0:0:
256,192,485552,128,0,485845:0:0:0:0:
329,192,485552,128,0,485649:0:0:0:0:
182,192,485747,128,0,485869:0:0:0:0:
329,192,485747,128,0,485869:0:0:0:0:
402,192,485747,128,0,485845:0:0:0:0:
36,192,485747,128,0,485942:0:0:0:0:
109,192,485747,128,0,485845:0:0:0:0:
475,192,485845,128,0,486040:0:0:0:0:
329,192,485942,128,0,486040:0:0:0:0:
109,192,485942,128,0,486064:0:0:0:0:
182,192,485942,128,0,486040:0:0:0:0:
402,192,485942,128,0,486064:0:0:0:0:
256,192,485942,128,0,486332:0:0:0:0:
36,192,486040,128,0,486259:0:0:0:0:
109,192,486137,128,0,486259:0:0:0:0:
475,192,486137,128,0,486649:0:0:0:0:
402,192,486137,128,0,486454:0:0:0:0:
329,192,486137,128,0,486259:0:0:0:0:
182,192,486137,128,0,486259:0:0:0:0:
36,192,486332,128,0,486430:0:0:0:0:
329,192,486332,128,0,486528:0:0:0:0:
109,192,486332,1,0,0:0:0:0:
182,192,486332,128,0,486479:0:0:0:0:
256,192,486528,128,0,486674:0:0:0:0:
402,192,486528,128,0,486723:0:0:0:0:
182,192,486528,1,0,0:0:0:0:
109,192,486528,128,0,486625:0:0:0:0:
36,192,486723,128,0,486796:0:0:0:0:
475,192,486723,1,0,0:0:0:0:
109,192,486732,128,0,486805:0:0:0:0:
182,192,486741,128,0,486814:0:0:0:0:
256,192,486750,128,0,486823:0:0:0:0:
329,192,486759,128,0,487089:0:0:0:0:
402,192,486796,1,0,0:0:0:0:
36,192,486869,128,0,486942:0:0:0:0:
182,192,486869,128,0,487015:0:0:0:0:
475,192,486869,128,0,486942:0:0:0:0:
109,192,486869,128,0,486942:0:0:0:0:
402,192,486942,128,0,487089:0:0:0:0:
256,192,486942,128,0,487015:0:0:0:0:
109,192,487015,128,0,487089:0:0:0:0:
475,192,487015,128,0,487089:0:0:0:0:
256,192,487089,128,0,487162:0:0:0:0:
182,192,487089,1,0,0:0:0:0:
109,192,487162,128,0,487308:0:0:0:0:
36,192,487162,128,0,487528:0:0:0:0:
329,192,487162,128,0,487235:0:0:0:0:
402,192,487162,1,0,0:0:0:0:
182,192,487235,128,0,487381:0:0:0:0:
475,192,487235,128,0,487308:0:0:0:0:
256,192,487308,128,0,487454:0:0:0:0:
402,192,487308,128,0,487381:0:0:0:0:
109,192,487381,1,0,0:0:0:0:
329,192,487381,128,0,487528:0:0:0:0:
402,192,487454,1,0,0:0:0:0:
475,192,487454,128,0,487528:0:0:0:0:
182,192,487454,128,0,487528:0:0:0:0:
109,192,487528,128,0,487601:0:0:0:0:
256,192,487528,1,0,0:0:0:0:
329,192,487601,128,0,487674:0:0:0:0:
182,192,487601,128,0,487674:0:0:0:0:
475,192,487601,128,0,487674:0:0:0:0:
402,192,487601,128,0,487820:0:0:0:0:
36,192,487674,128,0,487747:0:0:0:0:
109,192,487674,128,0,487747:0:0:0:0:
475,192,487747,128,0,487957:0:0:0:0:
329,192,487747,128,0,487820:0:0:0:0:
256,192,487747,128,0,487820:0:0:0:0:
182,192,487747,1,0,0:0:0:0:
36,192,487820,128,0,487893:0:0:0:0:
109,192,487820,1,0,0:0:0:0:
402,192,487893,128,0,487967:0:0:0:0:
329,192,487903,128,0,487976:0:0:0:0:
256,192,487912,128,0,487985:0:0:0:0:
182,192,487921,128,0,487994:0:0:0:0:
109,192,487930,128,0,488259:0:0:0:0:
36,192,487967,1,0,0:0:0:0:
475,192,488040,128,0,488113:0:0:0:0:
256,192,488040,128,0,488113:0:0:0:0:
402,192,488040,128,0,488113:0:0:0:0:
329,192,488040,128,0,488259:0:0:0:0:
36,192,488113,128,0,488186:0:0:0:0:
182,192,488113,128,0,488186:0:0:0:0:
475,192,488186,128,0,488259:0:0:0:0:
256,192,488186,128,0,488259:0:0:0:0:
182,192,488259,128,0,488332:0:0:0:0:
402,192,488259,1,0,0:0:0:0:
109,192,488332,128,0,488406:0:0:0:0:
36,192,488332,128,0,488406:0:0:0:0:
475,192,488332,128,0,488406:0:0:0:0:
256,192,488332,128,0,488552:0:0:0:0:
329,192,488406,128,0,488479:0:0:0:0:
182,192,488406,128,0,488479:0:0:0:0:
402,192,488479,128,0,488552:0:0:0:0:
36,192,488479,128,0,488552:0:0:0:0:
475,192,488479,128,0,488771:0:0:0:0:
109,192,488552,128,0,488625:0:0:0:0:
329,192,488552,128,0,488625:0:0:0:0:
182,192,488625,128,0,488698:0:0:0:0:
256,192,488625,1,0,0:0:0:0:
402,192,488625,128,0,488771:0:0:0:0:
109,192,488698,128,0,488771:0:0:0:0:
36,192,488698,128,0,488845:0:0:0:0:
329,192,488698,128,0,488991:0:0:0:0:
256,192,488771,128,0,488845:0:0:0:0:
182,192,488771,128,0,488845:0:0:0:0:
109,192,488845,128,0,488918:0:0:0:0:
475,192,488845,128,0,488918:0:0:0:0:
36,192,488918,128,0,488991:0:0:0:0:
256,192,488918,128,0,488991:0:0:0:0:
182,192,488918,1,0,0:0:0:0:
402,192,488918,128,0,488991:0:0:0:0:
109,192,488991,128,0,489119:0:0:0:0:
475,192,488991,1,0,0:0:0:0:
182,192,489064,128,0,489137:0:0:0:0:
256,192,489073,128,0,489146:0:0:0:0:
329,192,489082,128,0,489156:0:0:0:0:
402,192,489092,128,0,489165:0:0:0:0:
475,192,489101,128,0,489430:0:0:0:0:
36,192,489137,1,0,0:0:0:0:
109,192,489210,128,0,489284:0:0:0:0:
182,192,489210,128,0,489284:0:0:0:0:
256,192,489210,128,0,489357:0:0:0:0:
329,192,489210,1,0,0:0:0:0:
402,192,489284,128,0,489430:0:0:0:0:
36,192,489284,128,0,489357:0:0:0:0:
109,192,489357,128,0,489430:0:0:0:0:
329,192,489357,128,0,489430:0:0:0:0:
256,192,489430,1,0,0:0:0:0:
182,192,489430,128,0,489503:0:0:0:0:
109,192,489503,128,0,489576:0:0:0:0:
402,192,489503,128,0,489649:0:0:0:0:
475,192,489503,128,0,489576:0:0:0:0:
329,192,489503,128,0,489723:0:0:0:0:
36,192,489576,128,0,489650:0:0:0:0:
256,192,489576,128,0,489723:0:0:0:0:
182,192,489649,128,0,489723:0:0:0:0:
475,192,489649,1,0,0:0:0:0:
402,192,489723,128,0,489796:0:0:0:0:
109,192,489723,128,0,489796:0:0:0:0:
329,192,489796,128,0,489869:0:0:0:0:
182,192,489796,128,0,490015:0:0:0:0:
256,192,489796,128,0,489942:0:0:0:0:
36,192,489796,1,0,0:0:0:0:
109,192,489869,128,0,490015:0:0:0:0:
475,192,489869,128,0,489942:0:0:0:0:
36,192,489942,128,0,490015:0:0:0:0:
402,192,489942,128,0,490015:0:0:0:0:
329,192,490015,128,0,490089:0:0:0:0:
256,192,490015,1,0,0:0:0:0:
109,192,490089,1,0,0:0:0:0:
182,192,490089,128,0,490162:0:0:0:0:
402,192,490089,128,0,490198:0:0:0:0:
475,192,490089,128,0,490235:0:0:0:0:
36,192,490162,128,0,490290:0:0:0:0:
329,192,490162,1,0,0:0:0:0:
109,192,490235,128,0,490308:0:0:0:0:
182,192,490244,128,0,490317:0:0:0:0:
256,192,490253,128,0,490326:0:0:0:0:
329,192,490262,128,0,490335:0:0:0:0:
402,192,490271,128,0,490601:0:0:0:0:
475,192,490308,1,0,0:0:0:0:
36,192,490381,128,0,490454:0:0:0:0:
256,192,490381,128,0,490454:0:0:0:0:
109,192,490381,128,0,490601:0:0:0:0:
182,192,490381,1,0,0:0:0:0:
329,192,490454,128,0,490528:0:0:0:0:
475,192,490454,128,0,490528:0:0:0:0:
36,192,490528,128,0,490601:0:0:0:0:
182,192,490528,128,0,490601:0:0:0:0:
256,192,490601,128,0,490674:0:0:0:0:
329,192,490601,1,0,0:0:0:0:
36,192,490674,128,0,490820:0:0:0:0:
475,192,490674,128,0,490747:0:0:0:0:
402,192,490674,128,0,490747:0:0:0:0:
182,192,490674,128,0,490747:0:0:0:0:
109,192,490747,128,0,490893:0:0:0:0:
329,192,490747,128,0,490820:0:0:0:0:
182,192,490820,128,0,490967:0:0:0:0:
475,192,490820,128,0,491113:0:0:0:0:
402,192,490820,128,0,490893:0:0:0:0:
36,192,490893,1,0,0:0:0:0:
256,192,490893,128,0,491040:0:0:0:0:
402,192,490967,1,0,0:0:0:0:
329,192,490967,128,0,491113:0:0:0:0:
109,192,490967,128,0,491040:0:0:0:0:
182,192,491040,1,0,0:0:0:0:
36,192,491040,128,0,491186:0:0:0:0:
109,192,491113,128,0,491259:0:0:0:0:
256,192,491113,128,0,491186:0:0:0:0:
182,192,491186,128,0,491332:0:0:0:0:
402,192,491186,128,0,491259:0:0:0:0:
36,192,491259,128,0,491332:0:0:0:0:
329,192,491259,128,0,491332:0:0:0:0:
475,192,491259,1,0,0:0:0:0:
256,192,491259,1,0,0:0:0:0:
109,192,491332,128,0,491406:0:0:0:0:
402,192,491332,128,0,491406:0:0:0:0:
475,192,491406,128,0,491479:0:0:0:0:
329,192,491415,128,0,491488:0:0:0:0:
256,192,491424,128,0,491497:0:0:0:0:
182,192,491433,128,0,491506:0:0:0:0:
36,192,491442,128,0,491771:0:0:0:0:
109,192,491479,1,0,0:0:0:0:
402,192,491552,128,0,491625:0:0:0:0:
256,192,491552,128,0,491698:0:0:0:0:
329,192,491552,128,0,491625:0:0:0:0:
475,192,491552,128,0,491625:0:0:0:0:
182,192,491625,128,0,491698:0:0:0:0:
109,192,491625,128,0,491771:0:0:0:0:
402,192,491698,128,0,491845:0:0:0:0:
475,192,491698,1,0,0:0:0:0:
182,192,491771,128,0,491845:0:0:0:0:
329,192,491771,1,0,0:0:0:0:
36,192,491845,128,0,492064:0:0:0:0:
475,192,491845,128,0,491918:0:0:0:0:
109,192,491845,128,0,491918:0:0:0:0:
256,192,491845,128,0,492064:0:0:0:0:
329,192,491918,128,0,491991:0:0:0:0:
402,192,491918,1,0,0:0:0:0:
109,192,491991,128,0,492064:0:0:0:0:
475,192,491991,128,0,492064:0:0:0:0:
182,192,491991,128,0,492137:0:0:0:0:
402,192,492064,128,0,492137:0:0:0:0:
329,192,492064,128,0,492137:0:0:0:0:
36,192,492137,128,0,492284:0:0:0:0:
256,192,492137,128,0,492210:0:0:0:0:
475,192,492137,128,0,492357:0:0:0:0:
109,192,492137,1,0,0:0:0:0:
182,192,492210,128,0,492284:0:0:0:0:
402,192,492210,128,0,492357:0:0:0:0:
329,192,492284,128,0,492357:0:0:0:0:
109,192,492284,128,0,492430:0:0:0:0:
36,192,492357,1,0,0:0:0:0:
256,192,492357,128,0,492521:0:0:0:0:
182,192,492430,128,0,492540:0:0:0:0:
402,192,492430,128,0,492503:0:0:0:0:
329,192,492430,1,0,0:0:0:0:
475,192,492430,128,0,492503:0:0:0:0:
36,192,492503,128,0,492640:0:0:0:0:
109,192,492503,1,0,0:0:0:0:
475,192,492576,128,0,492650:0:0:0:0:
402,192,492585,128,0,492659:0:0:0:0:
329,192,492595,128,0,492668:0:0:0:0:
256,192,492604,128,0,492677:0:0:0:0:
182,192,492613,128,0,492942:0:0:0:0:
109,192,492650,1,0,0:0:0:0:
36,192,492723,1,0,0:0:0:0:
475,192,492723,128,0,492942:0:0:0:0:
402,192,492723,128,0,492796:0:0:0:0:
256,192,492723,1,0,0:0:0:0:
329,192,492796,128,0,492869:0:0:0:0:
109,192,492796,128,0,492942:0:0:0:0:
256,192,492869,128,0,492942:0:0:0:0:
36,192,492869,128,0,492942:0:0:0:0:
329,192,492942,128,0,493015:0:0:0:0:
402,192,492942,1,0,0:0:0:0:
109,192,493015,128,0,493308:0:0:0:0:
475,192,493015,128,0,493089:0:0:0:0:
36,192,493015,1,0,0:0:0:0:
182,192,493015,128,0,493162:0:0:0:0:
256,192,493089,128,0,493162:0:0:0:0:
329,192,493089,128,0,493162:0:0:0:0:
36,192,493162,128,0,493454:0:0:0:0:
402,192,493162,128,0,493235:0:0:0:0:
475,192,493162,128,0,493235:0:0:0:0:
182,192,493235,128,0,493308:0:0:0:0:
256,192,493235,128,0,493308:0:0:0:0:
475,192,493308,1,0,0:0:0:0:
402,192,493308,128,0,493381:0:0:0:0:
329,192,493308,128,0,493381:0:0:0:0:
182,192,493381,128,0,493454:0:0:0:0:
109,192,493381,128,0,493454:0:0:0:0:
256,192,493454,128,0,493528:0:0:0:0:
402,192,493454,1,0,0:0:0:0:
475,192,493454,128,0,493528:0:0:0:0:
329,192,493454,128,0,493528:0:0:0:0:
109,192,493528,1,0,0:0:0:0:
402,192,493601,128,0,493674:0:0:0:0:
182,192,493601,128,0,493674:0:0:0:0:
256,192,493601,128,0,493674:0:0:0:0:
329,192,493601,1,0,0:0:0:0:
109,192,493674,1,0,0:0:0:0:
256,192,493747,128,0,494113:0:0:0:0:
36,192,493747,128,0,493820:0:0:0:0:
182,192,493747,128,0,493820:0:0:0:0:
475,192,493747,128,0,494113:0:0:0:0:
329,192,493747,128,0,493893:0:0:0:0:
402,192,493820,1,0,0:0:0:0:
182,192,493893,1,0,0:0:0:0:
109,192,493893,128,0,493967:0:0:0:0:
36,192,493893,128,0,494113:0:0:0:0:
329,192,493967,128,0,494040:0:0:0:0:
402,192,494040,128,0,494113:0:0:0:0:
182,192,494040,128,0,494406:0:0:0:0:
329,192,494113,128,0,494186:0:0:0:0:
109,192,494186,128,0,494259:0:0:0:0:
36,192,494186,1,0,0:0:0:0:
475,192,494186,128,0,494259:0:0:0:0:
402,192,494186,128,0,494406:0:0:0:0:
256,192,494259,128,0,494332:0:0:0:0:
329,192,494332,128,0,494406:0:0:0:0:
109,192,494332,128,0,494698:0:0:0:0:
475,192,494332,1,0,0:0:0:0:
256,192,494406,128,0,494479:0:0:0:0:
329,192,494479,128,0,494698:0:0:0:0:
36,192,494479,128,0,494552:0:0:0:0:
475,192,494479,1,0,0:0:0:0:
402,192,494479,128,0,494552:0:0:0:0:
182,192,494552,128,0,494625:0:0:0:0:
256,192,494625,128,0,494698:0:0:0:0:
36,192,494625,128,0,494845:0:0:0:0:
402,192,494625,1,0,0:0:0:0:
182,192,494698,128,0,494771:0:0:0:0:
256,192,494771,128,0,494918:0:0:0:0:
402,192,494771,1,0,0:0:0:0:
329,192,494771,128,0,494845:0:0:0:0:
475,192,494771,128,0,494845:0:0:0:0:
109,192,494845,128,0,494918:0:0:0:0:
475,192,494918,128,0,495137:0:0:0:0:
36,192,494918,128,0,495284:0:0:0:0:
329,192,494918,1,0,0:0:0:0:
182,192,494918,128,0,494991:0:0:0:0:
402,192,494991,1,0,0:0:0:0:
109,192,494991,128,0,495064:0:0:0:0:
329,192,495064,1,0,0:0:0:0:
182,192,495064,128,0,495137:0:0:0:0:
402,192,495137,1,0,0:0:0:0:
256,192,495137,128,0,495210:0:0:0:0:
475,192,495210,1,0,0:0:0:0:
182,192,495210,128,0,495284:0:0:0:0:
402,192,495284,1,0,0:0:0:0:
256,192,495284,128,0,495357:0:0:0:0:
109,192,495357,128,0,495430:0:0:0:0:
475,192,495357,1,0,0:0:0:0:
329,192,495357,128,0,495430:0:0:0:0:
256,192,495430,1,0,0:0:0:0:
402,192,495430,128,0,495503:0:0:0:0:
109,192,495503,1,0,0:0:0:0:
182,192,495503,128,0,495869:0:0:0:0:
36,192,495503,128,0,495576:0:0:0:0:
329,192,495576,1,0,0:0:0:0:
475,192,495576,128,0,495649:0:0:0:0:
256,192,495649,1,0,0:0:0:0:
109,192,495649,128,0,495723:0:0:0:0:
475,192,495723,1,0,0:0:0:0:
402,192,495723,128,0,495796:0:0:0:0:
329,192,495796,128,0,496015:0:0:0:0:
36,192,495796,128,0,495869:0:0:0:0:
256,192,495796,128,0,495869:0:0:0:0:
402,192,495869,1,0,0:0:0:0:
475,192,495869,128,0,495942:0:0:0:0:
36,192,495942,1,0,0:0:0:0:
109,192,495942,128,0,496015:0:0:0:0:
182,192,495942,128,0,496162:0:0:0:0:
475,192,496015,1,0,0:0:0:0:
402,192,496015,128,0,496308:0:0:0:0:
36,192,496089,128,0,496162:0:0:0:0:
109,192,496089,128,0,496308:0:0:0:0:
256,192,496089,128,0,496454:0:0:0:0:
329,192,496089,1,0,0:0:0:0:
36,192,496235,128,0,496601:0:0:0:0:
329,192,496235,1,0,0:0:0:0:
182,192,496235,128,0,496308:0:0:0:0:
109,192,496381,1,0,0:0:0:0:
329,192,496381,128,0,496454:0:0:0:0:
182,192,496454,128,0,496601:0:0:0:0:
475,192,496454,1,0,0:0:0:0:
109,192,496528,128,0,496893:0:0:0:0:
329,192,496528,128,0,496601:0:0:0:0:
256,192,496528,1,0,0:0:0:0:
402,192,496528,128,0,496601:0:0:0:0:
36,192,496674,1,0,0:0:0:0:
402,192,496674,128,0,496820:0:0:0:0:
256,192,496674,128,0,496820:0:0:0:0:
329,192,496674,1,0,0:0:0:0:
36,192,496820,128,0,497186:0:0:0:0:
182,192,496820,1,0,0:0:0:0:
475,192,496820,1,0,0:0:0:0:
402,192,496893,128,0,496967:0:0:0:0:
329,192,496893,128,0,497040:0:0:0:0:
109,192,496967,1,0,0:0:0:0:
256,192,496967,128,0,497040:0:0:0:0:
402,192,497040,1,0,0:0:0:0:
182,192,497040,128,0,497186:0:0:0:0:
329,192,497113,128,0,497332:0:0:0:0:
109,192,497113,128,0,497332:0:0:0:0:
475,192,497113,128,0,497186:0:0:0:0:
256,192,497113,1,0,0:0:0:0:
36,192,497259,1,0,0:0:0:0:
182,192,497259,128,0,497479:0:0:0:0:
402,192,497259,128,0,497479:0:0:0:0:
475,192,497259,128,0,497771:0:0:0:0:
256,192,497259,128,0,497332:0:0:0:0:
36,192,497406,128,0,497771:0:0:0:0:
109,192,497406,1,0,0:0:0:0:
329,192,497406,1,0,0:0:0:0:
256,192,497406,128,0,497625:0:0:0:0:
182,192,497552,1,0,0:0:0:0:
402,192,497552,1,0,0:0:0:0:
329,192,497552,128,0,497625:0:0:0:0:
182,192,497698,128,0,498064:0:0:0:0:
109,192,497698,1,0,0:0:0:0:
256,192,497698,1,0,0:0:0:0:
402,192,497698,128,0,497771:0:0:0:0:
329,192,497698,128,0,497771:0:0:0:0:
36,192,497845,1,0,0:0:0:0:
475,192,497845,1,0,0:0:0:0:
256,192,497845,128,0,497918:0:0:0:0:
402,192,497845,128,0,498064:0:0:0:0:
109,192,497918,128,0,497991:0:0:0:0:
329,192,497918,1,0,0:0:0:0:
475,192,497991,128,0,498064:0:0:0:0:
256,192,497991,128,0,498137:0:0:0:0:
36,192,497991,128,0,498210:0:0:0:0:
402,192,498137,1,0,0:0:0:0:
329,192,498137,128,0,498357:0:0:0:0:
182,192,498137,1,0,0:0:0:0:
109,192,498137,128,0,498210:0:0:0:0:
256,192,498284,1,0,0:0:0:0:
475,192,498284,1,0,0:0:0:0:
402,192,498284,128,0,498357:0:0:0:0:
36,192,498284,128,0,498357:0:0:0:0:
182,192,498284,128,0,498503:0:0:0:0:
475,192,498430,128,0,498503:0:0:0:0:
402,192,498430,128,0,498649:0:0:0:0:
256,192,498430,128,0,498796:0:0:0:0:
109,192,498430,128,0,498649:0:0:0:0:
36,192,498430,128,0,498503:0:0:0:0:
475,192,498576,128,0,498942:0:0:0:0:
329,192,498576,1,0,0:0:0:0:
182,192,498576,1,0,0:0:0:0:
402,192,498723,1,0,0:0:0:0:
182,192,498723,128,0,498796:0:0:0:0:
329,192,498796,128,0,498942:0:0:0:0:
36,192,498796,1,0,0:0:0:0:
402,192,498869,128,0,499235:0:0:0:0:
182,192,498869,128,0,498942:0:0:0:0:
256,192,498869,1,0,0:0:0:0:
109,192,498869,128,0,498942:0:0:0:0:
475,192,499015,1,0,0:0:0:0:
109,192,499015,128,0,499162:0:0:0:0:
256,192,499015,128,0,499162:0:0:0:0:
182,192,499015,1,0,0:0:0:0:
329,192,499162,1,0,0:0:0:0:
475,192,499162,128,0,499528:0:0:0:0:
36,192,499162,1,0,0:0:0:0:
182,192,499235,128,0,499381:0:0:0:0:
109,192,499235,128,0,499308:0:0:0:0:
402,192,499308,1,0,0:0:0:0:
256,192,499308,128,0,499381:0:0:0:0:
329,192,499381,128,0,499528:0:0:0:0:
109,192,499381,1,0,0:0:0:0:
402,192,499454,128,0,499674:0:0:0:0:
182,192,499454,128,0,499674:0:0:0:0:
256,192,499454,1,0,0:0:0:0:
36,192,499454,128,0,499528:0:0:0:0:
329,192,499601,128,0,499820:0:0:0:0:
475,192,499601,1,0,0:0:0:0:
256,192,499601,128,0,499674:0:0:0:0:
109,192,499601,128,0,499820:0:0:0:0:
36,192,499601,128,0,500113:0:0:0:0:
402,192,499747,1,0,0:0:0:0:
475,192,499747,128,0,500113:0:0:0:0:
182,192,499747,1,0,0:0:0:0:
256,192,499747,128,0,499967:0:0:0:0:
329,192,499893,1,0,0:0:0:0:
109,192,499893,1,0,0:0:0:0:
182,192,499893,128,0,499967:0:0:0:0:
402,192,500040,1,0,0:0:0:0:
329,192,500040,128,0,500406:0:0:0:0:
109,192,500040,128,0,500113:0:0:0:0:
182,192,500040,128,0,500113:0:0:0:0:
256,192,500040,1,0,0:0:0:0:
475,192,500186,1,0,0:0:0:0:
109,192,500186,128,0,500406:0:0:0:0:
36,192,500186,1,0,0:0:0:0:
256,192,500186,128,0,500259:0:0:0:0:
182,192,500259,1,0,0:0:0:0:
402,192,500259,128,0,500332:0:0:0:0:
36,192,500332,128,0,500406:0:0:0:0:
256,192,500332,128,0,500552:0:0:0:0:
475,192,500332,128,0,500552:0:0:0:0:
329,192,500479,1,0,0:0:0:0:
182,192,500479,128,0,500698:0:0:0:0:
36,192,500479,128,0,500552:0:0:0:0:
402,192,500479,128,0,500552:0:0:0:0:
256,192,500625,1,0,0:0:0:0:
475,192,500625,128,0,500698:0:0:0:0:
329,192,500625,128,0,500698:0:0:0:0:
109,192,500625,128,0,500845:0:0:0:0:
329,192,500771,128,0,501064:0:0:0:0:
402,192,500771,128,0,500918:0:0:0:0:
36,192,500771,128,0,500845:0:0:0:0:
256,192,500771,128,0,500845:0:0:0:0:
475,192,500771,128,0,501064:0:0:0:0:
36,192,500918,1,0,0:0:0:0:
182,192,500918,128,0,501137:0:0:0:0:
109,192,500918,128,0,500991:0:0:0:0:
402,192,501064,128,0,501137:0:0:0:0:
256,192,501064,128,0,501137:0:0:0:0:
36,192,501064,1,0,0:0:0:0:
329,192,501137,128,0,501210:0:0:0:0:
475,192,501137,128,0,501284:0:0:0:0:
109,192,501210,128,0,501430:0:0:0:0:
402,192,501210,128,0,501576:0:0:0:0:
182,192,501210,1,0,0:0:0:0:
36,192,501210,128,0,501284:0:0:0:0:
256,192,501210,128,0,501430:0:0:0:0:
329,192,501357,1,0,0:0:0:0:
182,192,501357,128,0,501430:0:0:0:0:
182,192,501503,128,0,501723:0:0:0:0:
475,192,501503,1,0,0:0:0:0:
36,192,501503,128,0,501723:0:0:0:0:
109,192,501503,1,0,0:0:0:0:
329,192,501503,128,0,501649:0:0:0:0:
256,192,501649,1,0,0:0:0:0:
109,192,501649,128,0,501723:0:0:0:0:
475,192,501649,128,0,501723:0:0:0:0:
329,192,501723,128,0,501869:0:0:0:0:
402,192,501723,1,0,0:0:0:0:
256,192,501796,128,0,502015:0:0:0:0:
475,192,501796,128,0,501869:0:0:0:0:
36,192,501796,128,0,501869:0:0:0:0:
109,192,501796,1,0,0:0:0:0:
182,192,501796,128,0,501869:0:0:0:0:
402,192,501942,128,0,502015:0:0:0:0:
475,192,501942,128,0,502015:0:0:0:0:
182,192,501942,128,0,502381:0:0:0:0:
329,192,501942,1,0,0:0:0:0:
109,192,501942,128,0,502089:0:0:0:0:
36,192,501942,128,0,502235:0:0:0:0:
256,192,502089,1,0,0:0:0:0:
402,192,502089,128,0,502162:0:0:0:0:
329,192,502089,128,0,502308:0:0:0:0:
475,192,502235,128,0,502308:0:0:0:0:
109,192,502235,128,0,502528:0:0:0:0:
256,192,502235,128,0,502674:0:0:0:0:
329,192,502381,1,0,0:0:0:0:
402,192,502381,128,0,502601:0:0:0:0:
475,192,502381,128,0,502454:0:0:0:0:
182,192,502528,128,0,502601:0:0:0:0:
36,192,502528,1,0,0:0:0:0:
329,192,502528,128,0,502893:0:0:0:0:
475,192,502601,128,0,502674:0:0:0:0:
109,192,502601,1,0,0:0:0:0:
36,192,502674,1,0,0:0:0:0:
182,192,502674,128,0,502820:0:0:0:0:
402,192,502674,128,0,502893:0:0:0:0:
256,192,502820,128,0,503040:0:0:0:0:
36,192,502820,128,0,503040:0:0:0:0:
109,192,502820,1,0,0:0:0:0:
475,192,502820,128,0,502893:0:0:0:0:
329,192,502967,128,0,503113:0:0:0:0:
475,192,502967,1,0,0:0:0:0:
402,192,502967,128,0,503040:0:0:0:0:
109,192,502967,128,0,503040:0:0:0:0:
182,192,502967,1,0,0:0:0:0:
402,192,503113,128,0,503479:0:0:0:0:
182,192,503113,128,0,503186:0:0:0:0:
475,192,503113,1,0,0:0:0:0:
36,192,503113,1,0,0:0:0:0:
329,192,503186,1,0,0:0:0:0:
109,192,503186,1,0,0:0:0:0:
256,192,503259,1,0,0:0:0:0:
36,192,503259,1,0,0:0:0:0:
182,192,503332,1,0,0:0:0:0:
475,192,503332,1,0,0:0:0:0:
329,192,503406,1,0,0:0:0:0:
109,192,503406,1,0,0:0:0:0:
182,192,503479,1,0,0:0:0:0:
475,192,503479,1,0,0:0:0:0:
329,192,503552,1,0,0:0:0:0:
36,192,503552,1,0,0:0:0:0:
402,192,503552,128,0,503625:0:0:0:0:
256,192,503625,1,0,0:0:0:0:
182,192,503625,1,0,0:0:0:0:
402,192,503698,128,0,503845:0:0:0:0:
475,192,503698,1,0,0:0:0:0:
36,192,503698,1,0,0:0:0:0:
109,192,503698,1,0,0:0:0:0:
329,192,503771,1,0,0:0:0:0:
182,192,503771,1,0,0:0:0:0:
109,192,503845,1,0,0:0:0:0:
256,192,503845,1,0,0:0:0:0:
329,192,503918,128,0,504064:0:0:0:0:
36,192,503918,1,0,0:0:0:0:
402,192,503918,1,0,0:0:0:0:
256,192,503991,1,0,0:0:0:0:
109,192,503991,1,0,0:0:0:0:
475,192,504064,1,0,0:0:0:0:
182,192,504064,1,0,0:0:0:0:
329,192,504137,1,0,0:0:0:0:
402,192,504137,128,0,504210:0:0:0:0:
36,192,504137,1,0,0:0:0:0:
182,192,504210,1,0,0:0:0:0:
109,192,504210,1,0,0:0:0:0:
329,192,504284,1,0,0:0:0:0:
36,192,504284,1,0,0:0:0:0:
475,192,504284,128,0,504503:0:0:0:0:
256,192,504284,1,0,0:0:0:0:
182,192,504357,1,0,0:0:0:0:
402,192,504357,1,0,0:0:0:0:
109,192,504430,1,0,0:0:0:0:
329,192,504430,1,0,0:0:0:0:
256,192,504503,1,0,0:0:0:0:
36,192,504503,1,0,0:0:0:0:
182,192,504576,1,0,0:0:0:0:
402,192,504576,128,0,504796:0:0:0:0:
475,192,504576,1,0,0:0:0:0:
329,192,504649,1,0,0:0:0:0:
109,192,504649,1,0,0:0:0:0:
475,192,504723,1,0,0:0:0:0:
182,192,504723,1,0,0:0:0:0:
109,192,504796,1,0,0:0:0:0:
256,192,504796,1,0,0:0:0:0:
182,192,504869,128,0,505089:0:0:0:0:
329,192,504869,128,0,505089:0:0:0:0:
36,192,504869,128,0,505015:0:0:0:0:
402,192,504869,128,0,505015:0:0:0:0:
475,192,504869,128,0,504942:0:0:0:0:
109,192,505162,128,0,505381:0:0:0:0:
256,192,505162,128,0,505381:0:0:0:0:
329,192,505162,128,0,505308:0:0:0:0:
36,192,505162,128,0,505308:0:0:0:0:
329,192,505454,1,0,0:0:0:0:
256,192,505454,1,0,0:0:0:0:
182,192,505454,128,0,508747:0:0:0:0:
475,192,505454,128,0,505674:0:0:0:0:
36,192,505454,128,0,505967:0:0:0:0:
402,192,505454,1,0,0:0:0:0:
109,192,505601,1,0,0:0:0:0:
402,192,505601,128,0,505674:0:0:0:0:
329,192,505601,128,0,505674:0:0:0:0:
475,192,505747,1,0,0:0:0:0:
256,192,505747,1,0,0:0:0:0:
329,192,505747,128,0,505967:0:0:0:0:
109,192,505893,1,0,0:0:0:0:
475,192,505893,128,0,505967:0:0:0:0:
402,192,505893,128,0,505967:0:0:0:0:
402,192,506040,128,0,506259:0:0:0:0:
256,192,506040,1,0,0:0:0:0:
329,192,506040,1,0,0:0:0:0:
109,192,506040,128,0,506552:0:0:0:0:
475,192,506113,1,0,0:0:0:0:
329,192,506186,128,0,506259:0:0:0:0:
256,192,506186,128,0,506259:0:0:0:0:
36,192,506186,1,0,0:0:0:0:
256,192,506332,128,0,506552:0:0:0:0:
402,192,506332,1,0,0:0:0:0:
475,192,506332,1,0,0:0:0:0:
402,192,506479,128,0,506552:0:0:0:0:
329,192,506479,128,0,506552:0:0:0:0:
36,192,506479,1,0,0:0:0:0:
329,192,506625,128,0,506845:0:0:0:0:
475,192,506625,1,0,0:0:0:0:
256,192,506625,1,0,0:0:0:0:
36,192,506625,128,0,507137:0:0:0:0:
109,192,506771,1,0,0:0:0:0:
402,192,506771,128,0,506845:0:0:0:0:
475,192,506771,128,0,506845:0:0:0:0:
475,192,506918,128,0,507137:0:0:0:0:
329,192,506918,1,0,0:0:0:0:
256,192,506918,1,0,0:0:0:0:
109,192,507064,1,0,0:0:0:0:
402,192,507064,128,0,507137:0:0:0:0:
329,192,507064,128,0,507137:0:0:0:0:
256,192,507210,128,0,507430:0:0:0:0:
475,192,507210,1,0,0:0:0:0:
109,192,507210,128,0,507723:0:0:0:0:
329,192,507284,1,0,0:0:0:0:
402,192,507357,128,0,507430:0:0:0:0:
475,192,507357,128,0,507430:0:0:0:0:
36,192,507357,1,0,0:0:0:0:
402,192,507503,128,0,507723:0:0:0:0:
329,192,507503,1,0,0:0:0:0:
256,192,507503,1,0,0:0:0:0:
256,192,507649,128,0,507723:0:0:0:0:
475,192,507649,128,0,507723:0:0:0:0:
36,192,507649,1,0,0:0:0:0:
475,192,507796,128,0,508015:0:0:0:0:
402,192,507796,1,0,0:0:0:0:
329,192,507796,1,0,0:0:0:0:
36,192,507796,128,0,508308:0:0:0:0:
109,192,507942,1,0,0:0:0:0:
402,192,507942,128,0,508015:0:0:0:0:
329,192,507942,128,0,508015:0:0:0:0:
329,192,508089,128,0,508308:0:0:0:0:
475,192,508089,1,0,0:0:0:0:
256,192,508089,1,0,0:0:0:0:
109,192,508235,1,0,0:0:0:0:
402,192,508235,128,0,508308:0:0:0:0:
475,192,508235,128,0,508308:0:0:0:0:
329,192,508381,1,0,0:0:0:0:
402,192,508381,128,0,508601:0:0:0:0:
256,192,508381,1,0,0:0:0:0:
109,192,508381,128,0,508601:0:0:0:0:
475,192,508454,1,0,0:0:0:0:
256,192,508528,128,0,508601:0:0:0:0:
329,192,508528,128,0,508601:0:0:0:0:
36,192,508528,1,0,0:0:0:0:
256,192,508674,128,0,508893:0:0:0:0:
475,192,508674,1,0,0:0:0:0:
402,192,508674,1,0,0:0:0:0:
36,192,508674,128,0,508893:0:0:0:0:
402,192,508820,128,0,508893:0:0:0:0:
329,192,508820,128,0,508893:0:0:0:0:
109,192,508820,1,0,0:0:0:0:
402,192,508967,128,0,509186:0:0:0:0:
475,192,508967,1,0,0:0:0:0:
256,192,508967,1,0,0:0:0:0:
109,192,508967,128,0,509479:0:0:0:0:
182,192,508967,1,0,0:0:0:0:
256,192,509113,128,0,509186:0:0:0:0:
329,192,509113,128,0,509186:0:0:0:0:
36,192,509113,1,0,0:0:0:0:
182,192,509259,128,0,509479:0:0:0:0:
329,192,509259,1,0,0:0:0:0:
475,192,509259,1,0,0:0:0:0:
329,192,509406,128,0,509479:0:0:0:0:
256,192,509406,128,0,509479:0:0:0:0:
36,192,509406,1,0,0:0:0:0:
329,192,509552,128,0,509771:0:0:0:0:
182,192,509552,1,0,0:0:0:0:
36,192,509552,1,0,0:0:0:0:
402,192,509552,128,0,510064:0:0:0:0:
475,192,509552,1,0,0:0:0:0:
109,192,509625,1,0,0:0:0:0:
182,192,509698,128,0,509771:0:0:0:0:
256,192,509698,128,0,509771:0:0:0:0:
475,192,509698,1,0,0:0:0:0:
109,192,509845,128,0,510064:0:0:0:0:
256,192,509845,1,0,0:0:0:0:
36,192,509845,1,0,0:0:0:0:
182,192,509991,128,0,510064:0:0:0:0:
256,192,509991,128,0,510064:0:0:0:0:
475,192,509991,1,0,0:0:0:0:
36,192,510028,128,0,510174:0:0:0:0:
402,192,510137,1,0,0:0:0:0:
182,192,510137,128,0,510210:0:0:0:0:
475,192,510137,128,0,510210:0:0:0:0:
256,192,510174,128,0,510247:0:0:0:0:
329,192,510210,128,0,510284:0:0:0:0:
402,192,510247,128,0,510357:0:0:0:0:
109,192,510284,1,0,0:0:0:0:
475,192,510284,128,0,510467:0:0:0:0:
182,192,510320,128,0,510393:0:0:0:0:
329,192,510357,128,0,510430:0:0:0:0:
109,192,510393,128,0,510467:0:0:0:0:
256,192,510430,128,0,510503:0:0:0:0:
36,192,510467,128,0,510613:0:0:0:0:
182,192,510503,128,0,510576:0:0:0:0:
329,192,510540,128,0,510686:0:0:0:0:
475,192,510576,1,0,0:0:0:0:
402,192,510576,128,0,510649:0:0:0:0:
256,192,510613,128,0,510796:0:0:0:0:
182,192,510649,128,0,510723:0:0:0:0:
36,192,510686,128,0,510759:0:0:0:0:
475,192,510723,128,0,510796:0:0:0:0:
402,192,510759,128,0,510869:0:0:0:0:
329,192,510796,128,0,510942:0:0:0:0:
109,192,510832,128,0,510906:0:0:0:0:
36,192,510869,1,0,0:0:0:0:
182,192,510869,128,0,510979:0:0:0:0:
475,192,510942,128,0,511015:0:0:0:0:
109,192,510979,128,0,511052:0:0:0:0:
329,192,511015,128,0,511089:0:0:0:0:
182,192,511052,128,0,511125:0:0:0:0:
36,192,511089,128,0,511198:0:0:0:0:
256,192,511125,128,0,511271:0:0:0:0:
329,192,511162,128,0,511235:0:0:0:0:
402,192,511162,1,0,0:0:0:0:
182,192,511198,128,0,511381:0:0:0:0:
109,192,511235,128,0,511308:0:0:0:0:
402,192,511271,128,0,511345:0:0:0:0:
329,192,511308,1,0,0:0:0:0:
475,192,511308,128,0,511491:0:0:0:0:
256,192,511345,128,0,511418:0:0:0:0:
109,192,511381,128,0,511491:0:0:0:0:
329,192,511418,128,0,511491:0:0:0:0:
36,192,511454,128,0,511564:0:0:0:0:
182,192,511454,1,0,0:0:0:0:
402,192,511491,128,0,511564:0:0:0:0:
256,192,511528,128,0,511601:0:0:0:0:
109,192,511564,128,0,511637:0:0:0:0:
329,192,511601,128,0,511747:0:0:0:0:
182,192,511637,128,0,511784:0:0:0:0:
475,192,511674,128,0,511747:0:0:0:0:
36,192,511710,128,0,511820:0:0:0:0:
402,192,511747,128,0,511820:0:0:0:0:
109,192,511747,1,0,0:0:0:0:
256,192,511784,128,0,511857:0:0:0:0:
475,192,511820,128,0,511893:0:0:0:0:
329,192,511857,128,0,511930:0:0:0:0:
109,192,511893,128,0,512003:0:0:0:0:
402,192,511930,128,0,512003:0:0:0:0:
256,192,511967,128,0,512113:0:0:0:0:
36,192,512003,128,0,512076:0:0:0:0:
475,192,512040,1,0,0:0:0:0:
182,192,512040,128,0,512186:0:0:0:0:
329,192,512076,128,0,512223:0:0:0:0:
109,192,512113,128,0,512223:0:0:0:0:
402,192,512149,128,0,512259:0:0:0:0:
36,192,512186,128,0,512296:0:0:0:0:
475,192,512223,128,0,512296:0:0:0:0:
256,192,512259,128,0,512332:0:0:0:0:
109,192,512296,128,0,512369:0:0:0:0:
182,192,512332,1,0,0:0:0:0:
329,192,512332,128,0,512406:0:0:0:0:
36,192,512369,128,0,512479:0:0:0:0:
256,192,512406,128,0,512479:0:0:0:0:
109,192,512442,128,0,512515:0:0:0:0:
475,192,512479,1,0,0:0:0:0:
182,192,512479,128,0,512698:0:0:0:0:
329,192,512479,128,0,512698:0:0:0:0:
402,192,512625,128,0,512698:0:0:0:0:
475,192,512625,128,0,512698:0:0:0:0:
256,192,512625,1,0,0:0:0:0:
109,192,512625,128,0,512698:0:0:0:0:
36,192,512625,128,0,512698:0:0:0:0:
475,192,512771,128,0,512845:0:0:0:0:
256,192,512771,1,0,0:0:0:0:
36,192,512771,128,0,512845:0:0:0:0:
329,192,512771,128,0,512845:0:0:0:0:
182,192,512771,128,0,512845:0:0:0:0:
475,192,512918,128,0,512991:0:0:0:0:
256,192,512918,1,0,0:0:0:0:
36,192,512918,128,0,512991:0:0:0:0:
182,192,512918,128,0,512991:0:0:0:0:
329,192,512918,128,0,512991:0:0:0:0:
256,192,513064,128,0,513137:0:0:0:0:
182,192,513064,128,0,513137:0:0:0:0:
475,192,513064,1,0,0:0:0:0:
402,192,513064,128,0,513137:0:0:0:0:
109,192,513137,128,0,513210:0:0:0:0:
36,192,513137,128,0,513210:0:0:0:0:
329,192,513210,128,0,513284:0:0:0:0:
256,192,513210,128,0,513284:0:0:0:0:
475,192,513210,128,0,513284:0:0:0:0:
182,192,513284,128,0,513357:0:0:0:0:
109,192,513284,128,0,513357:0:0:0:0:
329,192,513357,128,0,513430:0:0:0:0:
402,192,513357,128,0,513430:0:0:0:0:
36,192,513357,128,0,513430:0:0:0:0:
256,192,513430,128,0,513503:0:0:0:0:
182,192,513430,128,0,513503:0:0:0:0:
475,192,513503,128,0,513576:0:0:0:0:
402,192,513503,128,0,513576:0:0:0:0:
109,192,513503,128,0,513576:0:0:0:0:
256,192,513576,128,0,513649:0:0:0:0:
36,192,513576,1,0,0:0:0:0:
329,192,513576,1,0,0:0:0:0:
109,192,513649,128,0,513869:0:0:0:0:
182,192,513649,1,0,0:0:0:0:
475,192,513649,128,0,513723:0:0:0:0:
402,192,513649,128,0,513869:0:0:0:0:
36,192,513723,1,0,0:0:0:0:
329,192,513723,128,0,513796:0:0:0:0:
475,192,513796,1,0,0:0:0:0:
256,192,513796,128,0,513869:0:0:0:0:
329,192,513869,1,0,0:0:0:0:
182,192,513869,128,0,513942:0:0:0:0:
109,192,513942,128,0,514015:0:0:0:0:
36,192,513942,128,0,514015:0:0:0:0:
402,192,513942,128,0,514015:0:0:0:0:
475,192,513942,128,0,514015:0:0:0:0:
182,192,514015,128,0,514089:0:0:0:0:
256,192,514015,1,0,0:0:0:0:
109,192,514089,128,0,514162:0:0:0:0:
36,192,514089,128,0,514162:0:0:0:0:
402,192,514089,128,0,514162:0:0:0:0:
475,192,514089,128,0,514162:0:0:0:0:
256,192,514162,128,0,514235:0:0:0:0:
109,192,514235,128,0,514308:0:0:0:0:
36,192,514235,128,0,514308:0:0:0:0:
475,192,514235,128,0,514308:0:0:0:0:
402,192,514235,128,0,514308:0:0:0:0:
256,192,514308,1,0,0:0:0:0:
329,192,514308,128,0,514454:0:0:0:0:
36,192,514381,128,0,514747:0:0:0:0:
475,192,514381,128,0,514747:0:0:0:0:
182,192,514381,128,0,514454:0:0:0:0:
402,192,514381,1,0,0:0:0:0:
109,192,514454,1,0,0:0:0:0:
329,192,514528,128,0,514601:0:0:0:0:
256,192,514528,128,0,514674:0:0:0:0:
182,192,514528,128,0,514601:0:0:0:0:
402,192,514674,128,0,514747:0:0:0:0:
109,192,514674,128,0,514747:0:0:0:0:
182,192,514747,1,0,0:0:0:0:
329,192,514747,1,0,0:0:0:0:
109,192,514820,128,0,514893:0:0:0:0:
36,192,514820,128,0,514893:0:0:0:0:
402,192,514820,128,0,514893:0:0:0:0:
475,192,514820,128,0,515918:0:0:0:0:
256,192,514820,128,0,515918:0:0:0:0:
182,192,514967,128,0,515040:0:0:0:0:
329,192,514967,128,0,515040:0:0:0:0:
36,192,514967,128,0,515040:0:0:0:0:
109,192,515113,1,0,0:0:0:0:
402,192,515113,1,0,0:0:0:0:
182,192,515113,1,0,0:0:0:0:
402,192,515259,128,0,515332:0:0:0:0:
109,192,515259,128,0,515332:0:0:0:0:
36,192,515259,128,0,515332:0:0:0:0:
182,192,515406,1,0,0:0:0:0:
329,192,515406,1,0,0:0:0:0:
36,192,515406,1,0,0:0:0:0:
402,192,515479,1,0,0:0:0:0:
329,192,515552,128,0,515625:0:0:0:0:
36,192,515552,128,0,515625:0:0:0:0:
182,192,515552,128,0,515625:0:0:0:0:
109,192,515698,1,0,0:0:0:0:
36,192,515698,1,0,0:0:0:0:
402,192,515698,1,0,0:0:0:0:
109,192,515845,128,0,515918:0:0:0:0:
182,192,515845,128,0,515918:0:0:0:0:
402,192,515845,128,0,515918:0:0:0:0:
36,192,515991,128,0,516064:0:0:0:0:
182,192,515991,128,0,517089:0:0:0:0:
475,192,515991,128,0,516064:0:0:0:0:
329,192,515991,128,0,516064:0:0:0:0:
402,192,515991,128,0,517089:0:0:0:0:
109,192,516064,1,0,0:0:0:0:
256,192,516137,128,0,516210:0:0:0:0:
475,192,516137,128,0,516210:0:0:0:0:
36,192,516137,128,0,516210:0:0:0:0:
329,192,516284,1,0,0:0:0:0:
109,192,516284,1,0,0:0:0:0:
475,192,516284,1,0,0:0:0:0:
329,192,516430,128,0,516503:0:0:0:0:
109,192,516430,128,0,516503:0:0:0:0:
36,192,516430,128,0,516503:0:0:0:0:
256,192,516576,1,0,0:0:0:0:
36,192,516576,1,0,0:0:0:0:
475,192,516576,1,0,0:0:0:0:
329,192,516649,1,0,0:0:0:0:
256,192,516723,128,0,516796:0:0:0:0:
36,192,516723,128,0,516796:0:0:0:0:
475,192,516723,128,0,516796:0:0:0:0:
329,192,516869,1,0,0:0:0:0:
109,192,516869,1,0,0:0:0:0:
475,192,516869,1,0,0:0:0:0:
256,192,516942,1,0,0:0:0:0:
329,192,517015,128,0,517089:0:0:0:0:
109,192,517015,128,0,517089:0:0:0:0:
36,192,517015,128,0,517089:0:0:0:0:
256,192,517162,128,0,517235:0:0:0:0:
402,192,517162,128,0,517235:0:0:0:0:
329,192,517162,128,0,518259:0:0:0:0:
475,192,517162,128,0,517235:0:0:0:0:
36,192,517162,1,0,0:0:0:0:
109,192,517162,128,0,518259:0:0:0:0:
182,192,517308,128,0,517381:0:0:0:0:
475,192,517308,128,0,517381:0:0:0:0:
36,192,517308,128,0,517381:0:0:0:0:
256,192,517454,1,0,0:0:0:0:
402,192,517454,1,0,0:0:0:0:
36,192,517454,1,0,0:0:0:0:
256,192,517601,128,0,517674:0:0:0:0:
402,192,517601,128,0,517674:0:0:0:0:
475,192,517601,128,0,517674:0:0:0:0:
182,192,517747,1,0,0:0:0:0:
36,192,517747,1,0,0:0:0:0:
402,192,517747,1,0,0:0:0:0:
256,192,517820,1,0,0:0:0:0:
182,192,517893,128,0,517967:0:0:0:0:
36,192,517893,128,0,517967:0:0:0:0:
475,192,517893,128,0,517967:0:0:0:0:
256,192,518040,1,0,0:0:0:0:
475,192,518040,1,0,0:0:0:0:
402,192,518040,1,0,0:0:0:0:
256,192,518186,128,0,518259:0:0:0:0:
36,192,518186,128,0,518259:0:0:0:0:
402,192,518186,128,0,518259:0:0:0:0:
36,192,518332,128,0,519430:0:0:0:0:
256,192,518332,128,0,519430:0:0:0:0:
182,192,518332,128,0,518406:0:0:0:0:
329,192,518332,128,0,518406:0:0:0:0:
475,192,518332,128,0,518406:0:0:0:0:
109,192,518406,1,0,0:0:0:0:
402,192,518406,1,0,0:0:0:0:
182,192,518479,1,0,0:0:0:0:
475,192,518479,1,0,0:0:0:0:
329,192,518552,1,0,0:0:0:0:
402,192,518625,1,0,0:0:0:0:
109,192,518625,1,0,0:0:0:0:
475,192,518625,1,0,0:0:0:0:
182,192,518698,1,0,0:0:0:0:
109,192,518771,1,0,0:0:0:0:
402,192,518771,1,0,0:0:0:0:
182,192,518845,1,0,0:0:0:0:
329,192,518918,1,0,0:0:0:0:
475,192,518918,1,0,0:0:0:0:
402,192,518991,1,0,0:0:0:0:
109,192,518991,1,0,0:0:0:0:
329,192,519064,1,0,0:0:0:0:
475,192,519064,1,0,0:0:0:0:
182,192,519137,1,0,0:0:0:0:
402,192,519210,1,0,0:0:0:0:
475,192,519210,1,0,0:0:0:0:
329,192,519210,1,0,0:0:0:0:
109,192,519357,1,0,0:0:0:0:
329,192,519357,1,0,0:0:0:0:
402,192,519430,1,0,0:0:0:0:
182,192,519503,128,0,520015:0:0:0:0:
475,192,519503,128,0,520601:0:0:0:0:
109,192,519503,1,0,0:0:0:0:
36,192,519503,1,0,0:0:0:0:
329,192,519503,1,0,0:0:0:0:
256,192,519649,1,0,0:0:0:0:
36,192,519649,1,0,0:0:0:0:
109,192,519723,1,0,0:0:0:0:
329,192,519723,1,0,0:0:0:0:
256,192,519796,1,0,0:0:0:0:
402,192,519796,1,0,0:0:0:0:
36,192,519869,1,0,0:0:0:0:
109,192,519869,1,0,0:0:0:0:
329,192,519942,1,0,0:0:0:0:
402,192,519942,1,0,0:0:0:0:
256,192,520015,1,0,0:0:0:0:
36,192,520015,1,0,0:0:0:0:
109,192,520089,1,0,0:0:0:0:
402,192,520089,1,0,0:0:0:0:
256,192,520162,1,0,0:0:0:0:
182,192,520235,1,0,0:0:0:0:
36,192,520235,1,0,0:0:0:0:
109,192,520308,1,0,0:0:0:0:
329,192,520308,1,0,0:0:0:0:
256,192,520381,1,0,0:0:0:0:
36,192,520381,1,0,0:0:0:0:
182,192,520454,1,0,0:0:0:0:
402,192,520454,1,0,0:0:0:0:
109,192,520528,1,0,0:0:0:0:
329,192,520528,1,0,0:0:0:0:
256,192,520601,1,0,0:0:0:0:
402,192,520601,1,0,0:0:0:0:
329,192,520674,128,0,521186:0:0:0:0:
36,192,520674,128,0,521771:0:0:0:0:
182,192,520674,1,0,0:0:0:0:
475,192,520674,1,0,0:0:0:0:
109,192,520674,1,0,0:0:0:0:
182,192,520820,1,0,0:0:0:0:
475,192,520820,1,0,0:0:0:0:
256,192,520893,1,0,0:0:0:0:
109,192,520893,1,0,0:0:0:0:
182,192,520967,1,0,0:0:0:0:
402,192,520967,1,0,0:0:0:0:
256,192,521040,1,0,0:0:0:0:
475,192,521040,1,0,0:0:0:0:
402,192,521113,1,0,0:0:0:0:
109,192,521113,1,0,0:0:0:0:
475,192,521186,1,0,0:0:0:0:
182,192,521186,1,0,0:0:0:0:
256,192,521259,1,0,0:0:0:0:
109,192,521259,1,0,0:0:0:0:
329,192,521332,1,0,0:0:0:0:
402,192,521332,1,0,0:0:0:0:
256,192,521406,1,0,0:0:0:0:
182,192,521406,1,0,0:0:0:0:
402,192,521479,1,0,0:0:0:0:
475,192,521479,1,0,0:0:0:0:
109,192,521552,128,0,521771:0:0:0:0:
182,192,521552,128,0,521771:0:0:0:0:
329,192,521552,128,0,521771:0:0:0:0:
475,192,521552,128,0,521771:0:0:0:0:
329,192,521845,1,0,0:0:0:0:
256,192,521845,128,0,522357:0:0:0:0:
182,192,521845,128,0,522332:0:0:0:0:
109,192,521845,128,0,522308:0:0:0:0:
36,192,521845,128,0,522284:0:0:0:0:
402,192,521845,128,0,522893:0:0:0:0:
475,192,521845,128,0,522284:0:0:0:0:
475,192,522430,128,0,522869:0:0:0:0:
329,192,522430,128,0,522918:0:0:0:0:
256,192,522430,128,0,522942:0:0:0:0:
182,192,522430,1,0,0:0:0:0:
36,192,522430,128,0,522869:0:0:0:0:
109,192,522430,128,0,523473:0:0:0:0:
402,192,523015,1,0,0:0:0:0:
36,192,523015,128,0,523454:0:0:0:0:
182,192,523015,128,0,523491:0:0:0:0:
256,192,523015,128,0,523509:0:0:0:0:
329,192,523015,128,0,523528:0:0:0:0:
475,192,523015,128,0,524040:0:0:0:0:
109,192,523601,1,0,0:0:0:0:
402,192,523601,128,0,524058:0:0:0:0:
329,192,523601,128,0,524076:0:0:0:0:
256,192,523601,128,0,524095:0:0:0:0:
182,192,523601,128,0,524113:0:0:0:0:
36,192,523601,128,0,524259:0:0:0:0:
109,192,524186,128,0,524259:0:0:0:0:
402,192,524186,128,0,524259:0:0:0:0:
475,192,524186,128,0,524259:0:0:0:0:
256,192,524186,128,0,525284:0:0:0:0:
182,192,524259,128,0,524332:0:0:0:0:
329,192,524259,128,0,524332:0:0:0:0:
36,192,524332,128,0,524406:0:0:0:0:
475,192,524332,128,0,524406:0:0:0:0:
109,192,524332,1,0,0:0:0:0:
402,192,524332,1,0,0:0:0:0:
182,192,524406,128,0,524479:0:0:0:0:
329,192,524406,128,0,524479:0:0:0:0:
109,192,524479,128,0,524552:0:0:0:0:
402,192,524479,128,0,524552:0:0:0:0:
329,192,524552,1,0,0:0:0:0:
182,192,524552,1,0,0:0:0:0:
36,192,524625,1,0,0:0:0:0:
475,192,524625,1,0,0:0:0:0:
329,192,524698,1,0,0:0:0:0:
109,192,524698,1,0,0:0:0:0:
182,192,524771,1,0,0:0:0:0:
475,192,524771,1,0,0:0:0:0:
329,192,524845,1,0,0:0:0:0:
36,192,524845,1,0,0:0:0:0:
402,192,524918,1,0,0:0:0:0:
182,192,524918,1,0,0:0:0:0:
475,192,524991,1,0,0:0:0:0:
36,192,524991,1,0,0:0:0:0:
329,192,525064,128,0,525137:0:0:0:0:
402,192,525064,128,0,525137:0:0:0:0:
182,192,525137,128,0,525210:0:0:0:0:
109,192,525137,128,0,525210:0:0:0:0:
475,192,525210,128,0,525284:0:0:0:0:
402,192,525210,128,0,525284:0:0:0:0:
36,192,525284,128,0,525357:0:0:0:0:
109,192,525284,128,0,525357:0:0:0:0:
329,192,525357,1,0,0:0:0:0:
256,192,525357,128,0,526381:0:0:0:0:
475,192,525357,1,0,0:0:0:0:
182,192,525430,1,0,0:0:0:0:
109,192,525503,128,0,525576:0:0:0:0:
36,192,525503,128,0,525576:0:0:0:0:
329,192,525503,128,0,525576:0:0:0:0:
182,192,525576,128,0,525649:0:0:0:0:
402,192,525576,128,0,525649:0:0:0:0:
475,192,525576,128,0,525649:0:0:0:0:
109,192,525649,128,0,525723:0:0:0:0:
36,192,525649,128,0,525723:0:0:0:0:
329,192,525649,128,0,525723:0:0:0:0:
182,192,525723,128,0,525796:0:0:0:0:
402,192,525723,128,0,525796:0:0:0:0:
475,192,525723,128,0,525796:0:0:0:0:
329,192,525796,1,0,0:0:0:0:
36,192,525796,1,0,0:0:0:0:
109,192,525869,1,0,0:0:0:0:
182,192,525942,128,0,526015:0:0:0:0:
475,192,525942,128,0,526015:0:0:0:0:
402,192,525942,128,0,526015:0:0:0:0:
109,192,526015,128,0,526089:0:0:0:0:
36,192,526015,128,0,526089:0:0:0:0:
329,192,526015,128,0,526089:0:0:0:0:
182,192,526089,128,0,526162:0:0:0:0:
475,192,526089,128,0,526162:0:0:0:0:
402,192,526089,128,0,526162:0:0:0:0:
109,192,526162,128,0,526235:0:0:0:0:
329,192,526162,128,0,526235:0:0:0:0:
36,192,526162,128,0,526308:0:0:0:0:
182,192,526235,1,0,0:0:0:0:
475,192,526235,128,0,526308:0:0:0:0:
402,192,526308,128,0,526381:0:0:0:0:
109,192,526308,128,0,526381:0:0:0:0:
182,192,526381,128,0,526454:0:0:0:0:
329,192,526381,128,0,526454:0:0:0:0:
109,192,526454,128,0,526528:0:0:0:0:
402,192,526454,128,0,526528:0:0:0:0:
329,192,526528,128,0,526820:0:0:0:0:
256,192,526528,128,0,526820:0:0:0:0:
182,192,526528,128,0,526820:0:0:0:0:
36,192,526528,128,0,526820:0:0:0:0:
475,192,526528,128,0,526820:0:0:0:0:
109,192,527113,128,0,527210:0:0:0:0:
182,192,527113,128,0,527235:0:0:0:0:
329,192,527113,128,0,527235:0:0:0:0:
256,192,527113,128,0,527235:0:0:0:0:
402,192,527113,128,0,527210:0:0:0:0:
109,192,527308,128,0,527406:0:0:0:0:
329,192,527308,128,0,527430:0:0:0:0:
256,192,527308,128,0,527430:0:0:0:0:
402,192,527308,128,0,527406:0:0:0:0:
182,192,527308,128,0,527430:0:0:0:0:
402,192,527503,128,0,527601:0:0:0:0:
182,192,527503,128,0,527625:0:0:0:0:
256,192,527503,128,0,527625:0:0:0:0:
109,192,527503,128,0,527601:0:0:0:0:
329,192,527503,128,0,527625:0:0:0:0:
402,192,527698,128,0,528210:0:0:0:0:
475,192,527698,128,0,528284:0:0:0:0:
109,192,527698,128,0,528210:0:0:0:0:
36,192,527698,128,0,528284:0:0:0:0:
256,192,527698,1,0,0:0:0:0:
182,192,527698,128,0,528174:0:0:0:0:
329,192,527698,128,0,528174:0:0:0:0:
