osu file format v14

[General]
AudioFilename: Uta.mp3
AudioLeadIn: 0
PreviewTime: 162485
Countdown: 0
SampleSet: Normal
StackLeniency: 0.7
Mode: 3
LetterboxInBreaks: 0
SpecialStyle: 0
WidescreenStoryboard: 1

[Editor]
DistanceSpacing: 0.5
BeatDivisor: 4
GridSize: 32
TimelineZoom: 2.168479

[Metadata]
Title:Uta
TitleUnicode:謳
Artist:Imperial Circus Dead Decadence
ArtistUnicode:Imperial Circus Dead Decadence
Creator:pkk
Version:Tragic Ends
Source:
Tags:puxtu extol ou song declare express Ode To The Dreadful Sacrament 惨劇の血に赫く染まった愛と絶望の黒い死とが紡ぐ最期の物語 Sangeki no Chi ni Kagayaku Somatta Ai to Zetsubou no Kuroi Shitoga Tsumugu Saigo no Monogatari Rib:y(uhki) L.G.C. KIM Kylie Hull VAGUEDGE Another Stream Kimiko PEATH2 TOME あにょ REINO Hellnear
BeatmapID:1190555
BeatmapSetID:552726

[Difficulty]
HPDrainRate:8.6
CircleSize:4
OverallDifficulty:8.3
ApproachRate:9.5
SliderMultiplier:1.4
SliderTickRate:1

[Events]
//Background and Video events
0,0,"Nanomortis.jpg",0,0
//Break Periods
2,331270,349745
//Storyboard Layer 0 (Background)
//Storyboard Layer 1 (Fail)
//Storyboard Layer 2 (Pass)
//Storyboard Layer 3 (Foreground)
//Storyboard Sound Samples

[TimingPoints]
1643,428.571428571429,4,1,4,50,1,0
1643,-70.4225352112676,4,1,4,50,0,0
23928,458.015267175573,4,1,4,50,1,0
23928,-65.7894736842105,4,1,4,50,0,0
24844,468.75,4,1,4,50,1,8
24844,-64.1025641025641,4,1,4,50,0,8
25779,500,4,1,4,50,1,0
25779,-60.2409638554217,4,1,4,50,0,0
27779,545.454545454546,4,1,4,50,1,0
27779,-55.5555555555556,4,1,4,50,0,0
28869,555.555555555556,4,1,4,50,1,8
28869,-54.054054054054,4,1,4,50,0,8
29975,310.880829015544,4,1,4,50,1,0
29975,-97.0873786407767,4,1,4,50,0,0
33705,292.682926829268,4,1,4,50,1,0
33705,-100,4,1,4,50,0,0
162485,-100,4,1,4,50,0,1
171704,-100,4,1,4,50,0,0
171851,-100,4,1,4,50,0,1
181217,-100,4,1,4,50,0,0
218680,-100,4,1,4,50,0,1
237412,-100,4,1,4,50,0,0
312339,-100,4,1,4,50,0,1
321558,-100,4,1,4,50,0,0
321704,-100,4,1,4,50,0,1
331070,300,4,1,4,50,1,0
331070,-98.0392156862745,4,1,4,50,0,0
368270,292.682926829268,4,1,4,50,1,0
368270,-100,4,1,4,50,0,0
388172,-100,4,1,4,50,0,1
411587,-100,4,1,4,50,0,0
431196,-100,4,1,4,10,0,0
448465,300,4,1,4,10,1,8
448465,-98.0392156862745,4,1,4,10,0,8
449065,292.682926829268,4,1,4,50,1,0
449065,-100,4,1,4,50,0,0
462952,292.682926829268,4,1,4,50,1,8
462952,-100,4,1,4,50,0,8
463098,292.682926829268,4,1,4,50,1,0
463098,-100,4,1,4,50,0,0
486512,-100,4,1,4,50,0,1
495732,-100,4,1,4,50,0,0
495878,-100,4,1,4,50,0,1
505244,-100,4,1,4,50,0,0

[Colours]
Combo1 : 150,176,138
Combo2 : 250,78,78
Combo3 : 255,248,191
Combo4 : 176,89,89

[HitObjects]
64,192,33705,5,2,0:0:0:0:
192,192,33705,1,0,0:0:0:0:
448,192,33705,1,4,2:0:0:0:
448,192,35753,1,4,2:0:0:0:
192,192,35753,1,0,0:0:0:0:
64,192,35753,128,2,36046:0:0:0:0:
320,192,36046,1,2,0:0:0:0:
192,192,36046,1,0,0:0:0:0:
448,192,36046,1,4,2:0:0:0:
448,192,38095,1,4,2:0:0:0:
64,192,38095,1,2,0:0:0:0:
192,192,38095,128,0,38387:0:0:0:0:
64,192,38387,1,6,0:0:0:0:
320,192,38387,1,0,0:0:0:0:
448,192,38387,128,4,40729:2:0:0:0:
64,192,40729,1,4,0:0:0:0:
192,192,40729,1,0,0:0:0:0:
320,192,40802,1,0,0:0:0:0:
448,192,40875,1,0,0:0:0:0:
64,192,40948,1,0,0:0:0:0:
192,192,41022,1,0,0:0:0:0:
448,192,41095,1,0,0:0:0:0:
320,192,41168,1,0,0:0:0:0:
64,192,41241,1,0,0:0:0:0:
192,192,41314,1,0,0:0:0:0:
448,192,41314,1,4,0:0:0:0:
320,192,41387,1,0,0:0:0:0:
192,192,41461,1,8,0:0:0:0:
64,192,41461,1,0,0:0:0:0:
320,192,41534,1,8,0:0:0:0:
448,192,41534,1,0,0:0:0:0:
192,192,41607,1,8,0:0:0:0:
64,192,41607,1,0,0:0:0:0:
320,192,41680,1,8,0:0:0:0:
448,192,41680,1,0,0:0:0:0:
192,192,41753,1,8,0:0:0:0:
64,192,41753,1,0,0:0:0:0:
320,192,41826,1,8,0:0:0:0:
448,192,41826,1,0,0:0:0:0:
64,192,41900,1,8,3:0:0:0:
192,192,41973,1,8,3:0:0:0:
320,192,42046,1,8,3:0:0:0:
448,192,42119,1,8,3:0:0:0:
64,192,42192,1,8,3:0:0:0:
192,192,42265,1,8,3:0:0:0:
320,192,42339,1,8,3:0:0:0:
448,192,42412,1,8,3:0:0:0:
192,192,42485,1,8,3:0:0:0:
64,192,42485,1,2,0:0:0:0:
320,192,42558,1,8,3:0:0:0:
448,192,42631,1,8,3:0:0:0:
192,192,42631,1,2,0:0:0:0:
64,192,42704,1,8,3:0:0:0:
448,192,42778,1,8,3:0:0:0:
320,192,42778,1,2,0:0:0:0:
192,192,42851,1,8,3:0:0:0:
448,192,42924,1,8,3:0:0:0:
64,192,42924,1,2,0:0:0:0:
320,192,42997,1,8,3:0:0:0:
448,192,43070,1,0,0:0:0:0:
64,192,43070,1,4,2:0:0:0:
192,192,43070,1,2,0:0:0:0:
192,192,45119,1,2,0:0:0:0:
64,192,45119,1,4,2:0:0:0:
448,192,45119,128,0,45412:0:0:0:0:
64,192,45412,1,4,2:0:0:0:
192,192,45412,1,2,0:0:0:0:
320,192,45412,1,0,0:0:0:0:
64,192,47461,1,4,2:0:0:0:
192,192,47461,128,2,47753:0:0:0:0:
448,192,47461,1,0,0:0:0:0:
64,192,47753,1,4,2:0:0:0:
320,192,47753,1,2,0:0:0:0:
448,192,47753,1,0,0:0:0:0:
448,192,50095,1,4,2:0:0:0:
192,192,50095,1,6,0:0:0:0:
64,192,50095,128,0,50387:0:0:0:0:
448,192,50387,1,2,0:0:0:0:
320,192,50461,1,2,0:0:0:0:
64,192,50534,1,2,0:0:0:0:
192,192,50607,1,2,0:0:0:0:
64,192,50680,1,8,0:0:0:0:
320,192,50680,1,2,0:0:0:0:
448,192,50680,128,4,50973:0:0:0:0:
64,192,50973,1,2,0:0:0:0:
320,192,50973,1,0,0:0:0:0:
192,192,51046,1,2,0:0:0:0:
320,192,51119,1,2,0:0:0:0:
64,192,51192,1,2,0:0:0:0:
192,192,51265,1,2,0:0:0:0:
448,192,51265,1,0,0:0:0:0:
320,192,51339,1,2,0:0:0:0:
64,192,51412,1,2,0:0:0:0:
192,192,51485,1,2,0:0:0:0:
320,192,51558,1,2,0:0:0:0:
448,192,51558,1,0,0:0:0:0:
192,192,51704,1,2,0:0:0:0:
64,192,51704,1,8,0:0:0:0:
320,192,51851,1,8,0:0:0:0:
448,192,51851,1,2,0:0:0:0:
192,192,51948,1,2,0:0:0:0:
64,192,52046,1,2,0:0:0:0:
448,192,52144,1,2,0:0:0:0:
320,192,52144,1,8,0:0:0:0:
192,192,52241,1,2,0:0:0:0:
64,192,52339,1,2,0:0:0:0:
192,192,52436,1,2,0:0:0:0:
320,192,52436,1,4,0:0:0:0:
448,192,52436,1,0,0:0:0:0:
192,192,52583,1,8,0:0:0:0:
64,192,52583,1,0,0:0:0:0:
320,192,52729,1,2,0:0:0:0:
448,192,52729,1,0,0:0:0:0:
192,192,52875,1,8,0:0:0:0:
64,192,52875,1,0,0:0:0:0:
320,192,53022,1,2,0:0:0:0:
64,192,53022,1,0,0:0:0:0:
192,192,53095,1,2,0:0:0:0:
64,192,53168,1,0,0:0:0:0:
448,192,53168,1,10,0:0:0:0:
192,192,53314,1,2,0:0:0:0:
320,192,53314,1,0,0:0:0:0:
448,192,53461,1,0,0:0:0:0:
192,192,53461,1,8,0:0:0:0:
64,192,53607,1,0,0:0:0:0:
320,192,53607,1,2,0:0:0:0:
192,192,53753,1,8,0:0:0:0:
448,192,53753,1,0,0:0:0:0:
64,192,53900,1,0,0:0:0:0:
448,192,53900,1,2,0:0:0:0:
192,192,54046,1,8,0:0:0:0:
64,192,54046,1,0,0:0:0:0:
320,192,54192,1,0,0:0:0:0:
192,192,54265,1,2,0:0:0:0:
448,192,54339,1,0,0:0:0:0:
64,192,54339,1,10,0:0:0:0:
320,192,54485,1,2,0:0:0:0:
192,192,54485,1,0,0:0:0:0:
64,192,54631,1,0,0:0:0:0:
320,192,54631,1,8,0:0:0:0:
448,192,54778,1,0,0:0:0:0:
192,192,54778,1,2,0:0:0:0:
320,192,54924,1,8,0:0:0:0:
64,192,54924,1,0,0:0:0:0:
448,192,55070,1,0,0:0:0:0:
64,192,55070,1,2,0:0:0:0:
320,192,55217,1,8,0:0:0:0:
192,192,55217,1,0,0:0:0:0:
448,192,55363,1,2,0:0:0:0:
64,192,55363,1,0,0:0:0:0:
320,192,55436,1,2,0:0:0:0:
448,192,55509,1,8,0:0:0:0:
192,192,55509,1,2,0:0:0:0:
64,192,55656,1,2,0:0:0:0:
192,192,55656,1,0,0:0:0:0:
448,192,55802,1,0,0:0:0:0:
320,192,55802,1,8,0:0:0:0:
448,192,55948,1,0,0:0:0:0:
64,192,55948,1,2,0:0:0:0:
320,192,56095,1,8,0:0:0:0:
192,192,56095,1,0,0:0:0:0:
448,192,56241,1,0,0:0:0:0:
64,192,56241,1,2,0:0:0:0:
320,192,56387,1,8,0:0:0:0:
64,192,56387,1,0,0:0:0:0:
192,192,56534,1,0,0:0:0:0:
320,192,56607,1,2,0:0:0:0:
192,192,56680,1,8,0:0:0:0:
448,192,56680,1,2,0:0:0:0:
64,192,56826,1,2,0:0:0:0:
320,192,56826,1,0,0:0:0:0:
192,192,56973,1,8,0:0:0:0:
448,192,56973,1,0,0:0:0:0:
64,192,57119,1,4,0:0:0:0:
448,192,57119,1,0,0:0:0:0:
320,192,57119,1,2,0:0:0:0:
320,192,57265,1,8,0:0:0:0:
192,192,57265,1,0,0:0:0:0:
448,192,57412,1,2,0:0:0:0:
64,192,57412,1,0,0:0:0:0:
320,192,57558,1,8,0:0:0:0:
192,192,57558,1,0,0:0:0:0:
64,192,57704,1,2,0:0:0:0:
448,192,57704,1,0,0:0:0:0:
320,192,57778,1,2,0:0:0:0:
192,192,57851,1,0,0:0:0:0:
64,192,57851,1,10,0:0:0:0:
320,192,57997,1,2,0:0:0:0:
448,192,57997,1,0,0:0:0:0:
64,192,58144,1,8,0:0:0:0:
192,192,58144,1,0,0:0:0:0:
320,192,58290,1,4,0:0:0:0:
448,192,58290,1,0,0:0:0:0:
192,192,58290,1,2,0:0:0:0:
320,192,58436,1,8,0:0:0:0:
64,192,58436,1,0,0:0:0:0:
448,192,58583,1,0,0:0:0:0:
192,192,58583,1,2,0:0:0:0:
320,192,58729,1,8,0:0:0:0:
448,192,58729,1,0,0:0:0:0:
192,192,58875,1,0,0:0:0:0:
320,192,58948,1,2,0:0:0:0:
64,192,59022,1,8,0:0:0:0:
448,192,59022,1,2,0:0:0:0:
192,192,59168,1,2,0:0:0:0:
320,192,59168,1,0,0:0:0:0:
192,192,59314,1,8,0:0:0:0:
64,192,59461,1,0,0:0:0:0:
320,192,59461,1,2,0:0:0:0:
448,192,59461,1,4,0:0:0:0:
192,192,59607,1,8,0:0:0:0:
448,192,59607,1,0,0:0:0:0:
320,192,59753,1,2,0:0:0:0:
64,192,59753,1,0,0:0:0:0:
192,192,59900,1,8,0:0:0:0:
64,192,59900,1,0,0:0:0:0:
320,192,60046,1,0,0:0:0:0:
448,192,60046,1,8,0:0:0:0:
192,192,60119,1,2,0:0:0:0:
64,192,60192,1,0,0:0:0:0:
448,192,60192,1,8,0:0:0:0:
320,192,60265,1,2,0:0:0:0:
64,192,60339,1,8,0:0:0:0:
192,192,60339,1,0,0:0:0:0:
320,192,60412,1,2,0:0:0:0:
64,192,60485,1,0,0:0:0:0:
448,192,60485,1,8,0:0:0:0:
192,192,60558,1,2,0:0:0:0:
448,192,60631,1,2,0:0:0:0:
320,192,60631,1,0,0:0:0:0:
64,192,60704,1,2,0:0:0:0:
192,192,60778,1,2,0:0:0:0:
448,192,60851,1,2,0:0:0:0:
320,192,60924,1,2,0:0:0:0:
64,192,60997,1,2,0:0:0:0:
192,192,61070,1,2,0:0:0:0:
320,192,61144,1,2,0:0:0:0:
448,192,61217,1,0,0:0:0:0:
192,192,61217,1,4,0:0:0:0:
64,192,61217,1,2,0:0:0:0:
320,192,61290,1,2,0:0:0:0:
64,192,61363,1,2,0:0:0:0:
192,192,61436,1,2,0:0:0:0:
320,192,61509,1,8,0:0:0:0:
448,192,61509,1,4,0:0:0:0:
64,192,61509,1,0,0:0:0:0:
192,192,61656,1,2,0:0:0:0:
320,192,61729,1,2,0:0:0:0:
448,192,61802,1,4,0:0:0:0:
64,192,61802,1,0,0:0:0:0:
192,192,61802,1,2,0:0:0:0:
320,192,61948,1,8,0:0:0:0:
448,192,61948,1,0,0:0:0:0:
192,192,62095,1,2,0:0:0:0:
64,192,62095,1,0,0:0:0:0:
320,192,62241,1,8,0:0:0:0:
448,192,62241,1,0,0:0:0:0:
192,192,62387,1,2,0:0:0:0:
448,192,62387,1,0,0:0:0:0:
320,192,62461,1,2,0:0:0:0:
448,192,62534,1,0,0:0:0:0:
64,192,62534,1,10,0:0:0:0:
320,192,62680,1,2,0:0:0:0:
192,192,62680,1,0,0:0:0:0:
64,192,62826,1,0,0:0:0:0:
320,192,62826,1,8,0:0:0:0:
448,192,62973,1,0,0:0:0:0:
192,192,62973,1,2,0:0:0:0:
320,192,63046,1,2,0:0:0:0:
192,192,63119,1,8,0:0:0:0:
64,192,63119,1,0,0:0:0:0:
448,192,63265,1,0,0:0:0:0:
64,192,63265,1,2,0:0:0:0:
320,192,63412,1,8,0:0:0:0:
192,192,63412,1,0,0:0:0:0:
448,192,63558,1,8,3:0:0:0:
64,192,63558,1,0,0:0:0:0:
192,192,63631,1,8,3:0:0:0:
64,192,63704,1,8,0:0:0:0:
320,192,63704,1,8,3:0:0:0:
192,192,63851,1,8,3:0:0:0:
448,192,63851,1,0,0:0:0:0:
320,192,63924,1,8,3:0:0:0:
192,192,63997,1,8,3:0:0:0:
64,192,63997,1,0,0:0:0:0:
448,192,64070,1,8,3:0:0:0:
64,192,64144,1,0,0:0:0:0:
320,192,64144,1,2,0:0:0:0:
192,192,64144,1,4,0:0:0:0:
320,192,64290,1,0,0:0:0:0:
448,192,64290,1,8,0:0:0:0:
64,192,64436,1,2,0:0:0:0:
192,192,64436,1,0,0:0:0:0:
448,192,64583,1,0,0:0:0:0:
320,192,64583,1,8,0:0:0:0:
448,192,64729,1,2,0:0:0:0:
64,192,64729,1,0,0:0:0:0:
320,192,64802,1,2,0:0:0:0:
64,192,64875,1,8,0:0:0:0:
192,192,64875,1,2,0:0:0:0:
448,192,65022,1,0,0:0:0:0:
320,192,65022,1,2,0:0:0:0:
192,192,65168,1,0,0:0:0:0:
64,192,65168,1,8,0:0:0:0:
448,192,65314,1,8,3:0:0:0:
320,192,65314,1,2,0:0:0:0:
192,192,65387,1,8,3:0:0:0:
64,192,65387,1,2,0:0:0:0:
448,192,65461,1,8,3:0:0:0:
320,192,65461,1,2,0:0:0:0:
192,192,65534,1,2,0:0:0:0:
64,192,65607,1,2,0:0:0:0:
448,192,65607,1,0,0:0:0:0:
320,192,65753,1,2,0:0:0:0:
192,192,65826,1,2,0:0:0:0:
448,192,65900,1,8,3:0:0:0:
64,192,65900,1,2,0:0:0:0:
320,192,65973,1,8,3:0:0:0:
192,192,65973,1,2,0:0:0:0:
448,192,66046,1,8,3:0:0:0:
64,192,66046,1,2,0:0:0:0:
320,192,66119,1,2,0:0:0:0:
192,192,66192,1,2,0:0:0:0:
448,192,66192,1,0,0:0:0:0:
320,192,66339,1,2,0:0:0:0:
192,192,66412,1,2,0:0:0:0:
64,192,66485,1,8,3:0:0:0:
320,192,66485,1,2,0:0:0:0:
448,192,66558,1,8,3:0:0:0:
192,192,66558,1,2,0:0:0:0:
320,192,66631,1,8,3:0:0:0:
64,192,66631,1,2,0:0:0:0:
448,192,66704,1,8,3:0:0:0:
192,192,66704,1,2,0:0:0:0:
320,192,66778,1,2,0:0:0:0:
192,192,66851,1,2,0:0:0:0:
448,192,66924,1,8,3:0:0:0:
320,192,66924,1,2,0:0:0:0:
192,192,66997,1,8,3:0:0:0:
64,192,66997,1,2,0:0:0:0:
448,192,67070,1,8,3:0:0:0:
320,192,67070,1,2,0:0:0:0:
192,192,67144,1,8,3:0:0:0:
64,192,67144,1,2,0:0:0:0:
448,192,67217,1,2,0:0:0:0:
64,192,67290,1,2,0:0:0:0:
320,192,67363,1,2,0:0:0:0:
192,192,67436,1,2,0:0:0:0:
448,192,67509,1,2,0:0:0:0:
320,192,67583,1,2,0:0:0:0:
64,192,67656,1,8,3:0:0:0:
192,192,67656,1,2,0:0:0:0:
320,192,67729,1,8,3:0:0:0:
448,192,67729,1,2,0:0:0:0:
64,192,67802,1,8,3:0:0:0:
192,192,67802,1,2,0:0:0:0:
320,192,67875,1,2,0:0:0:0:
192,192,67948,1,2,0:0:0:0:
448,192,68022,1,2,0:0:0:0:
320,192,68095,1,8,3:0:0:0:
64,192,68095,1,2,0:0:0:0:
448,192,68168,1,8,3:0:0:0:
192,192,68168,1,2,0:0:0:0:
320,192,68241,1,8,3:0:0:0:
64,192,68241,1,2,0:0:0:0:
192,192,68314,1,2,0:0:0:0:
448,192,68387,1,2,0:0:0:0:
64,192,68461,1,2,0:0:0:0:
448,192,68534,1,2,0:0:0:0:
320,192,68534,1,8,0:0:0:0:
192,192,68534,1,4,0:0:0:0:
448,192,68826,1,4,0:0:0:0:
192,192,68826,1,2,0:0:0:0:
64,192,68826,128,0,71168:0:0:0:0:
320,192,71168,1,4,0:0:0:0:
448,192,71168,128,0,73509:0:0:0:0:
192,192,71168,1,2,0:0:0:0:
64,192,73509,1,2,0:0:0:0:
192,192,73509,128,0,74680:0:0:0:0:
320,192,73509,1,4,0:0:0:0:
448,192,74680,1,4,0:0:0:0:
320,192,74680,128,0,75412:0:0:0:0:
64,192,74680,1,2,0:0:0:0:
448,192,75412,1,8,3:0:0:0:
64,192,75412,1,2,0:0:0:0:
192,192,75485,1,8,3:0:0:0:
320,192,75558,1,8,3:0:0:0:
64,192,75558,1,2,0:0:0:0:
448,192,75704,1,8,3:0:0:0:
192,192,75704,1,2,0:0:0:0:
64,192,75778,1,8,3:0:0:0:
320,192,75851,1,0,0:0:0:0:
448,192,75851,1,0,0:0:0:0:
192,192,75924,1,2,0:0:0:0:
64,192,75997,1,2,0:0:0:0:
320,192,76070,1,2,0:0:0:0:
192,192,76144,1,2,0:0:0:0:
448,192,76217,1,2,0:0:0:0:
320,192,76290,1,2,0:0:0:0:
64,192,76363,1,2,0:0:0:0:
192,192,76436,1,2,0:0:0:0:
448,192,76436,1,8,0:0:0:0:
320,192,76509,1,8,0:0:0:0:
64,192,76509,1,2,0:0:0:0:
448,192,76583,1,2,0:0:0:0:
192,192,76656,1,2,0:0:0:0:
320,192,76729,1,2,0:0:0:0:
64,192,76802,1,2,0:0:0:0:
192,192,76875,1,2,0:0:0:0:
320,192,76948,1,2,0:0:0:0:
64,192,77022,1,0,0:0:0:0:
192,192,77022,1,8,3:0:0:0:
320,192,77095,1,8,3:0:0:0:
448,192,77095,1,2,0:0:0:0:
64,192,77168,1,8,3:0:0:0:
192,192,77168,1,2,0:0:0:0:
320,192,77241,1,8,3:0:0:0:
448,192,77241,1,2,0:0:0:0:
64,192,77314,1,8,3:0:0:0:
192,192,77314,1,2,0:0:0:0:
448,192,77387,1,2,0:0:0:0:
320,192,77461,1,2,0:0:0:0:
192,192,77534,1,2,0:0:0:0:
64,192,77607,1,8,3:0:0:0:
448,192,77607,1,2,0:0:0:0:
192,192,77680,1,8,3:0:0:0:
320,192,77680,1,2,0:0:0:0:
64,192,77753,1,8,3:0:0:0:
448,192,77753,1,2,0:0:0:0:
320,192,77826,1,2,0:0:0:0:
64,192,77900,1,8,3:0:0:0:
192,192,77900,1,2,0:0:0:0:
448,192,77973,1,8,3:0:0:0:
320,192,77973,1,2,0:0:0:0:
64,192,78046,1,8,3:0:0:0:
192,192,78046,1,2,0:0:0:0:
320,192,78119,1,2,0:0:0:0:
192,192,78192,1,4,0:0:0:0:
448,192,78192,1,2,0:0:0:0:
64,192,78192,1,0,0:0:0:0:
320,192,78265,1,2,0:0:0:0:
192,192,78339,1,2,0:0:0:0:
64,192,78412,1,2,0:0:0:0:
448,192,78485,1,2,0:0:0:0:
320,192,78558,1,2,0:0:0:0:
192,192,78631,1,2,0:0:0:0:
64,192,78704,1,2,0:0:0:0:
320,192,78778,1,2,0:0:0:0:
448,192,78778,1,0,0:0:0:0:
192,192,78851,1,2,0:0:0:0:
320,192,78924,1,2,0:0:0:0:
64,192,78997,1,2,0:0:0:0:
192,192,79070,1,2,0:0:0:0:
448,192,79070,1,0,0:0:0:0:
320,192,79144,1,2,0:0:0:0:
64,192,79217,1,2,0:0:0:0:
192,192,79290,1,2,0:0:0:0:
64,192,79363,1,2,0:0:0:0:
320,192,79363,1,0,0:0:0:0:
448,192,79436,1,2,0:0:0:0:
192,192,79509,1,2,0:0:0:0:
64,192,79583,1,2,0:0:0:0:
320,192,79656,1,2,0:0:0:0:
448,192,79729,1,2,0:0:0:0:
192,192,79802,1,2,0:0:0:0:
320,192,79875,1,2,0:0:0:0:
192,192,79948,1,2,0:0:0:0:
64,192,79948,1,0,0:0:0:0:
448,192,80022,1,2,0:0:0:0:
320,192,80095,1,2,0:0:0:0:
64,192,80168,1,2,0:0:0:0:
192,192,80241,1,2,0:0:0:0:
448,192,80241,1,0,0:0:0:0:
320,192,80314,1,2,0:0:0:0:
64,192,80387,1,2,0:0:0:0:
192,192,80461,1,2,0:0:0:0:
320,192,80534,1,2,0:0:0:0:
448,192,80534,1,0,0:0:0:0:
64,192,80534,1,4,0:0:0:0:
192,192,80607,1,2,0:0:0:0:
320,192,80680,1,2,0:0:0:0:
448,192,80753,1,2,0:0:0:0:
192,192,80826,1,2,0:0:0:0:
320,192,80900,1,2,0:0:0:0:
64,192,80973,1,2,0:0:0:0:
192,192,81046,1,2,0:0:0:0:
320,192,81119,1,2,0:0:0:0:
448,192,81119,1,0,0:0:0:0:
64,192,81192,1,2,0:0:0:0:
192,192,81265,1,2,0:0:0:0:
320,192,81339,1,2,0:0:0:0:
64,192,81412,1,2,0:0:0:0:
448,192,81412,1,0,0:0:0:0:
192,192,81485,1,2,0:0:0:0:
320,192,81558,1,2,0:0:0:0:
448,192,81631,1,2,0:0:0:0:
192,192,81704,1,2,0:0:0:0:
64,192,81704,1,0,0:0:0:0:
320,192,81778,1,2,0:0:0:0:
192,192,81851,1,2,0:0:0:0:
448,192,81924,1,2,0:0:0:0:
320,192,81997,1,2,0:0:0:0:
64,192,82070,1,2,0:0:0:0:
192,192,82144,1,2,0:0:0:0:
448,192,82217,1,2,0:0:0:0:
320,192,82290,1,0,0:0:0:0:
64,192,82290,1,2,0:0:0:0:
192,192,82363,1,2,0:0:0:0:
448,192,82436,1,2,0:0:0:0:
320,192,82509,1,2,0:0:0:0:
64,192,82583,1,0,0:0:0:0:
192,192,82583,1,2,0:0:0:0:
448,192,82656,1,2,0:0:0:0:
320,192,82729,1,2,0:0:0:0:
192,192,82802,1,2,0:0:0:0:
448,192,82875,1,0,0:0:0:0:
64,192,82875,1,4,0:0:0:0:
320,192,82875,1,2,0:0:0:0:
192,192,82948,1,2,0:0:0:0:
320,192,83022,1,2,0:0:0:0:
64,192,83095,1,2,0:0:0:0:
192,192,83168,1,2,0:0:0:0:
320,192,83241,1,2,0:0:0:0:
192,192,83314,1,2,0:0:0:0:
320,192,83387,1,2,0:0:0:0:
64,192,83461,1,2,0:0:0:0:
448,192,83461,1,0,0:0:0:0:
192,192,83534,1,2,0:0:0:0:
320,192,83607,1,2,0:0:0:0:
192,192,83680,1,2,0:0:0:0:
64,192,83753,1,2,0:0:0:0:
448,192,83753,1,0,0:0:0:0:
320,192,83826,1,2,0:0:0:0:
192,192,83900,1,2,0:0:0:0:
448,192,83973,1,2,0:0:0:0:
64,192,84046,1,2,0:0:0:0:
320,192,84046,1,0,0:0:0:0:
192,192,84119,1,2,0:0:0:0:
448,192,84192,1,2,0:0:0:0:
320,192,84265,1,2,0:0:0:0:
192,192,84339,1,2,0:0:0:0:
64,192,84339,1,0,0:0:0:0:
448,192,84412,1,2,0:0:0:0:
192,192,84485,1,2,0:0:0:0:
320,192,84558,1,2,0:0:0:0:
448,192,84631,1,2,0:0:0:0:
64,192,84631,1,0,0:0:0:0:
192,192,84704,1,2,0:0:0:0:
320,192,84778,1,2,0:0:0:0:
64,192,84851,1,2,0:0:0:0:
192,192,84924,1,2,0:0:0:0:
448,192,84924,1,0,0:0:0:0:
320,192,84997,1,2,0:0:0:0:
64,192,85070,1,2,0:0:0:0:
192,192,85144,1,2,0:0:0:0:
320,192,85217,1,2,0:0:0:0:
64,192,85217,1,4,0:0:0:0:
448,192,85217,128,0,85363:0:0:0:0:
192,192,85363,1,0,0:0:0:0:
192,192,85509,1,0,0:0:0:0:
64,192,85656,128,0,85802:0:0:0:0:
320,192,85802,1,0,0:0:0:0:
320,192,85948,1,0,0:0:0:0:
448,192,86095,128,0,86241:0:0:0:0:
64,192,86241,1,0,0:0:0:0:
64,192,86387,1,0,0:0:0:0:
192,192,86534,128,0,86680:0:0:0:0:
448,192,86680,1,0,0:0:0:0:
448,192,86826,1,0,0:0:0:0:
320,192,86973,128,0,87119:0:0:0:0:
64,192,87119,1,0,0:0:0:0:
64,192,87265,128,0,87558:0:0:0:0:
192,192,87558,1,0,0:0:0:0:
320,192,87558,1,4,0:0:0:0:
448,192,87558,128,2,87704:0:0:0:0:
192,192,87704,1,8,0:0:0:0:
64,192,87704,1,0,0:0:0:0:
448,192,87851,1,0,0:0:0:0:
320,192,87851,1,2,0:0:0:0:
192,192,87924,1,2,0:0:0:0:
448,192,87997,1,8,0:0:0:0:
64,192,87997,128,0,88144:0:0:0:0:
192,192,88144,1,0,0:0:0:0:
320,192,88144,1,2,0:0:0:0:
448,192,88290,1,8,0:0:0:0:
320,192,88290,1,0,0:0:0:0:
64,192,88436,1,0,0:0:0:0:
192,192,88436,128,2,88583:0:0:0:0:
320,192,88583,1,0,0:0:0:0:
448,192,88583,128,8,88729:0:0:0:0:
192,192,88729,1,2,0:0:0:0:
64,192,88729,128,0,88875:0:0:0:0:
320,192,88875,1,8,0:0:0:0:
448,192,88875,1,0,0:0:0:0:
64,192,89022,1,0,0:0:0:0:
448,192,89022,1,2,0:0:0:0:
320,192,89168,1,8,0:0:0:0:
192,192,89168,128,0,89314:0:0:0:0:
448,192,89314,1,0,0:0:0:0:
320,192,89314,1,2,0:0:0:0:
192,192,89461,1,0,0:0:0:0:
64,192,89461,1,8,0:0:0:0:
64,192,89607,1,0,0:0:0:0:
448,192,89607,128,2,89753:0:0:0:0:
320,192,89753,1,8,0:0:0:0:
192,192,89753,128,0,89900:0:0:0:0:
448,192,89900,1,2,0:0:0:0:
64,192,89900,128,0,90046:0:0:0:0:
320,192,90046,1,8,0:0:0:0:
448,192,90046,1,0,0:0:0:0:
192,192,90192,1,2,0:0:0:0:
64,192,90192,1,0,0:0:0:0:
448,192,90265,1,2,0:0:0:0:
64,192,90339,1,0,0:0:0:0:
320,192,90339,128,8,90485:0:0:0:0:
192,192,90485,1,0,0:0:0:0:
448,192,90485,1,2,0:0:0:0:
320,192,90631,1,8,0:0:0:0:
64,192,90631,1,0,0:0:0:0:
192,192,90778,1,2,0:0:0:0:
448,192,90778,128,0,90924:0:0:0:0:
320,192,90924,1,8,0:0:0:0:
64,192,90924,128,0,91070:0:0:0:0:
192,192,91070,1,0,0:0:0:0:
320,192,91070,128,2,91217:0:0:0:0:
448,192,91217,1,8,0:0:0:0:
64,192,91217,1,0,0:0:0:0:
320,192,91363,1,0,0:0:0:0:
192,192,91363,128,2,91509:0:0:0:0:
64,192,91509,1,8,0:0:0:0:
448,192,91509,1,0,0:0:0:0:
320,192,91656,1,0,0:0:0:0:
64,192,91656,1,2,0:0:0:0:
192,192,91802,1,0,0:0:0:0:
448,192,91802,128,8,91948:0:0:0:0:
320,192,91948,1,0,0:0:0:0:
64,192,91948,128,2,92095:0:0:0:0:
192,192,92022,1,2,0:0:0:0:
320,192,92095,1,0,0:0:0:0:
448,192,92095,128,8,92241:0:0:0:0:
192,192,92241,1,2,0:0:0:0:
320,192,92241,1,0,0:0:0:0:
64,192,92241,128,4,92387:0:0:0:0:
448,192,92387,1,0,0:0:0:0:
192,192,92387,1,8,0:0:0:0:
64,192,92534,1,0,0:0:0:0:
320,192,92534,1,2,0:0:0:0:
192,192,92607,1,2,0:0:0:0:
320,192,92680,1,8,0:0:0:0:
448,192,92680,128,0,92826:0:0:0:0:
64,192,92826,1,0,0:0:0:0:
192,192,92826,1,2,0:0:0:0:
64,192,92973,1,8,0:0:0:0:
448,192,92973,1,0,0:0:0:0:
448,192,93119,1,0,0:0:0:0:
320,192,93119,128,2,93265:0:0:0:0:
192,192,93265,1,8,0:0:0:0:
64,192,93265,128,0,93412:0:0:0:0:
320,192,93412,1,2,0:0:0:0:
448,192,93412,128,0,93558:0:0:0:0:
192,192,93558,1,8,0:0:0:0:
64,192,93558,1,0,0:0:0:0:
448,192,93704,1,0,0:0:0:0:
64,192,93704,1,2,0:0:0:0:
192,192,93851,1,8,0:0:0:0:
320,192,93851,128,0,93997:0:0:0:0:
64,192,93997,1,0,0:0:0:0:
192,192,93997,1,2,0:0:0:0:
320,192,94144,1,0,0:0:0:0:
448,192,94144,1,8,0:0:0:0:
448,192,94290,1,0,0:0:0:0:
64,192,94290,128,2,94436:0:0:0:0:
192,192,94436,1,8,0:0:0:0:
320,192,94436,128,0,94583:0:0:0:0:
64,192,94583,1,2,0:0:0:0:
448,192,94583,128,0,94729:0:0:0:0:
192,192,94729,1,8,0:0:0:0:
64,192,94729,1,0,0:0:0:0:
320,192,94875,1,2,0:0:0:0:
448,192,94875,1,0,0:0:0:0:
64,192,94948,1,2,0:0:0:0:
448,192,95022,1,0,0:0:0:0:
192,192,95022,128,8,95168:0:0:0:0:
320,192,95168,1,0,0:0:0:0:
64,192,95168,1,2,0:0:0:0:
192,192,95314,1,8,0:0:0:0:
448,192,95314,1,0,0:0:0:0:
320,192,95461,1,2,0:0:0:0:
64,192,95461,128,0,95607:0:0:0:0:
192,192,95607,1,8,0:0:0:0:
448,192,95607,1,0,0:0:0:0:
320,192,95680,1,2,0:0:0:0:
64,192,95753,1,8,3:0:0:0:
192,192,95826,1,8,3:0:0:0:
320,192,95900,1,8,3:0:0:0:
448,192,95973,1,8,3:0:0:0:
64,192,96046,1,8,0:0:0:0:
320,192,96046,1,0,0:0:0:0:
192,192,96046,1,4,0:0:0:0:
448,192,96192,1,2,0:0:0:0:
64,192,96265,1,2,0:0:0:0:
448,192,96339,1,8,3:0:0:0:
320,192,96412,1,8,3:0:0:0:
192,192,96485,1,8,3:0:0:0:
64,192,96558,1,8,3:0:0:0:
192,192,96631,1,8,0:0:0:0:
320,192,96631,1,4,0:0:0:0:
448,192,96631,128,0,96924:0:0:0:0:
64,192,96778,1,0,0:0:0:0:
320,192,96924,1,0,0:0:0:0:
192,192,96924,1,4,0:0:0:0:
64,192,96924,128,2,97070:0:0:0:0:
320,192,97070,1,8,0:0:0:0:
448,192,97070,1,0,0:0:0:0:
64,192,97217,1,0,0:0:0:0:
192,192,97217,1,2,0:0:0:0:
320,192,97290,1,2,0:0:0:0:
64,192,97363,1,8,0:0:0:0:
448,192,97363,128,0,97509:0:0:0:0:
320,192,97509,1,0,0:0:0:0:
192,192,97509,1,2,0:0:0:0:
64,192,97656,1,8,0:0:0:0:
192,192,97656,1,0,0:0:0:0:
448,192,97802,1,0,0:0:0:0:
320,192,97802,128,2,97948:0:0:0:0:
192,192,97948,1,8,0:0:0:0:
64,192,97948,128,0,98095:0:0:0:0:
320,192,98095,1,2,0:0:0:0:
448,192,98095,128,0,98241:0:0:0:0:
192,192,98241,1,8,0:0:0:0:
64,192,98241,1,0,0:0:0:0:
448,192,98387,1,0,0:0:0:0:
64,192,98387,1,2,0:0:0:0:
192,192,98534,1,8,0:0:0:0:
320,192,98534,128,0,98680:0:0:0:0:
64,192,98680,1,0,0:0:0:0:
192,192,98680,1,2,0:0:0:0:
320,192,98826,1,0,0:0:0:0:
448,192,98826,1,8,0:0:0:0:
448,192,98973,1,0,0:0:0:0:
64,192,98973,128,2,99119:0:0:0:0:
192,192,99119,1,8,0:0:0:0:
320,192,99119,128,0,99265:0:0:0:0:
64,192,99265,1,2,0:0:0:0:
448,192,99265,128,0,99412:0:0:0:0:
192,192,99412,1,8,0:0:0:0:
64,192,99412,1,0,0:0:0:0:
320,192,99558,1,2,0:0:0:0:
448,192,99558,1,0,0:0:0:0:
64,192,99631,1,2,0:0:0:0:
448,192,99704,1,0,0:0:0:0:
192,192,99704,128,8,99851:0:0:0:0:
320,192,99851,1,0,0:0:0:0:
64,192,99851,1,2,0:0:0:0:
192,192,99997,1,8,0:0:0:0:
448,192,99997,1,0,0:0:0:0:
320,192,100144,1,2,0:0:0:0:
64,192,100144,128,0,100290:0:0:0:0:
192,192,100290,1,8,0:0:0:0:
448,192,100290,128,0,100436:0:0:0:0:
320,192,100436,1,0,0:0:0:0:
192,192,100436,1,2,0:0:0:0:
64,192,100583,1,8,0:0:0:0:
448,192,100583,1,0,0:0:0:0:
192,192,100729,1,0,0:0:0:0:
320,192,100729,128,2,100875:0:0:0:0:
448,192,100875,1,8,0:0:0:0:
64,192,100875,1,0,0:0:0:0:
192,192,101022,1,0,0:0:0:0:
448,192,101022,1,2,0:0:0:0:
320,192,101168,1,0,0:0:0:0:
64,192,101168,128,8,101314:0:0:0:0:
192,192,101314,1,0,0:0:0:0:
448,192,101314,128,2,101461:0:0:0:0:
320,192,101387,1,2,0:0:0:0:
64,192,101461,1,0,0:0:0:0:
192,192,101461,128,8,101607:0:0:0:0:
320,192,101607,1,2,0:0:0:0:
448,192,101607,1,4,0:0:0:0:
64,192,101607,128,0,101753:0:0:0:0:
320,192,101753,1,0,0:0:0:0:
192,192,101753,1,8,0:0:0:0:
448,192,101900,1,0,0:0:0:0:
64,192,101900,1,2,0:0:0:0:
320,192,101973,1,2,0:0:0:0:
192,192,102046,1,8,0:0:0:0:
64,192,102046,128,0,102192:0:0:0:0:
448,192,102192,1,0,0:0:0:0:
320,192,102192,1,2,0:0:0:0:
448,192,102339,1,8,0:0:0:0:
192,192,102339,1,0,0:0:0:0:
64,192,102485,1,0,0:0:0:0:
320,192,102485,128,2,102631:0:0:0:0:
192,192,102631,1,8,0:0:0:0:
448,192,102631,128,0,102778:0:0:0:0:
320,192,102778,1,2,0:0:0:0:
64,192,102778,128,0,102924:0:0:0:0:
192,192,102924,1,8,0:0:0:0:
448,192,102924,1,0,0:0:0:0:
64,192,103070,1,0,0:0:0:0:
448,192,103070,1,2,0:0:0:0:
320,192,103217,1,8,0:0:0:0:
192,192,103217,128,0,103363:0:0:0:0:
448,192,103363,1,0,0:0:0:0:
64,192,103363,1,2,0:0:0:0:
320,192,103436,1,2,0:0:0:0:
192,192,103509,1,0,0:0:0:0:
64,192,103509,128,8,103656:0:0:0:0:
320,192,103656,1,0,0:0:0:0:
448,192,103656,128,2,103802:0:0:0:0:
64,192,103802,1,8,0:0:0:0:
192,192,103802,128,0,103948:0:0:0:0:
448,192,103948,1,8,0:0:0:0:
320,192,103948,1,2,0:0:0:0:
192,192,104022,1,8,0:0:0:0:
64,192,104022,1,2,0:0:0:0:
320,192,104095,1,2,0:0:0:0:
448,192,104095,1,8,0:0:0:0:
192,192,104168,1,8,0:0:0:0:
64,192,104168,1,2,0:0:0:0:
448,192,104241,1,8,0:0:0:0:
320,192,104241,1,2,0:0:0:0:
64,192,104314,1,2,0:0:0:0:
192,192,104314,1,8,0:0:0:0:
448,192,104387,1,8,0:0:0:0:
320,192,104387,1,2,0:0:0:0:
64,192,104461,1,8,0:0:0:0:
192,192,104461,1,2,0:0:0:0:
448,192,104534,1,2,0:0:0:0:
320,192,104534,1,8,3:0:0:0:
192,192,104607,1,8,3:0:0:0:
64,192,104680,1,8,3:0:0:0:
448,192,104753,1,8,3:0:0:0:
320,192,104826,1,8,3:0:0:0:
192,192,104826,1,2,0:0:0:0:
64,192,104900,1,8,3:0:0:0:
448,192,104973,1,8,3:0:0:0:
320,192,105046,1,8,3:0:0:0:
192,192,105119,1,8,3:0:0:0:
64,192,105119,1,2,0:0:0:0:
448,192,105192,1,8,3:0:0:0:
320,192,105265,1,8,3:0:0:0:
64,192,105339,1,8,3:0:0:0:
192,192,105412,1,8,3:0:0:0:
448,192,105412,1,2,0:0:0:0:
320,192,105485,1,8,3:0:0:0:
448,192,105558,1,8,3:0:0:0:
64,192,105631,1,8,3:0:0:0:
192,192,105704,1,8,3:0:0:0:
448,192,105704,1,2,0:0:0:0:
320,192,105778,1,8,3:0:0:0:
192,192,105851,1,8,3:0:0:0:
448,192,105924,1,8,3:0:0:0:
320,192,105997,1,8,3:0:0:0:
64,192,105997,1,2,0:0:0:0:
192,192,106070,1,8,3:0:0:0:
64,192,106144,1,8,3:0:0:0:
448,192,106217,1,8,3:0:0:0:
320,192,106290,1,4,0:0:0:0:
192,192,106290,1,2,0:0:0:0:
64,192,106290,128,0,106583:0:0:0:0:
192,192,106583,1,0,0:0:0:0:
320,192,106583,1,8,0:0:0:0:
448,192,106583,1,2,0:0:0:0:
64,192,106729,1,0,0:0:0:0:
320,192,106875,1,0,0:0:0:0:
448,192,106875,1,2,0:0:0:0:
192,192,107022,1,2,0:0:0:0:
64,192,107022,1,0,0:0:0:0:
64,192,107168,1,0,0:0:0:0:
448,192,107168,1,2,0:0:0:0:
320,192,107168,1,8,0:0:0:0:
192,192,107314,1,0,0:0:0:0:
448,192,107461,1,2,0:0:0:0:
64,192,107461,128,0,107607:0:0:0:0:
64,192,107753,1,0,0:0:0:0:
448,192,107753,1,2,0:0:0:0:
192,192,107753,1,8,0:0:0:0:
320,192,107900,1,2,0:0:0:0:
64,192,107900,128,0,108192:0:0:0:0:
192,192,108192,1,0,0:0:0:0:
320,192,108192,1,2,0:0:0:0:
64,192,108339,1,8,0:0:0:0:
192,192,108339,1,2,0:0:0:0:
448,192,108339,1,0,0:0:0:0:
320,192,108485,1,0,0:0:0:0:
192,192,108631,1,2,0:0:0:0:
448,192,108631,128,0,108924:0:0:0:0:
192,192,108924,1,8,0:0:0:0:
64,192,108924,1,2,0:0:0:0:
320,192,108924,1,0,0:0:0:0:
64,192,109070,1,0,0:0:0:0:
448,192,109217,1,0,0:0:0:0:
192,192,109363,1,0,0:0:0:0:
320,192,109363,1,2,0:0:0:0:
192,192,109509,1,8,0:0:0:0:
448,192,109509,1,2,0:0:0:0:
64,192,109509,1,0,0:0:0:0:
320,192,109656,1,0,0:0:0:0:
192,192,109802,1,2,0:0:0:0:
64,192,109802,128,0,109948:0:0:0:0:
320,192,109948,1,2,0:0:0:0:
448,192,109948,1,0,0:0:0:0:
64,192,110095,1,0,0:0:0:0:
448,192,110095,1,2,0:0:0:0:
192,192,110095,1,8,0:0:0:0:
320,192,110241,1,2,0:0:0:0:
64,192,110241,128,0,110387:0:0:0:0:
192,192,110387,1,0,0:0:0:0:
320,192,110534,1,0,0:0:0:0:
448,192,110534,1,2,0:0:0:0:
192,192,110680,1,8,0:0:0:0:
448,192,110680,1,2,0:0:0:0:
64,192,110680,1,0,0:0:0:0:
320,192,110826,1,0,0:0:0:0:
192,192,110973,1,4,0:0:0:0:
64,192,110973,1,2,0:0:0:0:
448,192,110973,128,0,111265:0:0:0:0:
320,192,111265,1,0,0:0:0:0:
192,192,111265,1,8,0:0:0:0:
64,192,111265,1,2,0:0:0:0:
448,192,111412,1,0,0:0:0:0:
192,192,111558,1,0,0:0:0:0:
64,192,111558,1,2,0:0:0:0:
320,192,111704,1,2,0:0:0:0:
448,192,111704,1,0,0:0:0:0:
448,192,111851,1,0,0:0:0:0:
64,192,111851,1,2,0:0:0:0:
192,192,111851,1,8,0:0:0:0:
320,192,111997,1,0,0:0:0:0:
448,192,112144,1,0,0:0:0:0:
192,192,112144,1,4,0:0:0:0:
64,192,112144,128,2,112436:0:0:0:0:
448,192,112436,1,0,0:0:0:0:
192,192,112436,1,2,0:0:0:0:
320,192,112436,1,8,0:0:0:0:
64,192,112583,1,2,0:0:0:0:
448,192,112583,1,0,0:0:0:0:
320,192,112729,1,0,0:0:0:0:
192,192,112875,1,0,0:0:0:0:
64,192,112875,1,2,0:0:0:0:
192,192,113022,1,8,0:0:0:0:
320,192,113022,1,2,0:0:0:0:
448,192,113022,1,0,0:0:0:0:
64,192,113168,1,0,0:0:0:0:
192,192,113314,1,4,0:0:0:0:
320,192,113314,1,2,0:0:0:0:
448,192,113314,1,0,0:0:0:0:
64,192,113461,1,0,0:0:0:0:
64,192,113607,1,2,0:0:0:0:
320,192,113607,1,0,0:0:0:0:
192,192,113607,128,8,113753:0:0:0:0:
448,192,113753,1,0,0:0:0:0:
64,192,113900,1,0,0:0:0:0:
320,192,114046,1,0,0:0:0:0:
192,192,114046,128,2,114192:0:0:0:0:
320,192,114192,1,8,0:0:0:0:
64,192,114192,1,2,0:0:0:0:
448,192,114192,1,0,0:0:0:0:
192,192,114339,1,2,0:0:0:0:
448,192,114339,128,0,114631:0:0:0:0:
64,192,114485,1,0,0:0:0:0:
192,192,114631,1,2,0:0:0:0:
320,192,114631,1,0,0:0:0:0:
448,192,114778,1,0,0:0:0:0:
64,192,114778,1,2,0:0:0:0:
192,192,114778,1,8,0:0:0:0:
64,192,114924,1,2,0:0:0:0:
320,192,114924,1,0,0:0:0:0:
448,192,115070,1,2,0:0:0:0:
320,192,115144,1,2,0:0:0:0:
192,192,115217,1,2,0:0:0:0:
64,192,115290,1,2,0:0:0:0:
448,192,115363,1,0,0:0:0:0:
320,192,115363,1,8,0:0:0:0:
192,192,115363,1,2,0:0:0:0:
64,192,115509,1,2,0:0:0:0:
448,192,115509,1,0,0:0:0:0:
320,192,115656,1,4,0:0:0:0:
192,192,115656,1,2,0:0:0:0:
64,192,115656,128,0,115948:0:0:0:0:
192,192,115948,1,0,0:0:0:0:
320,192,115948,1,8,0:0:0:0:
448,192,115948,1,2,0:0:0:0:
64,192,116095,1,0,0:0:0:0:
320,192,116241,1,0,0:0:0:0:
448,192,116241,1,2,0:0:0:0:
192,192,116387,1,2,0:0:0:0:
64,192,116387,1,0,0:0:0:0:
64,192,116534,1,0,0:0:0:0:
448,192,116534,1,2,0:0:0:0:
320,192,116534,1,8,0:0:0:0:
192,192,116680,1,0,0:0:0:0:
64,192,116826,1,0,0:0:0:0:
448,192,116826,128,2,116973:0:0:0:0:
320,192,116973,1,0,0:0:0:0:
64,192,117119,1,0,0:0:0:0:
448,192,117119,1,2,0:0:0:0:
192,192,117119,1,8,0:0:0:0:
64,192,117265,1,0,0:0:0:0:
320,192,117265,128,2,117558:0:0:0:0:
192,192,117412,1,0,0:0:0:0:
64,192,117558,1,0,0:0:0:0:
448,192,117558,1,2,0:0:0:0:
320,192,117704,1,8,0:0:0:0:
192,192,117704,1,2,0:0:0:0:
64,192,117704,1,0,0:0:0:0:
448,192,117851,1,0,0:0:0:0:
320,192,117997,1,2,0:0:0:0:
64,192,117997,128,0,118290:0:0:0:0:
320,192,118290,1,8,0:0:0:0:
448,192,118290,1,2,0:0:0:0:
192,192,118290,1,0,0:0:0:0:
64,192,118436,1,0,0:0:0:0:
448,192,118583,1,0,0:0:0:0:
192,192,118729,1,0,0:0:0:0:
320,192,118729,1,2,0:0:0:0:
192,192,118875,1,8,0:0:0:0:
448,192,118875,1,2,0:0:0:0:
64,192,118875,1,0,0:0:0:0:
320,192,119022,1,0,0:0:0:0:
64,192,119168,1,0,0:0:0:0:
448,192,119168,128,2,119314:0:0:0:0:
320,192,119314,1,2,0:0:0:0:
192,192,119314,1,0,0:0:0:0:
64,192,119461,1,0,0:0:0:0:
448,192,119461,1,2,0:0:0:0:
320,192,119461,1,8,0:0:0:0:
192,192,119607,1,0,0:0:0:0:
448,192,119607,128,2,119753:0:0:0:0:
64,192,119753,1,0,0:0:0:0:
320,192,119900,1,0,0:0:0:0:
448,192,119900,1,2,0:0:0:0:
192,192,120046,1,8,0:0:0:0:
448,192,120046,1,2,0:0:0:0:
64,192,120046,1,0,0:0:0:0:
320,192,120192,1,0,0:0:0:0:
192,192,120339,1,4,0:0:0:0:
64,192,120339,1,2,0:0:0:0:
448,192,120339,128,0,120631:0:0:0:0:
320,192,120631,1,0,0:0:0:0:
192,192,120631,1,8,0:0:0:0:
64,192,120631,1,2,0:0:0:0:
448,192,120778,1,0,0:0:0:0:
192,192,120924,1,0,0:0:0:0:
64,192,120924,1,2,0:0:0:0:
320,192,121070,1,2,0:0:0:0:
448,192,121070,1,0,0:0:0:0:
448,192,121217,1,0,0:0:0:0:
64,192,121217,1,2,0:0:0:0:
192,192,121217,1,8,0:0:0:0:
320,192,121363,1,0,0:0:0:0:
448,192,121509,1,0,0:0:0:0:
192,192,121509,1,4,0:0:0:0:
64,192,121509,128,2,121802:0:0:0:0:
448,192,121802,1,0,0:0:0:0:
192,192,121802,1,2,0:0:0:0:
320,192,121802,1,8,0:0:0:0:
448,192,121948,1,2,0:0:0:0:
64,192,121948,1,0,0:0:0:0:
320,192,122095,1,0,0:0:0:0:
192,192,122241,1,0,0:0:0:0:
64,192,122241,1,2,0:0:0:0:
192,192,122387,1,8,0:0:0:0:
320,192,122387,1,2,0:0:0:0:
448,192,122387,1,0,0:0:0:0:
64,192,122534,1,0,0:0:0:0:
192,192,122680,1,4,0:0:0:0:
320,192,122680,1,2,0:0:0:0:
448,192,122680,1,0,0:0:0:0:
448,192,122826,1,0,0:0:0:0:
64,192,122973,1,2,0:0:0:0:
320,192,122973,1,0,0:0:0:0:
192,192,122973,128,8,123119:0:0:0:0:
448,192,123119,1,0,0:0:0:0:
64,192,123265,1,0,0:0:0:0:
320,192,123412,1,0,0:0:0:0:
192,192,123412,128,2,123558:0:0:0:0:
320,192,123558,1,8,0:0:0:0:
64,192,123558,1,2,0:0:0:0:
448,192,123558,1,0,0:0:0:0:
448,192,123704,1,0,0:0:0:0:
192,192,123704,1,2,0:0:0:0:
64,192,123704,128,4,123997:0:0:0:0:
320,192,123997,1,8,3:0:0:0:
448,192,123997,128,2,124144:0:0:0:0:
192,192,124144,1,8,3:0:0:0:
64,192,124144,128,2,124290:0:0:0:0:
320,192,124290,1,0,0:0:0:0:
192,192,124436,1,8,3:0:0:0:
448,192,124436,1,10,0:0:0:0:
192,192,124583,1,0,0:0:0:0:
64,192,124729,1,10,0:0:0:0:
320,192,124729,1,8,3:0:0:0:
320,192,124875,1,0,0:0:0:0:
64,192,125022,1,2,0:0:0:0:
192,192,125022,1,4,0:0:0:0:
448,192,125022,1,0,0:0:0:0:
320,192,125314,1,0,0:0:0:0:
64,192,125314,1,2,0:0:0:0:
192,192,125314,1,8,0:0:0:0:
448,192,125461,1,0,0:0:0:0:
64,192,125607,1,0,0:0:0:0:
320,192,125753,1,0,0:0:0:0:
192,192,125753,1,2,0:0:0:0:
192,192,125900,1,8,0:0:0:0:
64,192,125900,1,2,0:0:0:0:
448,192,125900,1,0,0:0:0:0:
64,192,126046,1,2,0:0:0:0:
320,192,126046,1,0,0:0:0:0:
448,192,126192,1,0,0:0:0:0:
64,192,126339,1,2,0:0:0:0:
192,192,126339,1,0,0:0:0:0:
192,192,126485,1,0,0:0:0:0:
448,192,126485,1,2,0:0:0:0:
320,192,126485,1,8,0:0:0:0:
64,192,126631,1,0,0:0:0:0:
320,192,126631,1,2,0:0:0:0:
448,192,126778,1,0,0:0:0:0:
64,192,126924,1,0,0:0:0:0:
192,192,126924,1,2,0:0:0:0:
320,192,126997,1,2,0:0:0:0:
192,192,127070,1,8,0:0:0:0:
448,192,127070,1,2,0:0:0:0:
64,192,127070,1,0,0:0:0:0:
320,192,127217,1,2,0:0:0:0:
64,192,127363,1,0,0:0:0:0:
320,192,127363,1,2,0:0:0:0:
448,192,127363,1,4,0:0:0:0:
192,192,127656,1,0,0:0:0:0:
448,192,127656,1,2,0:0:0:0:
320,192,127656,1,8,0:0:0:0:
64,192,127802,1,0,0:0:0:0:
448,192,127948,1,0,0:0:0:0:
192,192,127948,1,2,0:0:0:0:
64,192,128095,1,0,0:0:0:0:
320,192,128095,1,2,0:0:0:0:
320,192,128241,1,8,0:0:0:0:
448,192,128241,1,2,0:0:0:0:
192,192,128241,1,0,0:0:0:0:
64,192,128387,1,2,0:0:0:0:
192,192,128387,1,0,0:0:0:0:
320,192,128534,1,0,0:0:0:0:
448,192,128680,1,2,0:0:0:0:
192,192,128680,1,0,0:0:0:0:
320,192,128826,1,0,0:0:0:0:
64,192,128826,1,2,0:0:0:0:
192,192,128826,1,8,0:0:0:0:
448,192,128973,1,0,0:0:0:0:
64,192,129119,1,2,0:0:0:0:
320,192,129119,1,0,0:0:0:0:
192,192,129192,1,2,0:0:0:0:
448,192,129265,1,2,0:0:0:0:
320,192,129339,1,2,0:0:0:0:
192,192,129412,1,8,0:0:0:0:
64,192,129412,1,2,0:0:0:0:
448,192,129412,1,0,0:0:0:0:
320,192,129558,1,2,0:0:0:0:
448,192,129704,1,0,0:0:0:0:
192,192,129704,1,2,0:0:0:0:
64,192,129704,1,4,0:0:0:0:
64,192,129851,1,0,0:0:0:0:
320,192,129997,1,8,0:0:0:0:
448,192,129997,1,2,0:0:0:0:
192,192,129997,1,0,0:0:0:0:
64,192,130144,1,0,0:0:0:0:
448,192,130290,1,0,0:0:0:0:
320,192,130436,1,2,0:0:0:0:
192,192,130436,1,0,0:0:0:0:
64,192,130583,1,0,0:0:0:0:
448,192,130583,1,2,0:0:0:0:
320,192,130583,1,8,0:0:0:0:
192,192,130729,1,0,0:0:0:0:
448,192,130729,1,2,0:0:0:0:
320,192,130875,1,0,0:0:0:0:
64,192,130875,1,4,0:0:0:0:
192,192,130875,1,2,0:0:0:0:
320,192,131022,1,0,0:0:0:0:
448,192,131022,1,2,0:0:0:0:
192,192,131168,1,8,0:0:0:0:
64,192,131168,1,2,0:0:0:0:
448,192,131168,1,0,0:0:0:0:
64,192,131314,1,2,0:0:0:0:
320,192,131314,1,0,0:0:0:0:
192,192,131461,1,0,0:0:0:0:
320,192,131607,1,2,0:0:0:0:
448,192,131607,1,0,0:0:0:0:
192,192,131680,1,2,0:0:0:0:
448,192,131753,1,0,0:0:0:0:
64,192,131753,1,2,0:0:0:0:
320,192,131753,1,8,0:0:0:0:
192,192,131900,1,2,0:0:0:0:
64,192,132046,1,4,0:0:0:0:
192,192,132046,1,2,0:0:0:0:
448,192,132046,128,0,132339:0:0:0:0:
320,192,132339,1,0,0:0:0:0:
192,192,132339,1,0,0:0:0:0:
64,192,132339,1,0,0:0:0:0:
448,192,132485,1,0,0:0:0:0:
192,192,132631,1,2,0:0:0:0:
64,192,132631,1,0,0:0:0:0:
320,192,132778,1,2,0:0:0:0:
448,192,132778,1,0,0:0:0:0:
192,192,132924,1,2,0:0:0:0:
64,192,132924,1,0,0:0:0:0:
448,192,132924,1,8,0:0:0:0:
320,192,133070,1,2,0:0:0:0:
192,192,133070,1,4,0:0:0:0:
64,192,133070,128,0,133363:0:0:0:0:
320,192,133363,1,2,0:0:0:0:
448,192,133363,1,0,0:0:0:0:
192,192,133436,1,2,0:0:0:0:
64,192,133509,1,0,0:0:0:0:
320,192,133509,1,2,0:0:0:0:
448,192,133509,1,8,0:0:0:0:
192,192,133656,1,2,0:0:0:0:
320,192,133802,1,2,0:0:0:0:
448,192,133802,1,8,3:0:0:0:
192,192,133875,1,2,0:0:0:0:
64,192,133875,1,8,3:0:0:0:
320,192,133948,1,2,0:0:0:0:
448,192,133948,1,8,3:0:0:0:
320,192,134095,1,2,0:0:0:0:
64,192,134095,1,8,3:0:0:0:
192,192,134168,1,2,0:0:0:0:
64,192,134241,1,2,0:0:0:0:
448,192,134241,1,8,3:0:0:0:
320,192,134314,1,2,0:0:0:0:
64,192,134387,1,2,0:0:0:0:
448,192,134387,1,0,0:0:0:0:
192,192,134387,1,4,0:0:0:0:
448,192,134534,1,0,0:0:0:0:
320,192,134534,1,8,0:0:0:0:
192,192,134680,1,2,0:0:0:0:
64,192,134680,1,0,0:0:0:0:
192,192,134826,1,0,0:0:0:0:
320,192,134826,1,8,0:0:0:0:
64,192,134973,1,0,0:0:0:0:
320,192,135046,1,2,0:0:0:0:
448,192,135046,1,0,0:0:0:0:
192,192,135119,1,0,0:0:0:0:
64,192,135119,1,8,0:0:0:0:
448,192,135265,1,0,0:0:0:0:
320,192,135265,1,2,0:0:0:0:
192,192,135412,1,8,0:0:0:0:
64,192,135412,1,0,0:0:0:0:
192,192,135558,1,0,0:0:0:0:
320,192,135558,1,2,0:0:0:0:
448,192,135704,1,8,0:0:0:0:
320,192,135704,1,0,0:0:0:0:
64,192,135851,1,2,0:0:0:0:
192,192,135851,1,0,0:0:0:0:
64,192,135997,1,0,0:0:0:0:
448,192,135997,1,8,0:0:0:0:
320,192,136144,1,2,0:0:0:0:
448,192,136144,1,0,0:0:0:0:
192,192,136217,1,2,0:0:0:0:
64,192,136290,1,0,0:0:0:0:
448,192,136290,1,8,0:0:0:0:
192,192,136436,1,0,0:0:0:0:
320,192,136436,1,2,0:0:0:0:
64,192,136583,1,8,0:0:0:0:
192,192,136583,1,0,0:0:0:0:
448,192,136729,1,2,0:0:0:0:
64,192,136729,1,0,0:0:0:0:
320,192,136729,1,4,0:0:0:0:
448,192,136875,1,0,0:0:0:0:
192,192,136875,1,8,0:0:0:0:
64,192,137022,1,2,0:0:0:0:
320,192,137022,1,0,0:0:0:0:
448,192,137168,1,0,0:0:0:0:
64,192,137168,1,8,0:0:0:0:
320,192,137314,1,0,0:0:0:0:
192,192,137387,1,2,0:0:0:0:
448,192,137387,1,0,0:0:0:0:
320,192,137461,1,0,0:0:0:0:
64,192,137461,1,8,0:0:0:0:
64,192,137607,1,0,0:0:0:0:
192,192,137607,1,2,0:0:0:0:
320,192,137753,1,8,0:0:0:0:
448,192,137753,1,0,0:0:0:0:
320,192,137900,1,0,0:0:0:0:
192,192,137900,1,2,0:0:0:0:
64,192,137973,1,2,0:0:0:0:
320,192,138046,1,8,0:0:0:0:
448,192,138046,1,0,0:0:0:0:
192,192,138192,1,2,0:0:0:0:
64,192,138192,1,0,0:0:0:0:
448,192,138339,1,0,0:0:0:0:
320,192,138339,1,8,0:0:0:0:
192,192,138485,1,0,0:0:0:0:
64,192,138558,1,2,0:0:0:0:
320,192,138558,1,0,0:0:0:0:
448,192,138631,1,0,0:0:0:0:
192,192,138631,1,8,0:0:0:0:
64,192,138778,1,0,0:0:0:0:
320,192,138778,1,2,0:0:0:0:
192,192,138851,1,2,0:0:0:0:
448,192,138924,1,8,0:0:0:0:
64,192,138924,1,0,0:0:0:0:
192,192,139070,1,4,0:0:0:0:
320,192,139070,1,0,0:0:0:0:
448,192,139070,1,2,0:0:0:0:
192,192,139217,1,8,0:0:0:0:
64,192,139217,1,0,0:0:0:0:
448,192,139363,1,0,0:0:0:0:
320,192,139363,1,2,0:0:0:0:
64,192,139509,1,8,0:0:0:0:
448,192,139509,1,0,0:0:0:0:
64,192,139656,1,0,0:0:0:0:
192,192,139656,1,2,0:0:0:0:
448,192,139802,1,8,0:0:0:0:
320,192,139802,1,0,0:0:0:0:
192,192,139948,1,2,0:0:0:0:
64,192,139948,1,0,0:0:0:0:
448,192,140095,1,0,0:0:0:0:
320,192,140095,1,8,0:0:0:0:
192,192,140241,1,2,0:0:0:0:
320,192,140241,1,0,0:0:0:0:
192,192,140387,1,0,0:0:0:0:
64,192,140387,1,8,0:0:0:0:
320,192,140534,1,0,0:0:0:0:
448,192,140534,1,2,0:0:0:0:
64,192,140680,1,8,0:0:0:0:
448,192,140680,1,0,0:0:0:0:
192,192,140826,1,2,0:0:0:0:
64,192,140826,1,8,0:0:0:0:
320,192,140900,1,2,0:0:0:0:
64,192,140973,1,8,0:0:0:0:
448,192,140973,1,2,0:0:0:0:
192,192,141046,1,2,0:0:0:0:
448,192,141119,1,8,0:0:0:0:
320,192,141119,1,2,0:0:0:0:
192,192,141192,1,2,0:0:0:0:
448,192,141265,1,8,0:0:0:0:
64,192,141265,1,2,0:0:0:0:
320,192,141339,1,2,0:0:0:0:
192,192,141412,1,2,0:0:0:0:
64,192,141412,1,8,0:0:0:0:
320,192,141485,1,2,0:0:0:0:
448,192,141485,1,8,0:0:0:0:
192,192,141558,1,2,0:0:0:0:
64,192,141558,1,8,0:0:0:0:
320,192,141631,1,2,0:0:0:0:
448,192,141631,1,8,0:0:0:0:
192,192,141704,1,2,0:0:0:0:
64,192,141704,1,8,0:0:0:0:
448,192,141778,1,2,0:0:0:0:
64,192,141851,1,2,0:0:0:0:
320,192,141924,1,2,0:0:0:0:
192,192,141997,1,2,0:0:0:0:
64,192,141997,1,8,3:0:0:0:
448,192,142070,1,8,3:0:0:0:
320,192,142070,1,2,0:0:0:0:
192,192,142144,1,2,0:0:0:0:
64,192,142144,1,8,3:0:0:0:
320,192,142217,1,2,0:0:0:0:
448,192,142217,1,8,3:0:0:0:
192,192,142290,1,2,0:0:0:0:
64,192,142290,1,8,3:0:0:0:
448,192,142363,1,8,3:0:0:0:
64,192,142436,1,8,3:0:0:0:
320,192,142509,1,8,3:0:0:0:
448,192,142583,1,8,3:0:0:0:
192,192,142583,1,2,0:0:0:0:
64,192,142656,1,8,3:0:0:0:
320,192,142729,1,8,3:0:0:0:
448,192,142729,1,2,0:0:0:0:
192,192,142802,1,8,3:0:0:0:
64,192,142875,1,8,3:0:0:0:
448,192,142875,1,2,0:0:0:0:
320,192,142948,1,8,3:0:0:0:
64,192,143022,1,8,3:0:0:0:
192,192,143022,1,2,0:0:0:0:
320,192,143095,1,8,3:0:0:0:
192,192,143168,1,8,3:0:0:0:
448,192,143168,1,2,0:0:0:0:
64,192,143241,1,8,3:0:0:0:
448,192,143314,1,8,3:0:0:0:
320,192,143314,1,2,0:0:0:0:
192,192,143387,1,8,3:0:0:0:
64,192,143461,1,8,3:0:0:0:
320,192,143461,1,2,0:0:0:0:
448,192,143534,1,8,3:0:0:0:
64,192,143607,1,8,3:0:0:0:
192,192,143607,1,2,0:0:0:0:
320,192,143680,1,8,3:0:0:0:
192,192,143753,1,4,0:0:0:0:
64,192,143753,1,2,0:0:0:0:
448,192,143753,1,0,0:0:0:0:
320,192,143826,1,0,0:0:0:0:
192,192,143900,1,8,0:0:0:0:
448,192,143900,1,0,0:0:0:0:
64,192,143973,1,0,0:0:0:0:
320,192,144046,1,0,0:0:0:0:
192,192,144119,1,0,0:0:0:0:
64,192,144192,1,8,0:0:0:0:
448,192,144192,1,0,0:0:0:0:
320,192,144265,1,0,0:0:0:0:
192,192,144339,1,0,0:0:0:0:
320,192,144412,1,2,0:0:0:0:
448,192,144412,1,0,0:0:0:0:
192,192,144485,1,0,0:0:0:0:
64,192,144485,1,8,0:0:0:0:
448,192,144558,1,0,0:0:0:0:
320,192,144631,1,0,0:0:0:0:
192,192,144704,1,0,0:0:0:0:
448,192,144778,1,0,0:0:0:0:
64,192,144778,1,8,0:0:0:0:
320,192,144851,1,0,0:0:0:0:
192,192,144924,1,2,0:0:0:0:
448,192,144997,1,2,0:0:0:0:
64,192,145070,1,8,0:0:0:0:
320,192,145070,1,0,0:0:0:0:
448,192,145144,1,0,0:0:0:0:
192,192,145217,1,2,0:0:0:0:
320,192,145290,1,2,0:0:0:0:
192,192,145363,1,0,0:0:0:0:
64,192,145363,1,8,0:0:0:0:
320,192,145436,1,0,0:0:0:0:
448,192,145509,1,2,0:0:0:0:
64,192,145583,1,2,0:0:0:0:
192,192,145656,1,8,0:0:0:0:
448,192,145656,1,0,0:0:0:0:
320,192,145729,1,0,0:0:0:0:
64,192,145802,1,0,0:0:0:0:
192,192,145875,1,0,0:0:0:0:
448,192,145948,1,0,0:0:0:0:
320,192,145948,1,8,0:0:0:0:
64,192,146022,1,0,0:0:0:0:
192,192,146095,1,0,0:0:0:0:
320,192,146168,1,0,0:0:0:0:
192,192,146241,1,8,0:0:0:0:
64,192,146241,1,0,0:0:0:0:
448,192,146314,1,0,0:0:0:0:
320,192,146387,1,0,0:0:0:0:
448,192,146461,1,0,0:0:0:0:
192,192,146534,1,8,0:0:0:0:
64,192,146534,1,0,0:0:0:0:
320,192,146607,1,0,0:0:0:0:
448,192,146680,1,0,0:0:0:0:
192,192,146753,1,2,0:0:0:0:
64,192,146753,1,0,0:0:0:0:
320,192,146826,1,0,0:0:0:0:
448,192,146826,1,8,0:0:0:0:
192,192,146900,1,0,0:0:0:0:
320,192,146973,1,0,0:0:0:0:
192,192,147046,1,0,0:0:0:0:
64,192,147119,1,0,0:0:0:0:
448,192,147119,1,8,0:0:0:0:
320,192,147192,1,0,0:0:0:0:
192,192,147265,1,2,0:0:0:0:
64,192,147339,1,2,0:0:0:0:
448,192,147412,1,8,0:0:0:0:
192,192,147412,1,0,0:0:0:0:
64,192,147485,1,0,0:0:0:0:
320,192,147558,1,2,0:0:0:0:
192,192,147631,1,2,0:0:0:0:
320,192,147704,1,0,0:0:0:0:
448,192,147704,1,8,0:0:0:0:
192,192,147778,1,0,0:0:0:0:
64,192,147851,1,2,0:0:0:0:
448,192,147924,1,2,0:0:0:0:
320,192,147924,1,0,0:0:0:0:
192,192,147997,1,8,0:0:0:0:
64,192,147997,1,0,0:0:0:0:
320,192,148070,1,0,0:0:0:0:
448,192,148144,1,0,0:0:0:0:
192,192,148217,1,0,0:0:0:0:
64,192,148290,1,0,0:0:0:0:
320,192,148290,1,8,0:0:0:0:
448,192,148363,1,0,0:0:0:0:
192,192,148436,1,0,0:0:0:0:
64,192,148436,1,2,0:0:0:0:
320,192,148509,1,0,0:0:0:0:
448,192,148583,1,8,0:0:0:0:
64,192,148583,1,0,0:0:0:0:
192,192,148656,1,0,0:0:0:0:
320,192,148729,1,0,0:0:0:0:
64,192,148802,1,0,0:0:0:0:
448,192,148875,1,8,0:0:0:0:
192,192,148875,1,0,0:0:0:0:
320,192,148948,1,0,0:0:0:0:
64,192,149022,1,0,0:0:0:0:
320,192,149095,1,2,0:0:0:0:
448,192,149095,1,0,0:0:0:0:
192,192,149168,1,0,0:0:0:0:
64,192,149168,1,8,0:0:0:0:
448,192,149241,1,0,0:0:0:0:
192,192,149314,1,0,0:0:0:0:
320,192,149387,1,0,0:0:0:0:
64,192,149461,1,0,0:0:0:0:
448,192,149461,1,8,0:0:0:0:
192,192,149534,1,0,0:0:0:0:
320,192,149607,1,2,0:0:0:0:
64,192,149680,1,2,0:0:0:0:
448,192,149753,1,8,0:0:0:0:
192,192,149753,1,0,0:0:0:0:
320,192,149826,1,0,0:0:0:0:
64,192,149900,1,2,0:0:0:0:
192,192,149973,1,2,0:0:0:0:
320,192,150046,1,0,0:0:0:0:
448,192,150046,1,8,0:0:0:0:
192,192,150119,1,0,0:0:0:0:
64,192,150192,1,2,0:0:0:0:
448,192,150265,1,2,0:0:0:0:
320,192,150339,1,8,0:0:0:0:
64,192,150339,1,0,0:0:0:0:
192,192,150412,1,0,0:0:0:0:
448,192,150485,1,0,0:0:0:0:
320,192,150558,1,0,0:0:0:0:
64,192,150631,1,0,0:0:0:0:
192,192,150631,1,8,0:0:0:0:
448,192,150704,1,0,0:0:0:0:
320,192,150778,1,0,0:0:0:0:
192,192,150851,1,0,0:0:0:0:
320,192,150924,1,8,0:0:0:0:
448,192,150924,1,0,0:0:0:0:
64,192,150997,1,0,0:0:0:0:
192,192,151070,1,0,0:0:0:0:
448,192,151144,1,0,0:0:0:0:
320,192,151217,1,8,0:0:0:0:
64,192,151217,1,0,0:0:0:0:
192,192,151290,1,0,0:0:0:0:
64,192,151363,1,0,0:0:0:0:
320,192,151436,1,2,0:0:0:0:
448,192,151436,1,0,0:0:0:0:
192,192,151509,1,0,0:0:0:0:
64,192,151509,1,8,0:0:0:0:
320,192,151583,1,0,0:0:0:0:
192,192,151656,1,0,0:0:0:0:
320,192,151729,1,0,0:0:0:0:
448,192,151802,1,0,0:0:0:0:
64,192,151802,1,8,0:0:0:0:
192,192,151875,1,0,0:0:0:0:
320,192,151948,1,2,0:0:0:0:
448,192,152022,1,2,0:0:0:0:
64,192,152095,1,8,0:0:0:0:
320,192,152095,1,0,0:0:0:0:
448,192,152168,1,0,0:0:0:0:
192,192,152241,1,2,0:0:0:0:
320,192,152314,1,2,0:0:0:0:
448,192,152387,1,0,0:0:0:0:
64,192,152387,1,8,0:0:0:0:
192,192,152461,1,0,0:0:0:0:
320,192,152534,1,2,0:0:0:0:
64,192,152607,1,2,0:0:0:0:
448,192,152607,1,0,0:0:0:0:
192,192,152680,1,8,0:0:0:0:
320,192,152680,1,0,0:0:0:0:
64,192,152753,1,0,0:0:0:0:
320,192,152826,1,0,0:0:0:0:
192,192,152900,1,0,0:0:0:0:
448,192,152973,1,0,0:0:0:0:
64,192,152973,1,8,0:0:0:0:
192,192,153046,1,0,0:0:0:0:
320,192,153119,1,0,0:0:0:0:
448,192,153119,1,2,0:0:0:0:
192,192,153192,1,0,0:0:0:0:
64,192,153265,1,0,0:0:0:0:
448,192,153265,1,8,0:0:0:0:
320,192,153339,1,0,0:0:0:0:
192,192,153412,1,0,0:0:0:0:
320,192,153485,1,0,0:0:0:0:
64,192,153558,1,0,0:0:0:0:
448,192,153558,1,8,0:0:0:0:
192,192,153631,1,0,0:0:0:0:
320,192,153704,1,0,0:0:0:0:
64,192,153778,1,0,0:0:0:0:
192,192,153778,1,2,0:0:0:0:
448,192,153851,1,8,0:0:0:0:
320,192,153851,1,0,0:0:0:0:
64,192,153924,1,0,0:0:0:0:
192,192,153997,1,0,0:0:0:0:
320,192,154070,1,0,0:0:0:0:
448,192,154144,1,8,0:0:0:0:
64,192,154144,1,0,0:0:0:0:
192,192,154217,1,0,0:0:0:0:
320,192,154290,1,2,0:0:0:0:
64,192,154363,1,2,0:0:0:0:
192,192,154436,1,0,0:0:0:0:
320,192,154436,1,8,0:0:0:0:
448,192,154509,1,0,0:0:0:0:
64,192,154583,1,2,0:0:0:0:
192,192,154656,1,2,0:0:0:0:
448,192,154729,1,8,0:0:0:0:
320,192,154729,1,0,0:0:0:0:
192,192,154802,1,0,0:0:0:0:
64,192,154875,1,2,0:0:0:0:
448,192,154948,1,2,0:0:0:0:
64,192,155022,1,0,0:0:0:0:
320,192,155022,1,8,0:0:0:0:
192,192,155095,1,0,0:0:0:0:
448,192,155168,1,0,0:0:0:0:
320,192,155241,1,0,0:0:0:0:
192,192,155314,1,8,0:0:0:0:
64,192,155314,1,0,0:0:0:0:
448,192,155387,1,0,0:0:0:0:
320,192,155461,1,0,0:0:0:0:
192,192,155534,1,0,0:0:0:0:
448,192,155607,1,0,0:0:0:0:
64,192,155607,1,8,0:0:0:0:
320,192,155680,1,0,0:0:0:0:
192,192,155753,1,0,0:0:0:0:
64,192,155826,1,0,0:0:0:0:
448,192,155900,1,0,0:0:0:0:
320,192,155900,1,8,0:0:0:0:
192,192,155973,1,0,0:0:0:0:
64,192,156046,1,0,0:0:0:0:
448,192,156119,1,0,0:0:0:0:
320,192,156119,1,2,0:0:0:0:
64,192,156192,1,8,0:0:0:0:
192,192,156192,1,0,0:0:0:0:
320,192,156265,1,0,0:0:0:0:
192,192,156339,1,0,0:0:0:0:
320,192,156412,1,0,0:0:0:0:
64,192,156485,1,8,0:0:0:0:
448,192,156485,1,0,0:0:0:0:
192,192,156558,1,0,0:0:0:0:
320,192,156631,1,2,0:0:0:0:
448,192,156704,1,2,0:0:0:0:
320,192,156778,1,0,0:0:0:0:
64,192,156778,1,8,0:0:0:0:
448,192,156851,1,0,0:0:0:0:
192,192,156924,1,2,0:0:0:0:
320,192,156997,1,2,0:0:0:0:
64,192,157070,1,8,0:0:0:0:
192,192,157070,1,0,0:0:0:0:
320,192,157144,1,0,0:0:0:0:
448,192,157217,1,2,0:0:0:0:
64,192,157290,1,2,0:0:0:0:
192,192,157290,1,0,0:0:0:0:
448,192,157363,1,0,0:0:0:0:
320,192,157363,1,8,0:0:0:0:
192,192,157436,1,0,0:0:0:0:
64,192,157509,1,0,0:0:0:0:
320,192,157583,1,0,0:0:0:0:
192,192,157656,1,8,0:0:0:0:
448,192,157656,1,0,0:0:0:0:
64,192,157729,1,0,0:0:0:0:
448,192,157802,1,2,0:0:0:0:
320,192,157802,1,0,0:0:0:0:
192,192,157875,1,0,0:0:0:0:
448,192,157948,1,8,0:0:0:0:
64,192,157948,1,0,0:0:0:0:
320,192,158022,1,0,0:0:0:0:
192,192,158095,1,0,0:0:0:0:
320,192,158168,1,0,0:0:0:0:
448,192,158241,1,8,0:0:0:0:
64,192,158241,1,0,0:0:0:0:
192,192,158314,1,0,0:0:0:0:
320,192,158387,1,0,0:0:0:0:
192,192,158461,1,2,0:0:0:0:
320,192,158534,1,0,0:0:0:0:
448,192,158534,1,8,0:0:0:0:
64,192,158607,1,0,0:0:0:0:
192,192,158680,1,0,0:0:0:0:
320,192,158753,1,0,0:0:0:0:
64,192,158826,1,0,0:0:0:0:
448,192,158826,1,8,0:0:0:0:
192,192,158900,1,0,0:0:0:0:
320,192,158973,1,2,0:0:0:0:
64,192,159046,1,2,0:0:0:0:
448,192,159119,1,8,0:0:0:0:
192,192,159119,1,0,0:0:0:0:
64,192,159192,1,0,0:0:0:0:
320,192,159265,1,2,0:0:0:0:
192,192,159339,1,2,0:0:0:0:
320,192,159412,1,0,0:0:0:0:
448,192,159412,1,8,0:0:0:0:
192,192,159485,1,0,0:0:0:0:
64,192,159558,1,0,0:0:0:0:
448,192,159558,1,8,0:0:0:0:
320,192,159631,1,0,0:0:0:0:
64,192,159704,1,0,0:0:0:0:
192,192,159704,1,8,0:0:0:0:
320,192,159778,1,0,0:0:0:0:
448,192,159851,1,8,0:0:0:0:
64,192,159851,1,0,0:0:0:0:
192,192,159924,1,0,0:0:0:0:
320,192,159997,1,0,0:0:0:0:
448,192,159997,1,8,0:0:0:0:
64,192,160070,1,0,0:0:0:0:
320,192,160144,1,8,0:0:0:0:
448,192,160144,1,0,0:0:0:0:
64,192,160217,1,8,0:0:0:0:
192,192,160217,1,0,0:0:0:0:
448,192,160290,1,0,0:0:0:0:
320,192,160290,1,8,0:0:0:0:
64,192,160363,1,8,0:0:0:0:
192,192,160363,1,0,0:0:0:0:
448,192,160436,1,2,0:0:0:0:
320,192,160509,1,2,0:0:0:0:
192,192,160583,1,8,3:0:0:0:
448,192,160583,1,0,0:0:0:0:
320,192,160656,1,0,0:0:0:0:
64,192,160656,1,8,3:0:0:0:
448,192,160729,1,0,0:0:0:0:
192,192,160729,1,8,3:0:0:0:
64,192,160802,1,8,3:0:0:0:
320,192,160802,1,0,0:0:0:0:
192,192,160875,1,2,0:0:0:0:
64,192,160948,1,2,0:0:0:0:
320,192,161022,1,8,0:0:0:0:
448,192,161022,1,0,0:0:0:0:
192,192,161095,1,0,0:0:0:0:
64,192,161095,1,8,0:0:0:0:
448,192,161168,1,0,0:0:0:0:
320,192,161168,1,8,0:0:0:0:
64,192,161241,1,8,0:0:0:0:
192,192,161241,1,0,0:0:0:0:
320,192,161314,1,2,0:0:0:0:
192,192,161387,1,2,0:0:0:0:
448,192,161461,1,2,0:0:0:0:
320,192,161534,1,2,0:0:0:0:
192,192,161607,1,8,0:0:0:0:
64,192,161607,1,0,0:0:0:0:
320,192,161680,1,0,0:0:0:0:
448,192,161680,1,8,0:0:0:0:
64,192,161753,1,0,0:0:0:0:
192,192,161753,1,8,0:0:0:0:
448,192,161826,1,8,0:0:0:0:
320,192,161826,1,0,0:0:0:0:
192,192,161900,1,2,0:0:0:0:
320,192,161973,1,2,0:0:0:0:
64,192,162046,1,2,0:0:0:0:
192,192,162119,1,2,0:0:0:0:
320,192,162192,1,8,0:0:0:0:
448,192,162192,1,0,0:0:0:0:
192,192,162265,1,0,0:0:0:0:
64,192,162265,1,8,0:0:0:0:
448,192,162339,1,0,0:0:0:0:
320,192,162339,1,8,0:0:0:0:
64,192,162412,1,8,0:0:0:0:
192,192,162412,1,0,0:0:0:0:
448,192,162485,1,2,0:0:0:0:
320,192,162485,1,4,0:0:0:0:
192,192,162558,1,2,0:0:0:0:
448,192,162631,1,8,0:0:0:0:
64,192,162631,1,2,0:0:0:0:
320,192,162704,1,2,0:0:0:0:
192,192,162778,1,2,0:0:0:0:
448,192,162851,1,2,0:0:0:0:
64,192,162924,1,8,0:0:0:0:
320,192,162924,1,2,0:0:0:0:
192,192,162997,1,2,0:0:0:0:
320,192,163070,1,2,0:0:0:0:
64,192,163144,1,2,0:0:0:0:
448,192,163217,1,2,0:0:0:0:
192,192,163217,1,8,0:0:0:0:
320,192,163290,1,2,0:0:0:0:
192,192,163363,1,2,0:0:0:0:
64,192,163436,1,2,0:0:0:0:
320,192,163509,1,2,0:0:0:0:
448,192,163509,1,8,0:0:0:0:
192,192,163583,1,2,0:0:0:0:
64,192,163656,1,2,0:0:0:0:
448,192,163729,1,2,0:0:0:0:
320,192,163802,1,8,0:0:0:0:
64,192,163802,1,2,0:0:0:0:
192,192,163875,1,2,0:0:0:0:
320,192,163948,1,2,0:0:0:0:
192,192,164022,1,2,0:0:0:0:
64,192,164095,1,8,0:0:0:0:
448,192,164095,1,2,0:0:0:0:
320,192,164168,1,2,0:0:0:0:
192,192,164241,1,2,0:0:0:0:
448,192,164314,1,2,0:0:0:0:
64,192,164387,1,2,0:0:0:0:
192,192,164387,1,8,0:0:0:0:
320,192,164461,1,2,0:0:0:0:
192,192,164534,1,2,0:0:0:0:
448,192,164607,1,2,0:0:0:0:
64,192,164680,1,2,0:0:0:0:
320,192,164680,1,8,0:0:0:0:
192,192,164753,1,2,0:0:0:0:
448,192,164826,1,2,0:0:0:0:
320,192,164900,1,2,0:0:0:0:
192,192,164973,1,8,0:0:0:0:
64,192,164973,1,2,0:0:0:0:
448,192,165046,1,2,0:0:0:0:
320,192,165119,1,2,0:0:0:0:
64,192,165192,1,2,0:0:0:0:
192,192,165265,1,8,0:0:0:0:
448,192,165265,1,2,0:0:0:0:
320,192,165339,1,2,0:0:0:0:
64,192,165412,1,2,0:0:0:0:
192,192,165485,1,2,0:0:0:0:
448,192,165558,1,2,0:0:0:0:
320,192,165558,1,8,0:0:0:0:
192,192,165631,1,2,0:0:0:0:
64,192,165704,1,2,0:0:0:0:
448,192,165778,1,2,0:0:0:0:
64,192,165851,1,2,0:0:0:0:
320,192,165851,1,8,0:0:0:0:
192,192,165924,1,2,0:0:0:0:
64,192,165997,1,2,0:0:0:0:
448,192,166070,1,2,0:0:0:0:
320,192,166144,1,8,0:0:0:0:
192,192,166144,1,2,0:0:0:0:
64,192,166217,1,2,0:0:0:0:
448,192,166290,1,2,0:0:0:0:
320,192,166363,1,2,0:0:0:0:
64,192,166436,1,8,0:0:0:0:
192,192,166436,1,2,0:0:0:0:
320,192,166509,1,2,0:0:0:0:
192,192,166583,1,2,0:0:0:0:
448,192,166656,1,2,0:0:0:0:
320,192,166729,1,2,0:0:0:0:
64,192,166729,1,8,0:0:0:0:
192,192,166802,1,2,0:0:0:0:
448,192,166875,1,2,0:0:0:0:
320,192,166948,1,2,0:0:0:0:
64,192,167022,1,2,0:0:0:0:
192,192,167022,1,8,0:0:0:0:
320,192,167095,1,2,0:0:0:0:
448,192,167168,1,2,0:0:0:0:
64,192,167168,1,4,0:0:0:0:
192,192,167241,1,2,0:0:0:0:
448,192,167314,1,2,0:0:0:0:
320,192,167314,1,8,0:0:0:0:
64,192,167387,1,2,0:0:0:0:
192,192,167461,1,2,0:0:0:0:
448,192,167534,1,2,0:0:0:0:
320,192,167607,1,2,0:0:0:0:
64,192,167607,1,8,0:0:0:0:
192,192,167680,1,2,0:0:0:0:
320,192,167753,1,2,0:0:0:0:
64,192,167826,1,2,0:0:0:0:
192,192,167900,1,8,0:0:0:0:
448,192,167900,1,2,0:0:0:0:
320,192,167973,1,2,0:0:0:0:
192,192,168046,1,2,0:0:0:0:
448,192,168119,1,2,0:0:0:0:
320,192,168192,1,8,0:0:0:0:
64,192,168192,1,2,0:0:0:0:
192,192,168265,1,2,0:0:0:0:
320,192,168339,1,2,0:0:0:0:
448,192,168339,1,4,0:0:0:0:
64,192,168412,1,2,0:0:0:0:
192,192,168485,1,2,0:0:0:0:
448,192,168485,1,8,0:0:0:0:
320,192,168558,1,2,0:0:0:0:
192,192,168631,1,2,0:0:0:0:
448,192,168704,1,2,0:0:0:0:
320,192,168778,1,2,0:0:0:0:
64,192,168778,1,8,0:0:0:0:
192,192,168851,1,2,0:0:0:0:
448,192,168924,1,2,0:0:0:0:
320,192,168997,1,2,0:0:0:0:
192,192,169070,1,8,0:0:0:0:
64,192,169070,1,2,0:0:0:0:
320,192,169144,1,2,0:0:0:0:
192,192,169217,1,2,0:0:0:0:
448,192,169290,1,2,0:0:0:0:
320,192,169363,1,8,0:0:0:0:
64,192,169363,1,2,0:0:0:0:
192,192,169436,1,2,0:0:0:0:
448,192,169509,1,8,3:0:0:0:
64,192,169509,1,6,0:0:0:0:
320,192,169583,1,2,0:0:0:0:
192,192,169656,1,8,3:0:0:0:
448,192,169656,1,10,0:0:0:0:
64,192,169729,1,2,0:0:0:0:
320,192,169802,1,2,0:0:0:0:
448,192,169802,1,8,3:0:0:0:
192,192,169875,1,2,0:0:0:0:
64,192,169948,1,10,0:0:0:0:
448,192,169948,1,8,3:0:0:0:
320,192,170022,1,2,0:0:0:0:
192,192,170095,1,2,0:0:0:0:
64,192,170095,1,8,3:0:0:0:
320,192,170168,1,2,0:0:0:0:
448,192,170241,1,10,0:0:0:0:
64,192,170241,1,8,3:0:0:0:
192,192,170314,1,2,0:0:0:0:
448,192,170387,1,2,0:0:0:0:
320,192,170387,1,8,3:0:0:0:
192,192,170461,1,2,0:0:0:0:
64,192,170534,1,10,0:0:0:0:
448,192,170534,1,8,3:0:0:0:
320,192,170607,1,2,0:0:0:0:
192,192,170680,1,2,0:0:0:0:
64,192,170680,1,4,0:0:0:0:
448,192,170753,1,2,0:0:0:0:
320,192,170826,1,2,0:0:0:0:
192,192,170900,1,2,0:0:0:0:
64,192,170973,1,2,0:0:0:0:
448,192,170973,1,8,3:0:0:0:
320,192,171046,1,2,0:0:0:0:
192,192,171119,1,8,3:0:0:0:
448,192,171119,1,2,0:0:0:0:
64,192,171192,1,2,0:0:0:0:
320,192,171265,1,8,3:0:0:0:
192,192,171265,1,2,0:0:0:0:
448,192,171339,1,2,0:0:0:0:
64,192,171412,1,2,0:0:0:0:
320,192,171485,1,2,0:0:0:0:
64,192,171558,1,2,0:0:0:0:
448,192,171631,1,2,0:0:0:0:
192,192,171704,1,2,0:0:0:0:
320,192,171778,1,2,0:0:0:0:
192,192,171851,1,2,0:0:0:0:
448,192,171851,1,0,0:0:0:0:
64,192,171851,1,4,0:0:0:0:
320,192,171997,1,8,0:0:0:0:
64,192,171997,1,0,0:0:0:0:
192,192,172144,1,2,0:0:0:0:
448,192,172144,1,0,0:0:0:0:
320,192,172217,1,2,0:0:0:0:
64,192,172290,1,8,0:0:0:0:
448,192,172290,1,0,0:0:0:0:
192,192,172436,1,2,0:0:0:0:
64,192,172436,1,0,0:0:0:0:
448,192,172583,1,8,0:0:0:0:
320,192,172583,1,0,0:0:0:0:
64,192,172729,1,0,0:0:0:0:
448,192,172729,1,2,0:0:0:0:
192,192,172802,1,2,0:0:0:0:
64,192,172875,1,0,0:0:0:0:
320,192,172875,1,8,0:0:0:0:
448,192,173022,1,2,0:0:0:0:
192,192,173022,1,0,0:0:0:0:
64,192,173168,1,0,0:0:0:0:
320,192,173168,1,8,0:0:0:0:
192,192,173314,1,2,0:0:0:0:
448,192,173314,1,0,0:0:0:0:
64,192,173461,1,8,0:0:0:0:
192,192,173461,1,0,0:0:0:0:
448,192,173607,1,0,0:0:0:0:
320,192,173607,1,2,0:0:0:0:
192,192,173680,1,2,0:0:0:0:
64,192,173753,1,8,0:0:0:0:
448,192,173753,1,0,0:0:0:0:
320,192,173900,1,0,0:0:0:0:
192,192,173900,1,2,0:0:0:0:
64,192,174046,1,0,0:0:0:0:
448,192,174046,1,8,0:0:0:0:
64,192,174192,1,2,0:0:0:0:
192,192,174192,1,0,0:0:0:0:
448,192,174339,1,0,0:0:0:0:
320,192,174339,1,8,0:0:0:0:
192,192,174485,1,2,0:0:0:0:
64,192,174485,1,0,0:0:0:0:
320,192,174558,1,2,0:0:0:0:
448,192,174631,1,8,0:0:0:0:
64,192,174631,1,0,0:0:0:0:
192,192,174778,1,0,0:0:0:0:
320,192,174778,1,2,0:0:0:0:
320,192,174924,1,8,0:0:0:0:
448,192,174924,1,0,0:0:0:0:
64,192,175070,1,0,0:0:0:0:
192,192,175070,1,2,0:0:0:0:
320,192,175144,1,2,0:0:0:0:
64,192,175217,1,0,0:0:0:0:
448,192,175217,1,8,0:0:0:0:
320,192,175363,1,2,0:0:0:0:
192,192,175363,1,0,0:0:0:0:
448,192,175509,1,0,0:0:0:0:
64,192,175509,1,8,0:0:0:0:
192,192,175656,1,2,0:0:0:0:
320,192,175656,1,0,0:0:0:0:
192,192,175802,1,8,0:0:0:0:
64,192,175802,1,0,0:0:0:0:
448,192,175948,1,0,0:0:0:0:
320,192,175948,1,2,0:0:0:0:
192,192,176022,1,2,0:0:0:0:
64,192,176095,1,8,0:0:0:0:
320,192,176095,1,0,0:0:0:0:
448,192,176241,1,0,0:0:0:0:
192,192,176241,1,2,0:0:0:0:
64,192,176387,1,0,0:0:0:0:
448,192,176387,1,8,0:0:0:0:
320,192,176534,1,4,0:0:0:0:
192,192,176534,1,0,0:0:0:0:
64,192,176534,1,2,0:0:0:0:
448,192,176680,1,0,0:0:0:0:
320,192,176680,1,8,0:0:0:0:
192,192,176826,1,2,0:0:0:0:
64,192,176826,1,0,0:0:0:0:
320,192,176900,1,2,0:0:0:0:
448,192,176973,1,8,0:0:0:0:
64,192,176973,1,0,0:0:0:0:
192,192,177119,1,0,0:0:0:0:
320,192,177119,1,2,0:0:0:0:
64,192,177265,1,8,0:0:0:0:
448,192,177265,1,0,0:0:0:0:
448,192,177412,1,0,0:0:0:0:
192,192,177412,1,2,0:0:0:0:
320,192,177485,1,2,0:0:0:0:
64,192,177558,1,0,0:0:0:0:
192,192,177558,1,8,0:0:0:0:
320,192,177704,1,2,0:0:0:0:
448,192,177704,1,0,0:0:0:0:
64,192,177704,1,4,0:0:0:0:
192,192,177851,1,0,0:0:0:0:
320,192,177851,1,8,0:0:0:0:
448,192,177997,1,2,0:0:0:0:
64,192,177997,1,0,0:0:0:0:
320,192,178144,1,8,0:0:0:0:
192,192,178144,1,0,0:0:0:0:
64,192,178290,1,0,0:0:0:0:
448,192,178290,1,2,0:0:0:0:
320,192,178363,1,2,0:0:0:0:
64,192,178436,1,8,0:0:0:0:
192,192,178436,1,0,0:0:0:0:
448,192,178583,1,0,0:0:0:0:
320,192,178583,1,2,0:0:0:0:
448,192,178729,1,0,0:0:0:0:
64,192,178729,1,8,0:0:0:0:
192,192,178875,1,2,0:0:0:0:
64,192,178875,1,8,0:0:0:0:
448,192,178948,1,2,0:0:0:0:
320,192,178948,1,8,0:0:0:0:
192,192,179022,1,2,0:0:0:0:
64,192,179022,1,8,0:0:0:0:
320,192,179095,1,8,0:0:0:0:
448,192,179095,1,2,0:0:0:0:
192,192,179168,1,8,3:0:0:0:
320,192,179241,1,8,3:0:0:0:
64,192,179314,1,8,3:0:0:0:
448,192,179387,1,8,3:0:0:0:
320,192,179461,1,2,0:0:0:0:
64,192,179461,1,8,3:0:0:0:
192,192,179534,1,8,3:0:0:0:
448,192,179534,1,2,0:0:0:0:
320,192,179607,1,2,0:0:0:0:
64,192,179607,1,8,3:0:0:0:
192,192,179680,1,8,3:0:0:0:
448,192,179680,1,2,0:0:0:0:
64,192,179753,1,8,3:0:0:0:
320,192,179826,1,8,3:0:0:0:
192,192,179900,1,8,3:0:0:0:
448,192,179973,1,8,3:0:0:0:
64,192,180046,1,8,3:0:0:0:
192,192,180046,1,2,0:0:0:0:
448,192,180119,1,2,0:0:0:0:
320,192,180119,1,8,3:0:0:0:
64,192,180192,1,8,3:0:0:0:
192,192,180192,1,2,0:0:0:0:
448,192,180265,1,2,0:0:0:0:
320,192,180265,1,8,3:0:0:0:
192,192,180339,1,8,3:0:0:0:
320,192,180412,1,8,3:0:0:0:
64,192,180485,1,8,3:0:0:0:
448,192,180558,1,8,3:0:0:0:
64,192,180631,1,4,0:0:0:0:
192,192,180631,1,2,0:0:0:0:
320,192,180631,1,0,0:0:0:0:
192,192,181217,1,4,0:0:0:0:
320,192,181217,1,2,0:0:0:0:
448,192,181217,1,0,0:0:0:0:
64,192,181290,1,0,0:0:0:0:
192,192,181363,1,0,0:0:0:0:
448,192,181363,1,8,0:0:0:0:
320,192,181436,1,0,0:0:0:0:
64,192,181509,1,2,0:0:0:0:
192,192,181583,1,0,0:0:0:0:
320,192,181656,1,0,0:0:0:0:
448,192,181656,1,8,0:0:0:0:
64,192,181729,1,0,0:0:0:0:
192,192,181802,1,2,0:0:0:0:
448,192,181875,1,2,0:0:0:0:
320,192,181948,1,0,0:0:0:0:
192,192,181948,1,8,0:0:0:0:
64,192,182022,1,0,0:0:0:0:
448,192,182095,1,2,0:0:0:0:
320,192,182168,1,0,0:0:0:0:
192,192,182241,1,8,0:0:0:0:
64,192,182241,1,0,0:0:0:0:
448,192,182314,1,0,0:0:0:0:
320,192,182387,1,2,0:0:0:0:
192,192,182461,1,0,0:0:0:0:
64,192,182534,1,8,0:0:0:0:
448,192,182534,1,0,0:0:0:0:
320,192,182607,1,0,0:0:0:0:
192,192,182680,1,2,0:0:0:0:
320,192,182753,1,0,0:0:0:0:
64,192,182826,1,8,0:0:0:0:
192,192,182826,1,0,0:0:0:0:
448,192,182900,1,0,0:0:0:0:
320,192,182973,1,2,0:0:0:0:
64,192,183046,1,2,0:0:0:0:
448,192,183119,1,8,0:0:0:0:
192,192,183119,1,0,0:0:0:0:
320,192,183192,1,0,0:0:0:0:
64,192,183265,1,2,0:0:0:0:
192,192,183339,1,0,0:0:0:0:
320,192,183412,1,0,0:0:0:0:
64,192,183412,1,8,0:0:0:0:
448,192,183485,1,0,0:0:0:0:
192,192,183558,1,2,0:0:0:0:
320,192,183631,1,0,0:0:0:0:
448,192,183704,1,0,0:0:0:0:
192,192,183704,1,8,0:0:0:0:
64,192,183778,1,0,0:0:0:0:
320,192,183851,1,2,0:0:0:0:
448,192,183924,1,0,0:0:0:0:
192,192,183997,1,0,0:0:0:0:
64,192,183997,1,8,0:0:0:0:
320,192,184070,1,0,0:0:0:0:
448,192,184144,1,0,0:0:0:0:
64,192,184217,1,2,0:0:0:0:
192,192,184290,1,0,0:0:0:0:
320,192,184290,1,8,0:0:0:0:
448,192,184363,1,0,0:0:0:0:
64,192,184436,1,2,0:0:0:0:
192,192,184509,1,0,0:0:0:0:
320,192,184583,1,8,0:0:0:0:
448,192,184583,1,0,0:0:0:0:
64,192,184656,1,0,0:0:0:0:
192,192,184729,1,0,0:0:0:0:
448,192,184729,1,2,0:0:0:0:
320,192,184802,1,2,0:0:0:0:
64,192,184802,1,0,0:0:0:0:
192,192,184875,1,8,0:0:0:0:
448,192,184875,1,0,0:0:0:0:
320,192,184948,1,0,0:0:0:0:
192,192,185022,1,2,0:0:0:0:
320,192,185095,1,0,0:0:0:0:
64,192,185168,1,8,0:0:0:0:
448,192,185168,1,0,0:0:0:0:
192,192,185241,1,0,0:0:0:0:
320,192,185314,1,0,0:0:0:0:
64,192,185387,1,2,0:0:0:0:
448,192,185461,1,8,0:0:0:0:
192,192,185461,1,0,0:0:0:0:
320,192,185534,1,0,0:0:0:0:
192,192,185607,1,2,0:0:0:0:
448,192,185680,1,2,0:0:0:0:
64,192,185753,1,0,0:0:0:0:
320,192,185753,1,8,0:0:0:0:
192,192,185900,1,2,0:0:0:0:
448,192,185900,1,4,0:0:0:0:
320,192,185973,1,0,0:0:0:0:
192,192,186046,1,0,0:0:0:0:
64,192,186046,1,8,0:0:0:0:
448,192,186119,1,0,0:0:0:0:
192,192,186192,1,2,0:0:0:0:
320,192,186265,1,0,0:0:0:0:
448,192,186339,1,0,0:0:0:0:
64,192,186339,1,8,0:0:0:0:
192,192,186412,1,0,0:0:0:0:
320,192,186485,1,2,0:0:0:0:
64,192,186558,1,0,0:0:0:0:
192,192,186631,1,0,0:0:0:0:
320,192,186631,1,8,0:0:0:0:
448,192,186704,1,0,0:0:0:0:
64,192,186778,1,2,0:0:0:0:
192,192,186851,1,0,0:0:0:0:
320,192,186924,1,8,0:0:0:0:
448,192,186924,1,0,0:0:0:0:
64,192,186997,1,0,0:0:0:0:
192,192,187070,1,2,0:0:0:0:
320,192,187144,1,0,0:0:0:0:
448,192,187217,1,8,0:0:0:0:
64,192,187217,1,0,0:0:0:0:
192,192,187290,1,0,0:0:0:0:
320,192,187363,1,2,0:0:0:0:
192,192,187436,1,0,0:0:0:0:
448,192,187509,1,8,0:0:0:0:
320,192,187509,1,0,0:0:0:0:
64,192,187583,1,0,0:0:0:0:
192,192,187656,1,2,0:0:0:0:
448,192,187729,1,0,0:0:0:0:
64,192,187802,1,8,0:0:0:0:
320,192,187802,1,0,0:0:0:0:
192,192,187875,1,0,0:0:0:0:
448,192,187948,1,2,0:0:0:0:
320,192,188022,1,0,0:0:0:0:
192,192,188095,1,0,0:0:0:0:
448,192,188095,1,8,0:0:0:0:
64,192,188168,1,0,0:0:0:0:
320,192,188241,1,2,0:0:0:0:
192,192,188314,1,0,0:0:0:0:
64,192,188387,1,0,0:0:0:0:
320,192,188387,1,8,0:0:0:0:
448,192,188461,1,0,0:0:0:0:
192,192,188534,1,2,0:0:0:0:
64,192,188607,1,0,0:0:0:0:
320,192,188680,1,0,0:0:0:0:
448,192,188680,1,8,0:0:0:0:
192,192,188753,1,0,0:0:0:0:
64,192,188826,1,2,0:0:0:0:
448,192,188900,1,0,0:0:0:0:
320,192,188973,1,0,0:0:0:0:
192,192,188973,1,8,0:0:0:0:
64,192,189046,1,0,0:0:0:0:
320,192,189119,1,2,0:0:0:0:
448,192,189192,1,0,0:0:0:0:
192,192,189265,1,8,0:0:0:0:
64,192,189265,1,0,0:0:0:0:
320,192,189339,1,0,0:0:0:0:
448,192,189412,1,0,0:0:0:0:
64,192,189412,1,2,0:0:0:0:
192,192,189485,1,2,0:0:0:0:
320,192,189485,1,0,0:0:0:0:
448,192,189558,1,0,0:0:0:0:
64,192,189558,1,8,0:0:0:0:
192,192,189607,1,0,0:0:0:0:
320,192,189656,1,0,0:0:0:0:
448,192,189704,1,2,0:0:0:0:
192,192,189802,1,0,0:0:0:0:
320,192,189900,1,0,0:0:0:0:
192,192,189997,1,2,0:0:0:0:
320,192,190095,1,0,0:0:0:0:
64,192,190192,1,0,0:0:0:0:
448,192,190290,1,2,0:0:0:0:
320,192,190290,1,0,0:0:0:0:
192,192,190363,1,2,0:0:0:0:
64,192,190363,1,0,0:0:0:0:
448,192,190436,1,8,0:0:0:0:
320,192,190436,1,0,0:0:0:0:
192,192,190583,1,2,0:0:0:0:
64,192,190583,1,4,0:0:0:0:
320,192,190729,1,0,0:0:0:0:
448,192,190729,1,8,0:0:0:0:
192,192,190875,1,2,0:0:0:0:
64,192,190875,1,0,0:0:0:0:
192,192,191022,1,0,0:0:0:0:
448,192,191022,1,8,0:0:0:0:
320,192,191168,1,2,0:0:0:0:
192,192,191265,1,0,0:0:0:0:
64,192,191363,1,0,0:0:0:0:
192,192,191461,1,0,0:0:0:0:
448,192,191461,1,2,0:0:0:0:
320,192,191558,1,0,0:0:0:0:
192,192,191656,1,0,0:0:0:0:
64,192,191753,1,0,0:0:0:0:
320,192,191753,1,2,0:0:0:0:
448,192,191851,1,0,0:0:0:0:
320,192,191948,1,0,0:0:0:0:
64,192,192046,1,2,0:0:0:0:
192,192,192046,1,0,0:0:0:0:
64,192,192192,1,0,0:0:0:0:
320,192,192192,1,8,0:0:0:0:
192,192,192339,1,2,0:0:0:0:
448,192,192339,1,0,0:0:0:0:
64,192,192412,1,2,0:0:0:0:
320,192,192485,1,0,0:0:0:0:
448,192,192485,1,8,0:0:0:0:
64,192,192631,1,0,0:0:0:0:
192,192,192631,1,2,0:0:0:0:
192,192,192778,1,0,0:0:0:0:
448,192,192778,1,8,0:0:0:0:
320,192,192924,1,2,0:0:0:0:
64,192,192924,1,0,0:0:0:0:
192,192,193070,1,0,0:0:0:0:
64,192,193070,1,8,0:0:0:0:
320,192,193217,1,2,0:0:0:0:
448,192,193217,1,0,0:0:0:0:
320,192,193363,1,0,0:0:0:0:
64,192,193363,1,8,0:0:0:0:
192,192,193509,1,0,0:0:0:0:
448,192,193509,1,2,0:0:0:0:
320,192,193583,1,2,0:0:0:0:
192,192,193656,1,8,0:0:0:0:
64,192,193656,1,0,0:0:0:0:
320,192,193802,1,0,0:0:0:0:
192,192,193802,1,2,0:0:0:0:
448,192,193948,1,0,0:0:0:0:
64,192,193948,1,8,0:0:0:0:
448,192,194095,1,0,0:0:0:0:
320,192,194095,1,2,0:0:0:0:
192,192,194168,1,2,0:0:0:0:
320,192,194241,1,0,0:0:0:0:
64,192,194241,1,8,0:0:0:0:
448,192,194387,1,2,0:0:0:0:
320,192,194387,1,0,0:0:0:0:
192,192,194534,1,0,0:0:0:0:
64,192,194534,1,8,0:0:0:0:
320,192,194680,1,2,0:0:0:0:
448,192,194680,1,0,0:0:0:0:
192,192,194753,1,2,0:0:0:0:
448,192,194826,1,0,0:0:0:0:
64,192,194826,1,8,0:0:0:0:
320,192,194973,1,0,0:0:0:0:
192,192,194973,1,2,0:0:0:0:
448,192,195046,1,2,0:0:0:0:
320,192,195119,1,0,0:0:0:0:
64,192,195119,1,8,0:0:0:0:
192,192,195265,1,2,0:0:0:0:
448,192,195265,1,4,0:0:0:0:
64,192,195412,1,8,0:0:0:0:
192,192,195412,1,0,0:0:0:0:
448,192,195558,1,0,0:0:0:0:
320,192,195558,1,2,0:0:0:0:
64,192,195704,1,8,0:0:0:0:
320,192,195704,1,0,0:0:0:0:
192,192,195851,1,0,0:0:0:0:
320,192,195924,1,2,0:0:0:0:
448,192,195924,1,0,0:0:0:0:
64,192,195997,1,0,0:0:0:0:
192,192,195997,1,8,0:0:0:0:
448,192,196070,1,0,0:0:0:0:
64,192,196144,1,2,0:0:0:0:
320,192,196144,1,4,0:0:0:0:
192,192,196217,1,0,0:0:0:0:
64,192,196290,1,8,0:0:0:0:
448,192,196290,1,0,0:0:0:0:
320,192,196363,1,0,0:0:0:0:
192,192,196436,1,2,0:0:0:0:
448,192,196436,1,0,0:0:0:0:
64,192,196509,1,0,0:0:0:0:
192,192,196583,1,8,0:0:0:0:
320,192,196583,1,0,0:0:0:0:
448,192,196656,1,0,0:0:0:0:
320,192,196729,1,2,0:0:0:0:
64,192,196729,1,0,0:0:0:0:
448,192,196802,1,0,0:0:0:0:
64,192,196875,1,8,0:0:0:0:
192,192,196875,1,0,0:0:0:0:
320,192,196948,1,0,0:0:0:0:
448,192,197022,1,0,0:0:0:0:
64,192,197022,1,6,0:0:0:0:
192,192,197095,1,2,0:0:0:0:
320,192,197168,1,8,0:0:0:0:
448,192,197168,1,0,0:0:0:0:
192,192,197241,1,2,0:0:0:0:
448,192,197314,1,2,0:0:0:0:
64,192,197314,1,8,0:0:0:0:
320,192,197387,1,2,0:0:0:0:
64,192,197461,1,8,0:0:0:0:
192,192,197461,1,0,0:0:0:0:
448,192,197534,1,2,0:0:0:0:
64,192,197607,1,0,0:0:0:0:
192,192,197607,1,8,0:0:0:0:
320,192,197680,1,0,0:0:0:0:
448,192,197680,1,8,0:0:0:0:
192,192,197753,1,8,0:0:0:0:
64,192,197753,1,0,0:0:0:0:
320,192,197826,1,0,0:0:0:0:
448,192,197826,1,8,0:0:0:0:
64,192,197900,1,2,0:0:0:0:
448,192,197973,1,2,0:0:0:0:
192,192,198046,1,2,0:0:0:0:
320,192,198046,1,8,3:0:0:0:
448,192,198119,1,2,0:0:0:0:
64,192,198119,1,8,3:0:0:0:
320,192,198192,1,2,0:0:0:0:
192,192,198192,1,8,3:0:0:0:
64,192,198265,1,2,0:0:0:0:
448,192,198339,1,2,0:0:0:0:
192,192,198412,1,2,0:0:0:0:
320,192,198485,1,2,0:0:0:0:
64,192,198485,1,8,0:0:0:0:
448,192,198558,1,8,0:0:0:0:
192,192,198558,1,2,0:0:0:0:
320,192,198631,1,8,0:0:0:0:
64,192,198631,1,2,0:0:0:0:
448,192,198704,1,8,0:0:0:0:
192,192,198704,1,2,0:0:0:0:
320,192,198778,1,2,0:0:0:0:
192,192,198851,1,2,0:0:0:0:
64,192,198851,1,8,0:0:0:0:
320,192,198924,1,2,0:0:0:0:
448,192,198924,1,8,0:0:0:0:
64,192,198997,1,8,0:0:0:0:
192,192,198997,1,2,0:0:0:0:
320,192,199070,1,8,0:0:0:0:
448,192,199070,1,2,0:0:0:0:
192,192,199144,1,2,0:0:0:0:
64,192,199144,1,8,0:0:0:0:
320,192,199217,1,2,0:0:0:0:
192,192,199290,1,2,0:0:0:0:
448,192,199363,1,2,0:0:0:0:
64,192,199363,1,8,3:0:0:0:
192,192,199436,1,8,3:0:0:0:
320,192,199436,1,2,0:0:0:0:
448,192,199509,1,8,3:0:0:0:
64,192,199509,1,2,0:0:0:0:
320,192,199583,1,2,0:0:0:0:
192,192,199656,1,2,0:0:0:0:
64,192,199656,1,8,0:0:0:0:
448,192,199729,1,2,0:0:0:0:
320,192,199729,1,8,0:0:0:0:
192,192,199802,1,2,0:0:0:0:
64,192,199802,1,8,0:0:0:0:
320,192,199875,1,2,0:0:0:0:
448,192,199875,1,8,0:0:0:0:
64,192,199948,1,4,0:0:0:0:
192,192,199948,1,2,0:0:0:0:
448,192,200022,1,2,0:0:0:0:
192,192,200095,1,0,0:0:0:0:
320,192,200095,1,2,0:0:0:0:
64,192,200241,1,2,0:0:0:0:
448,192,200241,1,0,0:0:0:0:
192,192,200314,1,2,0:0:0:0:
64,192,200387,1,2,0:0:0:0:
320,192,200387,1,0,0:0:0:0:
192,192,200534,1,2,0:0:0:0:
320,192,200534,1,8,0:0:0:0:
448,192,200534,1,0,0:0:0:0:
64,192,200680,1,2,0:0:0:0:
448,192,200680,1,0,0:0:0:0:
192,192,200753,1,2,0:0:0:0:
320,192,200826,1,2,0:0:0:0:
448,192,200826,1,0,0:0:0:0:
192,192,200973,1,2,0:0:0:0:
64,192,200973,1,0,0:0:0:0:
320,192,201046,1,2,0:0:0:0:
448,192,201119,1,2,0:0:0:0:
64,192,201119,1,0,0:0:0:0:
192,192,201265,1,2,0:0:0:0:
320,192,201265,1,0,0:0:0:0:
64,192,201412,1,2,0:0:0:0:
448,192,201412,1,0,0:0:0:0:
192,192,201485,1,2,0:0:0:0:
320,192,201558,1,0,0:0:0:0:
64,192,201558,1,2,0:0:0:0:
320,192,201704,1,8,0:0:0:0:
448,192,201704,1,0,0:0:0:0:
192,192,201704,1,2,0:0:0:0:
448,192,201851,1,2,0:0:0:0:
192,192,201851,1,4,0:0:0:0:
64,192,201851,128,0,202290:0:0:0:0:
192,192,202290,1,0,0:0:0:0:
320,192,202290,1,2,0:0:0:0:
448,192,202363,1,2,0:0:0:0:
320,192,202436,1,0,0:0:0:0:
64,192,202436,1,2,0:0:0:0:
448,192,202583,1,2,0:0:0:0:
192,192,202583,1,0,0:0:0:0:
320,192,202656,1,2,0:0:0:0:
64,192,202729,1,2,0:0:0:0:
192,192,202729,1,0,0:0:0:0:
320,192,202875,1,2,0:0:0:0:
448,192,202875,1,8,0:0:0:0:
64,192,202875,1,0,0:0:0:0:
448,192,203022,1,2,0:0:0:0:
192,192,203022,1,0,0:0:0:0:
320,192,203095,1,2,0:0:0:0:
192,192,203168,1,2,0:0:0:0:
64,192,203168,1,0,0:0:0:0:
320,192,203314,1,2,0:0:0:0:
448,192,203314,1,0,0:0:0:0:
192,192,203387,1,2,0:0:0:0:
64,192,203461,1,2,0:0:0:0:
320,192,203461,1,0,0:0:0:0:
448,192,203607,1,2,0:0:0:0:
192,192,203607,1,0,0:0:0:0:
320,192,203753,1,2,0:0:0:0:
64,192,203753,1,0,0:0:0:0:
192,192,203826,1,2,0:0:0:0:
320,192,203900,1,0,0:0:0:0:
448,192,203900,1,2,0:0:0:0:
192,192,204046,1,8,0:0:0:0:
64,192,204046,1,0,0:0:0:0:
448,192,204046,1,2,0:0:0:0:
64,192,204192,1,2,0:0:0:0:
320,192,204192,1,4,0:0:0:0:
448,192,204192,128,0,204631:0:0:0:0:
192,192,204631,1,2,0:0:0:0:
64,192,204631,1,4,0:0:0:0:
448,192,204704,1,2,0:0:0:0:
320,192,204778,1,2,0:0:0:0:
192,192,204778,1,0,0:0:0:0:
448,192,204924,1,0,0:0:0:0:
64,192,204924,1,2,0:0:0:0:
192,192,204997,1,2,0:0:0:0:
320,192,205070,1,0,0:0:0:0:
64,192,205070,1,2,0:0:0:0:
448,192,205217,1,0,0:0:0:0:
320,192,205217,1,8,0:0:0:0:
192,192,205217,1,2,0:0:0:0:
448,192,205363,1,0,0:0:0:0:
64,192,205363,1,2,0:0:0:0:
192,192,205436,1,2,0:0:0:0:
448,192,205509,1,0,0:0:0:0:
320,192,205509,1,2,0:0:0:0:
64,192,205656,1,0,0:0:0:0:
192,192,205656,1,2,0:0:0:0:
320,192,205729,1,2,0:0:0:0:
64,192,205802,1,0,0:0:0:0:
448,192,205802,1,2,0:0:0:0:
320,192,205948,1,0,0:0:0:0:
192,192,205948,1,2,0:0:0:0:
448,192,206095,1,0,0:0:0:0:
64,192,206095,1,2,0:0:0:0:
192,192,206168,1,2,0:0:0:0:
64,192,206241,1,2,0:0:0:0:
320,192,206241,1,0,0:0:0:0:
192,192,206387,1,2,0:0:0:0:
448,192,206387,1,0,0:0:0:0:
320,192,206387,1,8,0:0:0:0:
192,192,206534,1,4,0:0:0:0:
64,192,206534,1,0,0:0:0:0:
448,192,206534,128,2,206680:0:0:0:0:
320,192,206680,1,2,0:0:0:0:
64,192,206680,128,4,206826:0:0:0:0:
192,192,206826,1,2,0:0:0:0:
448,192,206826,128,4,207119:0:0:0:0:
320,192,207119,1,2,0:0:0:0:
192,192,207119,1,0,0:0:0:0:
64,192,207265,1,0,0:0:0:0:
448,192,207265,1,2,0:0:0:0:
320,192,207339,1,2,0:0:0:0:
192,192,207412,1,0,0:0:0:0:
448,192,207412,1,2,0:0:0:0:
320,192,207558,1,2,0:0:0:0:
192,192,207558,1,8,0:0:0:0:
64,192,207558,1,0,0:0:0:0:
64,192,207704,1,2,0:0:0:0:
448,192,207704,1,0,0:0:0:0:
320,192,207851,1,2,0:0:0:0:
192,192,207851,1,8,0:0:0:0:
448,192,207851,1,0,0:0:0:0:
448,192,207997,1,0,0:0:0:0:
192,192,207997,1,2,0:0:0:0:
64,192,207997,128,4,208290:0:0:0:0:
320,192,208290,1,2,0:0:0:0:
192,192,208290,1,0,0:0:0:0:
64,192,208436,1,0,0:0:0:0:
448,192,208436,1,2,0:0:0:0:
320,192,208509,1,2,0:0:0:0:
192,192,208583,1,2,0:0:0:0:
64,192,208583,1,0,0:0:0:0:
320,192,208729,1,2,0:0:0:0:
448,192,208729,1,0,0:0:0:0:
192,192,208875,1,2,0:0:0:0:
64,192,208875,1,0,0:0:0:0:
320,192,209022,1,2,0:0:0:0:
448,192,209022,1,8,0:0:0:0:
192,192,209095,1,2,0:0:0:0:
64,192,209095,1,8,0:0:0:0:
448,192,209168,1,2,0:0:0:0:
64,192,209241,1,2,0:0:0:0:
448,192,209314,1,4,0:0:0:0:
320,192,209314,1,2,0:0:0:0:
192,192,209387,1,2,0:0:0:0:
320,192,209461,1,0,0:0:0:0:
64,192,209461,1,2,0:0:0:0:
448,192,209607,1,2,0:0:0:0:
192,192,209607,1,0,0:0:0:0:
320,192,209680,1,2,0:0:0:0:
448,192,209753,1,2,0:0:0:0:
64,192,209753,1,0,0:0:0:0:
320,192,209900,1,2,0:0:0:0:
192,192,209900,1,8,0:0:0:0:
64,192,209900,1,0,0:0:0:0:
448,192,210046,1,2,0:0:0:0:
192,192,210046,1,0,0:0:0:0:
320,192,210119,1,2,0:0:0:0:
192,192,210192,1,2,0:0:0:0:
64,192,210192,1,0,0:0:0:0:
320,192,210339,1,2,0:0:0:0:
448,192,210339,1,0,0:0:0:0:
192,192,210412,1,2,0:0:0:0:
64,192,210485,1,2,0:0:0:0:
448,192,210485,1,0,0:0:0:0:
320,192,210631,1,2,0:0:0:0:
192,192,210631,1,0,0:0:0:0:
448,192,210778,1,2,0:0:0:0:
64,192,210778,1,0,0:0:0:0:
320,192,210851,1,2,0:0:0:0:
192,192,210924,1,0,0:0:0:0:
448,192,210924,1,2,0:0:0:0:
192,192,211070,1,8,0:0:0:0:
64,192,211070,1,0,0:0:0:0:
320,192,211070,1,2,0:0:0:0:
64,192,211217,1,2,0:0:0:0:
320,192,211217,1,4,0:0:0:0:
448,192,211217,128,0,211656:0:0:0:0:
320,192,211656,1,0,0:0:0:0:
192,192,211656,1,2,0:0:0:0:
64,192,211729,1,2,0:0:0:0:
192,192,211802,1,0,0:0:0:0:
448,192,211802,1,2,0:0:0:0:
64,192,211948,1,2,0:0:0:0:
320,192,211948,1,0,0:0:0:0:
192,192,212022,1,2,0:0:0:0:
448,192,212095,1,2,0:0:0:0:
320,192,212095,1,0,0:0:0:0:
192,192,212241,1,2,0:0:0:0:
64,192,212241,1,8,0:0:0:0:
448,192,212241,1,0,0:0:0:0:
64,192,212387,1,2,0:0:0:0:
320,192,212387,1,0,0:0:0:0:
192,192,212461,1,2,0:0:0:0:
320,192,212534,1,2,0:0:0:0:
448,192,212534,1,0,0:0:0:0:
192,192,212680,1,2,0:0:0:0:
64,192,212680,1,0,0:0:0:0:
320,192,212753,1,2,0:0:0:0:
448,192,212826,1,2,0:0:0:0:
192,192,212826,1,0,0:0:0:0:
64,192,212973,1,2,0:0:0:0:
320,192,212973,1,0,0:0:0:0:
192,192,213119,1,2,0:0:0:0:
448,192,213119,1,0,0:0:0:0:
320,192,213192,1,2,0:0:0:0:
192,192,213265,1,0,0:0:0:0:
64,192,213265,1,2,0:0:0:0:
320,192,213412,1,8,0:0:0:0:
448,192,213412,1,0,0:0:0:0:
64,192,213412,1,2,0:0:0:0:
448,192,213558,1,2,0:0:0:0:
192,192,213558,1,4,0:0:0:0:
64,192,213558,128,0,213997:0:0:0:0:
320,192,213997,1,2,0:0:0:0:
448,192,213997,1,4,0:0:0:0:
64,192,214070,1,2,0:0:0:0:
192,192,214144,1,2,0:0:0:0:
320,192,214144,1,0,0:0:0:0:
64,192,214290,1,0,0:0:0:0:
448,192,214290,1,2,0:0:0:0:
320,192,214363,1,2,0:0:0:0:
192,192,214436,1,0,0:0:0:0:
448,192,214436,1,2,0:0:0:0:
64,192,214583,1,0,0:0:0:0:
192,192,214583,1,8,0:0:0:0:
320,192,214583,1,2,0:0:0:0:
64,192,214729,1,0,0:0:0:0:
448,192,214729,1,2,0:0:0:0:
320,192,214802,1,2,0:0:0:0:
64,192,214875,1,0,0:0:0:0:
192,192,214875,1,2,0:0:0:0:
448,192,215022,1,0,0:0:0:0:
320,192,215022,1,2,0:0:0:0:
192,192,215095,1,2,0:0:0:0:
448,192,215168,1,0,0:0:0:0:
64,192,215168,1,2,0:0:0:0:
192,192,215314,1,0,0:0:0:0:
320,192,215314,1,2,0:0:0:0:
64,192,215461,1,0,0:0:0:0:
448,192,215461,1,2,0:0:0:0:
320,192,215534,1,2,0:0:0:0:
448,192,215607,1,2,0:0:0:0:
192,192,215607,1,0,0:0:0:0:
320,192,215753,1,2,0:0:0:0:
64,192,215753,1,0,0:0:0:0:
192,192,215753,1,8,0:0:0:0:
320,192,215900,1,4,0:0:0:0:
448,192,215900,1,0,0:0:0:0:
64,192,215900,128,2,216046:0:0:0:0:
192,192,216046,1,2,0:0:0:0:
448,192,216046,128,4,216192:0:0:0:0:
320,192,216192,1,2,0:0:0:0:
64,192,216192,128,4,216485:0:0:0:0:
192,192,216485,1,2,0:0:0:0:
320,192,216485,1,0,0:0:0:0:
448,192,216631,1,0,0:0:0:0:
64,192,216631,1,2,0:0:0:0:
192,192,216704,1,2,0:0:0:0:
320,192,216778,1,0,0:0:0:0:
64,192,216778,1,2,0:0:0:0:
192,192,216924,1,2,0:0:0:0:
320,192,216924,1,8,0:0:0:0:
448,192,216924,1,0,0:0:0:0:
448,192,217070,1,2,0:0:0:0:
64,192,217070,1,0,0:0:0:0:
192,192,217217,1,2,0:0:0:0:
320,192,217217,1,8,0:0:0:0:
64,192,217217,1,0,0:0:0:0:
64,192,217363,1,0,0:0:0:0:
320,192,217363,1,2,0:0:0:0:
448,192,217363,128,4,217656:0:0:0:0:
192,192,217656,1,2,0:0:0:0:
320,192,217656,1,0,0:0:0:0:
448,192,217802,1,0,0:0:0:0:
64,192,217802,1,8,3:0:0:0:
320,192,217875,1,8,3:0:0:0:
448,192,217948,1,8,3:0:0:0:
192,192,217948,1,0,0:0:0:0:
320,192,218095,1,8,3:0:0:0:
64,192,218095,1,0,0:0:0:0:
192,192,218168,1,8,3:0:0:0:
320,192,218241,1,8,3:0:0:0:
448,192,218241,1,0,0:0:0:0:
192,192,218387,1,2,0:0:0:0:
64,192,218387,1,8,0:0:0:0:
320,192,218461,1,2,0:0:0:0:
448,192,218461,1,8,0:0:0:0:
64,192,218534,1,2,0:0:0:0:
448,192,218607,1,2,0:0:0:0:
320,192,218680,1,4,0:0:0:0:
192,192,218680,1,2,0:0:0:0:
64,192,218753,1,0,0:0:0:0:
320,192,218826,1,0,0:0:0:0:
192,192,218900,1,0,0:0:0:0:
64,192,218973,1,8,0:0:0:0:
448,192,218973,1,0,0:0:0:0:
320,192,219046,1,0,0:0:0:0:
192,192,219119,1,0,0:0:0:0:
448,192,219192,1,0,0:0:0:0:
320,192,219265,1,0,0:0:0:0:
64,192,219265,1,2,0:0:0:0:
448,192,219339,1,0,0:0:0:0:
192,192,219412,1,2,0:0:0:0:
64,192,219485,1,0,0:0:0:0:
320,192,219558,1,8,0:0:0:0:
448,192,219558,1,0,0:0:0:0:
192,192,219631,1,0,0:0:0:0:
320,192,219704,1,0,0:0:0:0:
448,192,219778,1,0,0:0:0:0:
192,192,219851,1,2,0:0:0:0:
64,192,219851,1,0,0:0:0:0:
320,192,219924,1,0,0:0:0:0:
192,192,219997,1,2,0:0:0:0:
64,192,220070,1,0,0:0:0:0:
320,192,220144,1,8,0:0:0:0:
448,192,220144,1,0,0:0:0:0:
192,192,220217,1,0,0:0:0:0:
64,192,220290,1,0,0:0:0:0:
320,192,220290,1,2,0:0:0:0:
448,192,220363,1,0,0:0:0:0:
320,192,220436,1,0,0:0:0:0:
64,192,220509,1,0,0:0:0:0:
192,192,220583,1,2,0:0:0:0:
448,192,220583,1,0,0:0:0:0:
320,192,220656,1,0,0:0:0:0:
448,192,220729,1,8,0:0:0:0:
64,192,220729,1,0,0:0:0:0:
192,192,220802,1,0,0:0:0:0:
320,192,220875,1,0,0:0:0:0:
64,192,220948,1,0,0:0:0:0:
192,192,221022,1,2,0:0:0:0:
448,192,221022,128,0,221607:0:0:0:0:
64,192,221168,1,0,0:0:0:0:
320,192,221314,1,8,0:0:0:0:
64,192,221314,1,0,0:0:0:0:
320,192,221461,1,0,0:0:0:0:
192,192,221607,1,0,0:0:0:0:
64,192,221607,1,2,0:0:0:0:
320,192,221753,1,2,0:0:0:0:
192,192,221900,1,8,0:0:0:0:
64,192,221900,1,0,0:0:0:0:
320,192,222046,1,0,0:0:0:0:
192,192,222119,1,0,0:0:0:0:
320,192,222192,1,2,0:0:0:0:
448,192,222192,1,0,0:0:0:0:
64,192,222265,1,0,0:0:0:0:
192,192,222339,1,2,0:0:0:0:
448,192,222412,1,0,0:0:0:0:
320,192,222485,1,8,0:0:0:0:
64,192,222485,1,0,0:0:0:0:
192,192,222558,1,0,0:0:0:0:
448,192,222631,1,0,0:0:0:0:
64,192,222631,1,2,0:0:0:0:
320,192,222704,1,0,0:0:0:0:
192,192,222778,128,0,223363:0:0:0:0:
320,192,222924,1,2,0:0:0:0:
448,192,222924,1,0,0:0:0:0:
64,192,223070,1,8,0:0:0:0:
448,192,223070,1,0,0:0:0:0:
320,192,223217,1,0,0:0:0:0:
448,192,223363,1,2,0:0:0:0:
64,192,223363,1,4,0:0:0:0:
64,192,223509,1,0,0:0:0:0:
192,192,223656,1,0,0:0:0:0:
448,192,223656,1,8,0:0:0:0:
448,192,223802,1,0,0:0:0:0:
192,192,223948,1,2,0:0:0:0:
64,192,223948,1,0,0:0:0:0:
448,192,224095,1,2,0:0:0:0:
320,192,224241,1,0,0:0:0:0:
192,192,224241,1,8,0:0:0:0:
64,192,224387,1,0,0:0:0:0:
448,192,224534,1,4,0:0:0:0:
320,192,224534,1,2,0:0:0:0:
192,192,224680,1,2,0:0:0:0:
64,192,224826,1,0,0:0:0:0:
320,192,224826,1,8,0:0:0:0:
192,192,224973,1,2,0:0:0:0:
448,192,224973,1,0,0:0:0:0:
320,192,225119,1,0,0:0:0:0:
64,192,225265,1,0,0:0:0:0:
320,192,225265,1,2,0:0:0:0:
448,192,225412,1,0,0:0:0:0:
192,192,225412,1,8,0:0:0:0:
192,192,225558,1,0,0:0:0:0:
64,192,225704,1,0,0:0:0:0:
448,192,225704,1,6,0:0:0:0:
448,192,225851,1,0,0:0:0:0:
192,192,225997,1,8,0:0:0:0:
64,192,225997,1,0,0:0:0:0:
192,192,226144,1,0,0:0:0:0:
64,192,226290,1,0,0:0:0:0:
320,192,226290,1,2,0:0:0:0:
320,192,226436,1,2,0:0:0:0:
192,192,226583,1,8,0:0:0:0:
64,192,226583,1,0,0:0:0:0:
64,192,226729,1,2,0:0:0:0:
448,192,226729,1,0,0:0:0:0:
320,192,226875,1,0,0:0:0:0:
192,192,227022,1,2,0:0:0:0:
320,192,227168,1,8,0:0:0:0:
64,192,227168,1,0,0:0:0:0:
448,192,227314,1,0,0:0:0:0:
192,192,227314,1,2,0:0:0:0:
320,192,227461,1,2,0:0:0:0:
64,192,227461,1,0,0:0:0:0:
192,192,227534,1,2,0:0:0:0:
448,192,227607,1,2,0:0:0:0:
64,192,227607,1,0,0:0:0:0:
320,192,227680,1,2,0:0:0:0:
192,192,227753,1,8,0:0:0:0:
448,192,227753,1,0,0:0:0:0:
64,192,227900,1,2,0:0:0:0:
320,192,228046,1,2,0:0:0:0:
192,192,228046,1,0,0:0:0:0:
448,192,228046,128,0,228631:0:0:0:0:
192,192,228339,1,8,0:0:0:0:
64,192,228339,1,0,0:0:0:0:
320,192,228631,1,2,0:0:0:0:
64,192,228631,128,0,228778:0:0:0:0:
448,192,228778,128,2,228924:0:0:0:0:
64,192,228924,1,0,0:0:0:0:
192,192,228924,128,8,229070:0:0:0:0:
320,192,229070,128,0,229217:0:0:0:0:
64,192,229217,1,2,0:0:0:0:
448,192,229217,1,0,0:0:0:0:
192,192,229363,1,2,0:0:0:0:
320,192,229509,1,8,0:0:0:0:
64,192,229509,1,0,0:0:0:0:
448,192,229656,1,0,0:0:0:0:
192,192,229656,1,2,0:0:0:0:
448,192,229802,1,0,0:0:0:0:
320,192,229948,1,2,0:0:0:0:
64,192,229948,1,0,0:0:0:0:
192,192,230095,1,8,0:0:0:0:
448,192,230095,1,0,0:0:0:0:
192,192,230241,1,0,0:0:0:0:
320,192,230387,1,2,0:0:0:0:
64,192,230387,1,0,0:0:0:0:
448,192,230534,1,0,0:0:0:0:
64,192,230680,1,8,0:0:0:0:
448,192,230680,1,0,0:0:0:0:
192,192,230826,1,0,0:0:0:0:
320,192,230973,1,0,0:0:0:0:
192,192,230973,1,2,0:0:0:0:
64,192,231119,1,2,0:0:0:0:
320,192,231265,1,8,0:0:0:0:
448,192,231265,1,0,0:0:0:0:
448,192,231412,1,0,0:0:0:0:
192,192,231558,1,2,0:0:0:0:
64,192,231558,1,0,0:0:0:0:
320,192,231704,1,2,0:0:0:0:
192,192,231851,1,8,0:0:0:0:
448,192,231851,1,0,0:0:0:0:
64,192,231997,1,0,0:0:0:0:
320,192,231997,1,2,0:0:0:0:
448,192,232144,128,0,232729:0:0:0:0:
192,192,232290,1,2,0:0:0:0:
320,192,232290,1,0,0:0:0:0:
320,192,232436,1,8,0:0:0:0:
64,192,232436,1,0,0:0:0:0:
192,192,232583,1,0,0:0:0:0:
320,192,232729,1,2,0:0:0:0:
64,192,232729,1,4,0:0:0:0:
192,192,232802,1,0,0:0:0:0:
320,192,232875,1,0,0:0:0:0:
192,192,232948,1,0,0:0:0:0:
448,192,233022,1,0,0:0:0:0:
64,192,233022,1,8,0:0:0:0:
320,192,233095,1,0,0:0:0:0:
192,192,233168,1,0,0:0:0:0:
448,192,233241,1,0,0:0:0:0:
64,192,233314,1,2,0:0:0:0:
320,192,233314,1,0,0:0:0:0:
192,192,233387,1,0,0:0:0:0:
448,192,233461,1,2,0:0:0:0:
320,192,233534,1,0,0:0:0:0:
448,192,233607,1,0,0:0:0:0:
192,192,233607,1,8,0:0:0:0:
64,192,233680,1,0,0:0:0:0:
320,192,233753,1,0,0:0:0:0:
192,192,233826,1,0,0:0:0:0:
64,192,233900,1,0,0:0:0:0:
320,192,233900,1,6,0:0:0:0:
448,192,233973,1,0,0:0:0:0:
192,192,234046,1,2,0:0:0:0:
64,192,234119,1,0,0:0:0:0:
448,192,234192,1,0,0:0:0:0:
192,192,234192,1,8,0:0:0:0:
320,192,234265,1,0,0:0:0:0:
192,192,234339,1,2,0:0:0:0:
64,192,234339,1,0,0:0:0:0:
448,192,234412,1,0,0:0:0:0:
320,192,234485,1,0,0:0:0:0:
192,192,234558,1,0,0:0:0:0:
448,192,234631,1,0,0:0:0:0:
320,192,234631,1,2,0:0:0:0:
64,192,234704,1,0,0:0:0:0:
192,192,234778,1,0,0:0:0:0:
448,192,234778,1,8,0:0:0:0:
320,192,234924,1,0,0:0:0:0:
448,192,235070,1,0,0:0:0:0:
64,192,235070,1,6,0:0:0:0:
192,192,235144,1,0,0:0:0:0:
320,192,235217,1,0,0:0:0:0:
192,192,235290,1,0,0:0:0:0:
64,192,235363,1,8,0:0:0:0:
448,192,235363,1,0,0:0:0:0:
320,192,235436,1,0,0:0:0:0:
192,192,235509,1,0,0:0:0:0:
448,192,235583,1,0,0:0:0:0:
320,192,235656,1,0,0:0:0:0:
64,192,235656,1,2,0:0:0:0:
192,192,235729,1,0,0:0:0:0:
320,192,235802,1,2,0:0:0:0:
192,192,235875,1,0,0:0:0:0:
64,192,235948,1,8,0:0:0:0:
448,192,235948,1,0,0:0:0:0:
192,192,236095,1,2,0:0:0:0:
320,192,236095,1,4,0:0:0:0:
448,192,236241,1,0,0:0:0:0:
320,192,236314,1,0,0:0:0:0:
64,192,236387,1,0,0:0:0:0:
192,192,236387,1,8,3:0:0:0:
320,192,236461,1,0,0:0:0:0:
192,192,236534,1,0,0:0:0:0:
448,192,236534,1,8,3:0:0:0:
64,192,236607,1,0,0:0:0:0:
320,192,236680,1,0,0:0:0:0:
192,192,236753,1,0,0:0:0:0:
448,192,236826,1,8,3:0:0:0:
64,192,236826,1,0,0:0:0:0:
320,192,236900,5,0,0:0:0:0:
192,192,236973,5,0,0:0:0:0:
64,192,236973,1,8,3:0:0:0:
448,192,237046,1,0,0:0:0:0:
192,192,237119,1,0,0:0:0:0:
320,192,237119,1,8,3:0:0:0:
64,192,237192,1,0,0:0:0:0:
448,192,237265,1,8,3:0:0:0:
320,192,237265,1,0,0:0:0:0:
192,192,237339,1,0,0:0:0:0:
448,192,237412,5,0,0:0:0:0:
320,192,237412,1,4,0:0:0:0:
64,192,237412,128,2,237558:0:0:0:0:
192,192,237558,1,8,0:0:0:0:
448,192,237558,1,0,0:0:0:0:
64,192,237704,1,0,0:0:0:0:
320,192,237704,1,2,0:0:0:0:
192,192,237778,1,2,0:0:0:0:
64,192,237851,1,8,0:0:0:0:
448,192,237851,128,0,237997:0:0:0:0:
320,192,237997,1,0,0:0:0:0:
192,192,237997,1,2,0:0:0:0:
64,192,238144,1,2,0:0:0:0:
192,192,238144,1,8,0:0:0:0:
448,192,238290,1,0,0:0:0:0:
320,192,238290,128,2,238436:0:0:0:0:
192,192,238436,1,0,0:0:0:0:
64,192,238436,128,8,238583:0:0:0:0:
320,192,238583,1,2,0:0:0:0:
448,192,238583,128,0,238729:0:0:0:0:
192,192,238729,1,8,0:0:0:0:
64,192,238729,1,0,0:0:0:0:
448,192,238875,1,0,0:0:0:0:
64,192,238875,1,2,0:0:0:0:
192,192,239022,1,8,0:0:0:0:
320,192,239022,128,0,239168:0:0:0:0:
64,192,239168,1,0,0:0:0:0:
192,192,239168,1,2,0:0:0:0:
320,192,239314,1,0,0:0:0:0:
448,192,239314,1,8,0:0:0:0:
448,192,239461,1,0,0:0:0:0:
64,192,239461,128,2,239607:0:0:0:0:
192,192,239607,1,8,0:0:0:0:
320,192,239607,128,0,239753:0:0:0:0:
64,192,239753,1,2,0:0:0:0:
448,192,239753,128,0,239900:0:0:0:0:
192,192,239900,1,8,0:0:0:0:
64,192,239900,1,0,0:0:0:0:
320,192,240046,1,2,0:0:0:0:
448,192,240046,1,0,0:0:0:0:
64,192,240119,1,2,0:0:0:0:
448,192,240192,1,0,0:0:0:0:
192,192,240192,128,8,240339:0:0:0:0:
320,192,240339,1,0,0:0:0:0:
64,192,240339,1,2,0:0:0:0:
192,192,240485,1,8,0:0:0:0:
448,192,240485,1,0,0:0:0:0:
320,192,240631,1,2,0:0:0:0:
64,192,240631,128,0,240778:0:0:0:0:
192,192,240778,1,8,0:0:0:0:
448,192,240778,128,0,240924:0:0:0:0:
320,192,240924,1,0,0:0:0:0:
192,192,240924,128,2,241070:0:0:0:0:
64,192,241070,1,8,0:0:0:0:
448,192,241070,1,0,0:0:0:0:
192,192,241217,1,0,0:0:0:0:
320,192,241217,128,2,241363:0:0:0:0:
448,192,241363,1,8,0:0:0:0:
64,192,241363,1,0,0:0:0:0:
192,192,241509,1,0,0:0:0:0:
448,192,241509,1,2,0:0:0:0:
320,192,241656,1,0,0:0:0:0:
64,192,241656,128,8,241802:0:0:0:0:
192,192,241802,1,0,0:0:0:0:
448,192,241802,128,2,241948:0:0:0:0:
64,192,241875,1,2,0:0:0:0:
320,192,241948,1,0,0:0:0:0:
192,192,241948,128,8,242095:0:0:0:0:
448,192,242095,1,2,0:0:0:0:
64,192,242095,1,0,0:0:0:0:
320,192,242095,128,4,242241:0:0:0:0:
448,192,242241,1,0,0:0:0:0:
192,192,242241,1,8,0:0:0:0:
320,192,242387,1,0,0:0:0:0:
64,192,242387,1,2,0:0:0:0:
448,192,242461,1,2,0:0:0:0:
192,192,242534,1,8,0:0:0:0:
64,192,242534,128,0,242680:0:0:0:0:
448,192,242680,1,0,0:0:0:0:
320,192,242680,1,2,0:0:0:0:
448,192,242826,1,8,0:0:0:0:
64,192,242826,1,0,0:0:0:0:
64,192,242973,1,0,0:0:0:0:
192,192,242973,128,2,243119:0:0:0:0:
320,192,243119,1,8,0:0:0:0:
448,192,243119,128,0,243265:0:0:0:0:
192,192,243265,1,2,0:0:0:0:
64,192,243265,128,0,243412:0:0:0:0:
320,192,243412,1,8,0:0:0:0:
448,192,243412,1,0,0:0:0:0:
64,192,243558,1,0,0:0:0:0:
448,192,243558,1,2,0:0:0:0:
320,192,243704,1,8,0:0:0:0:
192,192,243704,128,0,243851:0:0:0:0:
448,192,243851,1,0,0:0:0:0:
320,192,243851,1,2,0:0:0:0:
192,192,243997,1,0,0:0:0:0:
64,192,243997,1,8,0:0:0:0:
64,192,244144,1,0,0:0:0:0:
448,192,244144,128,2,244290:0:0:0:0:
320,192,244290,1,8,0:0:0:0:
192,192,244290,128,0,244436:0:0:0:0:
448,192,244436,1,2,0:0:0:0:
64,192,244436,128,0,244583:0:0:0:0:
320,192,244583,1,8,0:0:0:0:
448,192,244583,1,0,0:0:0:0:
192,192,244729,1,2,0:0:0:0:
64,192,244729,1,0,0:0:0:0:
448,192,244802,1,2,0:0:0:0:
64,192,244875,1,0,0:0:0:0:
320,192,244875,128,8,245022:0:0:0:0:
192,192,245022,1,0,0:0:0:0:
448,192,245022,1,2,0:0:0:0:
320,192,245168,1,8,0:0:0:0:
64,192,245168,1,0,0:0:0:0:
192,192,245314,1,2,0:0:0:0:
448,192,245314,128,0,245461:0:0:0:0:
320,192,245461,1,8,0:0:0:0:
64,192,245461,1,0,0:0:0:0:
192,192,245607,1,2,0:0:0:0:
448,192,245607,1,8,3:0:0:0:
320,192,245680,1,8,3:0:0:0:
192,192,245753,1,8,3:0:0:0:
64,192,245826,1,8,3:0:0:0:
448,192,245900,1,8,0:0:0:0:
192,192,245900,1,0,0:0:0:0:
320,192,245900,1,4,0:0:0:0:
64,192,246046,1,2,0:0:0:0:
448,192,246119,1,2,0:0:0:0:
64,192,246192,1,8,3:0:0:0:
320,192,246192,1,2,0:0:0:0:
192,192,246265,1,8,3:0:0:0:
320,192,246339,1,8,3:0:0:0:
448,192,246412,1,8,3:0:0:0:
320,192,246485,1,8,0:0:0:0:
192,192,246485,1,4,0:0:0:0:
64,192,246485,128,0,246778:0:0:0:0:
448,192,246631,1,0,0:0:0:0:
192,192,246778,1,0,0:0:0:0:
320,192,246778,1,4,0:0:0:0:
448,192,246778,128,2,246924:0:0:0:0:
192,192,246924,1,8,0:0:0:0:
64,192,246924,1,0,0:0:0:0:
448,192,247070,1,0,0:0:0:0:
320,192,247070,1,2,0:0:0:0:
192,192,247144,1,2,0:0:0:0:
448,192,247217,1,8,0:0:0:0:
64,192,247217,128,0,247363:0:0:0:0:
192,192,247363,1,0,0:0:0:0:
320,192,247363,1,2,0:0:0:0:
448,192,247509,1,8,0:0:0:0:
320,192,247509,1,0,0:0:0:0:
64,192,247656,1,0,0:0:0:0:
192,192,247656,128,2,247802:0:0:0:0:
320,192,247802,1,8,0:0:0:0:
448,192,247802,128,0,247948:0:0:0:0:
192,192,247948,1,2,0:0:0:0:
64,192,247948,128,0,248095:0:0:0:0:
320,192,248095,1,8,0:0:0:0:
448,192,248095,1,0,0:0:0:0:
64,192,248241,1,0,0:0:0:0:
448,192,248241,1,2,0:0:0:0:
320,192,248387,1,8,0:0:0:0:
192,192,248387,128,0,248534:0:0:0:0:
448,192,248534,1,0,0:0:0:0:
320,192,248534,1,2,0:0:0:0:
192,192,248680,1,0,0:0:0:0:
64,192,248680,1,8,0:0:0:0:
64,192,248826,1,0,0:0:0:0:
448,192,248826,128,2,248973:0:0:0:0:
320,192,248973,1,8,0:0:0:0:
192,192,248973,128,0,249119:0:0:0:0:
448,192,249119,1,2,0:0:0:0:
64,192,249119,128,0,249265:0:0:0:0:
320,192,249265,1,8,0:0:0:0:
448,192,249265,1,0,0:0:0:0:
192,192,249412,1,2,0:0:0:0:
64,192,249412,1,0,0:0:0:0:
448,192,249485,1,2,0:0:0:0:
64,192,249558,1,0,0:0:0:0:
320,192,249558,128,8,249704:0:0:0:0:
192,192,249704,1,0,0:0:0:0:
448,192,249704,1,2,0:0:0:0:
320,192,249851,1,8,0:0:0:0:
64,192,249851,1,0,0:0:0:0:
192,192,249997,1,2,0:0:0:0:
448,192,249997,128,0,250144:0:0:0:0:
320,192,250144,1,8,0:0:0:0:
64,192,250144,128,0,250290:0:0:0:0:
192,192,250290,1,0,0:0:0:0:
320,192,250290,1,2,0:0:0:0:
448,192,250436,1,8,0:0:0:0:
64,192,250436,1,0,0:0:0:0:
320,192,250583,1,0,0:0:0:0:
192,192,250583,128,2,250729:0:0:0:0:
64,192,250729,1,8,0:0:0:0:
448,192,250729,1,0,0:0:0:0:
320,192,250875,1,0,0:0:0:0:
64,192,250875,1,2,0:0:0:0:
192,192,251022,1,0,0:0:0:0:
448,192,251022,128,8,251168:0:0:0:0:
320,192,251168,1,0,0:0:0:0:
64,192,251168,128,2,251314:0:0:0:0:
192,192,251241,1,2,0:0:0:0:
448,192,251314,1,0,0:0:0:0:
320,192,251314,128,8,251461:0:0:0:0:
192,192,251461,1,2,0:0:0:0:
64,192,251461,1,4,0:0:0:0:
448,192,251461,128,0,251607:0:0:0:0:
192,192,251607,1,0,0:0:0:0:
320,192,251607,1,8,0:0:0:0:
64,192,251753,1,0,0:0:0:0:
448,192,251753,1,2,0:0:0:0:
192,192,251826,1,2,0:0:0:0:
320,192,251900,1,8,0:0:0:0:
448,192,251900,128,0,252046:0:0:0:0:
64,192,252046,1,0,0:0:0:0:
192,192,252046,1,2,0:0:0:0:
64,192,252192,1,8,0:0:0:0:
320,192,252192,1,0,0:0:0:0:
448,192,252339,1,0,0:0:0:0:
192,192,252339,128,2,252485:0:0:0:0:
320,192,252485,1,8,0:0:0:0:
64,192,252485,128,0,252631:0:0:0:0:
192,192,252631,1,2,0:0:0:0:
448,192,252631,128,0,252778:0:0:0:0:
320,192,252778,1,8,0:0:0:0:
64,192,252778,1,0,0:0:0:0:
448,192,252924,1,0,0:0:0:0:
64,192,252924,1,2,0:0:0:0:
192,192,253070,1,8,0:0:0:0:
320,192,253070,128,0,253217:0:0:0:0:
64,192,253217,1,0,0:0:0:0:
448,192,253217,1,2,0:0:0:0:
192,192,253290,1,2,0:0:0:0:
320,192,253363,1,0,0:0:0:0:
448,192,253363,128,8,253509:0:0:0:0:
192,192,253509,1,0,0:0:0:0:
64,192,253509,128,2,253656:0:0:0:0:
320,192,253583,1,2,0:0:0:0:
448,192,253656,1,8,0:0:0:0:
192,192,253656,128,0,253802:0:0:0:0:
64,192,253802,1,8,0:0:0:0:
320,192,253802,1,2,0:0:0:0:
448,192,253875,1,2,0:0:0:0:
64,192,253948,1,8,0:0:0:0:
192,192,253948,1,2,0:0:0:0:
320,192,254022,1,2,0:0:0:0:
64,192,254095,1,8,0:0:0:0:
192,192,254095,1,2,0:0:0:0:
448,192,254168,1,2,0:0:0:0:
320,192,254241,1,8,0:0:0:0:
192,192,254241,1,2,0:0:0:0:
64,192,254314,1,2,0:0:0:0:
448,192,254387,1,2,0:0:0:0:
320,192,254387,1,8,3:0:0:0:
64,192,254461,1,8,3:0:0:0:
448,192,254534,1,8,3:0:0:0:
64,192,254607,1,8,3:0:0:0:
448,192,254680,1,8,3:0:0:0:
192,192,254753,1,8,3:0:0:0:
320,192,254826,1,8,3:0:0:0:
64,192,254900,1,8,3:0:0:0:
192,192,254973,1,8,3:0:0:0:
448,192,254973,1,2,0:0:0:0:
320,192,255046,1,8,3:0:0:0:
192,192,255119,1,8,3:0:0:0:
448,192,255192,1,8,3:0:0:0:
320,192,255265,1,8,3:0:0:0:
64,192,255265,1,2,0:0:0:0:
192,192,255339,1,8,3:0:0:0:
64,192,255412,1,8,3:0:0:0:
448,192,255485,1,8,3:0:0:0:
320,192,255558,1,8,3:0:0:0:
64,192,255558,1,2,0:0:0:0:
192,192,255631,1,8,3:0:0:0:
320,192,255704,1,8,3:0:0:0:
64,192,255778,1,8,3:0:0:0:
192,192,255851,1,8,3:0:0:0:
448,192,255851,1,2,0:0:0:0:
320,192,255924,1,8,3:0:0:0:
448,192,255997,1,8,3:0:0:0:
64,192,256070,1,8,3:0:0:0:
192,192,256144,1,4,0:0:0:0:
320,192,256144,1,2,0:0:0:0:
448,192,256144,128,0,256436:0:0:0:0:
320,192,256436,1,0,0:0:0:0:
192,192,256436,1,8,0:0:0:0:
64,192,256436,1,2,0:0:0:0:
448,192,256583,1,0,0:0:0:0:
192,192,256729,1,0,0:0:0:0:
64,192,256729,1,2,0:0:0:0:
320,192,256875,1,2,0:0:0:0:
448,192,256875,1,0,0:0:0:0:
448,192,257022,1,0,0:0:0:0:
64,192,257022,1,2,0:0:0:0:
192,192,257022,1,8,0:0:0:0:
320,192,257168,1,0,0:0:0:0:
64,192,257314,1,2,0:0:0:0:
448,192,257314,128,0,257461:0:0:0:0:
448,192,257607,1,0,0:0:0:0:
64,192,257607,1,2,0:0:0:0:
320,192,257607,1,8,0:0:0:0:
192,192,257753,1,2,0:0:0:0:
448,192,257753,128,0,258046:0:0:0:0:
320,192,258046,1,0,0:0:0:0:
192,192,258046,1,2,0:0:0:0:
448,192,258192,1,8,0:0:0:0:
320,192,258192,1,2,0:0:0:0:
64,192,258192,1,0,0:0:0:0:
192,192,258339,1,0,0:0:0:0:
320,192,258485,1,2,0:0:0:0:
64,192,258485,128,0,258778:0:0:0:0:
320,192,258778,1,8,0:0:0:0:
448,192,258778,1,2,0:0:0:0:
192,192,258778,1,0,0:0:0:0:
448,192,258924,1,0,0:0:0:0:
64,192,259070,1,0,0:0:0:0:
320,192,259217,1,0,0:0:0:0:
192,192,259217,1,2,0:0:0:0:
320,192,259363,1,8,0:0:0:0:
64,192,259363,1,2,0:0:0:0:
448,192,259363,1,0,0:0:0:0:
192,192,259509,1,0,0:0:0:0:
320,192,259656,1,2,0:0:0:0:
448,192,259656,128,0,259802:0:0:0:0:
192,192,259802,1,2,0:0:0:0:
64,192,259802,1,0,0:0:0:0:
448,192,259948,1,0,0:0:0:0:
64,192,259948,1,2,0:0:0:0:
320,192,259948,1,8,0:0:0:0:
192,192,260095,1,2,0:0:0:0:
448,192,260095,128,0,260241:0:0:0:0:
320,192,260241,1,0,0:0:0:0:
192,192,260387,1,0,0:0:0:0:
64,192,260387,1,2,0:0:0:0:
320,192,260534,1,8,0:0:0:0:
64,192,260534,1,2,0:0:0:0:
448,192,260534,1,0,0:0:0:0:
192,192,260680,1,0,0:0:0:0:
320,192,260826,1,4,0:0:0:0:
448,192,260826,1,2,0:0:0:0:
64,192,260826,128,0,261119:0:0:0:0:
192,192,261119,1,0,0:0:0:0:
320,192,261119,1,8,0:0:0:0:
448,192,261119,1,2,0:0:0:0:
64,192,261265,1,0,0:0:0:0:
320,192,261412,1,0,0:0:0:0:
448,192,261412,1,2,0:0:0:0:
192,192,261558,1,2,0:0:0:0:
64,192,261558,1,0,0:0:0:0:
64,192,261704,1,0,0:0:0:0:
448,192,261704,1,2,0:0:0:0:
320,192,261704,1,8,0:0:0:0:
192,192,261851,1,0,0:0:0:0:
64,192,261997,1,0,0:0:0:0:
320,192,261997,1,4,0:0:0:0:
448,192,261997,128,2,262290:0:0:0:0:
64,192,262290,1,0,0:0:0:0:
320,192,262290,1,2,0:0:0:0:
192,192,262290,1,8,0:0:0:0:
448,192,262436,1,2,0:0:0:0:
64,192,262436,1,0,0:0:0:0:
192,192,262583,1,0,0:0:0:0:
320,192,262729,1,0,0:0:0:0:
448,192,262729,1,2,0:0:0:0:
320,192,262875,1,8,0:0:0:0:
192,192,262875,1,2,0:0:0:0:
64,192,262875,1,0,0:0:0:0:
448,192,263022,1,0,0:0:0:0:
320,192,263168,1,4,0:0:0:0:
192,192,263168,1,2,0:0:0:0:
64,192,263168,1,0,0:0:0:0:
64,192,263314,1,0,0:0:0:0:
448,192,263461,1,2,0:0:0:0:
192,192,263461,1,0,0:0:0:0:
320,192,263461,128,8,263607:0:0:0:0:
64,192,263607,1,0,0:0:0:0:
448,192,263753,1,0,0:0:0:0:
192,192,263900,1,0,0:0:0:0:
320,192,263900,128,2,264046:0:0:0:0:
192,192,264046,1,8,0:0:0:0:
448,192,264046,1,2,0:0:0:0:
64,192,264046,1,0,0:0:0:0:
320,192,264192,1,2,0:0:0:0:
64,192,264192,128,0,264485:0:0:0:0:
448,192,264339,1,0,0:0:0:0:
320,192,264485,1,2,0:0:0:0:
192,192,264485,1,0,0:0:0:0:
64,192,264631,1,0,0:0:0:0:
448,192,264631,1,2,0:0:0:0:
320,192,264631,1,8,0:0:0:0:
448,192,264778,1,2,0:0:0:0:
192,192,264778,1,0,0:0:0:0:
64,192,264924,1,2,0:0:0:0:
192,192,264997,1,2,0:0:0:0:
320,192,265070,1,2,0:0:0:0:
448,192,265144,1,2,0:0:0:0:
64,192,265217,1,0,0:0:0:0:
192,192,265217,1,8,0:0:0:0:
320,192,265217,1,2,0:0:0:0:
448,192,265363,1,2,0:0:0:0:
64,192,265363,1,0,0:0:0:0:
192,192,265509,1,4,0:0:0:0:
320,192,265509,1,2,0:0:0:0:
448,192,265509,128,0,265802:0:0:0:0:
320,192,265802,1,0,0:0:0:0:
192,192,265802,1,8,0:0:0:0:
64,192,265802,1,2,0:0:0:0:
448,192,265948,1,0,0:0:0:0:
192,192,266095,1,0,0:0:0:0:
64,192,266095,1,2,0:0:0:0:
320,192,266241,1,2,0:0:0:0:
448,192,266241,1,0,0:0:0:0:
448,192,266387,1,0,0:0:0:0:
64,192,266387,1,2,0:0:0:0:
192,192,266387,1,8,0:0:0:0:
320,192,266534,1,0,0:0:0:0:
64,192,266680,1,2,0:0:0:0:
448,192,266680,128,0,266826:0:0:0:0:
192,192,266826,1,0,0:0:0:0:
448,192,266973,1,0,0:0:0:0:
64,192,266973,1,2,0:0:0:0:
320,192,266973,1,8,0:0:0:0:
192,192,267119,1,2,0:0:0:0:
448,192,267119,128,0,267412:0:0:0:0:
320,192,267265,1,0,0:0:0:0:
192,192,267412,1,0,0:0:0:0:
64,192,267412,1,2,0:0:0:0:
192,192,267558,1,8,0:0:0:0:
320,192,267558,1,2,0:0:0:0:
448,192,267558,1,0,0:0:0:0:
64,192,267704,1,0,0:0:0:0:
192,192,267851,1,2,0:0:0:0:
448,192,267851,128,0,268144:0:0:0:0:
192,192,268144,1,8,0:0:0:0:
64,192,268144,1,2,0:0:0:0:
320,192,268144,1,0,0:0:0:0:
448,192,268290,1,0,0:0:0:0:
64,192,268436,1,0,0:0:0:0:
320,192,268583,1,0,0:0:0:0:
192,192,268583,1,2,0:0:0:0:
320,192,268729,1,8,0:0:0:0:
64,192,268729,1,2,0:0:0:0:
448,192,268729,1,0,0:0:0:0:
192,192,268875,1,0,0:0:0:0:
64,192,269022,1,2,0:0:0:0:
448,192,269022,128,0,269168:0:0:0:0:
192,192,269168,1,2,0:0:0:0:
320,192,269168,1,0,0:0:0:0:
64,192,269314,1,2,0:0:0:0:
192,192,269314,1,8,0:0:0:0:
448,192,269314,1,0,0:0:0:0:
64,192,269461,1,2,0:0:0:0:
448,192,269461,128,0,269607:0:0:0:0:
320,192,269607,1,0,0:0:0:0:
192,192,269753,1,0,0:0:0:0:
64,192,269753,1,2,0:0:0:0:
320,192,269900,1,8,0:0:0:0:
64,192,269900,1,2,0:0:0:0:
448,192,269900,1,0,0:0:0:0:
192,192,270046,1,0,0:0:0:0:
320,192,270192,1,4,0:0:0:0:
448,192,270192,1,2,0:0:0:0:
64,192,270192,128,0,270485:0:0:0:0:
192,192,270485,1,0,0:0:0:0:
320,192,270485,1,8,0:0:0:0:
448,192,270485,1,2,0:0:0:0:
64,192,270631,1,0,0:0:0:0:
320,192,270778,1,0,0:0:0:0:
448,192,270778,1,2,0:0:0:0:
192,192,270924,1,2,0:0:0:0:
64,192,270924,1,0,0:0:0:0:
64,192,271070,1,0,0:0:0:0:
448,192,271070,1,2,0:0:0:0:
320,192,271070,1,8,0:0:0:0:
192,192,271217,1,0,0:0:0:0:
64,192,271363,1,0,0:0:0:0:
320,192,271363,1,4,0:0:0:0:
448,192,271363,128,2,271656:0:0:0:0:
64,192,271656,1,0,0:0:0:0:
320,192,271656,1,2,0:0:0:0:
192,192,271656,1,8,0:0:0:0:
64,192,271802,1,2,0:0:0:0:
448,192,271802,1,0,0:0:0:0:
192,192,271948,1,0,0:0:0:0:
320,192,272095,1,0,0:0:0:0:
448,192,272095,1,2,0:0:0:0:
320,192,272241,1,8,0:0:0:0:
192,192,272241,1,2,0:0:0:0:
64,192,272241,1,0,0:0:0:0:
448,192,272387,1,0,0:0:0:0:
320,192,272534,1,4,0:0:0:0:
192,192,272534,1,2,0:0:0:0:
64,192,272534,1,0,0:0:0:0:
64,192,272680,1,0,0:0:0:0:
448,192,272826,1,2,0:0:0:0:
192,192,272826,1,0,0:0:0:0:
320,192,272826,128,8,272973:0:0:0:0:
64,192,272973,1,0,0:0:0:0:
448,192,273119,1,0,0:0:0:0:
192,192,273265,1,0,0:0:0:0:
320,192,273265,128,2,273412:0:0:0:0:
192,192,273412,1,8,0:0:0:0:
448,192,273412,1,2,0:0:0:0:
64,192,273412,1,0,0:0:0:0:
64,192,273558,1,0,0:0:0:0:
320,192,273558,1,2,0:0:0:0:
448,192,273558,128,4,273851:0:0:0:0:
320,192,273851,1,8,3:0:0:0:
64,192,273851,128,2,273997:0:0:0:0:
192,192,273924,1,8,3:0:0:0:
320,192,273997,1,8,3:0:0:0:
448,192,273997,128,2,274144:0:0:0:0:
192,192,274144,1,0,0:0:0:0:
192,192,274290,1,8,3:0:0:0:
64,192,274290,1,10,0:0:0:0:
320,192,274436,1,0,0:0:0:0:
448,192,274583,1,10,0:0:0:0:
320,192,274583,1,8,3:0:0:0:
64,192,274729,1,0,0:0:0:0:
448,192,274875,1,2,0:0:0:0:
320,192,274875,1,4,0:0:0:0:
64,192,274875,1,0,0:0:0:0:
192,192,275022,1,0,0:0:0:0:
320,192,275168,1,0,0:0:0:0:
64,192,275314,1,0,0:0:0:0:
448,192,275461,1,0,0:0:0:0:
192,192,275607,1,0,0:0:0:0:
320,192,275753,1,0,0:0:0:0:
64,192,275900,1,0,0:0:0:0:
192,192,276046,1,0,0:0:0:0:
320,192,276192,1,0,0:0:0:0:
64,192,276339,1,0,0:0:0:0:
192,192,276485,1,0,0:0:0:0:
320,192,276631,1,0,0:0:0:0:
448,192,276778,1,0,0:0:0:0:
192,192,276924,1,0,0:0:0:0:
64,192,277070,1,0,0:0:0:0:
320,192,277217,1,0,0:0:0:0:
192,192,277363,1,0,0:0:0:0:
448,192,277509,1,0,0:0:0:0:
320,192,277656,1,0,0:0:0:0:
192,192,277802,1,0,0:0:0:0:
448,192,277948,1,0,0:0:0:0:
64,192,278095,1,0,0:0:0:0:
320,192,278241,1,0,0:0:0:0:
64,192,278387,1,0,0:0:0:0:
448,192,278534,1,0,0:0:0:0:
192,192,278680,1,0,0:0:0:0:
320,192,278826,1,0,0:0:0:0:
64,192,278973,1,0,0:0:0:0:
192,192,279119,1,0,0:0:0:0:
448,192,279265,1,0,0:0:0:0:
320,192,279412,1,0,0:0:0:0:
448,192,279558,1,0,0:0:0:0:
192,192,279704,1,0,0:0:0:0:
320,192,279851,1,0,0:0:0:0:
64,192,279997,1,0,0:0:0:0:
320,192,280144,1,0,0:0:0:0:
192,192,280290,1,0,0:0:0:0:
448,192,280436,1,0,0:0:0:0:
192,192,280583,1,0,0:0:0:0:
320,192,280729,1,0,0:0:0:0:
64,192,280875,1,0,0:0:0:0:
320,192,281022,1,0,0:0:0:0:
192,192,281168,1,0,0:0:0:0:
448,192,281314,1,0,0:0:0:0:
320,192,281461,1,0,0:0:0:0:
192,192,281607,1,0,0:0:0:0:
64,192,281753,1,0,0:0:0:0:
320,192,281900,1,0,0:0:0:0:
448,192,282046,1,0,0:0:0:0:
64,192,282192,1,0,0:0:0:0:
320,192,282339,1,0,0:0:0:0:
448,192,282485,1,0,0:0:0:0:
192,192,282631,1,0,0:0:0:0:
320,192,282778,1,0,0:0:0:0:
192,192,282924,1,0,0:0:0:0:
448,192,283070,1,0,0:0:0:0:
64,192,283070,1,0,0:0:0:0:
320,192,283217,1,0,0:0:0:0:
448,192,283363,1,0,0:0:0:0:
192,192,283363,1,0,0:0:0:0:
320,192,283509,1,0,0:0:0:0:
64,192,283656,1,0,0:0:0:0:
448,192,283656,1,0,0:0:0:0:
320,192,283802,1,0,0:0:0:0:
192,192,283802,1,2,0:0:0:0:
448,192,283948,1,8,3:0:0:0:
64,192,283948,1,0,0:0:0:0:
192,192,284095,1,0,0:0:0:0:
64,192,284241,1,0,0:0:0:0:
320,192,284241,1,4,0:0:0:0:
448,192,284241,128,2,284826:0:0:0:0:
192,192,284826,1,2,0:0:0:0:
320,192,284826,1,4,0:0:0:0:
64,192,284826,128,0,285412:0:0:0:0:
448,192,285412,1,2,0:0:0:0:
192,192,285412,1,0,0:0:0:0:
320,192,285412,128,4,285997:0:0:0:0:
64,192,285997,1,0,0:0:0:0:
448,192,285997,1,2,0:0:0:0:
192,192,285997,128,4,286583:0:0:0:0:
320,192,286583,1,4,0:0:0:0:
64,192,286583,1,0,0:0:0:0:
448,192,286583,128,2,287168:0:0:0:0:
192,192,287168,1,2,0:0:0:0:
320,192,287168,1,4,0:0:0:0:
64,192,287168,128,0,287753:0:0:0:0:
320,192,287753,1,4,0:0:0:0:
448,192,287753,1,2,0:0:0:0:
192,192,287753,1,0,0:0:0:0:
64,192,287900,1,0,0:0:0:0:
64,192,288046,1,0,0:0:0:0:
320,192,288192,1,8,3:0:0:0:
448,192,288192,1,0,0:0:0:0:
448,192,288339,1,0,0:0:0:0:
192,192,288485,1,8,3:0:0:0:
64,192,288485,1,0,0:0:0:0:
320,192,288631,1,8,3:0:0:0:
448,192,288631,1,0,0:0:0:0:
192,192,288778,1,8,3:0:0:0:
64,192,288778,1,0,0:0:0:0:
320,192,288851,1,8,3:0:0:0:
448,192,288924,1,0,0:0:0:0:
64,192,288924,1,0,0:0:0:0:
320,192,289070,1,0,0:0:0:0:
192,192,289070,1,2,0:0:0:0:
64,192,289144,1,2,0:0:0:0:
320,192,289217,1,8,0:0:0:0:
448,192,289217,1,0,0:0:0:0:
64,192,289363,1,0,0:0:0:0:
192,192,289363,1,2,0:0:0:0:
448,192,289509,1,0,0:0:0:0:
192,192,289509,1,8,0:0:0:0:
64,192,289656,1,2,0:0:0:0:
320,192,289656,1,0,0:0:0:0:
192,192,289729,1,2,0:0:0:0:
64,192,289802,1,8,0:0:0:0:
448,192,289802,1,0,0:0:0:0:
320,192,289948,1,0,0:0:0:0:
448,192,289948,1,2,0:0:0:0:
192,192,290095,1,0,0:0:0:0:
64,192,290095,1,8,0:0:0:0:
448,192,290241,1,2,0:0:0:0:
320,192,290241,1,0,0:0:0:0:
64,192,290387,1,8,0:0:0:0:
192,192,290387,1,0,0:0:0:0:
320,192,290534,1,0,0:0:0:0:
448,192,290534,1,2,0:0:0:0:
192,192,290607,1,2,0:0:0:0:
448,192,290680,1,0,0:0:0:0:
64,192,290680,1,8,0:0:0:0:
192,192,290826,1,2,0:0:0:0:
320,192,290826,1,0,0:0:0:0:
64,192,290973,1,8,0:0:0:0:
448,192,290973,1,0,0:0:0:0:
320,192,291119,1,0,0:0:0:0:
448,192,291119,1,2,0:0:0:0:
192,192,291265,1,0,0:0:0:0:
64,192,291265,1,8,0:0:0:0:
448,192,291412,1,2,0:0:0:0:
320,192,291412,1,0,0:0:0:0:
64,192,291485,1,2,0:0:0:0:
192,192,291558,1,8,0:0:0:0:
448,192,291558,1,0,0:0:0:0:
320,192,291704,1,0,0:0:0:0:
64,192,291704,1,2,0:0:0:0:
448,192,291851,1,0,0:0:0:0:
320,192,291851,1,8,0:0:0:0:
192,192,291997,1,2,0:0:0:0:
64,192,291997,1,0,0:0:0:0:
64,192,292144,1,8,0:0:0:0:
448,192,292144,1,0,0:0:0:0:
320,192,292290,1,0,0:0:0:0:
192,192,292290,1,2,0:0:0:0:
448,192,292436,1,8,3:0:0:0:
64,192,292436,1,2,0:0:0:0:
320,192,292534,1,8,3:0:0:0:
64,192,292631,1,8,3:0:0:0:
320,192,292729,1,8,3:0:0:0:
448,192,292729,1,2,0:0:0:0:
192,192,292826,1,8,3:0:0:0:
448,192,292924,1,8,3:0:0:0:
320,192,293022,1,2,0:0:0:0:
192,192,293022,1,8,3:0:0:0:
64,192,293119,1,8,3:0:0:0:
448,192,293217,1,8,3:0:0:0:
64,192,293314,1,8,3:0:0:0:
192,192,293314,1,2,0:0:0:0:
320,192,293412,1,8,3:0:0:0:
192,192,293509,1,8,3:0:0:0:
448,192,293607,1,2,0:0:0:0:
64,192,293607,1,4,0:0:0:0:
320,192,293753,1,8,0:0:0:0:
192,192,293753,1,0,0:0:0:0:
448,192,293900,1,2,0:0:0:0:
64,192,293900,1,0,0:0:0:0:
320,192,294046,1,8,0:0:0:0:
192,192,294046,1,0,0:0:0:0:
448,192,294192,1,2,0:0:0:0:
64,192,294265,1,0,0:0:0:0:
320,192,294265,1,2,0:0:0:0:
448,192,294339,1,8,0:0:0:0:
192,192,294339,1,0,0:0:0:0:
320,192,294485,1,2,0:0:0:0:
64,192,294485,1,0,0:0:0:0:
192,192,294631,1,8,0:0:0:0:
448,192,294631,1,0,0:0:0:0:
64,192,294778,1,2,0:0:0:0:
448,192,294778,1,0,0:0:0:0:
192,192,294924,1,8,0:0:0:0:
320,192,294924,1,0,0:0:0:0:
64,192,295070,1,2,0:0:0:0:
192,192,295070,1,0,0:0:0:0:
320,192,295217,1,8,0:0:0:0:
448,192,295217,1,0,0:0:0:0:
192,192,295363,1,2,0:0:0:0:
64,192,295363,1,0,0:0:0:0:
320,192,295436,1,2,0:0:0:0:
448,192,295509,1,0,0:0:0:0:
192,192,295509,1,8,0:0:0:0:
320,192,295656,1,0,0:0:0:0:
64,192,295656,1,2,0:0:0:0:
448,192,295802,1,0,0:0:0:0:
192,192,295802,1,8,0:0:0:0:
192,192,295948,1,0,0:0:0:0:
64,192,295948,1,2,0:0:0:0:
448,192,296095,1,0,0:0:0:0:
320,192,296095,1,8,0:0:0:0:
64,192,296241,1,0,0:0:0:0:
192,192,296241,1,2,0:0:0:0:
448,192,296387,1,0,0:0:0:0:
64,192,296387,1,8,0:0:0:0:
320,192,296534,1,2,0:0:0:0:
448,192,296607,1,0,0:0:0:0:
192,192,296607,1,2,0:0:0:0:
320,192,296680,1,0,0:0:0:0:
64,192,296680,1,8,0:0:0:0:
448,192,296826,1,0,0:0:0:0:
192,192,296826,1,2,0:0:0:0:
320,192,296973,1,0,0:0:0:0:
64,192,296973,1,8,0:0:0:0:
448,192,297119,1,0,0:0:0:0:
192,192,297119,1,2,0:0:0:0:
64,192,297192,1,2,0:0:0:0:
448,192,297265,1,8,0:0:0:0:
320,192,297265,1,0,0:0:0:0:
64,192,297412,1,2,0:0:0:0:
192,192,297412,1,0,0:0:0:0:
448,192,297558,1,8,0:0:0:0:
320,192,297558,1,0,0:0:0:0:
64,192,297704,1,2,0:0:0:0:
192,192,297778,1,0,0:0:0:0:
320,192,297778,1,2,0:0:0:0:
448,192,297851,1,8,0:0:0:0:
64,192,297851,1,0,0:0:0:0:
192,192,297997,1,2,0:0:0:0:
320,192,297997,1,0,0:0:0:0:
64,192,298070,1,2,0:0:0:0:
320,192,298144,1,8,0:0:0:0:
448,192,298144,1,0,0:0:0:0:
64,192,298290,1,2,0:0:0:0:
448,192,298290,1,4,0:0:0:0:
192,192,298436,1,8,0:0:0:0:
320,192,298436,1,0,0:0:0:0:
64,192,298583,1,2,0:0:0:0:
448,192,298583,1,0,0:0:0:0:
192,192,298729,1,8,0:0:0:0:
320,192,298729,1,0,0:0:0:0:
64,192,298875,1,2,0:0:0:0:
448,192,298948,1,0,0:0:0:0:
192,192,298948,1,2,0:0:0:0:
64,192,299022,1,8,0:0:0:0:
320,192,299022,1,0,0:0:0:0:
192,192,299168,1,2,0:0:0:0:
448,192,299168,1,0,0:0:0:0:
320,192,299314,1,8,0:0:0:0:
64,192,299314,1,0,0:0:0:0:
448,192,299461,1,2,0:0:0:0:
64,192,299461,1,0,0:0:0:0:
320,192,299607,1,8,0:0:0:0:
192,192,299607,1,0,0:0:0:0:
448,192,299753,1,2,0:0:0:0:
320,192,299753,1,0,0:0:0:0:
192,192,299900,1,8,0:0:0:0:
64,192,299900,1,0,0:0:0:0:
320,192,300046,1,2,0:0:0:0:
448,192,300046,1,0,0:0:0:0:
192,192,300119,1,2,0:0:0:0:
64,192,300192,1,0,0:0:0:0:
320,192,300192,1,8,0:0:0:0:
192,192,300339,1,0,0:0:0:0:
448,192,300339,1,2,0:0:0:0:
64,192,300485,1,0,0:0:0:0:
320,192,300485,1,8,0:0:0:0:
320,192,300631,1,0,0:0:0:0:
448,192,300631,1,2,0:0:0:0:
64,192,300778,1,0,0:0:0:0:
192,192,300778,1,8,0:0:0:0:
448,192,300924,1,0,0:0:0:0:
320,192,300924,1,2,0:0:0:0:
64,192,301070,1,0,0:0:0:0:
448,192,301070,1,8,0:0:0:0:
192,192,301217,1,2,0:0:0:0:
64,192,301290,1,0,0:0:0:0:
320,192,301290,1,2,0:0:0:0:
192,192,301363,1,0,0:0:0:0:
448,192,301363,1,8,0:0:0:0:
64,192,301509,1,0,0:0:0:0:
320,192,301509,1,2,0:0:0:0:
192,192,301656,1,0,0:0:0:0:
448,192,301656,1,8,0:0:0:0:
64,192,301802,1,0,0:0:0:0:
320,192,301802,1,2,0:0:0:0:
448,192,301875,1,2,0:0:0:0:
64,192,301948,1,8,0:0:0:0:
192,192,301948,1,0,0:0:0:0:
448,192,302095,1,2,0:0:0:0:
320,192,302095,1,0,0:0:0:0:
64,192,302241,1,8,0:0:0:0:
192,192,302241,1,0,0:0:0:0:
448,192,302387,1,2,0:0:0:0:
320,192,302461,1,0,0:0:0:0:
192,192,302461,1,2,0:0:0:0:
64,192,302534,1,8,0:0:0:0:
448,192,302534,1,0,0:0:0:0:
320,192,302680,1,2,0:0:0:0:
192,192,302680,1,0,0:0:0:0:
448,192,302753,1,2,0:0:0:0:
192,192,302826,1,8,0:0:0:0:
64,192,302826,1,0,0:0:0:0:
448,192,302973,1,4,0:0:0:0:
64,192,302973,1,2,0:0:0:0:
320,192,303119,1,0,0:0:0:0:
192,192,303119,1,8,0:0:0:0:
448,192,303265,1,0,0:0:0:0:
64,192,303265,1,2,0:0:0:0:
320,192,303412,1,0,0:0:0:0:
192,192,303412,1,8,0:0:0:0:
64,192,303558,1,2,0:0:0:0:
448,192,303631,1,0,0:0:0:0:
192,192,303631,1,2,0:0:0:0:
320,192,303704,1,0,0:0:0:0:
64,192,303704,1,8,0:0:0:0:
448,192,303851,1,0,0:0:0:0:
192,192,303851,1,2,0:0:0:0:
64,192,303997,1,0,0:0:0:0:
320,192,303997,1,8,0:0:0:0:
64,192,304144,1,0,0:0:0:0:
448,192,304144,1,2,0:0:0:0:
192,192,304290,1,0,0:0:0:0:
320,192,304290,1,8,0:0:0:0:
320,192,304436,1,0,0:0:0:0:
448,192,304436,1,2,0:0:0:0:
64,192,304583,1,0,0:0:0:0:
192,192,304583,1,8,0:0:0:0:
448,192,304729,1,0,0:0:0:0:
320,192,304729,1,2,0:0:0:0:
192,192,304802,1,2,0:0:0:0:
320,192,304875,1,8,0:0:0:0:
64,192,304875,1,0,0:0:0:0:
448,192,305022,1,2,0:0:0:0:
192,192,305022,1,0,0:0:0:0:
320,192,305168,1,8,0:0:0:0:
64,192,305168,1,0,0:0:0:0:
448,192,305314,1,2,0:0:0:0:
320,192,305314,1,0,0:0:0:0:
192,192,305461,1,8,0:0:0:0:
64,192,305461,1,0,0:0:0:0:
320,192,305607,1,2,0:0:0:0:
448,192,305607,1,0,0:0:0:0:
448,192,305753,1,8,0:0:0:0:
64,192,305753,1,0,0:0:0:0:
192,192,305900,1,2,0:0:0:0:
64,192,305973,1,0,0:0:0:0:
320,192,305973,1,2,0:0:0:0:
448,192,306046,1,8,0:0:0:0:
192,192,306046,1,0,0:0:0:0:
320,192,306192,1,2,0:0:0:0:
64,192,306192,1,0,0:0:0:0:
448,192,306339,1,8,0:0:0:0:
192,192,306339,1,0,0:0:0:0:
320,192,306485,1,2,0:0:0:0:
64,192,306485,1,0,0:0:0:0:
448,192,306558,1,2,0:0:0:0:
192,192,306631,1,0,0:0:0:0:
64,192,306631,1,8,0:0:0:0:
320,192,306778,1,0,0:0:0:0:
448,192,306778,1,2,0:0:0:0:
192,192,306924,1,0,0:0:0:0:
64,192,306924,1,8,0:0:0:0:
448,192,307070,1,2,0:0:0:0:
320,192,307144,1,0,0:0:0:0:
192,192,307144,1,2,0:0:0:0:
448,192,307217,1,0,0:0:0:0:
64,192,307217,1,8,0:0:0:0:
192,192,307363,1,0,0:0:0:0:
320,192,307363,1,2,0:0:0:0:
448,192,307436,1,2,0:0:0:0:
64,192,307509,1,0,0:0:0:0:
192,192,307509,1,8,0:0:0:0:
64,192,307656,1,2,0:0:0:0:
448,192,307656,1,4,0:0:0:0:
192,192,307802,1,8,0:0:0:0:
320,192,307802,1,0,0:0:0:0:
64,192,307948,1,2,0:0:0:0:
448,192,307948,1,0,0:0:0:0:
192,192,308095,1,8,0:0:0:0:
320,192,308095,1,0,0:0:0:0:
64,192,308241,1,2,0:0:0:0:
448,192,308241,1,0,0:0:0:0:
192,192,308314,1,2,0:0:0:0:
64,192,308387,1,8,0:0:0:0:
320,192,308387,1,0,0:0:0:0:
192,192,308534,1,2,0:0:0:0:
448,192,308534,1,0,0:0:0:0:
320,192,308680,1,8,0:0:0:0:
64,192,308680,1,0,0:0:0:0:
448,192,308826,1,2,0:0:0:0:
64,192,308826,1,0,0:0:0:0:
320,192,308973,1,8,0:0:0:0:
192,192,308973,1,0,0:0:0:0:
448,192,309119,1,2,0:0:0:0:
320,192,309119,1,0,0:0:0:0:
192,192,309265,1,8,0:0:0:0:
64,192,309265,1,0,0:0:0:0:
320,192,309412,1,8,0:0:0:0:
448,192,309412,1,0,0:0:0:0:
192,192,309485,1,2,0:0:0:0:
64,192,309558,1,0,0:0:0:0:
448,192,309558,1,8,0:0:0:0:
320,192,309631,1,2,0:0:0:0:
192,192,309704,1,8,0:0:0:0:
64,192,309704,1,0,0:0:0:0:
448,192,309778,1,2,0:0:0:0:
192,192,309851,1,0,0:0:0:0:
320,192,309851,1,8,0:0:0:0:
64,192,309924,1,2,0:0:0:0:
448,192,309997,1,0,0:0:0:0:
320,192,309997,1,8,0:0:0:0:
64,192,310070,1,8,0:0:0:0:
192,192,310070,1,0,0:0:0:0:
320,192,310144,1,8,0:0:0:0:
448,192,310144,1,0,0:0:0:0:
64,192,310217,1,8,0:0:0:0:
192,192,310217,1,0,0:0:0:0:
448,192,310290,1,2,0:0:0:0:
320,192,310363,1,2,0:0:0:0:
192,192,310436,1,2,0:0:0:0:
64,192,310436,1,8,3:0:0:0:
448,192,310509,1,2,0:0:0:0:
320,192,310509,1,8,3:0:0:0:
64,192,310583,1,2,0:0:0:0:
192,192,310583,1,8,3:0:0:0:
448,192,310656,1,2,0:0:0:0:
320,192,310729,1,2,0:0:0:0:
192,192,310802,1,2,0:0:0:0:
448,192,310875,1,2,0:0:0:0:
64,192,310875,1,8,0:0:0:0:
320,192,310948,1,2,0:0:0:0:
192,192,310948,1,8,0:0:0:0:
64,192,311022,1,2,0:0:0:0:
448,192,311022,1,8,0:0:0:0:
192,192,311095,1,2,0:0:0:0:
320,192,311095,1,8,0:0:0:0:
448,192,311168,1,2,0:0:0:0:
192,192,311241,1,2,0:0:0:0:
64,192,311241,1,8,0:0:0:0:
320,192,311314,1,2,0:0:0:0:
448,192,311314,1,8,0:0:0:0:
64,192,311387,1,2,0:0:0:0:
192,192,311387,1,8,0:0:0:0:
448,192,311461,1,2,0:0:0:0:
320,192,311461,1,8,0:0:0:0:
192,192,311534,1,2,0:0:0:0:
64,192,311534,1,8,0:0:0:0:
448,192,311607,1,2,0:0:0:0:
192,192,311680,1,2,0:0:0:0:
320,192,311680,1,8,0:0:0:0:
64,192,311753,1,2,0:0:0:0:
320,192,311826,5,2,0:0:0:0:
192,192,311900,1,2,0:0:0:0:
448,192,311973,1,2,0:0:0:0:
64,192,312046,1,2,0:0:0:0:
192,192,312046,1,8,0:0:0:0:
448,192,312119,1,2,0:0:0:0:
320,192,312119,1,8,0:0:0:0:
192,192,312192,1,2,0:0:0:0:
64,192,312192,1,8,0:0:0:0:
320,192,312265,1,2,0:0:0:0:
448,192,312265,1,8,0:0:0:0:
192,192,312339,5,0,0:0:0:0:
64,192,312339,1,0,0:0:0:0:
448,192,312412,1,2,0:0:0:0:
64,192,312485,1,8,0:0:0:0:
320,192,312485,1,2,0:0:0:0:
192,192,312558,1,2,0:0:0:0:
448,192,312631,1,2,0:0:0:0:
320,192,312704,1,2,0:0:0:0:
192,192,312778,1,8,0:0:0:0:
64,192,312778,1,2,0:0:0:0:
448,192,312851,1,2,0:0:0:0:
320,192,312924,1,2,0:0:0:0:
448,192,312997,1,2,0:0:0:0:
64,192,313070,1,2,0:0:0:0:
192,192,313070,1,8,0:0:0:0:
320,192,313144,1,2,0:0:0:0:
192,192,313217,1,2,0:0:0:0:
448,192,313290,1,2,0:0:0:0:
320,192,313363,1,2,0:0:0:0:
64,192,313363,1,8,0:0:0:0:
192,192,313436,1,2,0:0:0:0:
320,192,313509,1,2,0:0:0:0:
64,192,313583,1,2,0:0:0:0:
192,192,313656,1,8,0:0:0:0:
448,192,313656,1,2,0:0:0:0:
320,192,313729,1,2,0:0:0:0:
192,192,313802,1,2,0:0:0:0:
320,192,313875,1,2,0:0:0:0:
448,192,313948,1,8,0:0:0:0:
64,192,313948,1,2,0:0:0:0:
192,192,314022,1,2,0:0:0:0:
320,192,314095,1,2,0:0:0:0:
64,192,314168,1,2,0:0:0:0:
448,192,314241,1,2,0:0:0:0:
320,192,314241,1,8,0:0:0:0:
192,192,314314,1,2,0:0:0:0:
448,192,314387,1,2,0:0:0:0:
64,192,314461,1,2,0:0:0:0:
320,192,314534,1,2,0:0:0:0:
192,192,314534,1,8,0:0:0:0:
448,192,314607,1,2,0:0:0:0:
64,192,314680,1,2,0:0:0:0:
192,192,314753,1,2,0:0:0:0:
320,192,314826,1,8,0:0:0:0:
448,192,314826,1,2,0:0:0:0:
64,192,314900,1,2,0:0:0:0:
192,192,314973,1,2,0:0:0:0:
448,192,315046,1,2,0:0:0:0:
320,192,315119,1,8,0:0:0:0:
64,192,315119,1,2,0:0:0:0:
192,192,315192,1,2,0:0:0:0:
448,192,315265,1,2,0:0:0:0:
320,192,315339,1,2,0:0:0:0:
64,192,315412,1,2,0:0:0:0:
192,192,315412,1,8,0:0:0:0:
320,192,315485,1,2,0:0:0:0:
448,192,315558,1,2,0:0:0:0:
64,192,315631,1,2,0:0:0:0:
320,192,315704,1,2,0:0:0:0:
192,192,315704,1,8,0:0:0:0:
448,192,315778,1,2,0:0:0:0:
64,192,315851,1,2,0:0:0:0:
192,192,315924,1,2,0:0:0:0:
64,192,315997,1,8,0:0:0:0:
320,192,315997,1,2,0:0:0:0:
448,192,316070,1,2,0:0:0:0:
192,192,316144,1,2,0:0:0:0:
64,192,316217,1,2,0:0:0:0:
448,192,316290,1,8,0:0:0:0:
320,192,316290,1,2,0:0:0:0:
192,192,316363,1,2,0:0:0:0:
320,192,316436,1,2,0:0:0:0:
64,192,316509,1,2,0:0:0:0:
192,192,316583,1,2,0:0:0:0:
448,192,316583,1,8,0:0:0:0:
320,192,316656,1,2,0:0:0:0:
64,192,316729,1,2,0:0:0:0:
192,192,316802,1,2,0:0:0:0:
448,192,316875,1,2,0:0:0:0:
320,192,316875,1,8,0:0:0:0:
192,192,316948,1,2,0:0:0:0:
64,192,317022,1,2,0:0:0:0:
448,192,317022,1,4,0:0:0:0:
320,192,317095,1,2,0:0:0:0:
64,192,317168,1,2,0:0:0:0:
192,192,317168,1,8,0:0:0:0:
448,192,317241,1,2,0:0:0:0:
320,192,317314,1,2,0:0:0:0:
64,192,317387,1,2,0:0:0:0:
192,192,317461,1,2,0:0:0:0:
448,192,317461,1,8,0:0:0:0:
320,192,317534,1,2,0:0:0:0:
192,192,317607,1,2,0:0:0:0:
448,192,317680,1,2,0:0:0:0:
320,192,317753,1,8,0:0:0:0:
64,192,317753,1,2,0:0:0:0:
192,192,317826,1,2,0:0:0:0:
320,192,317900,1,2,0:0:0:0:
64,192,317973,1,2,0:0:0:0:
192,192,318046,1,8,0:0:0:0:
448,192,318046,1,2,0:0:0:0:
320,192,318119,1,2,0:0:0:0:
192,192,318192,1,2,0:0:0:0:
64,192,318192,1,4,0:0:0:0:
448,192,318265,1,2,0:0:0:0:
320,192,318339,1,2,0:0:0:0:
64,192,318339,1,8,0:0:0:0:
192,192,318412,1,2,0:0:0:0:
320,192,318485,1,2,0:0:0:0:
64,192,318558,1,2,0:0:0:0:
192,192,318631,1,2,0:0:0:0:
448,192,318631,1,8,0:0:0:0:
320,192,318704,1,2,0:0:0:0:
64,192,318778,1,2,0:0:0:0:
192,192,318851,1,2,0:0:0:0:
320,192,318924,1,8,0:0:0:0:
448,192,318924,1,2,0:0:0:0:
192,192,318997,1,2,0:0:0:0:
320,192,319070,1,2,0:0:0:0:
64,192,319144,1,2,0:0:0:0:
192,192,319217,1,8,0:0:0:0:
448,192,319217,1,2,0:0:0:0:
320,192,319290,1,2,0:0:0:0:
64,192,319363,1,8,3:0:0:0:
448,192,319363,1,6,0:0:0:0:
192,192,319436,1,2,0:0:0:0:
320,192,319509,1,8,3:0:0:0:
64,192,319509,1,10,0:0:0:0:
448,192,319583,1,2,0:0:0:0:
192,192,319656,1,2,0:0:0:0:
64,192,319656,1,8,3:0:0:0:
320,192,319729,1,2,0:0:0:0:
448,192,319802,1,10,0:0:0:0:
64,192,319802,1,8,3:0:0:0:
192,192,319875,1,2,0:0:0:0:
320,192,319948,1,2,0:0:0:0:
448,192,319948,1,8,3:0:0:0:
192,192,320022,1,2,0:0:0:0:
64,192,320095,1,10,0:0:0:0:
448,192,320095,1,8,3:0:0:0:
320,192,320168,1,2,0:0:0:0:
64,192,320241,1,2,0:0:0:0:
192,192,320241,1,8,3:0:0:0:
320,192,320314,1,2,0:0:0:0:
448,192,320387,1,10,0:0:0:0:
64,192,320387,1,8,3:0:0:0:
192,192,320461,1,2,0:0:0:0:
320,192,320534,1,2,0:0:0:0:
448,192,320534,1,4,0:0:0:0:
64,192,320607,1,2,0:0:0:0:
192,192,320680,1,2,0:0:0:0:
448,192,320753,1,2,0:0:0:0:
320,192,320826,1,2,0:0:0:0:
64,192,320826,1,8,3:0:0:0:
192,192,320900,1,2,0:0:0:0:
320,192,320973,1,8,3:0:0:0:
448,192,320973,1,2,0:0:0:0:
192,192,321046,1,2,0:0:0:0:
448,192,321119,1,8,3:0:0:0:
64,192,321119,1,2,0:0:0:0:
320,192,321192,1,2,0:0:0:0:
192,192,321265,1,2,0:0:0:0:
64,192,321339,1,2,0:0:0:0:
320,192,321412,1,2,0:0:0:0:
448,192,321485,1,2,0:0:0:0:
64,192,321558,1,2,0:0:0:0:
192,192,321631,1,2,0:0:0:0:
320,192,321704,1,2,0:0:0:0:
64,192,321704,1,0,0:0:0:0:
448,192,321704,1,4,0:0:0:0:
320,192,321851,1,8,0:0:0:0:
192,192,321851,1,0,0:0:0:0:
448,192,321997,1,2,0:0:0:0:
64,192,321997,1,0,0:0:0:0:
320,192,322070,1,2,0:0:0:0:
448,192,322144,1,8,0:0:0:0:
192,192,322144,1,0,0:0:0:0:
320,192,322290,1,2,0:0:0:0:
64,192,322290,1,0,0:0:0:0:
192,192,322436,1,8,0:0:0:0:
64,192,322436,1,0,0:0:0:0:
448,192,322583,1,0,0:0:0:0:
320,192,322583,1,2,0:0:0:0:
192,192,322656,1,2,0:0:0:0:
448,192,322729,1,0,0:0:0:0:
64,192,322729,1,8,0:0:0:0:
192,192,322875,1,2,0:0:0:0:
320,192,322875,1,0,0:0:0:0:
448,192,323022,1,0,0:0:0:0:
64,192,323022,1,8,0:0:0:0:
320,192,323168,1,2,0:0:0:0:
64,192,323168,1,0,0:0:0:0:
448,192,323314,1,8,0:0:0:0:
320,192,323314,1,0,0:0:0:0:
64,192,323461,1,0,0:0:0:0:
192,192,323461,1,2,0:0:0:0:
320,192,323534,1,2,0:0:0:0:
448,192,323607,1,8,0:0:0:0:
64,192,323607,1,0,0:0:0:0:
192,192,323753,1,0,0:0:0:0:
320,192,323753,1,2,0:0:0:0:
448,192,323900,1,0,0:0:0:0:
64,192,323900,1,8,0:0:0:0:
448,192,324046,1,2,0:0:0:0:
320,192,324046,1,0,0:0:0:0:
64,192,324192,1,0,0:0:0:0:
192,192,324192,1,8,0:0:0:0:
320,192,324339,1,2,0:0:0:0:
448,192,324339,1,0,0:0:0:0:
192,192,324412,1,2,0:0:0:0:
64,192,324485,1,8,0:0:0:0:
448,192,324485,1,0,0:0:0:0:
320,192,324631,1,0,0:0:0:0:
192,192,324631,1,2,0:0:0:0:
192,192,324778,1,8,0:0:0:0:
64,192,324778,1,0,0:0:0:0:
448,192,324924,1,0,0:0:0:0:
320,192,324924,1,2,0:0:0:0:
192,192,324997,1,2,0:0:0:0:
448,192,325070,1,0,0:0:0:0:
64,192,325070,1,8,0:0:0:0:
192,192,325217,1,2,0:0:0:0:
320,192,325217,1,0,0:0:0:0:
64,192,325363,1,0,0:0:0:0:
448,192,325363,1,8,0:0:0:0:
320,192,325509,1,2,0:0:0:0:
192,192,325509,1,0,0:0:0:0:
320,192,325656,1,8,0:0:0:0:
448,192,325656,1,0,0:0:0:0:
64,192,325802,1,0,0:0:0:0:
192,192,325802,1,2,0:0:0:0:
320,192,325875,1,2,0:0:0:0:
448,192,325948,1,8,0:0:0:0:
192,192,325948,1,0,0:0:0:0:
64,192,326095,1,0,0:0:0:0:
320,192,326095,1,2,0:0:0:0:
448,192,326241,1,0,0:0:0:0:
64,192,326241,1,8,0:0:0:0:
192,192,326387,1,4,0:0:0:0:
320,192,326387,1,0,0:0:0:0:
448,192,326387,1,2,0:0:0:0:
64,192,326534,1,0,0:0:0:0:
192,192,326534,1,8,0:0:0:0:
320,192,326680,1,2,0:0:0:0:
448,192,326680,1,0,0:0:0:0:
192,192,326753,1,2,0:0:0:0:
64,192,326826,1,8,0:0:0:0:
448,192,326826,1,0,0:0:0:0:
320,192,326973,1,0,0:0:0:0:
192,192,326973,1,2,0:0:0:0:
448,192,327119,1,8,0:0:0:0:
64,192,327119,1,0,0:0:0:0:
64,192,327265,1,0,0:0:0:0:
320,192,327265,1,2,0:0:0:0:
192,192,327339,1,2,0:0:0:0:
448,192,327412,1,0,0:0:0:0:
320,192,327412,1,8,0:0:0:0:
192,192,327558,1,2,0:0:0:0:
64,192,327558,1,0,0:0:0:0:
448,192,327558,1,4,0:0:0:0:
320,192,327704,1,0,0:0:0:0:
192,192,327704,1,8,0:0:0:0:
64,192,327851,1,2,0:0:0:0:
448,192,327851,1,0,0:0:0:0:
192,192,327997,1,8,0:0:0:0:
320,192,327997,1,0,0:0:0:0:
448,192,328144,1,0,0:0:0:0:
64,192,328144,1,2,0:0:0:0:
192,192,328217,1,2,0:0:0:0:
448,192,328290,1,8,0:0:0:0:
320,192,328290,1,0,0:0:0:0:
64,192,328436,1,0,0:0:0:0:
192,192,328436,1,2,0:0:0:0:
64,192,328583,1,0,0:0:0:0:
448,192,328583,1,8,0:0:0:0:
320,192,328729,1,2,0:0:0:0:
448,192,328729,1,8,0:0:0:0:
64,192,328802,1,2,0:0:0:0:
192,192,328802,1,8,0:0:0:0:
320,192,328875,1,2,0:0:0:0:
448,192,328875,1,8,0:0:0:0:
192,192,328948,1,8,0:0:0:0:
64,192,328948,1,2,0:0:0:0:
320,192,329022,1,8,3:0:0:0:
192,192,329095,1,8,3:0:0:0:
448,192,329168,1,8,3:0:0:0:
320,192,329241,1,8,3:0:0:0:
64,192,329314,1,2,0:0:0:0:
192,192,329314,1,8,3:0:0:0:
320,192,329387,1,8,3:0:0:0:
448,192,329387,1,2,0:0:0:0:
192,192,329461,1,2,0:0:0:0:
64,192,329461,1,8,3:0:0:0:
320,192,329534,1,8,3:0:0:0:
448,192,329534,1,2,0:0:0:0:
192,192,329607,1,8,3:0:0:0:
320,192,329680,1,8,3:0:0:0:
64,192,329753,1,8,3:0:0:0:
192,192,329826,1,8,3:0:0:0:
448,192,329900,1,8,3:0:0:0:
320,192,329900,1,2,0:0:0:0:
64,192,329973,1,2,0:0:0:0:
192,192,329973,1,8,3:0:0:0:
448,192,330046,1,8,3:0:0:0:
320,192,330046,1,2,0:0:0:0:
64,192,330119,1,2,0:0:0:0:
192,192,330119,1,8,3:0:0:0:
320,192,330192,1,8,3:0:0:0:
192,192,330265,1,8,3:0:0:0:
448,192,330339,1,8,3:0:0:0:
64,192,330412,1,8,3:0:0:0:
448,192,330485,1,8,3:0:0:0:
320,192,330485,1,2,0:0:0:0:
192,192,330558,1,8,3:0:0:0:
64,192,330558,1,2,0:0:0:0:
320,192,330631,1,2,0:0:0:0:
448,192,330631,1,8,3:0:0:0:
192,192,330704,1,8,3:0:0:0:
64,192,330704,1,2,0:0:0:0:
320,192,330778,1,8,3:0:0:0:
192,192,330851,1,8,3:0:0:0:
448,192,330924,1,8,3:0:0:0:
64,192,330997,1,8,3:0:0:0:
320,192,331070,1,2,0:0:0:0:
448,192,331070,1,4,0:0:0:0:
192,192,331070,1,0,0:0:0:0:
64,192,350270,5,0,0:0:0:0:
448,192,350270,128,0,350570:0:0:0:0:
192,192,350570,128,0,350870:0:0:0:0:
320,192,350870,128,0,351170:0:0:0:0:
64,192,351170,128,0,351470:0:0:0:0:
448,192,351470,128,0,351770:0:0:0:0:
192,192,351770,128,0,352070:0:0:0:0:
448,192,352070,128,0,352370:0:0:0:0:
64,192,352370,128,0,352445:0:0:0:0:
192,192,352445,128,0,352520:0:0:0:0:
320,192,352520,128,0,352595:0:0:0:0:
448,192,352595,128,0,352670:0:0:0:0:
64,192,352670,128,0,352970:0:0:0:0:
448,192,352970,128,0,353270:0:0:0:0:
192,192,353270,128,0,353570:0:0:0:0:
448,192,353570,128,0,353870:0:0:0:0:
192,192,353870,128,0,354170:0:0:0:0:
64,192,354170,128,0,354470:0:0:0:0:
320,192,354470,128,0,354770:0:0:0:0:
192,192,354770,128,0,354845:0:0:0:0:
64,192,354845,128,0,354920:0:0:0:0:
448,192,354920,128,0,354995:0:0:0:0:
320,192,354995,128,0,355070:0:0:0:0:
192,192,355070,128,0,355370:0:0:0:0:
448,192,355370,128,0,355670:0:0:0:0:
64,192,355670,128,0,355970:0:0:0:0:
192,192,355970,128,0,356270:0:0:0:0:
320,192,356270,128,0,356570:0:0:0:0:
448,192,356570,128,0,356870:0:0:0:0:
192,192,356870,128,0,357170:0:0:0:0:
64,192,357170,128,0,357470:0:0:0:0:
320,192,357470,128,0,357770:0:0:0:0:
448,192,357770,128,0,357920:0:0:0:0:
192,192,357920,128,0,358070:0:0:0:0:
64,192,358070,128,0,358370:0:0:0:0:
320,192,358370,128,0,358670:0:0:0:0:
448,192,358670,128,0,358970:0:0:0:0:
192,192,358970,128,0,359270:0:0:0:0:
448,192,359270,128,0,359345:0:0:0:0:
320,192,359345,128,0,359420:0:0:0:0:
64,192,359420,128,0,359495:0:0:0:0:
192,192,359495,128,0,359570:0:0:0:0:
448,192,359570,128,0,359645:0:0:0:0:
320,192,359645,128,0,359720:0:0:0:0:
64,192,359720,128,0,359795:0:0:0:0:
192,192,359795,128,0,359870:0:0:0:0:
448,192,359870,128,0,360170:0:0:0:0:
320,192,360170,128,0,360470:0:0:0:0:
192,192,360470,128,0,360770:0:0:0:0:
448,192,360770,128,0,361070:0:0:0:0:
64,192,361070,128,0,361370:0:0:0:0:
320,192,361370,128,0,361670:0:0:0:0:
64,192,361670,128,0,361970:0:0:0:0:
448,192,361970,128,0,362045:0:0:0:0:
320,192,362045,128,0,362120:0:0:0:0:
192,192,362120,128,0,362195:0:0:0:0:
64,192,362195,128,0,362270:0:0:0:0:
448,192,362270,128,0,362570:0:0:0:0:
192,192,362570,128,0,362870:0:0:0:0:
320,192,362870,128,0,363170:0:0:0:0:
64,192,363170,128,0,363470:0:0:0:0:
320,192,363470,128,0,363770:0:0:0:0:
448,192,363770,128,0,364070:0:0:0:0:
192,192,364070,128,0,364370:0:0:0:0:
320,192,364370,128,0,364445:0:0:0:0:
448,192,364445,128,0,364520:0:0:0:0:
64,192,364520,128,0,364595:0:0:0:0:
192,192,364595,128,0,364670:0:0:0:0:
320,192,364670,128,0,364970:0:0:0:0:
64,192,364970,128,0,365270:0:0:0:0:
448,192,365270,128,0,365570:0:0:0:0:
320,192,365570,128,0,365870:0:0:0:0:
192,192,365870,128,0,366170:0:0:0:0:
64,192,366170,128,0,366470:0:0:0:0:
320,192,366470,128,0,366770:0:0:0:0:
448,192,366770,128,0,367070:0:0:0:0:
192,192,367070,128,0,367370:0:0:0:0:
64,192,367370,128,0,367520:0:0:0:0:
320,192,367520,128,0,367670:0:0:0:0:
448,192,367670,128,0,367820:0:0:0:0:
192,192,367820,128,0,367970:0:0:0:0:
320,192,367970,128,0,368120:0:0:0:0:
448,192,368120,128,0,368270:0:0:0:0:
64,192,368270,128,0,368562:0:0:0:0:
320,192,368562,1,2,0:0:0:0:
448,192,368562,1,0,0:0:0:0:
192,192,368660,1,2,0:0:0:0:
64,192,368660,1,0,0:0:0:0:
320,192,368757,1,2,0:0:0:0:
448,192,368757,1,0,0:0:0:0:
192,192,368855,1,2,0:0:0:0:
64,192,368855,1,0,0:0:0:0:
448,192,368855,1,8,0:0:0:0:
320,192,369001,1,2,0:0:0:0:
320,192,369440,1,2,0:0:0:0:
192,192,369440,1,4,0:0:0:0:
64,192,369440,128,0,370026:0:0:0:0:
192,192,369733,1,0,0:0:0:0:
448,192,369879,1,0,0:0:0:0:
320,192,369879,1,2,0:0:0:0:
192,192,370026,1,0,0:0:0:0:
320,192,370026,1,2,0:0:0:0:
448,192,370026,128,8,370611:0:0:0:0:
192,192,370318,1,0,0:0:0:0:
64,192,370611,128,0,371196:0:0:0:0:
448,192,370904,1,0,0:0:0:0:
320,192,370904,1,2,0:0:0:0:
320,192,371196,1,0,0:0:0:0:
448,192,371196,1,8,0:0:0:0:
192,192,371196,128,2,371782:0:0:0:0:
64,192,371489,1,0,0:0:0:0:
320,192,371489,1,2,0:0:0:0:
448,192,371782,1,2,0:0:0:0:
64,192,371782,128,0,372952:0:0:0:0:
448,192,372074,1,0,0:0:0:0:
320,192,372221,1,2,0:0:0:0:
192,192,372221,1,0,0:0:0:0:
448,192,372367,1,8,0:0:0:0:
320,192,372367,1,0,0:0:0:0:
192,192,372367,1,2,0:0:0:0:
448,192,372660,1,0,0:0:0:0:
320,192,372660,1,2,0:0:0:0:
192,192,372952,1,0,0:0:0:0:
320,192,373099,1,0,0:0:0:0:
448,192,373245,128,0,373391:0:0:0:0:
320,192,373391,1,2,0:0:0:0:
64,192,373391,1,0,0:0:0:0:
448,192,373538,1,8,0:0:0:0:
320,192,373538,1,0,0:0:0:0:
192,192,373538,128,2,373684:0:0:0:0:
448,192,373684,1,0,0:0:0:0:
64,192,373684,1,2,0:0:0:0:
320,192,373830,128,0,373977:0:0:0:0:
192,192,373977,128,0,374123:0:0:0:0:
64,192,374123,1,2,0:0:0:0:
448,192,374123,128,0,374270:0:0:0:0:
320,192,374270,128,0,374416:0:0:0:0:
192,192,374416,1,0,0:0:0:0:
64,192,374562,1,0,0:0:0:0:
448,192,374562,128,2,374709:0:0:0:0:
320,192,374709,1,8,0:0:0:0:
192,192,374709,1,2,0:0:0:0:
64,192,374709,128,0,374855:0:0:0:0:
448,192,374855,128,0,375001:0:0:0:0:
192,192,375001,128,0,375148:0:0:0:0:
64,192,375294,128,0,375440:0:0:0:0:
320,192,375440,128,0,375587:0:0:0:0:
448,192,375587,1,0,0:0:0:0:
192,192,375587,128,2,375733:0:0:0:0:
320,192,375733,1,0,0:0:0:0:
448,192,375879,1,8,0:0:0:0:
64,192,375879,1,0,0:0:0:0:
192,192,375879,1,2,0:0:0:0:
320,192,376026,1,0,0:0:0:0:
448,192,376172,1,0,0:0:0:0:
64,192,376172,1,2,0:0:0:0:
192,192,376318,1,0,0:0:0:0:
448,192,376465,1,0,0:0:0:0:
320,192,376465,128,2,376757:0:0:0:0:
64,192,376757,1,0,0:0:0:0:
448,192,376904,1,2,0:0:0:0:
192,192,376904,1,0,0:0:0:0:
448,192,377050,1,8,0:0:0:0:
64,192,377050,1,0,0:0:0:0:
320,192,377050,1,2,0:0:0:0:
192,192,377196,1,0,0:0:0:0:
64,192,377343,1,0,0:0:0:0:
448,192,377343,1,2,0:0:0:0:
320,192,377489,1,0,0:0:0:0:
64,192,377635,128,0,378513:0:0:0:0:
320,192,377928,1,2,0:0:0:0:
192,192,377928,1,0,0:0:0:0:
448,192,378074,1,0,0:0:0:0:
320,192,378074,1,2,0:0:0:0:
192,192,378221,1,2,0:0:0:0:
320,192,378221,1,0,0:0:0:0:
448,192,378221,1,8,0:0:0:0:
192,192,378367,1,2,0:0:0:0:
448,192,378367,1,0,0:0:0:0:
320,192,378513,1,0,0:0:0:0:
192,192,378587,1,0,0:0:0:0:
320,192,378660,1,2,0:0:0:0:
192,192,378733,1,2,0:0:0:0:
64,192,378806,1,0,0:0:0:0:
320,192,378806,1,2,0:0:0:0:
448,192,378806,1,4,0:0:0:0:
192,192,378952,1,0,0:0:0:0:
448,192,379099,128,0,379245:0:0:0:0:
192,192,379245,1,2,0:0:0:0:
64,192,379245,1,0,0:0:0:0:
320,192,379391,1,2,0:0:0:0:
64,192,379391,1,0,0:0:0:0:
448,192,379391,128,8,379538:0:0:0:0:
192,192,379684,128,0,379830:0:0:0:0:
192,192,379977,128,0,380123:0:0:0:0:
64,192,380270,1,0,0:0:0:0:
448,192,380270,128,2,380416:0:0:0:0:
320,192,380416,1,0,0:0:0:0:
64,192,380562,1,8,0:0:0:0:
192,192,380562,1,2,0:0:0:0:
448,192,380562,128,0,380709:0:0:0:0:
320,192,380855,1,2,0:0:0:0:
192,192,380855,128,0,380952:0:0:0:0:
64,192,380952,128,0,381050:0:0:0:0:
448,192,381050,128,0,381148:0:0:0:0:
192,192,381148,1,0,0:0:0:0:
64,192,381148,128,2,381294:0:0:0:0:
320,192,381294,1,0,0:0:0:0:
192,192,381440,128,0,381587:0:0:0:0:
64,192,381587,1,2,0:0:0:0:
320,192,381587,1,0,0:0:0:0:
192,192,381733,1,8,0:0:0:0:
320,192,381733,1,2,0:0:0:0:
448,192,381733,128,0,381879:0:0:0:0:
64,192,382026,1,0,0:0:0:0:
320,192,382026,128,2,382172:0:0:0:0:
320,192,382318,128,0,382465:0:0:0:0:
64,192,382611,128,0,382757:0:0:0:0:
192,192,382757,1,2,0:0:0:0:
448,192,382757,1,0,0:0:0:0:
64,192,382904,1,8,0:0:0:0:
192,192,382904,1,0,0:0:0:0:
320,192,382904,128,2,383050:0:0:0:0:
64,192,383050,1,0,0:0:0:0:
448,192,383050,1,2,0:0:0:0:
192,192,383196,128,0,383294:0:0:0:0:
448,192,383294,128,0,383391:0:0:0:0:
320,192,383391,128,0,383489:0:0:0:0:
64,192,383489,1,2,0:0:0:0:
192,192,383489,1,0,0:0:0:0:
448,192,383635,1,0,0:0:0:0:
64,192,383782,128,0,383928:0:0:0:0:
192,192,383928,1,2,0:0:0:0:
320,192,383928,1,0,0:0:0:0:
64,192,384074,1,8,0:0:0:0:
320,192,384074,1,2,0:0:0:0:
448,192,384074,128,0,384221:0:0:0:0:
192,192,384367,128,0,384513:0:0:0:0:
192,192,384660,128,0,384806:0:0:0:0:
64,192,384952,1,0,0:0:0:0:
448,192,384952,128,2,385099:0:0:0:0:
192,192,385099,1,0,0:0:0:0:
192,192,385245,1,0,0:0:0:0:
64,192,385245,1,8,0:0:0:0:
320,192,385245,128,2,385391:0:0:0:0:
448,192,385538,1,2,0:0:0:0:
64,192,385538,128,0,385635:0:0:0:0:
320,192,385635,128,0,385733:0:0:0:0:
192,192,385733,128,0,385830:0:0:0:0:
64,192,385830,1,2,0:0:0:0:
448,192,385830,128,0,386123:0:0:0:0:
64,192,386123,1,0,0:0:0:0:
192,192,386270,1,2,0:0:0:0:
320,192,386270,1,0,0:0:0:0:
64,192,386416,1,8,0:0:0:0:
448,192,386416,1,0,0:0:0:0:
192,192,386416,1,2,0:0:0:0:
320,192,386562,1,0,0:0:0:0:
448,192,386709,1,0,0:0:0:0:
64,192,386709,1,2,0:0:0:0:
192,192,386855,1,0,0:0:0:0:
64,192,387001,1,4,0:0:0:0:
320,192,387001,1,2,0:0:0:0:
448,192,387001,1,0,0:0:0:0:
320,192,387148,1,0,0:0:0:0:
192,192,387148,1,2,0:0:0:0:
448,192,387294,1,0,0:0:0:0:
192,192,387440,1,2,0:0:0:0:
64,192,387440,1,0,0:0:0:0:
448,192,387587,1,0,0:0:0:0:
320,192,387587,1,2,0:0:0:0:
64,192,387587,1,8,0:0:0:0:
192,192,387733,1,2,0:0:0:0:
448,192,387733,1,8,3:0:0:0:
320,192,387879,1,8,3:0:0:0:
64,192,387879,1,2,0:0:0:0:
192,192,388026,1,2,0:0:0:0:
448,192,388026,1,8,3:0:0:0:
448,192,388172,1,0,0:0:0:0:
320,192,388172,1,2,0:0:0:0:
64,192,388172,1,4,0:0:0:0:
448,192,388465,1,8,0:0:0:0:
192,192,388465,1,0,0:0:0:0:
320,192,388465,1,2,0:0:0:0:
64,192,388757,1,0,0:0:0:0:
192,192,388904,1,0,0:0:0:0:
320,192,388904,1,2,0:0:0:0:
64,192,389050,1,2,0:0:0:0:
192,192,389050,1,0,0:0:0:0:
448,192,389050,1,8,0:0:0:0:
320,192,389196,1,2,0:0:0:0:
192,192,389196,1,0,0:0:0:0:
448,192,389343,1,4,0:0:0:0:
64,192,389343,1,0,0:0:0:0:
320,192,389343,1,2,0:0:0:0:
64,192,389635,1,2,0:0:0:0:
192,192,389635,1,0,0:0:0:0:
448,192,389635,1,8,0:0:0:0:
192,192,389928,1,0,0:0:0:0:
320,192,389928,1,2,0:0:0:0:
320,192,390074,1,2,0:0:0:0:
448,192,390074,1,0,0:0:0:0:
64,192,390221,1,8,0:0:0:0:
192,192,390221,1,0,0:0:0:0:
448,192,390221,1,2,0:0:0:0:
320,192,390513,1,2,0:0:0:0:
192,192,390513,1,0,0:0:0:0:
64,192,390513,1,4,0:0:0:0:
448,192,390806,1,8,0:0:0:0:
64,192,390806,1,0,0:0:0:0:
320,192,390806,1,2,0:0:0:0:
320,192,390952,1,2,0:0:0:0:
192,192,390952,1,0,0:0:0:0:
64,192,391099,1,0,0:0:0:0:
192,192,391245,1,0,0:0:0:0:
448,192,391245,1,2,0:0:0:0:
320,192,391391,1,2,0:0:0:0:
192,192,391391,1,0,0:0:0:0:
64,192,391391,1,8,0:0:0:0:
64,192,391538,1,0,0:0:0:0:
448,192,391538,1,2,0:0:0:0:
320,192,391684,1,2,0:0:0:0:
192,192,391684,1,0,0:0:0:0:
448,192,391684,1,4,0:0:0:0:
448,192,391977,1,8,0:0:0:0:
192,192,391977,1,0,0:0:0:0:
64,192,391977,1,2,0:0:0:0:
320,192,392270,1,0,0:0:0:0:
64,192,392416,1,2,0:0:0:0:
192,192,392416,1,0,0:0:0:0:
448,192,392562,1,8,0:0:0:0:
192,192,392562,1,0,0:0:0:0:
320,192,392562,1,2,0:0:0:0:
64,192,392855,1,2,0:0:0:0:
192,192,392855,1,0,0:0:0:0:
448,192,392855,1,4,0:0:0:0:
448,192,393148,1,8,0:0:0:0:
64,192,393148,1,0,0:0:0:0:
320,192,393148,1,2,0:0:0:0:
320,192,393294,1,2,0:0:0:0:
192,192,393294,1,0,0:0:0:0:
64,192,393440,1,0,0:0:0:0:
192,192,393587,1,0,0:0:0:0:
448,192,393587,1,2,0:0:0:0:
64,192,393733,1,2,0:0:0:0:
320,192,393733,1,0,0:0:0:0:
448,192,393733,1,8,0:0:0:0:
192,192,393879,1,0,0:0:0:0:
320,192,393879,1,2,0:0:0:0:
448,192,394026,1,2,0:0:0:0:
192,192,394026,1,0,0:0:0:0:
64,192,394026,1,4,0:0:0:0:
448,192,394172,1,0,0:0:0:0:
320,192,394172,1,2,0:0:0:0:
192,192,394318,1,2,0:0:0:0:
64,192,394318,1,0,0:0:0:0:
320,192,394318,1,8,0:0:0:0:
64,192,394611,1,0,0:0:0:0:
448,192,394757,1,0,0:0:0:0:
320,192,394757,1,2,0:0:0:0:
64,192,394904,1,2,0:0:0:0:
192,192,394904,1,0,0:0:0:0:
448,192,394904,1,8,0:0:0:0:
448,192,395196,1,4,0:0:0:0:
192,192,395196,1,0,0:0:0:0:
320,192,395196,1,2,0:0:0:0:
320,192,395489,1,2,0:0:0:0:
64,192,395489,1,0,0:0:0:0:
448,192,395489,1,8,0:0:0:0:
192,192,395635,1,0,0:0:0:0:
320,192,395635,1,2,0:0:0:0:
64,192,395782,1,0,0:0:0:0:
448,192,395928,1,2,0:0:0:0:
320,192,395928,1,0,0:0:0:0:
64,192,396074,1,2,0:0:0:0:
192,192,396074,1,0,0:0:0:0:
448,192,396074,1,8,0:0:0:0:
192,192,396221,1,0,0:0:0:0:
320,192,396221,1,2,0:0:0:0:
320,192,396367,1,2,0:0:0:0:
64,192,396367,1,0,0:0:0:0:
448,192,396367,1,4,0:0:0:0:
192,192,396513,1,0,0:0:0:0:
448,192,396513,1,2,0:0:0:0:
64,192,396660,1,2,0:0:0:0:
192,192,396660,1,0,0:0:0:0:
320,192,396660,1,8,0:0:0:0:
192,192,396952,1,2,0:0:0:0:
64,192,396952,1,8,3:0:0:0:
448,192,397026,1,8,3:0:0:0:
320,192,397026,1,2,0:0:0:0:
64,192,397099,1,8,3:0:0:0:
192,192,397099,1,2,0:0:0:0:
448,192,397172,1,8,3:0:0:0:
320,192,397172,1,2,0:0:0:0:
64,192,397245,1,8,3:0:0:0:
448,192,397391,1,8,3:0:0:0:
64,192,397538,1,4,0:0:0:0:
320,192,397538,1,2,0:0:0:0:
192,192,397538,1,0,0:0:0:0:
448,192,397830,1,2,0:0:0:0:
320,192,397830,1,0,0:0:0:0:
64,192,397830,1,8,0:0:0:0:
448,192,398123,1,0,0:0:0:0:
192,192,398270,1,2,0:0:0:0:
64,192,398270,1,0,0:0:0:0:
64,192,398416,1,8,0:0:0:0:
320,192,398416,1,0,0:0:0:0:
448,192,398416,1,2,0:0:0:0:
320,192,398562,1,0,0:0:0:0:
192,192,398562,1,2,0:0:0:0:
192,192,398709,1,2,0:0:0:0:
448,192,398709,1,0,0:0:0:0:
64,192,398709,1,4,0:0:0:0:
64,192,399001,1,8,0:0:0:0:
320,192,399001,1,0,0:0:0:0:
448,192,399001,1,2,0:0:0:0:
192,192,399294,1,2,0:0:0:0:
320,192,399294,1,0,0:0:0:0:
64,192,399440,1,0,0:0:0:0:
192,192,399440,1,2,0:0:0:0:
64,192,399587,1,2,0:0:0:0:
320,192,399587,1,0,0:0:0:0:
448,192,399587,1,8,0:0:0:0:
448,192,399879,1,4,0:0:0:0:
320,192,399879,1,0,0:0:0:0:
192,192,399879,1,2,0:0:0:0:
192,192,400172,1,2,0:0:0:0:
448,192,400172,1,0,0:0:0:0:
64,192,400172,1,8,0:0:0:0:
320,192,400318,1,0,0:0:0:0:
192,192,400318,1,2,0:0:0:0:
448,192,400465,1,0,0:0:0:0:
64,192,400611,1,2,0:0:0:0:
320,192,400611,1,0,0:0:0:0:
448,192,400757,1,8,0:0:0:0:
320,192,400757,1,0,0:0:0:0:
192,192,400757,1,2,0:0:0:0:
64,192,400904,1,2,0:0:0:0:
448,192,400904,1,0,0:0:0:0:
64,192,401050,1,4,0:0:0:0:
320,192,401050,1,0,0:0:0:0:
192,192,401050,1,2,0:0:0:0:
448,192,401343,1,2,0:0:0:0:
320,192,401343,1,0,0:0:0:0:
64,192,401343,1,8,0:0:0:0:
192,192,401635,1,0,0:0:0:0:
320,192,401782,1,0,0:0:0:0:
448,192,401782,1,2,0:0:0:0:
192,192,401928,1,2,0:0:0:0:
320,192,401928,1,0,0:0:0:0:
64,192,401928,1,8,0:0:0:0:
64,192,402221,1,4,0:0:0:0:
320,192,402221,1,0,0:0:0:0:
448,192,402221,1,2,0:0:0:0:
192,192,402513,1,2,0:0:0:0:
448,192,402513,1,0,0:0:0:0:
64,192,402513,1,8,0:0:0:0:
320,192,402660,1,0,0:0:0:0:
192,192,402660,1,2,0:0:0:0:
448,192,402806,1,0,0:0:0:0:
64,192,402952,1,2,0:0:0:0:
320,192,402952,1,0,0:0:0:0:
64,192,403099,1,8,0:0:0:0:
192,192,403099,1,0,0:0:0:0:
448,192,403099,1,2,0:0:0:0:
192,192,403245,1,2,0:0:0:0:
320,192,403245,1,0,0:0:0:0:
448,192,403391,1,4,0:0:0:0:
320,192,403391,1,0,0:0:0:0:
64,192,403391,1,2,0:0:0:0:
192,192,403538,1,2,0:0:0:0:
448,192,403538,1,0,0:0:0:0:
192,192,403684,1,8,0:0:0:0:
64,192,403684,1,0,0:0:0:0:
320,192,403684,1,2,0:0:0:0:
448,192,403977,1,0,0:0:0:0:
192,192,404123,1,2,0:0:0:0:
64,192,404123,1,0,0:0:0:0:
64,192,404269,1,8,0:0:0:0:
320,192,404269,1,0,0:0:0:0:
448,192,404269,1,2,0:0:0:0:
192,192,404562,1,2,0:0:0:0:
320,192,404562,1,0,0:0:0:0:
64,192,404562,1,4,0:0:0:0:
64,192,404855,1,8,0:0:0:0:
448,192,404855,1,0,0:0:0:0:
192,192,404855,1,2,0:0:0:0:
192,192,405001,1,2,0:0:0:0:
320,192,405001,1,0,0:0:0:0:
448,192,405148,1,0,0:0:0:0:
192,192,405294,1,0,0:0:0:0:
64,192,405294,1,2,0:0:0:0:
64,192,405440,1,8,0:0:0:0:
320,192,405440,1,0,0:0:0:0:
448,192,405440,1,2,0:0:0:0:
192,192,405587,1,2,0:0:0:0:
320,192,405587,1,0,0:0:0:0:
64,192,405733,1,4,0:0:0:0:
448,192,405733,1,0,0:0:0:0:
192,192,405733,1,2,0:0:0:0:
64,192,405879,1,2,0:0:0:0:
320,192,405879,1,0,0:0:0:0:
192,192,406026,1,8,0:0:0:0:
320,192,406026,1,0,0:0:0:0:
448,192,406026,1,2,0:0:0:0:
448,192,406318,1,8,3:0:0:0:
320,192,406318,1,2,0:0:0:0:
192,192,406391,1,2,0:0:0:0:
64,192,406391,1,8,3:0:0:0:
320,192,406465,1,2,0:0:0:0:
448,192,406465,1,8,3:0:0:0:
192,192,406538,1,2,0:0:0:0:
64,192,406538,1,8,3:0:0:0:
448,192,406611,1,8,3:0:0:0:
320,192,406757,1,8,3:0:0:0:
192,192,406904,1,4,0:0:0:0:
448,192,406904,1,2,0:0:0:0:
64,192,406904,1,0,0:0:0:0:
192,192,407123,1,2,0:0:0:0:
448,192,407123,1,8,3:0:0:0:
64,192,407343,1,2,0:0:0:0:
320,192,407343,1,8,3:0:0:0:
448,192,407562,1,8,3:0:0:0:
192,192,407562,1,2,0:0:0:0:
320,192,407782,1,4,0:0:0:0:
64,192,407782,1,0,0:0:0:0:
448,192,407782,1,2,0:0:0:0:
192,192,408001,1,2,0:0:0:0:
64,192,408001,1,8,3:0:0:0:
448,192,408221,1,8,3:0:0:0:
320,192,408221,1,2,0:0:0:0:
192,192,408440,1,2,0:0:0:0:
64,192,408440,1,8,3:0:0:0:
448,192,408660,1,2,0:0:0:0:
64,192,408660,1,0,0:0:0:0:
320,192,408660,1,4,0:0:0:0:
320,192,408952,1,8,3:0:0:0:
192,192,408952,1,8,0:0:0:0:
192,192,409099,1,8,0:0:0:0:
320,192,409099,1,8,3:0:0:0:
192,192,409245,1,4,0:0:0:0:
448,192,409245,1,2,0:0:0:0:
64,192,409245,128,0,409977:0:0:0:0:
192,192,410709,1,0,0:0:0:0:
448,192,410709,1,0,0:0:0:0:
320,192,411001,1,0,0:0:0:0:
192,192,411294,1,0,0:0:0:0:
448,192,411294,1,0,0:0:0:0:
320,192,411587,1,2,0:0:0:0:
448,192,411587,1,4,0:0:0:0:
64,192,411587,1,0,0:0:0:0:
192,192,411733,1,0,0:0:0:0:
320,192,411879,1,2,0:0:0:0:
64,192,411879,1,8,0:0:0:0:
448,192,411879,1,0,0:0:0:0:
192,192,412026,1,0,0:0:0:0:
320,192,412172,1,2,0:0:0:0:
64,192,412172,1,0,0:0:0:0:
192,192,412318,1,2,0:0:0:0:
448,192,412318,1,0,0:0:0:0:
64,192,412465,1,8,0:0:0:0:
448,192,412465,1,0,0:0:0:0:
320,192,412465,1,2,0:0:0:0:
192,192,412611,1,0,0:0:0:0:
64,192,412757,1,2,0:0:0:0:
448,192,412757,1,0,0:0:0:0:
320,192,412904,1,0,0:0:0:0:
192,192,413050,1,2,0:0:0:0:
64,192,413050,1,8,0:0:0:0:
448,192,413050,1,0,0:0:0:0:
320,192,413196,1,0,0:0:0:0:
192,192,413196,128,2,413489:0:0:0:0:
64,192,413489,1,0,0:0:0:0:
448,192,413489,1,2,0:0:0:0:
192,192,413635,1,0,0:0:0:0:
64,192,413635,1,8,0:0:0:0:
320,192,413635,1,2,0:0:0:0:
448,192,413782,1,0,0:0:0:0:
192,192,413928,1,2,0:0:0:0:
64,192,413928,1,0,0:0:0:0:
192,192,414074,1,0,0:0:0:0:
320,192,414221,1,2,0:0:0:0:
64,192,414221,1,8,0:0:0:0:
448,192,414221,1,0,0:0:0:0:
320,192,414367,1,0,0:0:0:0:
448,192,414513,1,0,0:0:0:0:
64,192,414660,1,0,0:0:0:0:
192,192,414660,1,2,0:0:0:0:
448,192,414806,1,0,0:0:0:0:
64,192,414806,1,8,0:0:0:0:
320,192,414806,1,2,0:0:0:0:
192,192,414952,1,0,0:0:0:0:
320,192,415099,1,2,0:0:0:0:
448,192,415099,1,0,0:0:0:0:
192,192,415245,1,2,0:0:0:0:
64,192,415245,1,0,0:0:0:0:
320,192,415318,1,0,0:0:0:0:
192,192,415391,1,2,0:0:0:0:
64,192,415391,1,8,0:0:0:0:
448,192,415391,1,0,0:0:0:0:
320,192,415538,1,2,0:0:0:0:
448,192,415538,128,0,416269:0:0:0:0:
192,192,415684,1,0,0:0:0:0:
320,192,415830,1,2,0:0:0:0:
64,192,415830,1,0,0:0:0:0:
320,192,415977,1,2,0:0:0:0:
64,192,415977,1,8,0:0:0:0:
192,192,415977,1,0,0:0:0:0:
192,192,416269,1,2,0:0:0:0:
64,192,416269,1,4,0:0:0:0:
320,192,416269,1,0,0:0:0:0:
448,192,416416,1,0,0:0:0:0:
320,192,416562,1,2,0:0:0:0:
448,192,416562,1,8,0:0:0:0:
64,192,416562,1,0,0:0:0:0:
192,192,416709,1,0,0:0:0:0:
448,192,416855,1,2,0:0:0:0:
64,192,416855,1,0,0:0:0:0:
192,192,417001,1,2,0:0:0:0:
320,192,417001,1,0,0:0:0:0:
448,192,417148,1,8,0:0:0:0:
64,192,417148,1,0,0:0:0:0:
320,192,417148,1,2,0:0:0:0:
192,192,417294,1,0,0:0:0:0:
320,192,417440,1,0,0:0:0:0:
64,192,417440,1,4,0:0:0:0:
192,192,417440,1,2,0:0:0:0:
448,192,417587,1,0,0:0:0:0:
192,192,417733,1,2,0:0:0:0:
448,192,417733,1,8,0:0:0:0:
64,192,417733,1,0,0:0:0:0:
320,192,417879,1,2,0:0:0:0:
64,192,417879,1,0,0:0:0:0:
192,192,418026,1,0,0:0:0:0:
64,192,418172,1,0,0:0:0:0:
320,192,418172,1,2,0:0:0:0:
320,192,418318,1,0,0:0:0:0:
448,192,418318,1,8,0:0:0:0:
192,192,418318,1,2,0:0:0:0:
448,192,418465,1,0,0:0:0:0:
192,192,418611,1,2,0:0:0:0:
64,192,418611,1,4,0:0:0:0:
320,192,418611,1,0,0:0:0:0:
64,192,418757,1,0,0:0:0:0:
192,192,418904,1,2,0:0:0:0:
448,192,418904,1,8,0:0:0:0:
320,192,418904,1,0,0:0:0:0:
64,192,419050,1,0,0:0:0:0:
448,192,419196,1,0,0:0:0:0:
192,192,419343,1,0,0:0:0:0:
320,192,419343,1,2,0:0:0:0:
64,192,419489,1,0,0:0:0:0:
448,192,419489,1,8,0:0:0:0:
192,192,419489,1,2,0:0:0:0:
320,192,419635,1,2,0:0:0:0:
64,192,419635,1,0,0:0:0:0:
192,192,419782,1,0,0:0:0:0:
320,192,419855,1,0,0:0:0:0:
64,192,419928,1,2,0:0:0:0:
448,192,419928,1,0,0:0:0:0:
192,192,420001,1,0,0:0:0:0:
320,192,420074,1,2,0:0:0:0:
448,192,420074,1,8,0:0:0:0:
64,192,420074,1,0,0:0:0:0:
320,192,420221,1,0,0:0:0:0:
192,192,420221,1,2,0:0:0:0:
448,192,420367,1,2,0:0:0:0:
64,192,420440,1,2,0:0:0:0:
448,192,420513,1,2,0:0:0:0:
64,192,420587,1,2,0:0:0:0:
192,192,420660,1,2,0:0:0:0:
448,192,420660,1,8,0:0:0:0:
320,192,420660,1,0,0:0:0:0:
320,192,420806,1,0,0:0:0:0:
64,192,420806,1,2,0:0:0:0:
64,192,420952,1,4,0:0:0:0:
448,192,420952,1,0,0:0:0:0:
192,192,420952,128,2,421245:0:0:0:0:
320,192,421245,1,2,0:0:0:0:
448,192,421245,1,8,0:0:0:0:
64,192,421245,1,0,0:0:0:0:
192,192,421391,1,0,0:0:0:0:
448,192,421538,1,2,0:0:0:0:
64,192,421538,1,0,0:0:0:0:
192,192,421684,1,2,0:0:0:0:
320,192,421684,1,0,0:0:0:0:
448,192,421830,1,8,0:0:0:0:
64,192,421830,1,0,0:0:0:0:
192,192,421830,1,2,0:0:0:0:
320,192,421977,1,0,0:0:0:0:
448,192,422123,1,2,0:0:0:0:
64,192,422123,1,0,0:0:0:0:
192,192,422269,1,0,0:0:0:0:
320,192,422416,1,2,0:0:0:0:
448,192,422416,1,8,0:0:0:0:
64,192,422416,1,0,0:0:0:0:
192,192,422562,1,2,0:0:0:0:
448,192,422562,1,0,0:0:0:0:
64,192,422709,1,0,0:0:0:0:
448,192,422855,1,0,0:0:0:0:
320,192,422855,1,2,0:0:0:0:
64,192,423001,1,0,0:0:0:0:
448,192,423001,1,8,0:0:0:0:
192,192,423001,1,2,0:0:0:0:
320,192,423148,1,0,0:0:0:0:
448,192,423294,1,2,0:0:0:0:
64,192,423294,1,0,0:0:0:0:
192,192,423440,1,0,0:0:0:0:
320,192,423587,1,2,0:0:0:0:
448,192,423587,1,8,0:0:0:0:
64,192,423587,1,0,0:0:0:0:
192,192,423733,1,0,0:0:0:0:
448,192,423879,1,0,0:0:0:0:
64,192,424026,1,0,0:0:0:0:
320,192,424026,1,2,0:0:0:0:
64,192,424172,1,0,0:0:0:0:
448,192,424172,1,8,0:0:0:0:
192,192,424172,1,2,0:0:0:0:
320,192,424318,1,0,0:0:0:0:
192,192,424465,1,2,0:0:0:0:
64,192,424465,128,0,424904:0:0:0:0:
320,192,424611,1,2,0:0:0:0:
448,192,424611,1,0,0:0:0:0:
192,192,424757,1,2,0:0:0:0:
448,192,424757,1,8,0:0:0:0:
320,192,424757,1,0,0:0:0:0:
448,192,424904,1,2,0:0:0:0:
192,192,424904,128,0,425635:0:0:0:0:
320,192,425196,1,2,0:0:0:0:
64,192,425196,1,0,0:0:0:0:
320,192,425343,1,2,0:0:0:0:
448,192,425343,1,8,0:0:0:0:
64,192,425343,1,0,0:0:0:0:
320,192,425635,1,2,0:0:0:0:
448,192,425635,1,4,0:0:0:0:
64,192,425635,1,0,0:0:0:0:
192,192,425928,1,2,0:0:0:0:
64,192,425928,1,8,0:0:0:0:
448,192,425928,1,0,0:0:0:0:
320,192,426221,1,2,0:0:0:0:
448,192,426221,128,0,426806:0:0:0:0:
192,192,426367,1,2,0:0:0:0:
64,192,426367,1,0,0:0:0:0:
64,192,426513,1,8,0:0:0:0:
192,192,426513,1,0,0:0:0:0:
320,192,426513,1,2,0:0:0:0:
192,192,426806,1,0,0:0:0:0:
320,192,426806,1,2,0:0:0:0:
64,192,426806,128,4,427977:0:0:0:0:
320,192,427099,1,2,0:0:0:0:
192,192,427099,1,8,0:0:0:0:
448,192,427099,1,0,0:0:0:0:
320,192,427245,1,2,0:0:0:0:
192,192,427245,1,0,0:0:0:0:
448,192,427391,1,0,0:0:0:0:
192,192,427538,1,0,0:0:0:0:
320,192,427538,1,2,0:0:0:0:
448,192,427684,1,0,0:0:0:0:
192,192,427684,1,8,0:0:0:0:
320,192,427684,1,2,0:0:0:0:
320,192,427977,1,2,0:0:0:0:
192,192,427977,1,0,0:0:0:0:
448,192,427977,128,4,428855:0:0:0:0:
320,192,428269,1,2,0:0:0:0:
64,192,428269,1,8,0:0:0:0:
192,192,428269,1,0,0:0:0:0:
320,192,428562,1,0,0:0:0:0:
64,192,428709,1,0,0:0:0:0:
192,192,428709,1,2,0:0:0:0:
192,192,428855,1,0,0:0:0:0:
64,192,428855,1,8,0:0:0:0:
320,192,428855,1,2,0:0:0:0:
320,192,429001,1,2,0:0:0:0:
448,192,429001,1,0,0:0:0:0:
192,192,429001,1,4,0:0:0:0:
64,192,429148,128,0,430318:0:0:0:0:
192,192,429294,1,2,0:0:0:0:
320,192,429367,1,2,0:0:0:0:
192,192,429440,1,8,3:0:0:0:
448,192,429440,1,2,0:0:0:0:
448,192,429733,1,2,0:0:0:0:
320,192,429806,1,2,0:0:0:0:
448,192,429879,1,2,0:0:0:0:
192,192,429879,1,8,3:0:0:0:
320,192,430026,1,2,0:0:0:0:
192,192,430099,1,2,0:0:0:0:
320,192,430172,1,8,3:0:0:0:
448,192,430172,1,2,0:0:0:0:
448,192,430318,1,4,0:0:0:0:
192,192,430318,1,0,0:0:0:0:
320,192,430318,1,2,0:0:0:0:
192,192,431196,1,2,2:0:0:0:
320,192,431489,1,2,2:0:0:0:
448,192,431928,1,2,2:0:0:0:
192,192,432367,1,2,2:0:0:0:
320,192,432660,1,2,2:0:0:0:
192,192,433099,1,2,2:0:0:0:
64,192,433538,1,2,2:0:0:0:
448,192,433830,1,2,2:0:0:0:
64,192,434416,1,2,2:0:0:0:
448,192,434709,1,2,2:0:0:0:
192,192,435001,1,2,2:0:0:0:
320,192,435440,1,2,2:0:0:0:
64,192,435879,1,2,2:0:0:0:
320,192,436172,1,2,2:0:0:0:
448,192,436611,1,2,2:0:0:0:
192,192,437050,1,2,2:0:0:0:
320,192,437343,1,2,2:0:0:0:
64,192,437782,1,2,2:0:0:0:
448,192,438221,1,2,2:0:0:0:
64,192,438513,1,2,2:0:0:0:
192,192,438587,1,2,2:0:0:0:
320,192,438660,1,2,2:0:0:0:
192,192,439099,1,2,2:0:0:0:
64,192,439391,1,2,2:0:0:0:
448,192,439684,1,2,2:0:0:0:
192,192,440123,1,2,2:0:0:0:
320,192,440562,1,2,2:0:0:0:
64,192,440855,1,2,2:0:0:0:
192,192,441440,1,2,2:0:0:0:
320,192,441733,1,2,2:0:0:0:
192,192,442026,1,2,2:0:0:0:
448,192,442465,1,2,2:0:0:0:
64,192,442904,1,2,2:0:0:0:
320,192,443196,1,2,2:0:0:0:
192,192,443782,1,2,2:0:0:0:
64,192,444074,1,2,2:0:0:0:
448,192,444367,1,2,2:0:0:0:
320,192,444806,1,2,2:0:0:0:
192,192,445245,1,2,2:0:0:0:
448,192,445830,1,2,2:0:0:0:
64,192,446123,1,2,2:0:0:0:
320,192,446416,1,2,2:0:0:0:
192,192,446709,1,2,2:0:0:0:
320,192,447148,1,2,2:0:0:0:
448,192,447587,1,2,2:0:0:0:
64,192,447879,1,2,2:0:0:0:
320,192,448026,1,2,2:0:0:0:
64,192,448172,1,2,2:0:0:0:
448,192,448318,1,2,2:0:0:0:
64,192,448465,128,2,448615:2:0:0:0:
320,192,448615,128,2,448765:2:0:0:0:
192,192,448765,128,2,448915:2:0:0:0:
448,192,448915,128,2,449065:2:0:0:0:
64,192,449065,1,0,0:0:0:0:
320,192,449065,1,0,0:0:0:0:
448,192,449455,1,0,0:0:0:0:
320,192,449552,1,0,0:0:0:0:
192,192,449650,1,0,0:0:0:0:
64,192,449650,1,0,0:0:0:0:
320,192,450040,1,0,0:0:0:0:
192,192,450138,1,0,0:0:0:0:
64,192,450235,1,0,0:0:0:0:
448,192,450235,1,0,0:0:0:0:
320,192,450625,1,0,0:0:0:0:
192,192,450723,1,0,0:0:0:0:
448,192,450821,1,0,0:0:0:0:
64,192,450821,1,0,0:0:0:0:
320,192,450918,1,0,0:0:0:0:
192,192,451016,1,0,0:0:0:0:
448,192,451113,1,0,0:0:0:0:
64,192,451113,1,0,0:0:0:0:
320,192,451211,1,0,0:0:0:0:
192,192,451308,1,0,0:0:0:0:
64,192,451406,1,0,0:0:0:0:
448,192,451406,1,0,0:0:0:0:
320,192,451796,1,0,0:0:0:0:
192,192,451894,1,0,0:0:0:0:
320,192,451991,1,0,0:0:0:0:
448,192,451991,1,0,0:0:0:0:
192,192,452382,1,0,0:0:0:0:
64,192,452479,1,0,0:0:0:0:
320,192,452577,1,0,0:0:0:0:
448,192,452577,1,0,0:0:0:0:
192,192,452967,1,0,0:0:0:0:
320,192,453065,1,0,0:0:0:0:
192,192,453162,1,0,0:0:0:0:
64,192,453162,1,0,0:0:0:0:
448,192,453260,1,0,0:0:0:0:
320,192,453357,1,0,0:0:0:0:
192,192,453455,1,0,0:0:0:0:
448,192,453455,1,0,0:0:0:0:
64,192,453528,1,0,0:0:0:0:
320,192,453601,1,0,0:0:0:0:
192,192,453674,1,0,0:0:0:0:
448,192,453747,1,0,0:0:0:0:
64,192,453747,1,0,0:0:0:0:
320,192,454138,1,0,0:0:0:0:
448,192,454235,1,0,0:0:0:0:
192,192,454333,1,0,0:0:0:0:
320,192,454333,1,0,0:0:0:0:
192,192,454723,1,0,0:0:0:0:
64,192,454821,1,0,0:0:0:0:
320,192,454918,1,0,0:0:0:0:
448,192,454918,1,0,0:0:0:0:
192,192,455308,1,0,0:0:0:0:
320,192,455406,1,0,0:0:0:0:
64,192,455504,1,0,0:0:0:0:
448,192,455504,1,0,0:0:0:0:
192,192,455601,1,0,0:0:0:0:
320,192,455699,1,0,0:0:0:0:
64,192,455796,1,0,0:0:0:0:
448,192,455796,1,0,0:0:0:0:
192,192,455894,1,0,0:0:0:0:
320,192,455991,1,0,0:0:0:0:
448,192,456089,1,0,0:0:0:0:
64,192,456089,1,0,0:0:0:0:
192,192,456479,1,0,0:0:0:0:
320,192,456577,1,0,0:0:0:0:
192,192,456674,1,0,0:0:0:0:
64,192,456674,1,0,0:0:0:0:
320,192,457065,1,0,0:0:0:0:
448,192,457162,1,0,0:0:0:0:
192,192,457260,1,0,0:0:0:0:
64,192,457260,1,0,0:0:0:0:
320,192,457650,1,0,0:0:0:0:
192,192,457747,1,0,0:0:0:0:
320,192,457845,1,0,0:0:0:0:
448,192,457845,1,0,0:0:0:0:
64,192,457943,1,0,0:0:0:0:
192,192,458040,1,0,0:0:0:0:
320,192,458138,1,0,0:0:0:0:
64,192,458138,1,0,0:0:0:0:
448,192,458211,1,0,0:0:0:0:
192,192,458284,1,0,0:0:0:0:
320,192,458357,1,0,0:0:0:0:
64,192,458430,1,0,0:0:0:0:
448,192,458430,1,0,0:0:0:0:
192,192,458821,1,0,0:0:0:0:
64,192,458918,1,0,0:0:0:0:
320,192,459016,1,0,0:0:0:0:
192,192,459016,1,0,0:0:0:0:
320,192,459406,1,0,0:0:0:0:
448,192,459504,1,0,0:0:0:0:
192,192,459601,1,0,0:0:0:0:
64,192,459601,1,0,0:0:0:0:
192,192,459991,1,0,0:0:0:0:
320,192,460089,1,0,0:0:0:0:
448,192,460186,1,0,0:0:0:0:
64,192,460186,1,0,0:0:0:0:
192,192,460284,1,0,0:0:0:0:
320,192,460382,1,0,0:0:0:0:
448,192,460479,1,0,0:0:0:0:
64,192,460479,1,0,0:0:0:0:
192,192,460577,1,0,0:0:0:0:
320,192,460674,1,0,0:0:0:0:
64,192,460772,1,0,0:0:0:0:
448,192,460772,1,0,0:0:0:0:
192,192,461162,1,0,0:0:0:0:
320,192,461260,1,0,0:0:0:0:
64,192,461357,1,0,0:0:0:0:
192,192,461357,1,0,0:0:0:0:
320,192,461747,1,0,0:0:0:0:
448,192,461845,1,0,0:0:0:0:
64,192,461943,1,0,0:0:0:0:
192,192,461943,1,0,0:0:0:0:
320,192,462333,1,0,0:0:0:0:
192,192,462430,1,0,0:0:0:0:
448,192,462528,1,0,0:0:0:0:
320,192,462528,1,0,0:0:0:0:
64,192,462625,1,0,0:0:0:0:
192,192,462723,1,0,0:0:0:0:
64,192,462821,1,0,0:0:0:0:
320,192,462821,1,0,0:0:0:0:
192,192,462952,1,8,3:0:0:0:
448,192,462952,1,0,0:0:0:0:
320,192,463025,1,8,3:0:0:0:
192,192,463098,1,8,3:0:0:0:
64,192,463098,1,0,0:0:0:0:
448,192,463390,1,8,3:0:0:0:
192,192,463683,1,8,3:0:0:0:
320,192,463756,1,8,3:0:0:0:
64,192,463829,1,2,0:0:0:0:
448,192,463829,1,8,3:0:0:0:
192,192,463976,1,8,3:0:0:0:
448,192,464122,1,8,3:0:0:0:
64,192,464122,1,2,0:0:0:0:
192,192,464268,1,8,3:0:0:0:
320,192,464268,1,4,2:0:0:0:
64,192,464415,1,2,0:0:0:0:
448,192,464415,1,8,3:0:0:0:
320,192,464780,1,8,3:0:0:0:
448,192,464854,1,8,3:0:0:0:
64,192,464854,1,2,0:0:0:0:
192,192,465000,1,8,3:0:0:0:
64,192,465146,1,2,0:0:0:0:
448,192,465146,1,8,3:0:0:0:
320,192,465219,1,8,3:0:0:0:
448,192,465293,1,8,3:0:0:0:
192,192,465293,1,8,0:0:0:0:
320,192,465439,1,2,0:0:0:0:
64,192,465439,1,4,2:0:0:0:
448,192,465732,1,2,0:0:0:0:
320,192,465829,1,2,0:0:0:0:
192,192,465927,1,2,0:0:0:0:
320,192,466024,1,8,0:0:0:0:
448,192,466024,1,2,0:0:0:0:
64,192,466024,1,4,2:0:0:0:
448,192,466219,1,2,0:0:0:0:
64,192,466219,1,4,2:0:0:0:
448,192,466390,1,0,0:0:0:0:
320,192,466439,1,8,0:0:0:0:
192,192,466488,1,0,0:0:0:0:
64,192,466488,1,2,0:0:0:0:
64,192,466610,1,4,2:0:0:0:
448,192,466610,1,2,0:0:0:0:
320,192,466610,1,8,0:0:0:0:
192,192,466805,1,2,0:0:0:0:
448,192,466902,1,2,0:0:0:0:
64,192,467000,1,2,0:0:0:0:
320,192,467098,1,2,0:0:0:0:
448,192,467098,1,8,0:0:0:0:
192,192,467195,1,2,0:0:0:0:
64,192,467195,1,8,0:0:0:0:
320,192,467293,1,2,0:0:0:0:
448,192,467293,1,8,0:0:0:0:
192,192,467390,1,2,0:0:0:0:
64,192,467390,1,8,0:0:0:0:
320,192,467488,1,2,0:0:0:0:
448,192,467488,1,8,0:0:0:0:
192,192,467585,1,2,0:0:0:0:
320,192,467683,1,2,0:0:0:0:
192,192,467780,1,2,0:0:0:0:
64,192,467780,1,4,0:0:0:0:
448,192,467780,1,0,0:0:0:0:
320,192,468951,1,4,0:0:0:0:
192,192,468951,1,2,0:0:0:0:
448,192,468951,1,0,0:0:0:0:
64,192,469537,1,0,0:0:0:0:
320,192,469537,1,2,0:0:0:0:
448,192,469537,1,4,0:0:0:0:
448,192,469732,1,4,0:0:0:0:
320,192,469732,1,2,0:0:0:0:
64,192,469732,1,0,0:0:0:0:
448,192,469927,1,0,0:0:0:0:
192,192,469927,1,2,0:0:0:0:
64,192,469927,1,4,0:0:0:0:
320,192,470024,1,8,3:0:0:0:
64,192,470122,1,4,0:0:0:0:
192,192,470122,1,2,0:0:0:0:
448,192,470122,1,0,0:0:0:0:
320,192,470415,1,2,0:0:0:0:
64,192,470415,1,0,0:0:0:0:
192,192,470512,1,2,0:0:0:0:
320,192,470610,1,2,0:0:0:0:
448,192,470707,1,2,0:0:0:0:
64,192,470707,1,0,0:0:0:0:
192,192,470707,1,8,0:0:0:0:
320,192,470902,5,2,0:0:0:0:
192,192,471146,1,2,0:0:0:0:
64,192,471146,1,8,0:0:0:0:
320,192,471219,1,2,0:0:0:0:
192,192,471293,1,2,0:0:0:0:
448,192,471293,1,8,0:0:0:0:
320,192,471585,1,8,0:0:0:0:
64,192,471585,1,2,0:0:0:0:
448,192,471683,1,2,0:0:0:0:
192,192,471780,1,2,0:0:0:0:
64,192,471878,1,2,0:0:0:0:
448,192,471878,1,8,0:0:0:0:
320,192,471976,1,2,0:0:0:0:
192,192,472073,1,2,0:0:0:0:
448,192,472171,1,8,0:0:0:0:
64,192,472171,1,2,0:0:0:0:
192,192,472463,1,2,0:0:0:0:
448,192,472463,1,0,0:0:0:0:
64,192,472463,1,4,0:0:0:0:
192,192,472756,1,0,0:0:0:0:
320,192,472902,1,2,0:0:0:0:
448,192,472902,1,0,0:0:0:0:
64,192,473049,1,0,0:0:0:0:
192,192,473049,1,2,0:0:0:0:
448,192,473049,1,8,0:0:0:0:
320,192,473195,1,0,0:0:0:0:
192,192,473341,1,0,0:0:0:0:
448,192,473488,1,0,0:0:0:0:
64,192,473634,1,0,0:0:0:0:
320,192,473927,1,2,0:0:0:0:
448,192,473927,1,0,0:0:0:0:
192,192,474073,1,0,0:0:0:0:
192,192,474219,1,2,0:0:0:0:
448,192,474219,1,8,0:0:0:0:
64,192,474219,1,0,0:0:0:0:
320,192,474366,1,0,0:0:0:0:
192,192,474512,1,0,0:0:0:0:
320,192,474512,1,2,0:0:0:0:
64,192,474658,1,0,0:0:0:0:
64,192,474805,1,0,0:0:0:0:
448,192,474805,1,2,0:0:0:0:
192,192,475098,1,0,0:0:0:0:
320,192,475244,1,2,0:0:0:0:
448,192,475244,1,0,0:0:0:0:
192,192,475390,1,2,0:0:0:0:
320,192,475390,1,8,0:0:0:0:
64,192,475390,1,0,0:0:0:0:
448,192,475537,1,0,0:0:0:0:
192,192,475683,1,0,0:0:0:0:
64,192,475683,1,2,0:0:0:0:
320,192,475829,1,0,0:0:0:0:
192,192,475976,1,0,0:0:0:0:
64,192,476268,1,0,0:0:0:0:
320,192,476415,1,2,0:0:0:0:
448,192,476415,1,0,0:0:0:0:
192,192,476561,1,2,0:0:0:0:
448,192,476561,1,8,0:0:0:0:
64,192,476561,1,0,0:0:0:0:
448,192,476707,1,0,0:0:0:0:
64,192,476707,1,8,0:0:0:0:
320,192,476707,1,2,0:0:0:0:
64,192,476854,1,0,0:0:0:0:
192,192,476854,1,2,0:0:0:0:
320,192,477000,1,2,0:0:0:0:
448,192,477000,1,0,0:0:0:0:
192,192,477146,1,2,0:0:0:0:
448,192,477146,1,4,0:0:0:0:
64,192,477146,1,0,0:0:0:0:
320,192,477439,1,0,0:0:0:0:
192,192,477585,1,2,0:0:0:0:
448,192,477585,1,0,0:0:0:0:
192,192,477732,1,0,0:0:0:0:
320,192,477732,1,2,0:0:0:0:
64,192,477732,1,8,0:0:0:0:
64,192,478024,1,0,0:0:0:0:
448,192,478317,1,0,0:0:0:0:
192,192,478610,1,2,0:0:0:0:
320,192,478610,1,0,0:0:0:0:
192,192,478902,1,2,0:0:0:0:
64,192,478902,1,8,0:0:0:0:
448,192,478902,1,0,0:0:0:0:
64,192,479195,1,0,0:0:0:0:
448,192,479195,1,2,0:0:0:0:
192,192,479488,1,0,0:0:0:0:
320,192,479488,1,2,0:0:0:0:
448,192,479780,1,0,0:0:0:0:
192,192,479927,1,2,0:0:0:0:
320,192,479927,1,0,0:0:0:0:
192,192,480073,1,2,0:0:0:0:
64,192,480073,1,8,0:0:0:0:
448,192,480073,1,0,0:0:0:0:
64,192,480366,1,0,0:0:0:0:
320,192,480366,1,2,0:0:0:0:
192,192,480658,1,0,0:0:0:0:
448,192,480951,1,0,0:0:0:0:
192,192,481098,1,2,0:0:0:0:
64,192,481098,1,0,0:0:0:0:
320,192,481244,1,2,0:0:0:0:
64,192,481244,1,8,0:0:0:0:
448,192,481244,1,0,0:0:0:0:
64,192,481390,1,0,0:0:0:0:
448,192,481390,1,8,0:0:0:0:
192,192,481390,1,2,0:0:0:0:
320,192,481537,1,0,0:0:0:0:
192,192,481829,1,2,0:0:0:0:
64,192,481829,1,4,0:0:0:0:
448,192,481829,1,0,0:0:0:0:
320,192,482122,1,0,0:0:0:0:
64,192,482268,1,0,0:0:0:0:
448,192,482268,1,2,0:0:0:0:
64,192,482415,1,8,0:0:0:0:
320,192,482415,1,2,0:0:0:0:
192,192,482415,1,0,0:0:0:0:
448,192,482707,1,0,0:0:0:0:
64,192,483000,1,0,0:0:0:0:
192,192,483293,1,0,0:0:0:0:
448,192,483293,1,2,0:0:0:0:
448,192,483585,1,0,0:0:0:0:
64,192,483585,1,8,0:0:0:0:
320,192,483585,1,2,0:0:0:0:
192,192,483878,1,2,0:0:0:0:
320,192,483878,1,0,0:0:0:0:
192,192,484171,1,2,0:0:0:0:
448,192,484171,1,0,0:0:0:0:
64,192,484171,1,4,0:0:0:0:
448,192,484366,1,0,0:0:0:0:
64,192,484366,1,4,0:0:0:0:
192,192,484366,1,2,0:0:0:0:
320,192,484561,1,2,0:0:0:0:
448,192,484561,1,4,0:0:0:0:
64,192,484561,1,0,0:0:0:0:
192,192,484658,1,8,0:0:0:0:
64,192,484756,1,0,0:0:0:0:
448,192,484756,1,4,0:0:0:0:
320,192,484756,1,2,0:0:0:0:
192,192,484951,1,2,0:0:0:0:
320,192,484951,1,4,0:0:0:0:
448,192,484951,1,0,0:0:0:0:
448,192,485146,1,0,0:0:0:0:
320,192,485146,1,4,0:0:0:0:
192,192,485146,1,2,0:0:0:0:
192,192,485341,1,2,0:0:0:0:
64,192,485341,1,4,0:0:0:0:
320,192,485341,1,0,0:0:0:0:
64,192,485537,1,4,0:0:0:0:
192,192,485537,1,2,0:0:0:0:
448,192,485537,1,0,0:0:0:0:
320,192,485634,1,8,0:0:0:0:
192,192,485732,1,2,0:0:0:0:
64,192,485732,1,4,0:0:0:0:
448,192,485732,1,0,0:0:0:0:
320,192,485829,1,8,0:0:0:0:
64,192,485927,1,4,0:0:0:0:
192,192,485927,1,2,0:0:0:0:
448,192,485927,1,0,0:0:0:0:
448,192,486122,1,8,0:0:0:0:
64,192,486122,1,2,0:0:0:0:
192,192,486317,1,2,0:0:0:0:
320,192,486317,1,8,3:0:0:0:
448,192,486512,1,0,0:0:0:0:
64,192,486512,1,4,0:0:0:0:
320,192,486512,1,2,0:0:0:0:
192,192,486585,1,2,0:0:0:0:
64,192,486658,1,8,0:0:0:0:
448,192,486658,1,2,0:0:0:0:
320,192,486732,1,2,0:0:0:0:
192,192,486805,1,2,0:0:0:0:
448,192,486878,1,2,0:0:0:0:
320,192,486951,1,8,0:0:0:0:
64,192,486951,1,2,0:0:0:0:
192,192,487024,1,2,0:0:0:0:
320,192,487098,1,2,0:0:0:0:
448,192,487171,1,2,0:0:0:0:
64,192,487244,1,2,0:0:0:0:
192,192,487244,1,8,0:0:0:0:
320,192,487317,1,2,0:0:0:0:
192,192,487390,1,2,0:0:0:0:
448,192,487463,1,2,0:0:0:0:
320,192,487537,1,2,0:0:0:0:
64,192,487537,1,8,0:0:0:0:
192,192,487610,1,2,0:0:0:0:
320,192,487683,1,2,0:0:0:0:
64,192,487756,1,2,0:0:0:0:
192,192,487829,1,8,0:0:0:0:
448,192,487829,1,2,0:0:0:0:
320,192,487902,1,2,0:0:0:0:
192,192,487976,1,2,0:0:0:0:
320,192,488049,1,2,0:0:0:0:
448,192,488122,1,8,0:0:0:0:
64,192,488122,1,2,0:0:0:0:
192,192,488195,1,2,0:0:0:0:
320,192,488268,1,2,0:0:0:0:
64,192,488341,1,2,0:0:0:0:
448,192,488415,1,2,0:0:0:0:
192,192,488415,1,8,0:0:0:0:
320,192,488488,1,2,0:0:0:0:
448,192,488561,1,2,0:0:0:0:
64,192,488634,1,2,0:0:0:0:
320,192,488707,1,2,0:0:0:0:
192,192,488707,1,8,0:0:0:0:
448,192,488780,1,2,0:0:0:0:
64,192,488854,1,2,0:0:0:0:
192,192,488927,1,2,0:0:0:0:
320,192,489000,1,8,0:0:0:0:
448,192,489000,1,2,0:0:0:0:
64,192,489073,1,2,0:0:0:0:
192,192,489146,1,2,0:0:0:0:
448,192,489219,1,2,0:0:0:0:
320,192,489293,1,8,0:0:0:0:
64,192,489293,1,2,0:0:0:0:
192,192,489366,1,2,0:0:0:0:
448,192,489439,1,2,0:0:0:0:
320,192,489512,1,2,0:0:0:0:
64,192,489585,1,2,0:0:0:0:
192,192,489585,1,8,0:0:0:0:
320,192,489658,1,2,0:0:0:0:
448,192,489732,1,2,0:0:0:0:
64,192,489805,1,2,0:0:0:0:
320,192,489878,1,2,0:0:0:0:
192,192,489878,1,8,0:0:0:0:
448,192,489951,1,2,0:0:0:0:
64,192,490024,1,2,0:0:0:0:
192,192,490098,1,2,0:0:0:0:
64,192,490171,1,8,0:0:0:0:
320,192,490171,1,2,0:0:0:0:
448,192,490244,1,2,0:0:0:0:
192,192,490317,1,2,0:0:0:0:
64,192,490390,1,2,0:0:0:0:
448,192,490463,1,8,0:0:0:0:
320,192,490463,1,2,0:0:0:0:
192,192,490537,1,2,0:0:0:0:
320,192,490610,1,2,0:0:0:0:
64,192,490683,1,2,0:0:0:0:
192,192,490756,1,2,0:0:0:0:
448,192,490756,1,8,0:0:0:0:
320,192,490829,1,2,0:0:0:0:
64,192,490902,1,2,0:0:0:0:
192,192,490976,1,2,0:0:0:0:
448,192,491049,1,2,0:0:0:0:
320,192,491049,1,8,0:0:0:0:
192,192,491122,1,2,0:0:0:0:
64,192,491195,1,2,0:0:0:0:
448,192,491195,1,4,0:0:0:0:
320,192,491268,1,2,0:0:0:0:
64,192,491341,1,2,0:0:0:0:
192,192,491341,1,8,0:0:0:0:
448,192,491415,1,2,0:0:0:0:
320,192,491488,1,2,0:0:0:0:
64,192,491561,1,2,0:0:0:0:
192,192,491634,1,2,0:0:0:0:
448,192,491634,1,8,0:0:0:0:
320,192,491707,1,2,0:0:0:0:
192,192,491780,1,2,0:0:0:0:
448,192,491854,1,2,0:0:0:0:
320,192,491927,1,8,0:0:0:0:
64,192,491927,1,2,0:0:0:0:
192,192,492000,1,2,0:0:0:0:
320,192,492073,1,2,0:0:0:0:
64,192,492146,1,2,0:0:0:0:
192,192,492219,1,8,0:0:0:0:
448,192,492219,1,2,0:0:0:0:
320,192,492293,1,2,0:0:0:0:
192,192,492366,1,2,0:0:0:0:
64,192,492366,1,4,0:0:0:0:
448,192,492439,1,2,0:0:0:0:
320,192,492512,1,2,0:0:0:0:
64,192,492512,1,8,0:0:0:0:
192,192,492585,1,2,0:0:0:0:
320,192,492658,1,2,0:0:0:0:
64,192,492732,1,2,0:0:0:0:
192,192,492805,1,2,0:0:0:0:
448,192,492805,1,8,0:0:0:0:
320,192,492878,1,2,0:0:0:0:
64,192,492951,1,2,0:0:0:0:
192,192,493024,1,2,0:0:0:0:
320,192,493098,1,8,0:0:0:0:
448,192,493098,1,2,0:0:0:0:
192,192,493171,1,2,0:0:0:0:
320,192,493244,1,2,0:0:0:0:
64,192,493317,1,2,0:0:0:0:
192,192,493390,1,8,0:0:0:0:
448,192,493390,1,2,0:0:0:0:
320,192,493463,1,2,0:0:0:0:
64,192,493537,1,8,3:0:0:0:
448,192,493537,1,6,0:0:0:0:
192,192,493610,1,2,0:0:0:0:
320,192,493683,1,8,3:0:0:0:
64,192,493683,1,10,0:0:0:0:
448,192,493756,1,2,0:0:0:0:
192,192,493829,1,2,0:0:0:0:
64,192,493829,1,8,3:0:0:0:
320,192,493902,1,2,0:0:0:0:
448,192,493976,1,10,0:0:0:0:
64,192,493976,1,8,3:0:0:0:
192,192,494049,1,2,0:0:0:0:
320,192,494122,1,2,0:0:0:0:
448,192,494122,1,8,3:0:0:0:
192,192,494195,1,2,0:0:0:0:
64,192,494268,1,10,0:0:0:0:
448,192,494268,1,8,3:0:0:0:
320,192,494341,1,2,0:0:0:0:
64,192,494415,1,2,0:0:0:0:
192,192,494415,1,8,3:0:0:0:
320,192,494488,1,2,0:0:0:0:
448,192,494561,1,10,0:0:0:0:
64,192,494561,1,8,3:0:0:0:
192,192,494634,1,2,0:0:0:0:
320,192,494707,1,2,0:0:0:0:
448,192,494707,1,4,0:0:0:0:
64,192,494780,1,2,0:0:0:0:
192,192,494854,1,2,0:0:0:0:
448,192,494927,1,2,0:0:0:0:
320,192,495000,1,2,0:0:0:0:
64,192,495000,1,8,3:0:0:0:
192,192,495073,1,2,0:0:0:0:
64,192,495146,1,2,0:0:0:0:
448,192,495146,1,8,3:0:0:0:
320,192,495219,1,2,0:0:0:0:
448,192,495293,1,2,0:0:0:0:
192,192,495293,1,8,3:0:0:0:
64,192,495366,1,2,0:0:0:0:
320,192,495439,1,2,0:0:0:0:
448,192,495512,1,2,0:0:0:0:
192,192,495585,1,2,0:0:0:0:
64,192,495658,1,2,0:0:0:0:
448,192,495732,1,2,0:0:0:0:
320,192,495805,1,2,0:0:0:0:
192,192,495878,1,2,0:0:0:0:
64,192,495878,1,0,0:0:0:0:
448,192,495878,1,4,0:0:0:0:
320,192,496024,1,8,0:0:0:0:
448,192,496024,1,0,0:0:0:0:
192,192,496171,1,2,0:0:0:0:
64,192,496171,1,0,0:0:0:0:
320,192,496244,1,2,0:0:0:0:
448,192,496317,1,8,0:0:0:0:
64,192,496317,1,0,0:0:0:0:
320,192,496463,1,2,0:0:0:0:
192,192,496463,1,0,0:0:0:0:
448,192,496610,1,8,0:0:0:0:
64,192,496610,1,0,0:0:0:0:
192,192,496756,1,0,0:0:0:0:
320,192,496756,1,2,0:0:0:0:
64,192,496829,1,2,0:0:0:0:
448,192,496902,1,0,0:0:0:0:
320,192,496902,1,8,0:0:0:0:
64,192,497049,1,2,0:0:0:0:
192,192,497049,1,0,0:0:0:0:
448,192,497195,1,0,0:0:0:0:
192,192,497195,1,8,0:0:0:0:
320,192,497341,1,2,0:0:0:0:
64,192,497341,1,0,0:0:0:0:
448,192,497488,1,8,0:0:0:0:
320,192,497488,1,0,0:0:0:0:
64,192,497634,1,0,0:0:0:0:
192,192,497634,1,2,0:0:0:0:
320,192,497707,1,2,0:0:0:0:
448,192,497780,1,8,0:0:0:0:
64,192,497780,1,0,0:0:0:0:
192,192,497927,1,0,0:0:0:0:
320,192,497927,1,2,0:0:0:0:
448,192,498073,1,0,0:0:0:0:
64,192,498073,1,8,0:0:0:0:
448,192,498219,1,2,0:0:0:0:
320,192,498219,1,0,0:0:0:0:
64,192,498366,1,0,0:0:0:0:
192,192,498366,1,8,0:0:0:0:
320,192,498512,1,2,0:0:0:0:
448,192,498512,1,0,0:0:0:0:
192,192,498585,1,2,0:0:0:0:
64,192,498658,1,8,0:0:0:0:
448,192,498658,1,0,0:0:0:0:
320,192,498805,1,0,0:0:0:0:
192,192,498805,1,2,0:0:0:0:
192,192,498951,1,8,0:0:0:0:
64,192,498951,1,0,0:0:0:0:
448,192,499097,1,0,0:0:0:0:
320,192,499097,1,2,0:0:0:0:
192,192,499171,1,2,0:0:0:0:
448,192,499244,1,0,0:0:0:0:
64,192,499244,1,8,0:0:0:0:
192,192,499390,1,2,0:0:0:0:
320,192,499390,1,0,0:0:0:0:
64,192,499537,1,0,0:0:0:0:
448,192,499537,1,8,0:0:0:0:
320,192,499683,1,2,0:0:0:0:
192,192,499683,1,0,0:0:0:0:
320,192,499829,1,8,0:0:0:0:
448,192,499829,1,0,0:0:0:0:
64,192,499976,1,0,0:0:0:0:
192,192,499976,1,2,0:0:0:0:
320,192,500049,1,2,0:0:0:0:
448,192,500122,1,8,0:0:0:0:
192,192,500122,1,0,0:0:0:0:
64,192,500268,1,0,0:0:0:0:
320,192,500268,1,2,0:0:0:0:
448,192,500415,1,0,0:0:0:0:
64,192,500415,1,8,0:0:0:0:
192,192,500561,1,4,0:0:0:0:
320,192,500561,1,0,0:0:0:0:
448,192,500561,1,2,0:0:0:0:
64,192,500707,1,0,0:0:0:0:
192,192,500707,1,8,0:0:0:0:
320,192,500854,1,2,0:0:0:0:
448,192,500854,1,0,0:0:0:0:
192,192,500927,1,2,0:0:0:0:
64,192,501000,1,8,0:0:0:0:
448,192,501000,1,0,0:0:0:0:
320,192,501146,1,0,0:0:0:0:
192,192,501146,1,2,0:0:0:0:
448,192,501293,1,8,0:0:0:0:
64,192,501293,1,0,0:0:0:0:
64,192,501439,1,0,0:0:0:0:
320,192,501439,1,2,0:0:0:0:
192,192,501512,1,2,0:0:0:0:
448,192,501585,1,0,0:0:0:0:
320,192,501585,1,8,0:0:0:0:
192,192,501732,1,2,0:0:0:0:
64,192,501732,1,0,0:0:0:0:
448,192,501732,1,4,0:0:0:0:
320,192,501878,1,0,0:0:0:0:
192,192,501878,1,8,0:0:0:0:
64,192,502024,1,2,0:0:0:0:
448,192,502024,1,0,0:0:0:0:
192,192,502171,1,8,0:0:0:0:
320,192,502171,1,0,0:0:0:0:
448,192,502317,1,0,0:0:0:0:
64,192,502317,1,2,0:0:0:0:
192,192,502390,1,2,0:0:0:0:
448,192,502463,1,8,0:0:0:0:
320,192,502463,1,0,0:0:0:0:
64,192,502610,1,0,0:0:0:0:
192,192,502610,1,2,0:0:0:0:
64,192,502756,1,0,0:0:0:0:
448,192,502756,1,8,0:0:0:0:
320,192,502902,1,2,0:0:0:0:
448,192,502902,1,8,0:0:0:0:
64,192,502976,1,2,0:0:0:0:
192,192,502976,1,8,0:0:0:0:
320,192,503049,1,2,0:0:0:0:
448,192,503049,1,8,0:0:0:0:
192,192,503122,1,8,0:0:0:0:
64,192,503122,1,2,0:0:0:0:
320,192,503195,1,8,3:0:0:0:
192,192,503268,1,8,3:0:0:0:
448,192,503341,1,8,3:0:0:0:
64,192,503415,1,8,3:0:0:0:
192,192,503488,1,2,0:0:0:0:
448,192,503488,1,8,3:0:0:0:
320,192,503561,1,8,3:0:0:0:
64,192,503561,1,2,0:0:0:0:
192,192,503634,1,2,0:0:0:0:
448,192,503634,1,8,3:0:0:0:
320,192,503707,1,8,3:0:0:0:
64,192,503707,1,2,0:0:0:0:
448,192,503780,1,8,3:0:0:0:
192,192,503854,1,8,3:0:0:0:
320,192,503927,1,8,3:0:0:0:
64,192,504000,1,8,3:0:0:0:
448,192,504073,1,8,3:0:0:0:
320,192,504073,1,2,0:0:0:0:
64,192,504146,1,2,0:0:0:0:
192,192,504146,1,8,3:0:0:0:
448,192,504219,1,8,3:0:0:0:
192,192,504293,1,8,3:0:0:0:
448,192,504366,1,2,0:0:0:0:
320,192,504366,1,8,3:0:0:0:
64,192,504439,1,8,3:0:0:0:
192,192,504439,1,2,0:0:0:0:
320,192,504512,1,8,3:0:0:0:
64,192,504585,1,8,3:0:0:0:
448,192,504658,1,4,0:0:0:0:
320,192,504658,1,2,0:0:0:0:
192,192,504658,1,0,0:0:0:0:
64,192,505244,1,2,0:0:0:0:
192,192,505244,1,4,0:0:0:0:
448,192,505244,1,0,0:0:0:0:
320,192,505390,1,8,0:0:0:0:
64,192,505390,1,0,0:0:0:0:
192,192,505537,1,0,0:0:0:0:
448,192,505537,1,2,0:0:0:0:
448,192,505683,1,8,0:0:0:0:
320,192,505683,1,0,0:0:0:0:
192,192,505829,1,2,0:0:0:0:
64,192,505829,1,0,0:0:0:0:
320,192,505902,1,2,0:0:0:0:
448,192,505976,1,8,0:0:0:0:
64,192,505976,1,0,0:0:0:0:
192,192,506122,1,0,0:0:0:0:
320,192,506122,1,2,0:0:0:0:
320,192,506268,1,8,0:0:0:0:
64,192,506268,1,0,0:0:0:0:
192,192,506415,1,0,0:0:0:0:
448,192,506415,1,2,0:0:0:0:
64,192,506561,1,8,0:0:0:0:
448,192,506561,1,0,0:0:0:0:
320,192,506707,1,0,0:0:0:0:
64,192,506707,1,2,0:0:0:0:
448,192,506854,1,8,0:0:0:0:
192,192,506854,1,0,0:0:0:0:
320,192,507000,1,2,0:0:0:0:
64,192,507073,1,0,0:0:0:0:
192,192,507073,1,2,0:0:0:0:
320,192,507146,1,8,0:0:0:0:
448,192,507146,1,0,0:0:0:0:
64,192,507293,1,0,0:0:0:0:
192,192,507293,1,2,0:0:0:0:
64,192,507439,1,8,0:0:0:0:
448,192,507439,1,0,0:0:0:0:
320,192,507585,1,0,0:0:0:0:
448,192,507585,1,2,0:0:0:0:
448,192,507732,1,0,0:0:0:0:
192,192,507732,1,8,0:0:0:0:
64,192,507878,1,2,0:0:0:0:
320,192,507878,1,0,0:0:0:0:
448,192,508024,1,0,0:0:0:0:
64,192,508024,1,8,0:0:0:0:
192,192,508171,1,0,0:0:0:0:
320,192,508171,1,2,0:0:0:0:
448,192,508244,1,2,0:0:0:0:
192,192,508317,1,0,0:0:0:0:
64,192,508317,1,8,0:0:0:0:
64,192,508463,1,2,0:0:0:0:
448,192,508463,1,0,0:0:0:0:
448,192,508610,1,0,0:0:0:0:
320,192,508610,1,8,0:0:0:0:
64,192,508756,1,2,0:0:0:0:
192,192,508756,1,0,0:0:0:0:
64,192,508902,1,8,0:0:0:0:
448,192,508902,1,0,0:0:0:0:
320,192,509049,1,0,0:0:0:0:
192,192,509049,1,2,0:0:0:0:
192,192,509195,1,8,0:0:0:0:
448,192,509195,1,0,0:0:0:0:
320,192,509341,1,2,0:0:0:0:
64,192,509415,1,0,0:0:0:0:
192,192,509415,1,2,0:0:0:0:
320,192,509488,1,8,0:0:0:0:
448,192,509488,1,0,0:0:0:0:
448,192,509634,1,0,0:0:0:0:
64,192,509634,1,2,0:0:0:0:
192,192,509780,1,8,0:0:0:0:
320,192,509780,1,0,0:0:0:0:
448,192,509927,1,0,0:0:0:0:
64,192,509927,1,2,0:0:0:0:
192,192,509927,1,4,0:0:0:0:
320,192,510073,1,0,0:0:0:0:
64,192,510073,1,8,0:0:0:0:
448,192,510219,1,2,0:0:0:0:
320,192,510219,1,0,0:0:0:0:
192,192,510366,1,0,0:0:0:0:
64,192,510366,1,8,0:0:0:0:
448,192,510512,1,0,0:0:0:0:
320,192,510512,1,2,0:0:0:0:
192,192,510585,1,2,0:0:0:0:
448,192,510658,1,0,0:0:0:0:
64,192,510658,1,8,0:0:0:0:
192,192,510805,1,2,0:0:0:0:
320,192,510805,1,0,0:0:0:0:
448,192,510951,1,0,0:0:0:0:
192,192,510951,1,8,0:0:0:0:
64,192,511097,1,2,0:0:0:0:
320,192,511097,1,4,0:0:0:0:
448,192,511097,1,0,0:0:0:0:
192,192,511244,1,8,0:0:0:0:
64,192,511244,1,0,0:0:0:0:
320,192,511390,1,0,0:0:0:0:
448,192,511390,1,2,0:0:0:0:
64,192,511537,1,8,0:0:0:0:
192,192,511537,1,0,0:0:0:0:
320,192,511683,1,2,0:0:0:0:
448,192,511756,1,0,0:0:0:0:
64,192,511756,1,2,0:0:0:0:
192,192,511829,1,8,0:0:0:0:
320,192,511829,1,0,0:0:0:0:
448,192,511976,1,0,0:0:0:0:
64,192,511976,1,2,0:0:0:0:
192,192,512122,1,8,0:0:0:0:
448,192,512122,1,0,0:0:0:0:
320,192,512268,1,0,0:0:0:0:
64,192,512268,1,2,0:0:0:0:
64,192,512415,1,8,0:0:0:0:
448,192,512415,1,0,0:0:0:0:
320,192,512561,1,0,0:0:0:0:
192,192,512561,1,2,0:0:0:0:
448,192,512707,1,0,0:0:0:0:
64,192,512707,1,8,0:0:0:0:
448,192,512854,1,2,0:0:0:0:
64,192,512854,1,8,0:0:0:0:
192,192,512854,1,0,0:0:0:0:
448,192,513000,1,2,0:0:0:0:
192,192,513000,1,0,0:0:0:0:
64,192,513000,1,8,0:0:0:0:
64,192,513146,1,8,0:0:0:0:
192,192,513146,1,0,0:0:0:0:
448,192,513146,1,2,0:0:0:0:
320,192,513219,1,2,0:0:0:0:
64,192,513293,1,8,0:0:0:0:
448,192,513293,1,2,0:0:0:0:
192,192,513366,1,2,0:0:0:0:
320,192,513439,1,0,0:0:0:0:
448,192,513439,1,2,0:0:0:0:
64,192,513439,1,4,0:0:0:0:
192,192,513585,1,2,0:0:0:0:
320,192,513658,1,2,0:0:0:0:
64,192,513732,1,2,0:0:0:0:
448,192,513805,1,2,0:0:0:0:
192,192,513878,1,2,0:0:0:0:
320,192,513951,1,2,0:0:0:0:
64,192,514024,1,2,0:0:0:0:
448,192,514097,1,2,0:0:0:0:
192,192,514171,1,2,0:0:0:0:
320,192,514244,1,2,0:0:0:0:
192,192,514317,1,2,0:0:0:0:
64,192,514317,1,8,0:0:0:0:
448,192,514317,1,0,0:0:0:0:
320,192,514463,1,2,0:0:0:0:
192,192,514537,1,2,0:0:0:0:
448,192,514610,1,2,0:0:0:0:
320,192,514610,1,4,0:0:0:0:
64,192,514610,1,0,0:0:0:0:
192,192,514756,1,8,0:0:0:0:
448,192,514756,1,0,0:0:0:0:
320,192,514902,1,0,0:0:0:0:
64,192,514902,1,2,0:0:0:0:
64,192,515049,1,8,0:0:0:0:
192,192,515049,1,0,0:0:0:0:
320,192,515195,1,2,0:0:0:0:
448,192,515195,1,0,0:0:0:0:
192,192,515268,1,2,0:0:0:0:
64,192,515341,1,8,0:0:0:0:
448,192,515341,1,0,0:0:0:0:
320,192,515488,1,0,0:0:0:0:
192,192,515488,1,2,0:0:0:0:
192,192,515634,1,8,0:0:0:0:
448,192,515634,1,0,0:0:0:0:
320,192,515780,1,0,0:0:0:0:
64,192,515780,1,2,0:0:0:0:
192,192,515854,1,2,0:0:0:0:
448,192,515927,1,8,0:0:0:0:
64,192,515927,1,0,0:0:0:0:
192,192,516073,1,0,0:0:0:0:
448,192,516073,1,2,0:0:0:0:
64,192,516219,1,8,0:0:0:0:
320,192,516219,1,0,0:0:0:0:
192,192,516366,1,2,0:0:0:0:
448,192,516366,1,0,0:0:0:0:
320,192,516439,1,2,0:0:0:0:
192,192,516512,1,8,0:0:0:0:
64,192,516512,1,0,0:0:0:0:
448,192,516658,1,0,0:0:0:0:
320,192,516658,1,2,0:0:0:0:
192,192,516732,1,2,0:0:0:0:
448,192,516805,1,8,0:0:0:0:
64,192,516805,1,0,0:0:0:0:
192,192,516951,1,0,0:0:0:0:
64,192,516951,1,2,0:0:0:0:
64,192,517097,1,0,0:0:0:0:
320,192,517097,1,8,0:0:0:0:
448,192,517244,1,2,0:0:0:0:
192,192,517244,1,0,0:0:0:0:
64,192,517390,1,0,0:0:0:0:
448,192,517390,1,8,0:0:0:0:
320,192,517537,1,0,0:0:0:0:
192,192,517537,1,2,0:0:0:0:
64,192,517610,1,2,0:0:0:0:
320,192,517683,1,0,0:0:0:0:
448,192,517683,1,8,0:0:0:0:
448,192,517829,1,2,0:0:0:0:
64,192,517829,1,0,0:0:0:0:
64,192,517976,1,0,0:0:0:0:
192,192,517976,1,8,0:0:0:0:
448,192,518122,1,2,0:0:0:0:
320,192,518122,1,8,3:0:0:0:
192,192,518195,1,8,3:0:0:0:
64,192,518195,1,2,0:0:0:0:
320,192,518268,1,8,3:0:0:0:
448,192,518268,1,2,0:0:0:0:
192,192,518341,1,2,0:0:0:0:
320,192,518415,1,2,0:0:0:0:
64,192,518415,1,4,0:0:0:0:
192,192,518561,1,2,0:0:0:0:
448,192,518561,1,8,3:0:0:0:
320,192,518634,1,2,0:0:0:0:
64,192,518634,1,8,3:0:0:0:
448,192,518707,1,2,0:0:0:0:
192,192,518707,1,8,3:0:0:0:
64,192,518780,1,2,0:0:0:0:
320,192,518854,1,2,0:0:0:0:
192,192,518927,1,2,0:0:0:0:
448,192,519000,1,2,0:0:0:0:
320,192,519000,1,4,0:0:0:0:
192,192,519146,1,2,0:0:0:0:
64,192,519146,1,8,3:0:0:0:
320,192,519219,1,2,0:0:0:0:
448,192,519219,1,8,3:0:0:0:
64,192,519293,1,2,0:0:0:0:
192,192,519293,1,8,3:0:0:0:
320,192,519366,1,2,0:0:0:0:
192,192,519439,1,2,0:0:0:0:
448,192,519512,1,2,0:0:0:0:
64,192,519585,1,2,0:0:0:0:
320,192,519658,1,2,0:0:0:0:
192,192,519732,1,2,0:0:0:0:
448,192,519805,1,2,0:0:0:0:
320,192,519805,1,8,3:0:0:0:
192,192,519878,1,2,0:0:0:0:
64,192,519878,1,8,3:0:0:0:
320,192,520024,1,2,0:0:0:0:
448,192,520097,1,2,0:0:0:0:
192,192,520171,1,2,0:0:0:0:
64,192,520244,1,2,0:0:0:0:
320,192,520317,1,2,0:0:0:0:
448,192,520390,1,2,0:0:0:0:
192,192,520463,1,2,0:0:0:0:
64,192,520463,1,8,3:0:0:0:
320,192,520537,1,2,0:0:0:0:
64,192,520610,1,2,0:0:0:0:
448,192,520610,1,8,3:0:0:0:
192,192,520683,1,2,0:0:0:0:
320,192,520756,1,2,0:0:0:0:
64,192,520829,1,2,0:0:0:0:
448,192,520902,1,2,0:0:0:0:
192,192,520902,1,8,3:0:0:0:
320,192,520976,1,2,0:0:0:0:
192,192,521049,1,2,0:0:0:0:
64,192,521122,1,2,0:0:0:0:
448,192,521195,1,2,0:0:0:0:
320,192,521268,1,2,0:0:0:0:
64,192,521341,1,2,0:0:0:0:
192,192,521341,1,8,0:0:0:0:
448,192,521341,1,4,0:0:0:0:
192,192,521634,1,0,0:0:0:0:
448,192,521634,1,4,0:0:0:0:
64,192,521634,128,2,522219:0:0:0:0:
192,192,522219,1,0,0:0:0:0:
320,192,522219,1,2,0:0:0:0:
448,192,522219,128,4,522805:0:0:0:0:
64,192,522805,1,2,0:0:0:0:
320,192,522805,1,4,0:0:0:0:
192,192,522805,128,0,523390:0:0:0:0:
448,192,523390,1,4,0:0:0:0:
64,192,523390,1,2,0:0:0:0:
320,192,523390,128,0,523976:0:0:0:0:
64,192,523976,1,6,0:0:0:0:
192,192,523976,1,8,0:0:0:0:
320,192,524049,1,2,0:0:0:0:
448,192,524049,1,8,0:0:0:0:
192,192,524122,1,2,0:0:0:0:
64,192,524122,1,8,0:0:0:0:
320,192,524195,1,2,0:0:0:0:
448,192,524195,1,8,0:0:0:0:
64,192,524268,1,2,0:0:0:0:
448,192,524341,1,2,0:0:0:0:
192,192,524415,1,2,0:0:0:0:
320,192,524488,1,2,0:0:0:0:
64,192,524561,1,2,0:0:0:0:
448,192,524634,1,2,0:0:0:0:
192,192,524707,1,2,0:0:0:0:
320,192,524780,1,2,0:0:0:0:
448,192,524854,1,2,0:0:0:0:
192,192,524854,1,8,0:0:0:0:
64,192,524927,1,2,0:0:0:0:
320,192,524927,1,8,0:0:0:0:
192,192,525000,1,2,0:0:0:0:
448,192,525000,1,8,0:0:0:0:
320,192,525073,1,2,0:0:0:0:
64,192,525073,1,8,0:0:0:0:
192,192,525146,1,2,0:0:0:0:
320,192,525219,1,2,0:0:0:0:
448,192,525219,1,8,0:0:0:0:
192,192,525293,1,2,0:0:0:0:
64,192,525293,1,8,0:0:0:0:
320,192,525366,1,2,0:0:0:0:
448,192,525366,1,8,0:0:0:0:
64,192,525439,1,2,0:0:0:0:
192,192,525439,1,8,0:0:0:0:
448,192,525512,1,2,0:0:0:0:
320,192,525512,1,0,0:0:0:0:
192,192,525585,1,2,0:0:0:0:
64,192,525658,1,2,0:0:0:0:
448,192,525658,1,0,0:0:0:0:
320,192,525732,1,2,0:0:0:0:
192,192,525732,1,0,0:0:0:0:
448,192,525805,1,2,0:0:0:0:
64,192,525805,1,0,0:0:0:0:
192,192,525878,1,2,0:0:0:0:
320,192,525878,1,0,0:0:0:0:
448,192,525951,1,0,0:0:0:0:
64,192,525951,1,2,0:0:0:0:
192,192,526024,1,2,0:0:0:0:
320,192,526097,1,2,0:0:0:0:
64,192,526171,1,2,0:0:0:0:
448,192,526244,1,2,0:0:0:0:
320,192,526317,1,0,0:0:0:0:
64,192,526317,1,4,0:0:0:0:
192,192,526317,1,2,0:0:0:0:
192,192,526902,1,0,0:0:0:0:
448,192,526902,1,4,0:0:0:0:
64,192,526902,128,2,527097:0:0:0:0:
448,192,527097,1,2,0:0:0:0:
192,192,527097,1,0,0:0:0:0:
320,192,527097,128,4,527293:0:0:0:0:
64,192,527293,1,0,0:0:0:0:
448,192,527293,1,4,0:0:0:0:
192,192,527293,128,2,527488:0:0:0:0:
320,192,527488,1,2,0:0:0:0:
64,192,527488,1,0,0:0:0:0:
448,192,527488,128,4,527927:0:0:0:0:
