osu file format v14

[General]
AudioFilename: Uta.mp3
AudioLeadIn: 0
PreviewTime: 162485
Countdown: 0
SampleSet: Soft
StackLeniency: 0.7
Mode: 0
LetterboxInBreaks: 0
WidescreenStoryboard: 0

[Editor]
Bookmarks: 2178,33705,52436,73509,87558,106290,125022,143753,162485,181217,199948,218680,237412,256144,274875,293607,312339,331070,350270,369440,388172,411587,430318,449065,467780,486512,505244,514610,527488
DistanceSpacing: 2
BeatDivisor: 4
GridSize: 32
TimelineZoom: 3.499999

[Metadata]
Title:Uta
TitleUnicode:謳
Artist:Imperial Circus Dead Decadence
ArtistUnicode:Imperial Circus Dead Decadence
Creator:pkk
Version:Redemption
Source:
Tags:puxtu extol ou song declare express Ode To The Dreadful Sacrament 惨劇の血に赫く染まった愛と絶望の黒い死とが紡ぐ最期の物語 Sangeki no Chi ni Kagayaku Somatta Ai to Zetsubou no Kuroi Shitoga Tsumugu Saigo no Monogatari Rib:y(uhki) L.G.C. KIM Kylie Hull VAGUEDGE Another Stream Kimiko PEATH2 TOME あにょ REINO Hellnear
BeatmapID:1170505
BeatmapSetID:552726

[Difficulty]
HPDrainRate:5
CircleSize:4.3
OverallDifficulty:9
ApproachRate:9.4
SliderMultiplier:2
SliderTickRate:1

[Events]
//Background and Video events
0,0,"Nanomortis.jpg",0,0
//Break Periods
2,331270,349730
2,430518,447925
//Storyboard Layer 0 (Background)
//Storyboard Layer 1 (Fail)
//Storyboard Layer 2 (Pass)
//Storyboard Layer 3 (Foreground)
//Storyboard Sound Samples

[TimingPoints]
1643,428.571428571429,4,2,2,80,1,0
23928,458.015267175573,4,2,2,80,1,0
24844,468.75,4,2,2,80,1,8
25779,500,4,2,2,80,1,0
27779,545.454545454546,4,2,2,80,1,0
28869,555.555555555556,4,2,2,80,1,8
29975,310.880829015544,4,2,2,80,1,0
33705,292.682926829268,4,2,2,70,1,0
33705,-153.846153846154,4,2,2,70,0,0
33924,-133.333333333333,4,2,2,5,0,0
33997,-133.333333333333,4,2,2,45,0,0
35753,-153.846153846154,4,2,2,75,0,0
35973,-133.333333333333,4,2,2,5,0,0
36046,-133.333333333333,4,2,2,60,0,0
36119,-133.333333333333,4,2,2,45,0,0
38095,-153.846153846154,4,2,2,75,0,0
38314,-153.846153846154,4,2,2,5,0,0
38387,-200,4,2,2,60,0,0
38461,-200,4,2,2,45,0,0
40436,-200,4,2,2,45,0,0
40729,-100,4,2,2,65,0,0
43070,-153.846153846154,4,2,2,75,0,0
43290,-133.333333333333,4,2,2,5,0,0
43363,-133.333333333333,4,2,2,45,0,0
45119,-153.846153846154,4,2,2,75,0,0
45339,-133.333333333333,4,2,2,5,0,0
45412,-133.333333333333,4,2,2,60,0,0
45485,-133.333333333333,4,2,2,45,0,0
47461,-153.846153846154,4,2,2,75,0,0
47680,-133.333333333333,4,2,2,5,0,0
47753,-133.333333333333,4,2,2,60,0,0
47826,-133.333333333333,4,2,2,45,0,0
50095,-100,4,2,1,65,0,0
50314,-100,4,2,1,5,0,0
50387,-100,4,2,1,55,0,0
52144,-83.3333333333333,4,1,1,45,0,0
52436,-111.111111111111,4,2,1,65,0,0
75704,-111.111111111111,4,2,1,15,0,0
75851,-111.111111111111,4,2,1,60,0,0
85144,-111.111111111111,4,2,1,5,0,0
85217,-111.111111111111,4,2,1,60,0,0
87485,-111.111111111111,4,2,1,5,0,0
87558,-111.111111111111,4,2,1,70,0,0
96192,-111.111111111111,4,2,1,70,0,0
96412,-111.111111111111,4,2,1,5,0,0
96485,-111.111111111111,4,2,1,70,0,0
96631,-66.6666666666667,4,2,1,60,0,0
96851,-111.111111111111,4,2,1,5,0,0
96924,-111.111111111111,4,2,1,60,0,0
103875,-111.111111111111,4,2,1,5,0,0
103948,-111.111111111111,4,2,1,60,0,0
106290,-111.111111111111,4,2,5,60,0,0
106363,-111.111111111111,4,2,1,60,0,0
115436,-111.111111111111,4,2,1,5,0,0
115509,-111.111111111111,4,2,1,60,0,0
115583,-111.111111111111,4,2,1,5,0,0
115656,-111.111111111111,4,2,1,60,0,0
120192,-111.111111111111,4,2,1,15,0,0
120339,-111.111111111111,4,2,1,60,0,0
124436,-111.111111111111,4,2,1,60,0,0
125022,-111.111111111111,4,2,5,60,0,0
125095,-111.111111111111,4,2,1,60,0,0
129631,-111.111111111111,4,2,1,5,0,0
129704,-111.111111111111,4,2,1,60,0,0
143753,-90.9090909090909,4,2,5,65,0,0
143826,-90.9090909090909,4,2,1,85,0,0
152168,-90.9090909090909,4,2,1,5,0,0
152241,-90.9090909090909,4,2,1,75,0,0
153119,-90.9090909090909,4,2,5,65,0,0
153192,-90.9090909090909,4,2,1,75,0,0
162485,-100,4,2,5,65,0,1
162558,-100,4,2,1,70,0,1
171704,-100,4,2,1,65,0,0
171851,-100,4,2,5,70,0,1
171924,-100,4,2,1,70,0,1
181217,-111.111111111111,4,2,1,75,0,0
199948,-111.111111111111,4,2,1,65,0,0
201851,-83.3333333333333,4,2,1,65,0,0
202217,-111.111111111111,4,2,1,5,0,0
202290,-111.111111111111,4,2,1,65,0,0
204192,-83.3333333333333,4,2,1,65,0,0
204558,-111.111111111111,4,2,1,5,0,0
204631,-111.111111111111,4,2,1,65,0,0
206753,-111.111111111111,4,2,1,5,0,0
206826,-111.111111111111,4,2,1,65,0,0
211217,-83.3333333333333,4,2,1,65,0,0
211583,-111.111111111111,4,2,1,5,0,0
211656,-111.111111111111,4,2,1,65,0,0
213558,-83.3333333333333,4,2,1,65,0,0
213924,-111.111111111111,4,2,1,5,0,0
213997,-111.111111111111,4,2,1,65,0,0
217509,-83.3333333333333,4,2,1,65,0,0
217729,-111.111111111111,4,2,1,5,0,0
217802,-111.111111111111,4,2,1,65,0,0
218680,-100,4,2,1,65,0,1
221022,-83.3333333333333,4,2,1,65,0,1
221534,-100,4,2,1,5,0,1
221607,-100,4,2,1,65,0,1
222778,-83.3333333333333,4,2,1,65,0,1
223217,-100,4,2,1,5,0,1
223363,-100,4,2,1,65,0,1
228046,-83.3333333333333,4,2,1,65,0,1
228485,-100,4,2,1,5,0,1
228631,-100,4,2,1,65,0,1
232144,-83.3333333333333,4,2,1,65,0,1
232729,-100,4,2,1,65,0,1
237412,-111.111111111111,4,2,1,60,0,0
246265,-111.111111111111,4,2,1,5,0,0
246339,-111.111111111111,4,2,1,60,0,0
246485,-66.6666666666667,4,2,1,60,0,0
246704,-111.111111111111,4,2,1,5,0,0
246778,-111.111111111111,4,2,1,60,0,0
256144,-111.111111111111,4,2,5,60,0,0
256217,-111.111111111111,4,2,1,60,0,0
274875,-133.333333333333,4,2,2,60,0,0
283070,-133.333333333333,4,2,1,70,0,0
283948,-153.846153846154,4,2,1,60,0,0
284168,-133.333333333333,4,2,1,5,0,0
284241,-133.333333333333,4,2,1,85,0,0
284680,-133.333333333333,4,2,1,5,0,0
284826,-133.333333333333,4,2,1,85,0,0
285265,-133.333333333333,4,2,1,5,0,0
285412,-133.333333333333,4,2,1,85,0,0
285851,-133.333333333333,4,2,1,5,0,0
285997,-133.333333333333,4,2,1,85,0,0
286436,-133.333333333333,4,2,1,5,0,0
286583,-133.333333333333,4,2,1,85,0,0
287022,-133.333333333333,4,2,1,5,0,0
287168,-133.333333333333,4,2,1,85,0,0
287607,-133.333333333333,4,2,1,5,0,0
287753,-133.333333333333,4,2,1,85,0,0
288924,-111.111111111111,4,2,1,60,0,0
293607,-90.9090909090909,4,2,5,65,0,0
293680,-90.9090909090909,4,2,1,70,0,0
302973,-90.9090909090909,4,2,5,65,0,0
303046,-90.9090909090909,4,2,1,70,0,0
312339,-100,4,2,5,65,0,1
312412,-100,4,2,1,70,0,1
321558,-100,4,2,1,65,0,0
321704,-100,4,2,5,70,0,1
321778,-100,4,2,1,70,0,1
331070,300,4,2,1,40,1,0
350270,-133.333333333333,4,2,2,40,0,0
368270,292.682926829268,4,2,2,55,1,0
368270,-133.333333333333,4,2,2,55,0,0
387001,-100,4,2,1,65,0,0
388172,-100,4,2,1,60,0,1
390367,-100,4,2,1,15,0,1
390513,-100,4,2,1,60,0,1
392782,-100,4,2,1,5,0,1
392855,-100,4,2,1,60,0,1
395050,-100,4,2,1,15,0,1
395196,-100,4,2,1,60,0,1
399733,-100,4,2,1,15,0,1
399879,-100,4,2,1,60,0,1
402148,-100,4,2,1,5,0,1
402221,-100,4,2,1,60,0,1
404489,-100,4,2,1,5,0,1
404562,-100,4,2,1,60,0,1
406904,-133.333333333333,4,2,1,60,0,1
407050,-133.333333333333,4,2,1,15,0,1
407123,-133.333333333333,4,2,1,60,0,1
407269,-133.333333333333,4,2,1,15,0,1
407343,-133.333333333333,4,2,1,60,0,1
407489,-133.333333333333,4,2,1,15,0,1
407562,-133.333333333333,4,2,1,60,0,1
407709,-133.333333333333,4,2,1,15,0,1
407782,-133.333333333333,4,2,1,60,0,1
407928,-133.333333333333,4,2,1,15,0,1
408001,-133.333333333333,4,2,1,60,0,1
408148,-133.333333333333,4,2,1,15,0,1
408221,-133.333333333333,4,2,1,60,0,1
409245,-100,4,2,1,60,0,1
409830,-100,4,2,1,5,0,1
410123,-100,4,2,1,35,0,1
410416,-133.333333333333,4,2,1,60,0,1
411587,-100,4,2,1,65,0,0
415538,-76.9230769230769,4,2,1,65,0,0
415830,-100,4,2,1,65,0,0
420879,-100,4,2,1,5,0,0
420952,-100,4,2,1,65,0,0
421172,-100,4,2,1,5,0,0
421245,-100,4,2,1,65,0,0
424904,-76.9230769230769,4,2,1,65,0,0
425196,-100,4,2,1,65,0,0
427465,-100,4,2,1,5,0,0
427538,-100,4,2,1,65,0,0
430318,-100,4,2,1,40,0,0
448465,300,4,2,1,30,1,8
448465,-166.666666666667,4,2,1,30,0,0
449065,292.682926829268,4,2,3,40,1,0
449065,-166.666666666667,4,2,3,40,0,0
451113,-166.666666666667,4,2,3,50,0,0
451406,-166.666666666667,4,2,3,40,0,0
453162,-166.666666666667,4,2,3,50,0,0
453747,-166.666666666667,4,2,3,40,0,0
454625,-166.666666666667,4,2,3,50,0,0
454918,-166.666666666667,4,2,3,40,0,0
455504,-166.666666666667,4,2,3,50,0,0
456089,-166.666666666667,4,2,3,40,0,0
457552,-166.666666666667,4,2,3,45,0,0
457845,-166.666666666667,4,2,3,50,0,0
458430,-166.666666666667,4,2,3,40,0,0
460479,-166.666666666667,4,2,3,50,0,0
460772,-166.666666666667,4,2,3,40,0,0
462528,-166.666666666667,4,2,3,50,0,0
462952,292.682926829268,4,2,1,40,1,8
463098,292.682926829268,4,2,1,50,1,0
463098,-133.333333333333,4,2,1,50,0,0
467780,-111.111111111111,4,2,5,50,0,0
469537,-111.111111111111,4,2,1,50,0,0
470122,-111.111111111111,4,2,5,60,0,0
470195,-111.111111111111,4,2,1,60,0,0
472829,-111.111111111111,4,2,1,5,0,0
472902,-111.111111111111,4,2,1,50,0,0
476341,-111.111111111111,4,2,1,5,0,0
476415,-111.111111111111,4,2,1,50,0,0
484171,-111.111111111111,4,2,1,70,0,0
486512,-100,4,2,5,65,0,1
486585,-100,4,2,1,70,0,1
493537,-100,4,2,1,75,0,1
493683,-100,4,2,1,65,0,1
493829,-100,4,2,1,75,0,1
493976,-100,4,2,1,65,0,1
494122,-100,4,2,1,75,0,1
494268,-100,4,2,1,65,0,1
494415,-100,4,2,1,75,0,1
494561,-100,4,2,1,65,0,1
494707,-100,4,2,1,65,0,1
495732,-100,4,2,1,65,0,0
495878,-100,4,2,5,70,0,1
495951,-100,4,2,1,70,0,1
505244,-100,4,2,5,60,0,0
505317,-100,4,2,1,60,0,0
509927,-76.9230769230769,4,2,1,60,0,0
510219,-100,4,2,1,60,0,0
512268,-100,4,2,1,70,0,0
512415,-100,4,2,1,55,0,0
512561,-100,4,2,1,70,0,0
512707,-100,4,2,1,55,0,0
512854,-100,4,2,1,77,0,0
513000,-100,4,2,1,60,0,0
513146,-100,4,2,1,77,0,0
513293,-100,4,2,1,60,0,0
513439,-100,4,2,1,65,0,0
514610,-100,4,2,1,60,0,0
521488,-100,4,2,1,5,0,0
521634,-100,4,2,1,60,0,0
526902,-100,4,2,1,60,0,0
527488,-100,4,2,1,65,0,0

[Colours]
Combo1 : 97,108,109
Combo2 : 238,95,87
Combo3 : 250,202,190
Combo4 : 188,55,48
Combo5 : 124,174,123
Combo6 : 152,148,148

[HitObjects]
135,315,33705,38,0,L|248:308,1,97.4999955368044,4|0,0:0|0:0,0:0:0:0:
283,250,33997,22,0,P|270:286|260:322,1,75.0000028610231
263,166,34290,2,0,P|275:201|285:237,1,75.0000028610231,0|0,0:0|0:0,0:0:0:0:
311,83,34583,2,0,P|281:131|270:153,1,75.0000028610231,0|0,0:0|0:0,0:0:0:0:
398,95,34875,6,0,P|366:77|319:73,1,75.0000028610231
406,188,35168,2,0,P|415:152|406:105,1,75.0000028610231,0|0,0:0|0:0,0:0:0:0:
320,222,35461,2,0,P|356:221|399:201,1,75.0000028610231,0|0,0:0|0:0,0:0:0:0:
230,173,35753,54,0,P|266:205|292:246,1,97.4999955368044,4|0,0:0|0:0,0:0:0:0:
215,312,36046,6,0,P|270:297|291:293,1,75.0000028610231,4|0,0:0|0:0,0:0:0:0:
128,261,36339,2,0,P|166:282|203:305,1,75.0000028610231,0|0,0:0|0:0,0:0:0:0:
132,186,36631,2,0,P|124:222|114:258,1,75.0000028610231,0|0,0:0|0:0,0:0:0:0:
103,97,36924,2,0,P|110:133|120:169,1,75.0000028610231,0|0,0:0|0:0,0:0:0:0:
188,54,37217,6,0,P|149:74|114:75,1,75.0000028610231
273,95,37509,2,0,P|234:74|213:46,1,75.0000028610231,0|0,0:0|0:0,0:0:0:0:
288,191,37802,2,0,P|282:147|293:114,1,75.0000028610231,0|0,0:0|0:0,0:0:0:0:
388,251,38095,38,0,P|338:231|276:227,1,97.4999955368044,4|0,0:0|0:0,0:0:0:0:
218,290,38387,6,0,B|179:316|136:291|136:291|86:281|56:319|56:319|68:255|116:239|116:239|49:211|7:162|57:39|57:39|84:128|111:172|177:174,1,700,4|2,0:0|0:0,0:0:0:0:
331,187,40729,38,0,L|390:171,3,50,4|0|0|0,3:2|3:0|3:0|3:0,0:0:0:0:
416,205,41022,2,0,L|472:237,3,50,0|0|0|0,3:0|3:0|3:0|3:0,0:0:0:0:
465,273,41314,1,2,3:2:0:0:
457,291,41387,1,0,3:0:0:0:
448,309,41461,1,0,1:0:0:0:
435,324,41534,1,0,1:0:0:0:
421,338,41607,1,0,1:2:0:0:
404,349,41680,1,0,1:0:0:0:
386,358,41753,1,0,1:0:0:0:
367,363,41826,1,0,1:0:0:0:
346,364,41900,6,0,P|323:355|299:352,3,50,8|0|0|0,3:0|3:0|3:0|3:0,0:0:0:0:
277,278,42192,2,0,P|254:287|234:303,3,50,4|0|0|0,3:0|3:0|3:0|3:0,0:0:0:0:
154,303,42485,6,0,P|157:279|167:256,1,50,4|0,3:0|3:0,0:0:0:0:
109,201,42631,2,0,P|128:185|151:175,1,50,0|0,3:0|3:0,0:0:0:0:
144,90,42778,2,0,P|168:93|192:103,1,50,0|0,3:0|3:0,0:0:0:0:
247,45,42924,2,0,P|262:64|272:87,1,50,0|0,3:0|3:0,0:0:0:0:
345,140,43070,6,0,L|334:236,1,97.4999955368044,4|0,0:0|0:0,0:0:0:0:
265,292,43363,6,0,B|298:279|298:279|337:286,1,75.0000028610231
422,268,43656,2,0,B|383:275|383:275|345:259,1,75.0000028610231
437,174,43948,2,0,B|450:206|450:206|443:245,1,75.0000028610231
420,84,44241,6,0,B|406:116|406:116|413:155,1,75.0000028610231
343,60,44534,2,0,L|448:48,1,75.0000028610231
253,70,44826,2,0,L|358:82,1,75.0000028610231
245,188,45119,6,0,P|238:139|230:91,1,97.4999955368044,4|0,0:0|0:0,0:0:0:0:
141,131,45412,54,0,L|204:78,1,75.0000028610231,4|0,0:0|0:0,0:0:0:0:
150,238,45704,2,0,P|132:192|130:153,1,75.0000028610231
161,309,45997,2,0,P|179:263|181:224,1,75.0000028610231
70,331,46290,2,0,P|122:342|169:333,1,75.0000028610231
256,328,46583,6,0,P|219:317|182:318,1,75.0000028610231
331,257,46875,2,0,P|320:292|298:323,1,75.0000028610231
294,161,47168,2,0,P|306:215|330:252,1,75.0000028610231
406,133,47461,6,0,L|291:125,1,97.4999955368044,4|0,0:0|0:0,0:0:0:0:
328,37,47753,54,0,P|322:74|308:108,1,75.0000028610231,4|0,0:0|0:0,0:0:0:0:
224,184,48046,2,0,P|256:165|282:138,1,75.0000028610231
167,118,48339,2,0,P|172:154|188:189,1,75.0000028610231,2|0,0:0|0:0,0:0:0:0:
289,273,48631,2,0,P|256:254|229:228,1,75.0000028610231
191,330,48924,6,0,P|228:333|265:326,1,75.0000028610231,2|0,0:0|0:0,0:0:0:0:
389,252,49217,2,0,P|363:279|331:299,1,75.0000028610231
442,375,49509,2,0,P|449:338|447:301,1,75.0000028610231,2|0,0:0|0:0,0:0:0:0:
384,100,49802,2,0,P|389:136|405:171,1,75.0000028610231
283,200,50095,6,0,P|210:165|126:197,1,150,4|0,3:2|0:0,0:0:0:0:
147,184,50387,1,0,3:0:0:0:
148,195,50461,1,0,3:0:0:0:
149,206,50534,1,0,3:0:0:0:
150,218,50607,1,0,3:0:0:0:
151,229,50680,1,8,3:2:0:0:
315,343,50973,1,0,3:0:0:0:
316,331,51046,1,0,3:0:0:0:
317,320,51119,1,0,3:0:0:0:
318,308,51192,1,0,3:0:0:0:
319,297,51265,6,0,L|324:233,3,50,4|0|0|0,3:2|0:0|0:0|0:0,0:0:0:0:
232,245,51558,2,0,L|228:195,3,50,2|0|0|0,0:0|0:0|0:0|0:0,0:0:0:0:
237,343,51851,6,0,P|204:338|175:323,2,66.6666666666667,8|0|0,0:0|0:0|0:0,0:0:0:0:
395,326,52144,2,0,B|408:277|408:277|393:236|393:236|405:206|403:171,1,159.999995117188,2|0,1:0|3:0,3:0:0:0:
366,69,52436,6,0,P|325:87|303:126,1,89.9999972534181,4|8,3:2|0:0,0:0:0:0:
208,292,52729,2,0,P|224:250|212:207,1,89.9999972534181,2|8,3:2|0:0,0:0:0:0:
53,163,53022,1,2,3:2:0:0:
74,186,53095,1,0,3:0:0:0:
102,198,53168,1,8,0:0:0:0:
283,133,53314,2,0,L|389:120,1,89.9999972534181,2|8,3:2|0:0,0:0:0:0:
468,242,53607,38,0,L|378:236,1,89.9999972534181,2|8,3:2|0:0,0:0:0:0:
196,62,53900,2,0,P|201:106|206:151,1,89.9999972534181,2|8,3:2|0:0,0:0:0:0:
141,325,54192,1,2,0:0:0:0:
145,293,54265,1,0,3:0:0:0:
149,261,54339,1,8,0:0:0:0:
355,214,54485,2,0,B|314:223|314:223|261:217,1,89.9999972534181,4|8,3:2|0:0,0:0:0:0:
367,357,54778,6,0,B|413:340|413:340|453:339,1,89.9999972534181,4|8,3:2|0:0,0:0:0:0:
510,142,55070,2,0,B|503:187|503:187|512:237,1,89.9999972534181,2|8,3:2|0:0,0:0:0:0:
357,263,55363,1,2,3:2:0:0:
354,231,55436,1,0,3:2:0:0:
352,200,55509,1,8,0:0:0:0:
269,35,55656,2,0,B|276:80|276:80|267:130,1,89.9999972534181,2|8,3:2|0:0,0:0:0:0:
166,231,55948,6,0,B|124:219|124:219|79:224,1,89.9999972534181,2|8,3:2|0:0,0:0:0:0:
248,341,56241,2,0,B|293:346|293:346|336:333,1,89.9999972534181,2|8,3:2|0:0,0:0:0:0:
345,149,56534,1,0,0:0:0:0:
336,179,56607,1,0,3:0:0:0:
327,209,56680,1,8,0:0:0:0:
247,123,56826,1,2,3:2:0:0:
436,195,56973,1,8,0:0:0:0:
304,45,57119,6,0,B|245:33|245:33|191:45|191:45|159:35|126:44,1,179.999994506836,4|0,3:2|3:0,0:0:0:0:
22,136,57558,1,8,0:0:0:0:
149,207,57704,1,0,3:2:0:0:
149,207,57778,1,0,3:2:0:0:
149,207,57851,1,8,0:0:0:0:
261,180,57997,1,2,3:2:0:0:
120,318,58144,1,8,0:0:0:0:
278,359,58290,38,0,P|271:273|259:164,1,179.999994506836,4|0,3:2|3:0,0:0:0:0:
310,47,58729,1,8,0:0:0:0:
155,126,58875,1,2,0:0:0:0:
155,126,58948,1,0,3:0:0:0:
155,126,59022,1,8,0:0:0:0:
351,154,59168,1,2,3:2:0:0:
351,154,59241,1,0,0:0:0:0:
351,154,59314,1,8,0:0:0:0:
218,238,59461,5,4,3:2:0:0:
251,101,59607,1,8,0:0:0:0:
388,134,59753,1,0,3:0:0:0:
355,271,59900,1,8,0:0:0:0:
218,238,60046,5,8,3:0:0:0:
196,230,60119,1,0,3:0:0:0:
174,226,60192,1,0,3:0:0:0:
152,227,60265,1,0,3:0:0:0:
130,232,60339,1,0,3:0:0:0:
109,241,60412,1,0,3:0:0:0:
91,254,60485,1,8,3:2:0:0:
75,270,60558,1,0,3:0:0:0:
63,289,60631,6,0,P|60:311|60:334,3,44.999998626709,4|0|0|0,3:2|3:0|3:0|3:0,0:0:0:0:
146,373,60924,2,0,P|146:350|142:328,3,44.999998626709,8|0|0|0,3:0|3:0|3:0|3:0,0:0:0:0:
227,297,61217,1,10,3:2:0:0:
251,308,61290,1,0,3:2:0:0:
277,314,61363,1,0,3:2:0:0:
304,314,61436,1,0,3:2:0:0:
330,307,61509,1,8,3:2:0:0:
354,295,61583,1,0,3:2:0:0:
375,278,61656,1,0,3:2:0:0:
392,257,61729,1,0,3:2:0:0:
403,233,61802,38,0,B|410:187|410:187|403:130,1,89.9999972534181,4|8,3:2|0:0,0:0:0:0:
250,21,62095,2,0,L|281:115,1,89.9999972534181,2|8,3:2|0:0,0:0:0:0:
237,232,62387,1,2,3:2:0:0:
207,225,62461,1,0,3:2:0:0:
178,211,62534,1,8,0:0:0:0:
280,331,62680,2,0,P|347:320|390:317,1,89.9999972534181,2|8,3:2|0:0,0:0:0:0:
491,138,62973,6,0,L|480:227,1,89.9999972534181,2|8,3:2|0:0,0:0:0:0:
353,129,63265,2,0,B|344:87|344:87|342:39,1,89.9999972534181,2|8,3:2|0:0,0:0:0:0:
275,225,63558,1,2,3:2:0:0:
246,239,63631,1,0,3:2:0:0:
216,246,63704,1,8,0:0:0:0:
85,309,63851,1,2,3:2:0:0:
114,323,63924,1,0,3:2:0:0:
144,330,63997,1,8,0:0:0:0:
119,186,64144,6,0,B|111:141|111:141|113:80,1,89.9999972534181,4|8,3:2|0:0,0:0:0:0:
307,164,64436,2,0,B|315:209|315:209|313:270,1,89.9999972534181,2|8,3:2|0:0,0:0:0:0:
217,108,64729,1,2,3:2:0:0:
240,87,64802,1,0,3:2:0:0:
268,72,64875,1,8,0:0:0:0:
473,97,65022,2,0,L|378:88,1,89.9999972534181,2|8,3:2|0:0,0:0:0:0:
228,189,65314,5,8,3:0:0:0:
237,214,65387,1,0,3:0:0:0:
246,239,65461,1,4,3:0:0:0:
253,265,65534,1,0,3:0:0:0:
259,292,65607,2,0,B|186:282|186:282|106:321,1,134.999995880127,2|0,3:2|0:0,0:0:0:0:
202,371,65900,1,8,3:0:0:0:
228,373,65973,1,0,3:0:0:0:
255,375,66046,1,4,3:0:0:0:
282,377,66119,1,0,3:0:0:0:
309,378,66192,2,0,B|355:379|355:379|405:358,1,89.9999972534181,4|0,3:2|0:0,0:0:0:0:
345,264,66485,37,2,3:2:0:0:
323,247,66558,1,0,3:0:0:0:
308,225,66631,1,0,3:0:0:0:
301,199,66704,1,0,3:0:0:0:
302,172,66778,1,0,3:0:0:0:
311,147,66851,1,0,3:0:0:0:
327,125,66924,1,8,3:0:0:0:
349,110,66997,1,8,3:0:0:0:
375,102,67070,2,0,P|396:111|412:126,3,44.999998626709,0|0|0|0,3:0|3:0|3:0|3:0,0:0:0:0:
486,91,67363,2,0,P|494:111|495:134,3,44.999998626709,0|0|0|0,3:0|3:0|3:0|3:0,0:0:0:0:
449,208,67656,5,2,3:2:0:0:
421,236,67729,1,0,3:2:0:0:
382,242,67802,1,0,3:2:0:0:
344,233,67875,1,0,3:2:0:0:
322,199,67948,1,0,3:2:0:0:
324,158,68022,1,0,3:2:0:0:
313,125,68095,1,0,3:2:0:0:
280,101,68168,1,0,3:2:0:0:
241,96,68241,1,2,3:2:0:0:
206,114,68314,1,0,3:2:0:0:
193,151,68387,1,0,3:2:0:0:
201,189,68461,1,0,3:2:0:0:
226,218,68534,1,0,3:2:0:0:
226,256,68607,1,0,3:2:0:0:
202,287,68680,1,0,3:2:0:0:
166,302,68753,1,0,3:2:0:0:
129,289,68826,1,4,3:2:0:0:
256,192,68900,12,4,71168,0:0:0:0:
256,192,71241,12,4,73509,0:0:0:0:
256,192,73583,12,4,74680,0:0:0:0:
316,46,75412,5,8,3:0:0:0:
316,46,75485,1,8,3:0:0:0:
316,46,75558,2,0,L|321:151,1,89.9999972534181,0|0,3:0|0:0,0:0:0:0:
269,253,75851,5,4,3:2:0:0:
250,239,75924,1,0,3:2:0:0:
231,229,75997,1,0,3:2:0:0:
209,222,76070,1,0,3:2:0:0:
187,218,76144,1,0,3:2:0:0:
165,219,76217,1,0,3:2:0:0:
142,222,76290,1,0,3:2:0:0:
121,230,76363,1,0,3:2:0:0:
101,241,76436,1,8,3:2:0:0:
79,242,76509,1,0,3:2:0:0:
57,238,76583,1,0,3:2:0:0:
37,228,76656,1,0,3:2:0:0:
21,213,76729,1,0,3:2:0:0:
9,193,76802,1,0,3:2:0:0:
3,172,76875,1,0,3:2:0:0:
3,149,76948,1,0,3:2:0:0:
9,128,77022,38,0,P|19:108|34:91,3,44.999998626709,4|0|0|0,3:2|3:2|3:2|3:2,0:0:0:0:
112,57,77314,2,0,P|134:55|156:60,3,44.999998626709,0|0|0|0,3:0|3:0|3:0|3:0,0:0:0:0:
232,100,77607,2,0,P|244:118|251:140,3,44.999998626709,4|0|0|0,3:0|3:0|3:0|3:0,0:0:0:0:
250,226,77900,2,0,P|240:245|225:263,3,44.999998626709,0|0|0|0,3:0|3:0|3:0|3:0,0:0:0:0:
313,292,78192,5,4,3:2:0:0:
301,321,78265,1,0,3:2:0:0:
283,347,78339,1,0,3:2:0:0:
255,362,78412,1,0,3:2:0:0:
223,360,78485,1,0,3:2:0:0:
196,343,78558,1,0,3:2:0:0:
189,312,78631,1,0,3:2:0:0:
201,283,78704,1,0,3:2:0:0:
230,269,78778,1,0,3:2:0:0:
260,274,78851,1,0,3:2:0:0:
286,291,78924,1,0,3:2:0:0:
308,313,78997,1,0,3:2:0:0:
334,330,79070,1,0,3:2:0:0:
365,332,79144,1,0,3:2:0:0:
394,322,79217,1,0,3:2:0:0:
413,297,79290,1,0,3:2:0:0:
419,266,79363,6,0,P|422:243|424:221,3,44.999998626709,2|0|0|0,3:2|3:2|3:2|3:2,0:0:0:0:
356,197,79656,2,0,P|358:174|362:152,3,44.999998626709,0|0|0|0,3:0|3:0|3:0|3:0,0:0:0:0:
296,122,79948,2,0,P|293:99|289:77,3,44.999998626709,0|0|0|0,3:0|3:0|3:0|3:0,0:0:0:0:
213,58,80241,1,6,3:2:0:0:
213,58,80314,1,0,3:2:0:0:
213,57,80387,2,0,P|214:80|215:102,1,44.999998626709,0|0,3:0|3:0,0:0:0:0:
228,194,80534,5,4,3:2:0:0:
202,176,80607,1,0,3:0:0:0:
171,168,80680,1,0,3:0:0:0:
140,171,80753,1,0,3:0:0:0:
112,184,80826,1,0,3:0:0:0:
90,207,80900,1,0,3:0:0:0:
60,214,80973,1,0,3:0:0:0:
30,205,81046,1,0,3:0:0:0:
10,181,81119,1,0,3:0:0:0:
5,150,81192,1,0,3:0:0:0:
16,122,81265,1,0,3:0:0:0:
41,103,81339,1,0,3:0:0:0:
72,100,81412,1,0,3:0:0:0:
102,107,81485,1,0,3:0:0:0:
133,101,81558,1,0,3:0:0:0:
157,81,81631,1,0,3:0:0:0:
170,53,81704,38,0,L|158:2,3,44.999998626709,0|0|0|0,3:2|3:0|3:0|3:0,0:0:0:0:
237,114,81997,2,0,L|247:70,3,44.999998626709,0|0|0|0,3:0|3:0|3:0|3:0,0:0:0:0:
179,188,82290,2,0,P|151:175|118:166,3,44.999998626709,0|0|0|0,3:0|3:0|3:0|3:0,0:0:0:0:
259,222,82583,2,0,P|287:209|320:200,3,44.999998626709,0|0|0|0,3:0|3:0|3:0|3:0,0:0:0:0:
191,277,82875,5,4,3:2:0:0:
189,308,82948,1,0,3:0:0:0:
200,337,83022,1,0,3:0:0:0:
225,357,83095,1,0,3:0:0:0:
255,365,83168,1,0,3:0:0:0:
280,347,83241,1,0,3:0:0:0:
308,333,83314,1,0,3:0:0:0:
339,328,83387,1,0,3:0:0:0:
368,338,83461,1,0,3:0:0:0:
393,355,83534,1,0,3:0:0:0:
424,361,83607,1,0,3:0:0:0:
454,354,83680,1,0,3:0:0:0:
479,335,83753,1,0,3:0:0:0:
494,307,83826,1,0,3:0:0:0:
497,276,83900,1,0,3:0:0:0:
486,247,83973,1,0,3:0:0:0:
465,224,84046,6,0,P|454:197|449:160,3,44.999998626709,2|0|0|0,3:2|3:0|3:0|3:0,0:0:0:0:
362,188,84339,2,0,P|365:166|370:144,3,44.999998626709,0|0|0|0,3:0|3:0|3:0|3:0,0:0:0:0:
297,267,84631,1,6,3:2:0:0:
297,267,84704,1,2,3:2:0:0:
297,267,84778,2,0,L|287:220,1,44.999998626709,0|0,3:0|3:0,0:0:0:0:
206,153,84924,2,0,L|193:288,1,134.999995880127,2|0,0:0|0:0,0:0:0:0:
133,351,85217,6,0,B|92:334|92:334|59:304,1,89.9999972534181,6|0,3:2|0:0,0:0:0:0:
17,209,85509,1,0,0:0:0:0:
192,286,85656,2,0,B|162:254|162:254|145:212,1,89.9999972534181,2|0,0:0|0:0,0:0:0:0:
148,108,85948,1,0,0:0:0:0:
279,246,86095,2,0,B|265:204|265:204|267:159,1,89.9999972534181,2|0,0:0|0:0,0:0:0:0:
312,63,86387,1,0,0:0:0:0:
373,236,86534,2,0,B|379:192|379:192|400:152,1,89.9999972534181,2|0,0:0|0:0,0:0:0:0:
483,83,86826,1,0,0:0:0:0:
428,323,86973,38,0,B|386:337|386:337|340:329,1,89.9999972534181,2|0,0:0|0:0,0:0:0:0:
104,248,87265,2,0,B|146:262|146:262|232:235,1,134.999995880127,2|0,0:0|0:0,0:0:0:0:
313,185,87558,5,4,3:2:0:0:
241,359,87704,1,8,3:2:0:0:
140,177,87851,1,0,3:0:0:0:
143,162,87924,1,0,3:0:0:0:
146,147,87997,2,0,B|188:133|188:133|234:141,1,89.9999972534181,10|0,0:0|3:0,0:0:0:0:
412,201,88290,1,8,0:0:0:0:
286,336,88436,2,0,L|297:246,1,89.9999972534181,2|8,3:2|0:0,0:0:0:0:
247,116,88729,5,2,3:2:0:0:
371,206,88875,1,8,0:0:0:0:
210,253,89022,1,0,3:0:0:0:
351,114,89168,1,10,0:0:0:0:
351,114,89241,1,0,0:0:0:0:
351,114,89314,1,0,3:0:0:0:
247,20,89461,1,8,0:2:0:0:
102,153,89607,2,0,L|200:140,1,89.9999972534181,2|8,3:2|0:0,0:0:0:0:
57,263,89900,5,2,3:2:0:0:
0,117,90046,1,8,0:0:0:0:
192,142,90192,1,0,3:2:0:0:
187,173,90265,1,0,3:2:0:0:
182,204,90339,2,0,B|177:246|177:246|197:303,1,89.9999972534181,10|0,0:0|3:0,0:0:0:0:
300,241,90631,1,8,0:0:0:0:
436,147,90778,2,0,B|441:189|441:189|421:246,1,89.9999972534181,2|8,3:2|0:0,0:0:0:0:
347,155,91070,37,2,3:2:0:0:
380,299,91217,1,8,0:0:0:0:
339,67,91363,1,2,3:2:0:0:
260,204,91509,1,8,0:0:0:0:
147,71,91656,1,2,3:2:0:0:
194,279,91802,1,8,0:0:0:0:
254,101,91948,1,2,3:2:0:0:
254,101,92022,1,0,3:0:0:0:
254,101,92095,1,8,0:0:0:0:
50,224,92241,6,0,L|159:215,1,89.9999972534181,4|8,3:2|0:0,0:0:0:0:
292,333,92534,1,0,3:0:0:0:
293,307,92607,1,0,3:0:0:0:
293,281,92680,2,0,B|275:230|275:230|248:199,1,89.9999972534181,10|0,0:0|3:0,0:0:0:0:
181,309,92973,1,8,0:0:0:0:
193,129,93119,2,0,B|211:78|211:78|234:50,1,89.9999972534181,2|8,3:2|0:0,0:0:0:0:
409,208,93412,5,2,3:2:0:0:
274,197,93558,1,8,0:0:0:0:
308,345,93704,1,0,3:0:0:0:
120,272,93851,2,0,B|155:258|155:258|207:261,1,89.9999972534181,10|0,0:0|3:0,0:0:0:0:
69,358,94144,1,8,0:0:0:0:
34,183,94290,2,0,B|69:169|69:169|121:172,1,89.9999972534181,2|8,3:2|0:0,0:0:0:0:
326,240,94583,5,2,3:2:0:0:
210,236,94729,1,8,0:0:0:0:
392,128,94875,1,0,3:0:0:0:
410,148,94948,1,0,3:0:0:0:
429,168,95022,2,0,B|438:218|438:218|433:261,1,89.9999972534181,10|0,0:2|3:0,0:0:0:0:
275,316,95314,1,8,0:0:0:0:
307,179,95461,1,0,3:0:0:0:
118,264,95607,1,8,0:0:0:0:
118,264,95680,1,0,0:0:0:0:
118,264,95753,38,0,L|111:204,1,44.999998626709,2|0,3:2|0:0,0:0:0:0:
174,73,95900,2,0,L|168:117,1,44.999998626709,0|0,3:0|0:0,0:0:0:0:
216,219,96046,1,10,0:0:0:0:
430,160,96192,1,0,3:0:0:0:
430,160,96265,1,0,3:0:0:0:
430,160,96339,2,0,L|367:150,1,44.999998626709,8|0,0:3|0:0,0:0:0:0:
300,268,96485,2,0,L|363:258,1,44.999998626709,0|0,3:0|3:0,0:0:0:0:
488,282,96631,6,0,B|507:334|474:369|474:369|426:348|426:348|397:371|351:372,1,225.000008583069,2|0,0:1|0:0,0:0:0:0:
271,348,96924,6,0,B|209:337|209:337|161:346,1,89.9999972534181,4|8,3:2|0:0,0:0:0:0:
81,171,97217,1,0,3:0:0:0:
88,196,97290,1,0,3:0:0:0:
95,221,97363,2,0,B|157:232|157:232|205:223,1,89.9999972534181,10|0,0:0|3:0,0:0:0:0:
336,158,97656,1,8,0:0:0:0:
268,269,97802,1,0,3:2:0:0:
209,100,97948,1,8,0:0:0:0:
416,79,98095,6,0,B|425:127|425:127|426:186,1,89.9999972534181,2|8,3:2|0:2,0:2:0:0:
313,357,98387,2,0,B|309:316|309:316|313:267,1,89.9999972534181,2|8,3:2|0:0,0:0:0:0:
309,93,98680,1,2,3:2:0:0:
408,254,98826,1,8,0:0:0:0:
232,189,98973,2,0,B|280:180|280:180|322:180,1,89.9999972534181,2|8,3:2|0:0,0:0:0:0:
486,212,99265,37,2,3:2:0:0:
304,273,99412,1,8,0:0:0:0:
374,88,99558,1,2,3:2:0:0:
374,88,99631,1,0,3:0:0:0:
374,88,99704,1,8,0:0:0:0:
148,155,99851,2,0,B|198:172|198:172|234:177,1,89.9999972534181,2|8,3:2|0:0,0:0:0:0:
469,287,100144,2,0,B|432:281|432:281|382:264,1,89.9999972534181,2|8,3:2|0:0,0:0:0:0:
220,287,100436,5,2,3:2:0:0:
357,186,100583,1,8,0:0:0:0:
270,67,100729,1,2,3:2:0:0:
270,67,100802,1,0,3:0:0:0:
270,67,100875,1,8,0:0:0:0:
124,200,101022,2,0,L|213:194,1,89.9999972534181,0|10,3:0|0:0,0:0:0:0:
434,264,101314,1,2,3:2:0:0:
402,260,101387,1,0,2:0:0:0:
371,257,101461,1,8,0:0:0:0:
232,347,101607,6,0,B|191:333|191:333|135:342,1,89.9999972534181,4|8,3:2|0:0,0:0:0:0:
349,212,101900,1,0,3:0:0:0:
338,231,101973,1,0,3:0:0:0:
327,250,102046,2,0,B|286:264|286:264|230:255,1,89.9999972534181,10|0,0:0|3:0,0:0:0:0:
271,128,102339,1,8,0:0:0:0:
428,155,102485,2,0,B|440:95|440:95|432:57,1,89.9999972534181,2|8,3:2|0:0,0:0:0:0:
199,33,102778,5,2,3:2:0:0:
354,91,102924,1,8,0:0:0:0:
164,122,103070,1,0,3:0:0:0:
291,23,103217,1,10,0:0:0:0:
237,193,103363,1,0,3:0:0:0:
237,193,103436,1,0,3:0:0:0:
237,193,103509,1,10,0:0:0:0:
81,171,103656,2,0,P|63:186|51:205,1,44.999998626709,0|0,3:0|3:0,0:0:0:0:
40,294,103802,2,0,P|45:315|57:334,1,44.999998626709,10|0,0:0|0:0,0:0:0:0:
152,343,103948,37,2,3:2:0:0:
175,322,104022,1,0,3:0:0:0:
205,313,104095,1,0,3:0:0:0:
236,315,104168,1,0,3:0:0:0:
261,332,104241,1,0,3:0:0:0:
286,351,104314,1,0,3:0:0:0:
317,355,104387,1,0,3:0:0:0:
347,344,104461,1,0,3:0:0:0:
368,321,104534,5,2,0:0:0:0:
335,306,104607,1,0,3:2:0:0:
311,280,104680,1,0,3:2:0:0:
300,246,104753,1,0,3:2:0:0:
305,210,104826,1,0,3:2:0:0:
325,180,104900,1,0,3:2:0:0:
355,161,104973,1,0,3:2:0:0:
390,156,105046,1,0,3:2:0:0:
424,167,105119,6,0,P|444:182|465:199,3,44.999998626709,2|0|0|0,2:0|3:0|3:0|3:0,0:0:0:0:
394,85,105412,2,0,P|417:81|444:78,3,44.999998626709,2|0|0|0,3:2|3:0|3:0|3:0,0:0:0:0:
313,47,105704,2,0,P|327:27|344:6,3,44.999998626709,2|0|0|0,3:2|3:0|3:0|3:0,0:0:0:0:
230,77,105997,1,2,3:2:0:0:
74,235,106144,1,0,0:0:0:0:
74,235,106217,1,0,0:0:0:0:
74,235,106290,6,0,P|188:227|256:225,1,179.999994506836,4|8,3:2|0:0,0:0:0:0:
414,172,106729,2,0,P|356:162|310:155,1,89.9999972534181,0|0,0:0|3:0,0:0:0:0:
223,41,107022,1,0,3:0:0:0:
223,41,107168,2,0,L|237:149,1,89.9999972534181,8|0,0:0|0:0,0:0:0:0:
255,285,107461,37,2,3:2:0:0:
164,255,107607,1,0,0:0:0:0:
308,206,107753,1,8,0:0:0:0:
378,347,107900,2,0,P|328:362|264:362,1,89.9999972534181,2|0,3:2|0:0,0:0:0:0:
167,349,108192,1,0,3:0:0:0:
100,226,108339,2,0,L|214:241,1,89.9999972534181,10|0,0:0|0:0,0:0:0:0:
372,175,108631,5,4,3:2:0:0:
312,271,108778,1,0,0:0:0:0:
266,122,108924,2,0,P|266:77|265:32,1,89.9999972534181,8|0,0:0|0:0,0:0:0:0:
147,166,109217,1,0,0:0:0:0:
147,166,109363,1,0,3:0:0:0:
279,201,109509,1,8,0:0:0:0:
113,268,109656,1,0,0:0:0:0:
230,317,109802,6,0,P|300:303|338:301,1,89.9999972534181,2|0,3:2|3:0,0:0:0:0:
431,285,110095,1,8,0:0:0:0:
478,144,110241,2,0,P|440:164|397:181,1,89.9999972534181,2|0,3:2|0:0,0:0:0:0:
279,201,110534,1,0,3:0:0:0:
341,26,110680,2,0,L|332:134,1,89.9999972534181,10|0,0:0|0:0,0:0:0:0:
195,279,110973,6,0,P|136:232|23:221,1,179.999994506836,4|8,3:2|0:0,0:0:0:0:
164,361,111412,1,2,0:0:0:0:
286,269,111558,2,0,P|302:211|305:166,1,89.9999972534181,0|0,3:0|3:0,0:0:0:0:
437,339,111851,2,0,L|325:331,1,89.9999972534181,10|0,0:0|0:0,0:0:0:0:
224,197,112144,37,4,3:2:0:0:
247,329,112290,1,0,0:0:0:0:
374,257,112436,1,8,0:0:0:0:
304,139,112583,2,0,P|296:75|298:24,1,89.9999972534181,2|0,3:2|0:0,0:0:0:0:
412,186,112875,1,0,3:0:0:0:
256,245,113022,2,0,P|226:209|203:171,1,89.9999972534181,10|0,0:0|0:0,0:0:0:0:
399,145,113314,5,4,3:2:0:0:
230,98,113461,1,0,0:0:0:0:
358,40,113607,1,10,0:0:0:0:
299,181,113753,1,0,0:0:0:0:
141,84,113900,1,0,3:0:0:0:
313,109,114046,1,2,0:0:0:0:
63,126,114192,1,8,0:0:0:0:
203,278,114339,6,0,P|220:135|226:88,1,179.999994506836,4|2,3:2|3:2,0:0:0:0:
111,194,114778,1,10,0:0:0:0:
319,184,114924,1,0,3:0:0:0:
269,361,115070,1,2,3:2:0:0:
237,378,115144,1,0,3:0:0:0:
202,384,115217,1,0,3:0:0:0:
167,377,115290,1,0,3:0:0:0:
136,359,115363,2,0,P|120:334|113:296,1,44.999998626709,10|0,0:0|0:0,0:0:0:0:
102,237,115509,2,0,P|105:207|123:173,1,44.999998626709,0|0,3:0|0:0,0:0:0:0:
187,140,115656,6,0,P|184:95|174:51,1,89.9999972534181,4|0,3:2|0:0,0:0:0:0:
76,89,115948,1,8,0:0:0:0:
259,51,116095,1,0,0:0:0:0:
295,204,116241,1,0,3:0:0:0:
199,147,116387,1,0,3:0:0:0:
378,102,116534,2,0,P|429:115|477:130,1,89.9999972534181,8|0,0:0|0:0,0:0:0:0:
486,257,116826,37,2,3:2:0:0:
368,132,116973,1,0,0:0:0:0:
350,332,117119,1,8,0:0:0:0:
181,262,117265,2,0,P|267:233|355:218,1,179.999994506836,2|2,3:2|3:2,0:0:0:0:
255,137,117704,1,10,0:0:0:0:
160,99,117851,1,0,0:0:0:0:
65,61,117997,6,0,L|53:166,1,89.9999972534181,4|0,3:2|0:0,0:0:0:0:
135,333,118290,1,10,0:0:0:0:
118,234,118436,1,0,0:0:0:0:
225,277,118583,1,0,0:0:0:0:
242,178,118729,1,0,3:0:0:0:
299,372,118875,1,10,0:0:0:0:
356,291,119022,1,0,0:0:0:0:
423,214,119168,6,0,P|466:234|496:274,1,89.9999972534181,2|0,3:2|3:0,0:0:0:0:
356,291,119461,1,8,0:0:0:0:
342,154,119607,2,0,P|379:123|427:113,1,89.9999972534181,2|0,3:2|0:0,0:0:0:0:
512,153,119900,1,0,3:0:0:0:
378,285,120046,2,0,P|317:274|268:265,1,89.9999972534181,12|0,0:0|0:0,0:0:0:0:
166,157,120339,6,0,P|179:199|189:243,1,89.9999972534181,4|0,3:2|0:0,0:0:0:0:
72,109,120631,1,8,0:0:0:0:
272,92,120778,2,0,L|261:181,1,89.9999972534181,2|0,0:0|3:0,0:0:0:0:
237,322,121070,1,0,3:0:0:0:
357,222,121217,2,0,P|409:208|451:205,1,89.9999972534181,10|0,0:0|0:0,0:0:0:0:
310,102,121509,38,0,P|285:47|274:8,1,89.9999972534181,4|0,3:2|0:0,0:0:0:0:
411,117,121802,1,8,0:0:0:0:
258,189,121948,2,0,P|203:181|154:173,1,89.9999972534181,2|0,3:2|0:0,0:0:0:0:
46,155,122241,1,0,3:0:0:0:
181,282,122387,2,0,P|137:289|93:296,1,89.9999972534181,10|0,0:0|0:0,0:0:0:0:
154,153,122680,5,4,3:2:0:0:
192,299,122826,1,0,0:0:0:0:
342,225,122973,2,0,B|349:178|349:178|339:136,1,89.9999972534181,10|0,0:0|0:0,0:0:0:0:
140,219,123265,1,0,3:0:0:0:
257,344,123412,2,0,B|264:297|264:297|254:251,1,89.9999972534181,2|8,0:0|0:0,0:0:0:0:
437,359,123704,6,0,P|351:349|246:344,1,179.999994506836,4|2,3:2|3:2,0:0:0:0:
61,308,124144,1,8,0:3:0:0:
159,326,124290,1,4,3:0:0:0:
261,203,124436,5,2,3:2:0:0:
158,238,124583,1,0,3:0:0:0:
44,91,124729,1,8,3:0:0:0:
118,153,124875,1,4,3:0:0:0:
256,98,125022,38,0,B|259:58|259:58|250:7,1,89.9999972534181,4|0,3:2|0:0,0:0:0:0:
429,173,125314,2,0,P|385:179|337:186,1,89.9999972534181,8|0,0:0|0:0,0:0:0:0:
146,133,125607,1,0,0:0:0:0:
231,237,125753,1,0,3:0:0:0:
108,320,125900,2,0,P|99:275|95:231,1,89.9999972534181,8|0,0:0|0:0,0:0:0:0:
153,109,126192,5,0,0:0:0:0:
153,109,126339,1,0,3:0:0:0:
304,241,126485,2,0,P|259:238|217:224,1,89.9999972534181,10|0,0:0|3:0,0:0:0:0:
386,359,126778,2,0,P|400:305|401:263,1,89.9999972534181,2|0,0:0|3:0,0:0:0:0:
374,189,126997,1,0,3:0:0:0:
362,170,127070,2,0,P|349:115|355:54,1,89.9999972534181,10|0,0:0|3:0,0:0:0:0:
78,133,127363,6,0,B|161:124|261:116,1,179.999994506836,4|8,3:2|0:0,0:0:0:0:
129,33,127802,1,0,0:0:0:0:
197,220,127948,1,2,3:2:0:0:
197,220,128095,1,0,3:2:0:0:
294,201,128241,1,8,0:0:0:0:
145,308,128387,1,0,3:0:0:0:
391,336,128534,6,0,P|379:264|369:130,1,179.999994506836,4|8,3:2|0:0,0:0:0:0:
512,217,128973,1,0,0:0:0:0:
369,133,129119,1,0,3:0:0:0:
337,137,129192,1,0,3:0:0:0:
306,143,129265,1,0,3:0:0:0:
276,149,129339,1,0,3:0:0:0:
245,157,129412,2,0,L|224:324,1,134.999995880127,10|0,3:2|0:0,0:0:0:0:
218,323,129704,38,0,P|155:310|104:303,1,89.9999972534181,4|0,3:2|0:0,0:0:0:0:
86,216,129997,1,8,0:0:0:0:
6,275,130144,1,0,0:0:0:0:
50,124,130290,1,0,0:0:0:0:
147,139,130436,1,2,3:0:0:0:
219,70,130583,1,10,0:0:0:0:
225,198,130729,1,0,3:0:0:0:
306,133,130875,6,0,P|323:76|331:39,1,89.9999972534181,6|0,3:2|0:0,0:0:0:0:
426,29,131168,1,8,0:0:0:0:
485,107,131314,1,0,3:0:0:0:
404,164,131461,1,2,0:0:0:0:
457,261,131607,1,0,3:0:0:0:
457,261,131680,1,0,3:0:0:0:
457,261,131753,1,8,0:0:0:0:
370,325,131900,1,0,0:0:0:0:
293,254,132046,6,0,P|236:239|179:232,1,89.9999972534181,4|0,3:2|0:0,0:0:0:0:
65,160,132339,2,0,P|122:145|179:138,1,89.9999972534181,8|0,0:0|0:0,0:0:0:0:
277,123,132631,1,0,3:0:0:0:
319,241,132778,1,0,3:0:0:0:
377,48,132924,1,8,0:0:0:0:
497,260,133070,6,0,P|417:249|306:240,1,179.999994506836,4|0,3:2|3:0,0:0:0:0:
226,201,133436,1,0,3:0:0:0:
209,198,133509,2,0,L|227:290,1,89.9999972534181,8|0,0:0|3:0,0:0:0:0:
11,214,133802,37,0,3:0:0:0:
38,229,133875,1,0,3:0:0:0:
69,232,133948,1,0,3:0:0:0:
98,222,134022,1,0,3:0:0:0:
121,200,134095,1,8,3:0:0:0:
132,171,134168,1,0,3:0:0:0:
131,140,134241,1,4,3:0:0:0:
116,112,134314,1,0,3:0:0:0:
92,93,134387,6,0,B|47:94|47:94|2:97,1,89.9999972534181,4|8,3:2|0:0,0:0:0:0:
213,186,134680,2,0,B|257:187|257:187|302:190,1,89.9999972534181,0|8,3:0|0:0,0:0:0:0:
192,90,134973,1,0,0:0:0:0:
148,266,135119,1,8,0:0:0:0:
262,305,135265,1,0,3:0:0:0:
97,349,135412,1,8,0:0:0:0:
70,213,135558,1,0,3:0:0:0:
193,362,135704,1,8,0:0:0:0:
330,268,135851,6,0,B|372:257|372:257|426:261,1,89.9999972534181,2|8,3:2|0:0,0:0:0:0:
510,110,136144,2,0,B|468:122|468:122|414:118,1,89.9999972534181,2|8,3:2|0:0,0:0:0:0:
207,165,136436,2,0,B|248:153|248:153|302:157,1,89.9999972534181,2|8,3:2|0:0,0:0:0:0:
172,323,136729,5,4,3:2:0:0:
95,260,136875,1,8,0:0:0:0:
75,162,137022,1,0,3:0:0:0:
217,46,137168,2,0,B|211:91|211:91|201:135,1,89.9999972534181,10|0,0:0|0:0,0:0:0:0:
104,39,137461,1,8,0:0:0:0:
311,115,137607,2,0,B|355:123|355:123|408:116,1,89.9999972534181,2|8,3:2|0:0,0:0:0:0:
286,310,137900,38,0,B|276:266|276:266|270:221,1,89.9999972534181,2|8,3:2|0:0,0:0:0:0:
152,56,138192,2,0,B|162:100|162:100|168:145,1,89.9999972534181,2|8,3:2|0:0,0:0:0:0:
84,300,138485,1,2,0:0:0:0:
89,269,138558,1,0,3:0:0:0:
94,238,138631,1,8,0:0:0:0:
239,117,138778,1,2,3:2:0:0:
240,143,138851,1,0,3:0:0:0:
246,169,138924,1,8,0:0:0:0:
259,192,138997,1,0,0:0:0:0:
281,206,139070,6,0,B|309:208|309:208|334:200|334:200|376:204,1,89.9999972534181,4|8,3:2|0:0,0:0:0:0:
301,315,139363,2,0,B|246:331|246:331|200:360,1,89.9999972534181,0|8,3:0|0:0,0:0:0:0:
69,235,139656,1,0,3:0:0:0:
182,265,139802,1,8,0:0:0:0:
324,132,139948,1,0,3:0:0:0:
214,165,140095,1,8,0:0:0:0:
368,222,140241,2,0,B|399:205|399:205|461:208,1,89.9999972534181,0|8,3:0|0:0,0:0:0:0:
407,363,140534,6,0,B|359:353|359:353|323:332,1,89.9999972534181,2|8,3:2|0:0,0:0:0:0:
74,289,140826,2,0,B|122:279|122:279|157:258,1,89.9999972534181,2|8,3:2|0:0,0:0:0:0:
409,260,141119,2,0,B|375:224|375:224|358:187,1,89.9999972534181,2|8,3:2|0:0,0:0:0:0:
71,138,141412,6,0,P|120:179|182:160,1,134.999995880127,4|0,3:2|0:0,0:0:0:0:
237,94,141704,1,0,3:2:0:0:
267,67,141778,1,0,3:2:0:0:
307,65,141851,1,0,3:2:0:0:
339,90,141924,1,0,3:2:0:0:
350,129,141997,1,2,3:2:0:0:
334,165,142070,1,0,3:2:0:0:
299,184,142144,1,0,3:2:0:0:
264,204,142217,1,0,3:2:0:0:
248,240,142290,1,0,3:2:0:0:
259,279,142363,1,0,3:2:0:0:
291,303,142436,1,0,3:2:0:0:
332,300,142509,1,0,3:2:0:0:
361,272,142583,38,0,L|462:243,1,89.9999972534181,4|0,3:2|3:0,0:0:0:0:
439,333,142802,1,0,3:0:0:0:
425,336,142875,2,0,L|364:356,3,44.999998626709,8|0|0|0,3:0|3:0|3:0|3:0,0:0:0:0:
287,324,143168,1,2,3:2:0:0:
242,328,143241,1,0,3:0:0:0:
197,332,143314,1,0,3:0:0:0:
152,337,143387,1,0,3:0:0:0:
107,341,143461,5,2,3:2:0:0:
145,306,143534,1,0,3:0:0:0:
183,272,143607,1,0,3:0:0:0:
221,238,143680,1,0,3:0:0:0:
254,206,143753,6,0,B|311:193|311:193|388:211,1,110.000003356934,4|8,3:2|0:0,0:0:0:0:
477,255,144046,1,0,3:0:0:0:
298,310,144192,1,8,0:0:0:0:
380,132,144339,1,2,0:0:0:0:
380,132,144412,1,0,3:0:0:0:
380,132,144485,1,8,0:0:0:0:
228,67,144631,2,0,B|215:116|215:116|223:196,1,110.000003356934,0|8,3:2|0:0,0:0:0:0:
125,327,144924,6,0,B|159:282|159:282|217:258,1,110.000003356934,2|8,3:2|0:0,0:0:0:0:
293,285,145144,1,0,0:0:0:0:
324,299,145217,2,0,B|370:313|370:313|436:295,1,110.000003356934,0|8,3:0|0:0,0:0:0:0:
465,132,145509,1,2,3:2:0:0:
322,196,145656,1,8,0:0:0:0:
241,56,145802,1,0,3:0:0:0:
398,81,145948,1,8,0:0:0:0:
255,257,146095,38,0,B|238:195|238:195|248:150,1,110.000003356934,4|8,3:2|0:0,0:0:0:0:
315,89,146314,1,0,0:0:0:0:
315,89,146387,1,2,3:2:0:0:
166,72,146534,1,8,0:0:0:0:
69,262,146680,2,0,B|121:256|121:256|179:238,1,110.000003356934,2|8,0:0|0:0,0:0:0:0:
247,189,146900,1,0,0:0:0:0:
265,164,146973,2,0,L|249:38,1,110.000003356934,2|8,3:2|0:0,0:0:0:0:
360,195,147265,6,0,P|352:221|339:245,1,55.0000016784668,2|0,3:2|3:0,0:0:0:0:
399,305,147412,2,0,P|375:318|346:327,1,55.0000016784668,8|0,0:0|0:0,0:0:0:0:
275,291,147558,2,0,P|250:279|223:275,1,55.0000016784668,2|0,3:2|0:0,0:0:0:0:
173,332,147704,2,0,P|148:344|121:348,1,55.0000016784668,8|0,0:0|0:0,0:0:0:0:
59,306,147851,5,0,3:0:0:0:
39,266,147924,1,0,3:0:0:0:
44,222,147997,1,10,3:2:0:0:
75,190,148070,1,0,3:0:0:0:
118,181,148144,1,0,3:0:0:0:
156,202,148217,1,0,3:0:0:0:
196,218,148290,1,10,3:2:0:0:
238,208,148363,1,0,3:0:0:0:
264,173,148436,6,0,P|271:120|245:73,1,110.000003356934,4|8,3:2|0:0,0:0:0:0:
161,238,148729,1,0,3:0:0:0:
276,207,148875,1,8,0:0:0:0:
429,229,149022,37,2,0:0:0:0:
308,166,149168,1,8,0:0:0:0:
245,256,149314,1,0,3:0:0:0:
376,209,149461,1,8,0:0:0:0:
489,294,149607,5,2,3:2:0:0:
349,235,149753,1,8,0:0:0:0:
272,315,149900,1,0,3:0:0:0:
418,289,150046,1,8,0:0:0:0:
343,382,150192,5,2,3:2:0:0:
234,307,150339,1,8,0:0:0:0:
141,371,150485,1,0,3:0:0:0:
143,197,150631,1,8,0:0:0:0:
143,197,150704,1,0,0:0:0:0:
143,197,150778,6,0,L|208:191,3,55.0000016784668,2|0|8|0,3:2|0:0|0:0|0:0,0:0:0:0:
269,147,151070,2,0,L|323:152,3,55.0000016784668,2|0|8|0,3:2|0:0|0:0|0:0,0:0:0:0:
387,203,151363,37,2,3:2:0:0:
425,199,151436,1,0,3:2:0:0:
458,180,151509,1,8,3:2:0:0:
481,150,151583,1,0,3:2:0:0:
491,113,151656,1,0,3:2:0:0:
485,75,151729,1,0,3:2:0:0:
464,43,151802,1,8,3:2:0:0:
432,22,151875,1,0,3:2:0:0:
395,15,151948,6,0,L|342:27,1,55.0000016784668,2|0,3:2|3:0,0:0:0:0:
237,84,152095,2,0,L|290:96,1,55.0000016784668,10|0,0:0|0:0,0:0:0:0:
392,121,152241,1,2,3:2:0:0:
276,218,152387,1,10,0:0:0:0:
433,293,152534,1,2,0:0:0:0:
433,293,152607,1,0,3:0:0:0:
433,293,152680,1,8,0:0:0:0:
205,177,152826,1,2,3:2:0:0:
202,204,152900,1,0,3:2:0:0:
199,233,152973,1,8,3:2:0:0:
197,261,153046,1,0,3:2:0:0:
194,290,153119,6,0,B|232:300|232:300|264:290|264:290|300:296,1,110.000003356934,4|8,3:2|0:0,0:0:0:0:
376,325,153339,1,0,0:0:0:0:
395,336,153412,2,0,B|405:298|405:298|395:266|395:266|401:230,1,110.000003356934,0|8,3:0|0:0,0:0:0:0:
444,116,153704,1,2,0:0:0:0:
382,221,153851,1,8,0:0:0:0:
230,121,153997,1,0,3:0:0:0:
278,249,154144,1,8,0:0:0:0:
116,210,154290,5,2,3:2:0:0:
317,176,154436,1,8,0:0:0:0:
227,13,154583,1,0,3:0:0:0:
213,200,154729,1,8,0:0:0:0:
0,138,154875,2,0,B|43:112|43:112|105:102,1,110.000003356934,2|8,3:2|0:0,0:0:0:0:
220,293,155168,2,0,B|177:267|177:267|115:257,1,110.000003356934,2|8,3:2|0:0,0:0:0:0:
261,122,155461,37,0,3:0:0:0:
314,246,155607,1,10,0:0:0:0:
394,137,155753,2,0,B|416:152|416:152|433:174,1,55.0000016784668,2|0,3:2|0:0,0:0:0:0:
471,251,155900,2,0,B|472:275|472:275|453:323,1,55.0000016784668,8|0,0:0|0:0,0:0:0:0:
381,350,156046,5,2,3:2:0:0:
352,335,156119,1,0,3:2:0:0:
319,328,156192,1,8,3:2:0:0:
287,330,156265,1,0,3:2:0:0:
255,340,156339,1,0,3:2:0:0:
228,359,156412,1,0,3:2:0:0:
198,373,156485,1,8,3:2:0:0:
165,369,156558,1,0,3:2:0:0:
140,346,156631,6,0,B|131:319|131:319|132:282,1,55.0000016784668,2|0,3:2|0:0,0:0:0:0:
169,222,156778,2,0,B|194:206|194:206|239:208,1,55.0000016784668,10|0,0:0|0:0,0:0:0:0:
296,211,156924,2,0,B|289:172|289:172|270:145,1,55.0000016784668,0|0,3:0|0:0,0:0:0:0:
243,92,157070,2,0,B|216:96|216:96|193:118,1,55.0000016784668,8|0,0:0|0:0,0:0:0:0:
121,156,157217,5,2,3:2:0:0:
93,174,157290,1,0,3:2:0:0:
61,177,157363,1,8,3:2:0:0:
31,165,157436,1,0,3:2:0:0:
9,140,157509,1,0,3:2:0:0:
2,109,157583,1,0,3:2:0:0:
10,77,157656,1,8,3:2:0:0:
32,53,157729,1,0,3:2:0:0:
63,42,157802,38,0,B|114:58|114:58|147:45|147:45|173:54,1,110.000003356934,4|8,3:2|0:0,0:0:0:0:
309,164,158095,2,0,B|258:148|258:148|225:161|225:161|199:152,1,110.000003356934,0|8,3:0|0:0,0:0:0:0:
331,34,158387,1,6,0:0:0:0:
434,140,158534,1,8,0:0:0:0:
269,244,158680,1,0,3:0:0:0:
419,325,158826,1,8,0:0:0:0:
419,325,158900,1,0,0:0:0:0:
419,325,158973,5,6,3:2:0:0:
206,286,159119,1,8,0:0:0:0:
378,196,159265,1,0,3:0:0:0:
319,345,159412,1,8,0:0:0:0:
176,157,159558,2,0,B|158:136|158:136|168:192|168:192|165:218,1,110.000003356934,6|8,3:2|0:0,0:0:0:0:
286,76,159851,2,0,B|304:55|304:55|294:111|294:111|297:137,1,110.000003356934,2|8,0:0|0:0,0:0:0:0:
101,91,160144,5,2,3:2:0:0:
69,82,160217,1,0,3:0:0:0:
37,89,160290,1,0,3:0:0:0:
12,110,160363,1,0,3:0:0:0:
1,140,160436,1,0,3:0:0:0:
3,172,160509,1,0,3:0:0:0:
21,200,160583,1,0,3:0:0:0:
50,215,160656,1,0,3:0:0:0:
82,214,160729,1,2,3:2:0:0:
110,200,160802,1,0,3:0:0:0:
142,192,160875,1,0,3:0:0:0:
174,193,160948,1,0,3:0:0:0:
205,205,161022,1,8,3:0:0:0:
227,229,161095,1,0,3:0:0:0:
255,245,161168,1,4,3:0:0:0:
287,248,161241,1,0,3:0:0:0:
318,238,161314,6,0,P|349:221|371:188,3,55.0000016784668,6|0|0|0,3:2|3:0|3:0|3:0,0:0:0:0:
344,134,161607,2,0,P|357:110|360:71,3,55.0000016784668,2|0|0|0,3:2|3:0|3:0|3:0,0:0:0:0:
281,76,161900,37,2,3:2:0:0:
243,54,161973,1,0,3:2:0:0:
202,70,162046,1,0,3:2:0:0:
181,108,162119,1,0,3:2:0:0:
189,151,162192,1,2,3:2:0:0:
218,183,162265,1,0,3:2:0:0:
236,223,162339,1,0,3:2:0:0:
229,266,162412,1,0,3:2:0:0:
200,294,162485,6,0,B|150:277|150:277|78:277,1,100,4|8,0:0|0:0,0:0:0:0:
15,209,162704,1,0,0:0:0:0:
17,195,162778,2,0,B|63:173|63:173|111:165,1,100,0|8,0:0|0:0,0:0:0:0:
253,84,163070,2,0,B|258:135|258:135|287:200,1,100,0|8,0:0|0:0,0:0:0:0:
395,168,163363,1,2,0:0:0:0:
294,295,163509,1,8,0:0:0:0:
177,167,163656,6,0,B|226:174|226:174|272:194,1,100,2|8,0:0|0:0,0:0:0:0:
399,278,163948,1,0,0:0:0:0:
213,279,164095,1,8,0:0:0:0:
263,101,164241,1,2,0:0:0:0:
391,82,164387,1,8,0:0:0:0:
400,99,164461,1,0,0:0:0:0:
409,116,164534,2,0,B|399:178|399:178|374:224,1,100,2|8,0:0|0:0,0:0:0:0:
177,150,164826,6,0,B|162:85|162:85|165:26,1,100,4|8,0:0|0:0,0:0:0:0:
294,121,165119,1,0,0:0:0:0:
207,278,165265,1,10,0:0:0:0:
414,237,165412,2,0,B|365:218|365:218|318:209,1,100,2|8,0:0|0:0,0:0:0:0:
239,203,165631,1,0,0:0:0:0:
239,203,165704,1,2,0:0:0:0:
324,326,165851,1,8,0:0:0:0:
351,137,165997,38,0,B|357:88|357:88|371:40,1,100,6|8,0:0|0:0,0:0:0:0:
484,239,166290,2,0,B|436:225|436:225|387:219,1,100,0|8,0:0|0:0,0:0:0:0:
225,183,166583,1,2,0:0:0:0:
271,289,166729,1,8,0:0:0:0:
280,95,166875,1,0,0:0:0:0:
116,79,167022,1,8,0:0:0:0:
98,84,167095,1,0,0:0:0:0:
81,93,167168,6,0,P|54:126|61:189,1,100,4|8,0:0|0:0,0:0:0:0:
103,261,167387,1,0,0:0:0:0:
115,273,167461,2,0,P|146:237|140:186,1,100,0|8,0:0|0:0,0:0:0:0:
275,45,167753,2,0,P|248:78|255:141,1,100,2|8,0:0|0:0,0:0:0:0:
293,216,167973,1,0,0:0:0:0:
293,216,168046,1,2,0:0:0:0:
382,102,168192,1,8,0:0:0:0:
461,272,168339,6,0,L|359:261,1,100,4|8,0:0|0:0,0:0:0:0:
221,158,168631,1,0,0:0:0:0:
245,329,168778,1,8,0:0:0:0:
37,260,168924,2,0,L|139:249,1,100,2|8,0:0|0:0,0:0:0:0:
229,240,169144,1,0,0:0:0:0:
229,240,169217,1,0,0:0:0:0:
191,95,169363,2,0,L|187:152,1,50,10|0,0:0|0:0,0:0:0:0:
286,157,169509,6,0,B|334:133|334:133|404:137,1,100,4|8,3:2|3:2,0:0:0:0:
172,276,169802,2,0,B|220:252|220:252|290:256,1,100,0|8,3:0|3:2,0:0:0:0:
97,117,170095,2,0,B|145:93|145:93|215:97,1,100,2|8,3:2|3:2,0:0:0:0:
269,52,170314,1,0,0:0:0:0:
284,60,170387,2,0,B|341:73|341:73|393:67,1,100,2|8,0:0|0:0,0:0:0:0:
496,197,170680,37,2,3:2:0:0:
478,221,170753,1,0,3:2:0:0:
453,236,170826,1,8,3:2:0:0:
423,240,170900,1,0,3:2:0:0:
394,232,170973,1,0,3:2:0:0:
371,213,171046,1,0,3:2:0:0:
358,187,171119,1,8,3:2:0:0:
346,159,171192,1,0,3:2:0:0:
324,140,171265,1,2,3:2:0:0:
295,133,171339,1,0,3:2:0:0:
266,141,171412,1,8,3:2:0:0:
244,162,171485,1,0,3:2:0:0:
235,190,171558,1,2,3:2:0:0:
239,219,171631,1,0,3:2:0:0:
255,244,171704,1,8,3:2:0:0:
280,261,171778,1,0,3:2:0:0:
295,284,171851,38,0,P|300:333|264:364,1,100,4|8,3:2|0:0,0:0:0:0:
170,364,172070,1,0,0:0:0:0:
154,351,172144,2,0,P|196:325|244:334,1,100,0|8,3:0|0:0,0:0:0:0:
416,352,172436,1,2,3:2:0:0:
398,190,172583,1,8,0:0:0:0:
398,190,172656,1,0,0:0:0:0:
398,190,172729,1,2,3:2:0:0:
294,275,172875,1,8,0:0:0:0:
181,99,173022,53,4,3:2:0:0:
230,225,173168,1,8,0:0:0:0:
296,78,173314,1,0,3:0:0:0:
105,135,173461,1,8,0:0:0:0:
119,148,173534,1,0,0:0:0:0:
134,159,173607,2,0,B|183:147|183:147|234:146,1,100,2|8,3:2|0:0,0:0:0:0:
114,286,173900,2,0,B|163:274|163:274|214:273,1,100,0|8,3:0|0:0,0:0:0:0:
445,300,174192,5,4,3:2:0:0:
288,214,174339,1,8,0:0:0:0:
402,178,174485,1,0,3:0:0:0:
357,323,174631,2,0,L|345:373,1,50,8|0,0:0|0:0,0:0:0:0:
445,300,174778,2,0,B|458:240|458:240|442:186,1,100,2|8,3:2|0:0,0:0:0:0:
365,165,174997,1,0,0:0:0:0:
350,148,175070,2,0,B|340:92|340:92|351:33,1,100,2|8,3:2|0:0,0:0:0:0:
197,82,175363,5,4,3:2:0:0:
353,34,175509,1,8,0:0:0:0:
437,147,175656,1,0,3:0:0:0:
277,126,175802,1,8,0:0:0:0:
265,256,175948,1,2,3:2:0:0:
265,256,176022,1,0,3:0:0:0:
265,256,176095,1,8,0:0:0:0:
373,169,176241,1,2,3:2:0:0:
392,334,176387,1,8,0:0:0:0:
190,359,176534,38,0,B|175:313|175:313|181:254,1,100,4|8,3:2|0:0,0:0:0:0:
221,120,176826,1,0,3:0:0:0:
300,192,176973,1,10,0:0:0:0:
106,172,177119,1,0,3:0:0:0:
306,99,177265,1,10,0:0:0:0:
254,260,177412,1,0,3:0:0:0:
190,44,177558,1,8,0:0:0:0:
30,150,177704,6,0,B|153:161,1,100,4|8,3:2|0:0,0:0:0:0:
471,164,177997,2,0,B|348:175,1,100,2|8,3:2|0:0,0:0:0:0:
2,245,178290,2,0,B|125:256,1,100,2|8,3:2|0:0,0:0:0:0:
497,300,178583,2,0,B|374:311,1,100,2|8,3:2|0:0,0:0:0:0:
206,174,178875,5,2,3:2:0:0:
189,193,178948,1,0,3:0:0:0:
180,216,179022,1,0,3:0:0:0:
177,240,179095,1,0,3:0:0:0:
182,265,179168,1,0,3:2:0:0:
195,286,179241,1,0,3:0:0:0:
213,304,179314,1,0,3:0:0:0:
237,310,179387,1,0,3:0:0:0:
260,300,179461,5,2,3:2:0:0:
276,269,179534,1,0,3:0:0:0:
283,235,179607,1,0,3:0:0:0:
280,200,179680,1,0,3:0:0:0:
266,168,179753,1,8,3:0:0:0:
250,137,179826,1,0,3:0:0:0:
243,103,179900,1,4,3:0:0:0:
245,69,179973,1,0,3:0:0:0:
262,38,180046,37,2,3:2:0:0:
296,18,180119,1,0,3:0:0:0:
336,17,180192,1,0,3:0:0:0:
372,33,180265,1,0,3:0:0:0:
396,65,180339,1,2,3:2:0:0:
403,104,180412,1,0,3:0:0:0:
392,142,180485,1,0,3:0:0:0:
364,170,180558,1,0,3:0:0:0:
327,183,180631,1,6,3:2:0:0:
327,183,181217,5,4,3:2:0:0:
295,158,181290,1,0,3:2:0:0:
255,152,181363,1,8,3:2:0:0:
218,167,181436,1,0,3:2:0:0:
193,198,181509,1,0,3:2:0:0:
161,222,181583,1,0,3:2:0:0:
121,228,181656,1,8,3:2:0:0:
84,213,181729,1,0,3:2:0:0:
59,182,181802,6,0,P|57:153|64:124,3,44.999998626709,2|0|8|0,3:2|3:2|3:2|3:2,0:0:0:0:
24,64,182095,2,0,P|49:49|78:44,3,44.999998626709,0|0|8|0,3:2|3:2|3:2|3:2,0:0:0:0:
126,97,182387,5,2,3:2:0:0:
149,129,182461,1,0,3:2:0:0:
186,144,182534,1,8,3:2:0:0:
226,138,182607,1,0,3:2:0:0:
259,114,182680,1,0,3:2:0:0:
298,116,182753,1,0,3:2:0:0:
330,141,182826,1,8,3:2:0:0:
342,179,182900,1,0,3:2:0:0:
330,217,182973,38,0,P|325:251|324:285,3,44.999998626709,2|0|8|0,3:2|3:2|3:2|3:2,0:0:0:0:
408,296,183265,2,0,P|405:273|401:251,3,44.999998626709,0|0|8|0,3:2|3:2|3:2|3:2,0:0:0:0:
486,325,183558,5,2,3:2:0:0:
461,357,183631,1,0,3:2:0:0:
426,375,183704,1,8,3:2:0:0:
386,378,183778,1,0,3:2:0:0:
348,363,183851,1,0,3:2:0:0:
323,330,183924,1,0,3:2:0:0:
288,312,183997,1,8,3:2:0:0:
248,309,184070,1,0,3:2:0:0:
210,326,184144,6,0,P|206:347|202:370,3,44.999998626709,2|0|8|0,3:2|3:2|3:2|3:2,0:0:0:0:
159,253,184436,2,0,P|154:231|150:208,3,44.999998626709,0|0|8|0,3:2|3:2|3:2|3:2,0:0:0:0:
228,222,184729,5,2,3:2:0:0:
266,244,184802,1,0,3:2:0:0:
310,245,184875,1,8,3:2:0:0:
348,222,184948,1,0,3:2:0:0:
369,187,185022,2,0,P|373:164|365:123,1,44.999998626709,2|0,3:2|3:2,3:2:0:0:
332,73,185168,2,0,P|300:67|267:71,1,44.999998626709,8|0,3:2|3:2,3:2:0:0:
214,114,185314,37,2,3:2:0:0:
183,139,185387,1,0,3:2:0:0:
143,142,185461,1,8,3:2:0:0:
109,121,185534,1,0,3:2:0:0:
90,85,185607,2,0,P|85:62|82:30,1,44.999998626709,2|0,3:2|3:2,0:0:0:0:
20,136,185753,2,0,P|15:159|12:181,1,44.999998626709,8|0,3:2|3:2,0:0:0:0:
16,295,185900,5,4,3:2:0:0:
47,270,185973,1,0,3:2:0:0:
87,261,186046,1,8,3:2:0:0:
126,269,186119,1,0,3:2:0:0:
158,293,186192,1,0,3:2:0:0:
169,331,186265,1,0,3:2:0:0:
200,356,186339,1,8,3:2:0:0:
240,358,186412,1,0,3:2:0:0:
277,341,186485,6,0,P|293:316|295:278,3,44.999998626709,2|0|8|0,3:2|3:2|3:2|3:2,0:0:0:0:
294,212,186778,2,0,P|287:190|273:172,3,44.999998626709,0|0|8|0,3:2|3:2|3:2|3:2,0:0:0:0:
191,193,187070,5,2,3:2:0:0:
155,211,187144,1,0,3:2:0:0:
115,211,187217,1,8,3:2:0:0:
80,192,187290,1,0,3:2:0:0:
59,158,187363,1,0,3:2:0:0:
56,118,187436,1,0,3:2:0:0:
73,82,187509,1,8,3:2:0:0:
105,58,187583,1,0,3:2:0:0:
145,50,187656,38,0,L|194:45,3,44.999998626709,2|0|8|0,3:2|3:2|3:2|3:2,0:0:0:0:
254,107,187948,2,0,L|303:112,3,44.999998626709,0|0|8|0,3:2|3:2|3:2|3:2,0:0:0:0:
380,67,188241,5,2,3:2:0:0:
403,99,188314,1,0,3:2:0:0:
410,139,188387,1,8,3:2:0:0:
402,178,188461,1,0,3:2:0:0:
378,211,188534,1,0,3:2:0:0:
354,243,188607,1,0,3:2:0:0:
347,283,188680,1,8,3:2:0:0:
355,322,188753,1,0,3:2:0:0:
387,346,188826,5,2,3:2:0:0:
427,350,188900,1,0,3:2:0:0:
458,325,188973,1,8,3:2:0:0:
468,286,189046,1,0,3:2:0:0:
454,249,189119,1,0,3:2:0:0:
421,227,189192,1,0,3:2:0:0:
381,227,189265,1,8,3:2:0:0:
349,251,189339,1,0,3:2:0:0:
316,273,189412,6,0,P|295:282|272:282,1,44.999998626709,0|0,3:2|3:2,0:0:0:0:
200,256,189558,2,0,P|179:246|164:229,1,44.999998626709,8|0,3:2|3:2,0:0:0:0:
131,157,189704,2,0,P|125:138|124:109,3,44.999998626709,2|0|8|0,3:2|3:2|3:2|3:2,0:0:0:0:
154,230,189997,38,0,P|166:247|185:260,1,44.999998626709,0|0,3:2|3:2,0:0:0:0:
263,294,190144,2,0,P|286:294|307:285,1,44.999998626709,8|0,3:2|3:2,0:0:0:0:
376,231,190290,1,2,3:2:0:0:
412,214,190363,1,0,3:2:0:0:
452,216,190436,1,8,3:2:0:0:
486,237,190509,1,0,3:2:0:0:
507,271,190583,6,0,B|508:313|465:358|407:323|407:323|392:346|392:346|373:339|373:339|338:359|295:331,1,269.999991760254,6|8,3:2|0:0,0:0:0:0:
104,319,191168,1,2,3:2:0:0:
137,341,191241,1,0,3:2:0:0:
177,343,191314,1,8,3:2:0:0:
210,320,191387,1,0,3:2:0:0:
226,283,191461,1,2,3:2:0:0:
229,242,191534,1,0,3:2:0:0:
209,205,191607,1,8,3:2:0:0:
212,164,191680,1,0,3:2:0:0:
236,131,191753,6,0,P|256:120|288:115,1,44.999998626709,2|0,3:2|0:0,0:0:0:0:
342,184,191900,2,0,P|361:194|383:198,1,44.999998626709,8|0,3:2|0:0,0:0:0:0:
482,192,192046,2,0,B|493:238|493:238|487:291,1,89.9999972534181,2|8,3:2|0:0,0:0:0:0:
362,345,192339,1,2,3:2:0:0:
362,345,192412,1,0,3:2:0:0:
362,345,192485,2,0,L|301:332,1,44.999998626709,8|0,0:0|0:0,0:0:0:0:
236,299,192631,2,8,L|118:311,1,89.9999972534181,2|8,3:2|0:0,0:0:0:0:
195,161,192924,5,2,3:2:0:0:
195,161,192997,1,0,0:0:0:0:
195,161,193070,2,0,L|260:170,1,44.999998626709,8|0,0:0|0:0,0:0:0:0:
321,207,193217,2,8,L|439:195,1,89.9999972534181,2|8,3:2|0:0,0:0:0:0:
279,65,193509,1,2,0:0:0:0:
200,197,193656,1,8,0:0:0:0:
157,7,193802,1,2,3:2:0:0:
95,132,193948,1,8,0:0:0:0:
95,132,194022,1,0,0:0:0:0:
95,132,194095,38,0,L|140:125,1,44.999998626709,2|0,3:2|3:2,0:0:0:0:
244,190,194241,2,0,L|200:196,1,44.999998626709,8|0,0:0|0:0,0:0:0:0:
253,98,194387,1,2,3:2:0:0:
313,244,194534,1,8,0:0:0:0:
394,153,194680,1,2,0:0:0:0:
290,267,194826,1,8,0:0:0:0:
404,75,194973,1,0,3:2:0:0:
439,79,195046,1,0,3:2:0:0:
466,101,195119,1,8,3:2:0:0:
476,135,195192,1,0,3:2:0:0:
475,170,195265,6,0,L|463:284,1,89.9999972534181,4|8,3:2|0:0,0:0:0:0:
345,359,195558,2,0,L|357:245,1,89.9999972534181,0|8,3:0|0:0,0:0:0:0:
179,170,195851,5,2,3:2:0:0:
194,208,195924,1,0,3:2:0:0:
228,229,195997,1,8,3:2:0:0:
268,228,196070,1,0,3:2:0:0:
301,206,196144,1,2,3:2:0:0:
334,183,196217,1,0,3:2:0:0:
374,182,196290,1,8,3:2:0:0:
409,201,196363,1,0,3:2:0:0:
428,236,196436,6,0,B|435:277|435:277|420:335,1,89.9999972534181,2|8,3:2|0:0,0:0:0:0:
236,256,196729,2,0,B|229:215|229:215|244:157,1,89.9999972534181,2|8,3:2|0:0,0:0:0:0:
431,95,197022,37,4,3:2:0:0:
422,134,197095,1,0,3:2:0:0:
390,158,197168,1,8,3:2:0:0:
350,157,197241,1,0,3:2:0:0:
320,131,197314,1,0,3:2:0:0:
312,92,197387,1,0,3:2:0:0:
304,53,197461,1,8,3:2:0:0:
274,27,197534,1,0,3:2:0:0:
234,27,197607,6,0,L|212:86,3,44.999998626709,2|0|0|0,1:2|1:0|1:0|1:0,0:0:0:0:
138,66,197900,2,0,L|150:128,3,44.999998626709,0|0|0|0,3:2|3:2|3:2|3:2,0:0:0:0:
228,152,198192,2,0,L|205:191,3,44.999998626709,2|0|0|0,0:0|0:0|3:0|3:0,0:0:0:0:
113,210,198485,2,0,L|139:254,3,44.999998626709,0|0|0|0,1:0|1:0|1:0|1:0,0:0:0:0:
202,313,198778,5,2,1:2:0:0:
224,291,198851,1,0,1:2:0:0:
252,277,198924,1,0,1:2:0:0:
283,271,198997,1,0,1:2:0:0:
314,279,199070,1,0,1:2:0:0:
341,294,199144,1,0,1:2:0:0:
373,300,199217,1,2,1:2:0:0:
404,297,199290,1,0,1:2:0:0:
431,285,199363,2,0,P|443:266|451:244,3,44.999998626709,2|0|0|0,3:2|3:2|3:2|3:2,0:0:0:0:
376,214,199656,5,2,1:2:0:0:
373,169,199729,1,0,1:2:0:0:
370,124,199802,1,0,1:2:0:0:
367,79,199875,1,0,1:2:0:0:
365,34,199948,38,0,L|253:22,1,89.9999972534181,6|0,3:2|3:0,0:0:0:0:
460,133,200241,2,0,L|370:123,1,89.9999972534181,0|0,3:0|3:0,0:0:0:0:
208,103,200534,2,0,B|232:150|232:150|233:197,1,89.9999972534181,0|0,1:0|3:0,0:0:0:0:
153,251,200753,1,0,3:0:0:0:
153,251,200826,2,0,B|196:271|196:271|232:303,1,89.9999972534181,0|0,3:0|3:0,0:0:0:0:
416,337,201119,6,0,B|366:334|366:334|328:347,1,89.9999972534181,2|0,3:2|3:0,0:0:0:0:
497,253,201412,2,0,B|450:234|450:234|422:206,1,89.9999972534181,0|0,3:0|3:0,0:0:0:0:
309,83,201704,2,0,L|317:127,1,44.999998626709,2|0,1:2|0:0,0:0:0:0:
274,233,201851,6,0,B|231:273|164:261|136:196|136:196|116:269|75:282|24:268,1,299.999990844727,4|0,3:2|0:0,0:0:0:0:
12,173,202290,6,0,B|23:117|23:117|17:84,1,89.9999972534181,6|0,3:2|3:0,0:0:0:0:
40,360,202583,2,0,B|35:328|35:328|46:272,1,89.9999972534181,2|0,3:2|3:0,0:0:0:0:
176,116,202875,2,0,B|198:136|198:136|256:151,1,89.9999972534181,2|0,1:2|3:0,0:0:0:0:
353,137,203095,1,0,3:0:0:0:
353,137,203168,2,0,B|347:86|347:86|355:41,1,89.9999972534181,2|0,3:2|0:0,0:0:0:0:
414,216,203461,38,0,L|503:220,1,89.9999972534181,2|0,3:2|3:0,0:0:0:0:
297,311,203753,2,0,L|386:306,1,89.9999972534181,2|0,3:2|3:0,0:0:0:0:
195,227,204046,2,0,L|208:293,1,44.999998626709,2|0,1:2|0:0,0:0:0:0:
97,216,204192,6,0,B|96:180|121:149|121:149|85:123|84:34|84:34|107:97|181:100,1,299.999990844727,4|0,3:2|0:0,0:0:0:0:
244,128,204631,6,0,B|274:124|274:124|294:106|294:106|340:125,1,89.9999972534181,6|0,3:2|3:0,0:0:0:0:
115,228,204924,2,0,B|145:215|145:215|165:233|165:233|195:237,1,89.9999972534181,0|0,3:0|3:0,0:0:0:0:
356,325,205217,2,0,B|337:298|337:298|340:260|340:260|330:245,1,89.9999972534181,0|0,1:0|3:0,0:0:0:0:
387,175,205436,1,0,3:0:0:0:
387,175,205509,2,0,B|406:123|406:123|450:116,1,89.9999972534181,2|0,3:2|3:0,0:0:0:0:
250,87,205802,6,0,B|257:107|257:107|270:112|270:112|262:129|262:129|281:171,1,89.9999972534181,2|0,3:2|3:0,0:0:0:0:
165,24,206095,2,0,B|157:45|157:45|145:49|145:49|153:67|153:67|139:99,1,89.9999972534181,0|0,3:0|3:0,0:0:0:0:
166,251,206387,2,0,L|175:198,1,44.999998626709,2|0,1:2|0:0,0:0:0:0:
217,332,206534,2,0,B|279:305|279:305|351:317,1,134.999995880127,4|0,3:2|0:0,0:0:0:0:
420,364,206826,38,0,B|432:308|432:308|408:254|408:254|420:182,1,179.999994506836,6|0,3:2|3:0,0:0:0:0:
287,65,207265,1,2,3:2:0:0:
294,98,207339,1,0,3:2:0:0:
301,132,207412,1,0,3:0:0:0:
322,223,207558,1,2,1:2:0:0:
188,258,207704,1,0,3:0:0:0:
202,146,207851,1,0,1:0:0:0:
290,295,207997,6,0,B|238:315|238:315|175:301|175:301|113:325,1,179.999994506836,6|0,3:2|3:0,0:0:0:0:
309,379,208436,1,2,3:2:0:0:
340,362,208509,1,0,3:2:0:0:
372,345,208583,1,0,3:0:0:0:
451,201,208729,2,0,L|405:192,1,44.999998626709,2|8,0:0|0:3,0:0:0:0:
300,169,208875,1,0,3:0:0:0:
165,204,209022,1,2,1:2:0:0:
141,183,209095,1,0,1:0:0:0:
131,154,209168,1,2,1:2:0:0:
136,123,209241,1,0,1:0:0:0:
156,99,209314,6,0,L|220:94,2,44.999998626709,6|0|0,3:2|3:2|3:2,0:0:0:0:
342,181,209607,2,0,L|285:176,2,44.999998626709,0|0|0,3:2|3:2|3:2,0:0:0:0:
467,268,209900,1,0,1:0:0:0:
455,132,210046,1,0,3:0:0:0:
454,100,210119,1,0,3:0:0:0:
454,69,210192,1,0,3:0:0:0:
352,18,210339,1,0,3:0:0:0:
352,49,210412,1,0,3:0:0:0:
353,80,210485,5,0,3:0:0:0:
264,147,210631,1,0,3:0:0:0:
202,67,210778,1,0,3:0:0:0:
202,67,210851,1,0,3:0:0:0:
202,67,210924,1,0,3:0:0:0:
360,168,211070,2,0,L|355:229,1,44.999998626709,2|0,1:2|0:0,0:0:0:0:
255,277,211217,38,0,B|237:281|207:269|190:230|190:230|170:273|113:303|40:267|49:188,1,299.999990844727,4|0,3:2|0:0,0:0:0:0:
126,157,211656,6,0,L|121:202,2,44.999998626709,6|0|0,3:2|3:2|3:2,0:0:0:0:
196,379,211948,2,0,L|191:334,2,44.999998626709,0|0|0,3:2|3:2|3:2,0:0:0:0:
269,201,212241,1,0,1:0:0:0:
355,293,212387,1,0,3:2:0:0:
384,303,212461,1,0,3:2:0:0:
415,311,212534,1,0,3:2:0:0:
500,182,212680,1,2,3:2:0:0:
470,192,212753,1,0,3:2:0:0:
439,200,212826,5,0,3:2:0:0:
346,123,212973,1,0,3:0:0:0:
267,209,213119,1,0,3:0:0:0:
267,209,213192,1,0,3:0:0:0:
267,209,213265,1,0,3:0:0:0:
131,137,213412,2,0,L|126:82,1,44.999998626709,2|0,1:2|0:0,0:0:0:0:
37,221,213558,6,0,B|71:255|141:227|141:227|126:248|126:248|199:224|243:283|228:345,1,299.999990844727,4|0,3:2|0:0,0:0:0:0:
148,361,213997,38,0,L|157:317,2,44.999998626709,6|0|0,3:2|3:2|3:2,0:0:0:0:
300,264,214290,2,0,L|291:219,2,44.999998626709,0|0|0,3:2|3:2|3:2,0:0:0:0:
165,137,214583,1,0,1:0:0:0:
329,72,214729,1,0,3:2:0:0:
325,103,214802,1,0,3:2:0:0:
322,134,214875,1,0,3:2:0:0:
426,101,215022,1,0,3:2:0:0:
429,70,215095,1,0,3:2:0:0:
433,39,215168,5,0,3:2:0:0:
235,82,215314,1,0,3:2:0:0:
397,210,215461,1,0,3:2:0:0:
397,210,215534,1,0,3:2:0:0:
397,210,215607,1,0,3:2:0:0:
225,271,215753,2,0,L|221:212,1,44.999998626709,2|0,1:2|0:0,0:0:0:0:
169,149,215900,2,0,B|162:97|162:97|137:33,2,89.9999972534181,4|0|0,3:2|3:0|3:0,0:0:0:0:
221,226,216339,6,0,B|207:260|207:260|200:312,1,89.9999972534181,6|0,0:0|3:0,0:0:0:0:
272,361,216558,1,0,0:0:0:0:
272,361,216631,2,0,B|325:342|325:342|376:350,1,89.9999972534181,0|0,3:0|3:0,0:0:0:0:
507,266,216924,1,10,0:0:0:0:
340,186,217070,1,0,3:0:0:0:
483,96,217217,1,10,0:0:0:0:
393,267,217363,1,4,3:2:0:0:
393,267,217436,1,0,0:0:0:0:
391,267,217509,6,0,B|346:285|346:285|306:263|306:263|260:287|224:265,1,179.999994506836,2|0,0:0|0:0,0:0:0:0:
257,153,217802,2,0,L|264:220,2,44.999998626709,2|0|0,3:2|3:2|3:2,0:0:0:0:
139,66,218095,2,0,L|132:133,2,44.999998626709,2|0|0,0:0|3:0|3:0,0:0:0:0:
25,195,218387,1,0,1:0:0:0:
15,224,218461,1,0,1:0:0:0:
13,256,218534,1,0,1:0:0:0:
21,286,218607,1,0,1:0:0:0:
38,312,218680,38,0,B|73:303|73:303|100:317,3,50,6|0|0|0,0:0|0:0|0:0|0:0,0:0:0:0:
134,237,218973,2,0,B|165:255|165:255|174:284,3,50,10|0|0|0,0:0|0:0|0:0|0:0,0:0:0:0:
255,244,219265,2,0,B|264:279|264:279|250:306,3,50,0|0|0|0,3:0|0:0|3:0|0:0,0:0:0:0:
330,340,219558,2,0,B|312:371|312:371|283:380,3,50,10|0|0|0,0:0|0:0|0:0|0:0,0:0:0:0:
422,340,219851,5,2,3:2:0:0:
432,306,219924,1,0,0:0:0:0:
434,271,219997,1,0,0:0:0:0:
426,236,220070,1,0,0:0:0:0:
409,204,220144,1,8,0:0:0:0:
391,173,220217,1,0,0:0:0:0:
391,138,220290,1,0,3:0:0:0:
412,110,220363,1,0,0:0:0:0:
446,106,220436,5,2,0:0:0:0:
476,122,220509,1,0,0:0:0:0:
487,155,220583,1,0,3:0:0:0:
474,187,220656,1,0,0:0:0:0:
442,202,220729,1,8,0:0:0:0:
407,194,220802,1,0,0:0:0:0:
375,178,220875,1,0,0:0:0:0:
340,175,220948,1,0,0:0:0:0:
304,181,221022,6,0,B|255:191|219:220|219:220|107:235|112:82|270:108|263:188|202:264|124:292,1,419.999987182618,4|0,3:2|0:0,0:0:0:0:
67,265,221607,37,2,0:0:0:0:
42,240,221680,1,0,0:0:0:0:
25,209,221753,1,0,3:0:0:0:
16,175,221826,1,0,0:0:0:0:
17,140,221900,1,10,0:0:0:0:
27,107,221973,1,0,0:0:0:0:
46,77,222046,1,0,0:0:0:0:
71,54,222119,1,0,0:0:0:0:
102,38,222192,6,0,P|138:30|169:37,3,50,2|0|0|0,3:2|0:0|3:0|0:0,0:0:0:0:
234,53,222485,2,0,P|263:75|277:103,3,50,10|0|0|0,0:0|0:0|3:0|0:0,0:0:0:0:
242,159,222778,6,0,B|287:180|329:149|329:149|336:187|365:212|365:212|431:162|483:198|507:234|492:279,1,359.999989013672,6|0,0:0|0:0,0:0:0:0:
323,319,223363,5,6,3:2:0:0:
423,264,223509,1,0,0:0:0:0:
227,241,223656,1,10,0:0:0:0:
253,367,223802,1,0,0:0:0:0:
310,192,223948,1,2,3:2:0:0:
125,236,224095,1,0,3:0:0:0:
212,97,224241,1,10,0:0:0:0:
220,271,224387,1,0,0:0:0:0:
39,152,224534,37,6,3:2:0:0:
196,142,224680,1,0,0:0:0:0:
350,241,224826,2,0,B|301:245|301:245|238:225,1,100,8|0,0:0|3:0,0:0:0:0:
202,8,225119,1,6,0:0:0:0:
212,165,225265,1,0,3:0:0:0:
113,319,225412,2,0,B|109:270|109:270|129:207,1,100,8|0,0:0|0:0,0:0:0:0:
336,102,225704,5,6,3:2:0:0:
313,231,225851,1,0,0:0:0:0:
210,151,225997,1,10,0:0:0:0:
233,280,226144,1,0,0:0:0:0:
371,121,226290,5,2,0:0:0:0:
341,305,226436,1,0,3:0:0:0:
202,73,226583,1,10,0:0:0:0:
232,257,226729,1,0,3:0:0:0:
461,203,226875,5,2,0:0:0:0:
245,164,227022,1,0,3:0:0:0:
449,106,227168,1,10,0:0:0:0:
392,315,227314,1,0,3:0:0:0:
232,257,227461,37,2,3:2:0:0:
191,237,227534,1,0,3:2:0:0:
146,232,227607,1,0,3:2:0:0:
102,244,227680,1,0,3:2:0:0:
70,275,227753,2,0,L|56:160,1,100,10|0,3:2|3:0,0:0:0:0:
213,48,228046,6,0,B|265:48|293:110|271:161|225:162|225:162|228:185|228:185|163:183|129:268|188:315,1,359.999989013672,4|0,3:2|0:0,0:0:0:0:
398,249,228631,5,2,3:2:0:0:
232,257,228778,1,0,3:0:0:0:
398,249,228924,1,8,0:0:0:0:
372,60,229070,5,2,0:0:0:0:
380,226,229217,1,0,3:0:0:0:
372,60,229363,1,0,0:0:0:0:
183,86,229509,37,10,0:0:0:0:
349,78,229656,1,0,3:0:0:0:
183,86,229802,1,0,0:0:0:0:
209,275,229948,5,2,3:2:0:0:
201,109,230095,1,8,0:0:0:0:
209,275,230241,1,0,0:0:0:0:
330,370,230387,6,0,B|337:312|337:312|327:253,1,100,6|0,3:2|0:0,0:0:0:0:
272,120,230680,1,8,0:0:0:0:
431,269,230826,2,0,B|438:211|438:211|428:152,1,100,2|0,0:0|3:0,0:0:0:0:
373,19,231119,1,0,3:0:0:0:
276,206,231265,1,10,0:0:0:0:
276,206,231412,1,0,0:0:0:0:
79,107,231558,6,0,B|149:90|149:90|201:97,1,100,2|0,3:2|3:0,0:0:0:0:
345,108,231851,1,10,0:0:0:0:
201,240,231997,1,0,3:0:0:0:
412,38,232144,38,0,B|465:61|453:118|453:118|491:129|416:167|416:167|454:194|454:194|343:231|414:335,1,359.999989013672,6|0,0:0|0:0,0:0:0:0:
295,152,232729,5,4,0:0:0:0:
263,129,232802,1,0,0:0:0:0:
225,121,232875,1,0,0:0:0:0:
187,130,232948,1,0,0:0:0:0:
157,154,233022,1,8,0:0:0:0:
140,188,233095,1,0,0:0:0:0:
138,227,233168,1,0,0:0:0:0:
154,262,233241,1,0,0:0:0:0:
182,288,233314,5,0,3:0:0:0:
196,252,233387,1,0,0:0:0:0:
194,213,233461,1,0,3:0:0:0:
176,179,233534,1,0,0:0:0:0:
146,155,233607,1,8,0:0:0:0:
109,146,233680,1,0,0:0:0:0:
71,154,233753,1,0,0:0:0:0:
40,176,233826,1,0,0:0:0:0:
24,212,233900,6,0,P|26:236|33:261,3,50,4|0|0|0,3:2|0:0|0:0|0:0,0:0:0:0:
127,264,234192,2,0,P|125:288|118:313,3,50,8|0|0|0,0:0|0:0|3:0|0:0,0:0:0:0:
210,211,234485,2,0,P|211:235|218:260,3,50,4|0|0|0,0:0|0:0|3:0|0:0,0:0:0:0:
310,263,234778,2,0,P|308:287|301:312,3,50,8|0|0|0,0:0|0:0|0:0|0:0,0:0:0:0:
399,235,235070,37,4,3:2:0:0:
423,197,235144,1,0,0:0:0:0:
428,153,235217,1,0,0:0:0:0:
413,111,235290,1,0,0:0:0:0:
391,73,235363,1,8,0:0:0:0:
401,30,235436,1,0,0:0:0:0:
436,5,235509,1,0,0:0:0:0:
480,10,235583,1,0,0:0:0:0:
507,46,235656,1,2,0:0:0:0:
507,90,235729,1,0,0:0:0:0:
477,123,235802,1,0,3:0:0:0:
433,130,235875,1,0,0:0:0:0:
393,110,235948,2,0,L|284:99,1,100,8|4,0:0|3:2,0:0:0:0:
144,185,236241,5,2,0:0:0:0:
144,185,236314,1,0,0:0:0:0:
144,185,236387,2,0,L|200:180,1,50,0|0,3:0|0:0,0:0:0:0:
334,253,236534,1,2,3:2:0:0:
334,253,236607,1,0,0:0:0:0:
334,253,236680,2,0,L|260:243,1,50
228,328,236826,5,2,3:2:0:0:
272,334,236900,1,0,3:2:0:0:
316,341,236973,1,0,3:2:0:0:
361,348,237046,1,0,3:2:0:0:
405,355,237119,2,0,L|420:291,1,50,0|0,3:0|0:0,0:0:0:0:
472,244,237265,2,0,L|457:180,1,50
425,103,237412,5,4,3:2:0:0:
334,251,237558,1,8,0:0:0:0:
297,71,237704,1,0,3:0:0:0:
476,188,237851,2,0,L|386:181,1,89.9999972534181,8|0,0:0|3:0,0:0:0:0:
245,174,238144,1,8,0:0:0:0:
192,53,238290,1,0,3:0:0:0:
171,248,238436,1,8,0:0:0:0:
125,113,238583,37,2,3:2:0:0:
293,97,238729,1,8,0:0:0:0:
264,203,238875,1,0,3:0:0:0:
177,323,239022,2,0,B|171:271|171:271|158:235,1,89.9999972534181,8|0,0:0|3:0,0:0:0:0:
309,291,239314,1,8,0:0:0:0:
482,236,239461,2,0,B|429:226|429:226|394:236,1,89.9999972534181,0|8,3:0|0:0,0:0:0:0:
200,309,239753,5,2,3:2:0:0:
352,354,239900,1,8,0:0:0:0:
291,206,240046,1,0,3:2:0:0:
423,51,240192,2,0,B|428:102|428:102|419:149,1,89.9999972534181,8|0,0:0|3:0,0:0:0:0:
284,124,240485,1,8,0:0:0:0:
102,192,240631,2,0,B|149:184|149:184|205:202,1,89.9999972534181,2|8,3:2|0:0,0:0:0:0:
328,248,240924,5,2,3:2:0:0:
231,312,241070,1,8,0:0:0:0:
279,164,241217,1,2,3:2:0:0:
408,261,241363,1,8,0:0:0:0:
360,89,241509,1,2,3:2:0:0:
301,262,241656,1,8,0:0:0:0:
234,73,241802,1,2,3:2:0:0:
234,73,241875,1,0,0:0:0:0:
234,73,241948,1,8,0:0:0:0:
145,235,242095,6,0,B|112:202|112:202|51:181,1,89.9999972534181,6|8,3:2|0:0,0:0:0:0:
254,201,242387,1,0,3:2:0:0:
274,210,242461,1,0,3:0:0:0:
294,219,242534,2,0,B|334:204|334:204|367:171,1,89.9999972534181,10|0,0:0|3:0,0:0:0:0:
234,320,242826,1,8,0:0:0:0:
176,158,242973,1,2,3:2:0:0:
274,81,243119,1,8,0:0:0:0:
360,209,243265,38,0,B|346:265|346:265|325:314,1,89.9999972534181,4|8,3:2|0:0,0:0:0:0:
155,147,243558,2,0,B|169:203|169:203|182:232,1,89.9999972534181,2|8,3:2|0:0,0:0:0:0:
291,73,243851,1,2,3:2:0:0:
261,183,243997,1,8,0:0:0:0:
216,17,244144,1,2,3:2:0:0:
352,161,244290,1,8,0:0:0:0:
438,17,244436,5,2,3:2:0:0:
289,88,244583,1,8,0:0:0:0:
383,224,244729,1,0,3:0:0:0:
391,233,244802,1,0,3:0:0:0:
398,243,244875,2,0,B|448:239|448:239|484:255,1,89.9999972534181,10|0,0:0|3:0,0:0:0:0:
287,307,245168,1,10,0:0:0:0:
291,116,245314,1,0,3:0:0:0:
367,254,245461,1,8,0:0:0:0:
204,182,245607,6,0,L|153:177,1,44.999998626709,0|0,3:0|0:0,0:0:0:0:
50,238,245753,2,0,L|94:242,1,44.999998626709,0|0,3:0|0:0,0:0:0:0:
221,258,245900,1,12,0:0:0:0:
328,47,246046,1,0,3:0:0:0:
328,47,246119,1,0,3:0:0:0:
328,47,246192,2,0,L|321:106,1,44.999998626709,8|0,3:0|0:0,0:0:0:0:
288,232,246339,2,0,L|284:185,1,44.999998626709,0|0,3:0|3:0,0:0:0:0:
403,144,246485,6,0,B|431:177|488:151|488:151|439:207|447:278,1,225.000008583069,6|0,0:0|0:0,0:0:0:0:
365,324,246778,38,0,B|313:313|313:313|277:323,1,89.9999972534181,4|8,3:2|0:0,0:0:0:0:
136,261,247070,1,0,3:0:0:0:
153,244,247144,1,0,3:0:0:0:
169,228,247217,2,0,B|178:181|178:181|167:128,1,89.9999972534181,10|0,0:0|3:0,0:0:0:0:
44,47,247509,1,8,0:0:0:0:
88,180,247656,1,0,3:0:0:0:
214,68,247802,1,8,0:0:0:0:
368,178,247948,6,0,B|302:188|302:188|280:184,1,89.9999972534181,2|8,3:2|0:0,0:0:0:0:
454,164,248241,1,0,3:0:0:0:
298,293,248387,2,0,B|232:283|232:283|209:287,1,89.9999972534181,8|0,0:0|3:0,0:0:0:0:
390,308,248680,1,8,0:0:0:0:
279,183,248826,1,2,3:2:0:0:
243,361,248973,1,8,0:0:0:0:
306,170,249119,5,2,3:2:0:0:
209,286,249265,1,8,0:0:0:0:
183,117,249412,1,0,3:0:0:0:
191,102,249485,1,0,3:0:0:0:
199,87,249558,2,0,B|251:74|251:74|303:80,1,89.9999972534181,10|0,0:0|3:0,0:0:0:0:
88,138,249851,1,8,0:0:0:0:
58,25,249997,2,0,B|110:12|110:12|162:18,1,89.9999972534181,2|8,3:2|0:0,0:0:0:0:
322,26,250290,5,2,3:2:0:0:
208,129,250436,1,8,0:0:0:0:
405,169,250583,1,0,3:2:0:0:
294,118,250729,1,8,0:0:0:0:
190,232,250875,2,0,B|234:222|234:222|281:216,1,89.9999972534181,0|8,3:0|0:0,0:0:0:0:
125,152,251168,1,2,3:2:0:0:
176,327,251314,1,8,0:0:0:0:
371,246,251461,38,0,B|378:210|378:210|372:145,1,89.9999972534181,4|8,3:2|0:0,0:0:0:0:
258,37,251753,1,0,3:0:0:0:
258,37,251826,1,0,0:0:0:0:
258,37,251900,2,0,B|260:67|260:67|250:125,1,89.9999972534181,10|0,0:0|3:0,0:0:0:0:
99,132,252192,1,8,0:0:0:0:
92,282,252339,2,0,B|140:276|140:276|198:288,1,89.9999972534181,2|8,3:2|0:0,0:0:0:0:
317,183,252631,5,2,3:2:0:0:
241,349,252778,1,8,0:0:0:0:
176,188,252924,1,0,3:2:0:0:
347,283,253070,1,10,0:0:0:0:
325,60,253217,1,0,3:0:0:0:
269,225,253363,1,8,0:0:0:0:
431,59,253509,2,0,P|449:74|461:93,1,44.999998626709,2|0,3:2|3:0,0:0:0:0:
460,183,253656,2,0,P|455:204|443:223,1,44.999998626709,8|0,3:2|0:0,0:0:0:0:
371,275,253802,5,2,3:2:0:0:
341,284,253875,1,0,3:0:0:0:
310,281,253948,1,0,3:0:0:0:
282,267,254021,1,0,3:0:0:0:
263,242,254094,1,0,3:0:0:0:
255,212,254167,1,0,3:0:0:0:
259,181,254241,1,0,3:0:0:0:
275,154,254314,1,0,3:0:0:0:
293,180,254387,5,2,3:2:0:0:
282,214,254461,1,0,3:2:0:0:
258,240,254534,1,0,3:2:0:0:
222,247,254607,1,0,3:2:0:0:
190,229,254680,1,0,3:2:0:0:
155,218,254753,1,0,3:2:0:0:
120,227,254826,1,0,3:2:0:0:
102,258,254900,1,0,3:2:0:0:
105,293,254973,38,0,L|114:336,3,44.999998626709,2|0|8|8,3:2|3:2|3:0|3:0,0:0:0:0:
45,177,255265,2,0,L|31:220,3,44.999998626709,2|0|4|4,3:2|3:2|3:0|3:0,0:0:0:0:
86,94,255558,5,2,3:2:0:0:
118,70,255631,1,0,3:2:0:0:
158,66,255704,1,0,3:2:0:0:
194,83,255778,1,0,3:2:0:0:
219,113,255851,1,2,3:2:0:0:
252,136,255924,1,0,3:2:0:0:
292,140,255997,1,0,3:2:0:0:
330,126,256070,1,0,3:2:0:0:
358,96,256144,6,0,B|393:111|394:162|394:162|353:202|375:267,1,179.999994506836,4|8,0:0|0:0,0:0:0:0:
439,340,256583,1,0,0:0:0:0:
454,226,256729,1,0,3:2:0:0:
336,354,256875,1,0,3:0:0:0:
183,241,257022,2,0,P|228:247|272:254,1,89.9999972534181,8|0,0:0|0:0,0:0:0:0:
360,170,257314,6,0,P|353:125|346:80,1,89.9999972534181,2|0,3:2|0:0,0:0:0:0:
265,6,257607,1,8,0:0:0:0:
92,93,257753,2,0,L|184:72,1,89.9999972534181,2|0,3:2|0:0,0:0:0:0:
285,33,258046,1,0,3:0:0:0:
395,209,258192,2,0,P|347:181|303:160,1,89.9999972534181,10|0,0:0|0:3,0:3:0:0:
171,63,258485,38,0,L|178:152,1,89.9999972534181,4|0,3:2|0:0,0:0:0:0:
294,189,258778,1,8,0:0:0:0:
238,295,258924,1,0,0:0:0:0:
133,257,259070,1,0,0:0:0:0:
248,316,259217,1,0,3:0:0:0:
437,261,259363,2,0,B|390:263|390:263|351:282,1,89.9999972534181,8|0,0:0|0:0,0:0:0:0:
249,197,259656,6,0,B|256:146|256:146|251:107,1,89.9999972534181,2|0,3:2|0:0,0:0:0:0:
231,290,259948,1,8,0:0:0:0:
115,140,260095,2,0,B|108:89|108:89|112:50,1,89.9999972534181,2|0,3:2|0:0,0:0:0:0:
133,233,260387,1,0,3:0:0:0:
276,106,260534,2,0,B|283:55|283:55|278:16,1,89.9999972534181,10|0,0:0|0:0,0:0:0:0:
221,198,260826,6,0,B|310:234|306:166|417:217,1,179.999994506836,4|8,3:2|0:0,0:0:0:0:
367,351,261265,1,2,0:0:0:0:
238,376,261412,2,0,B|238:336|238:336|248:286,1,89.9999972534181,0|0,3:0|3:0,0:0:0:0:
386,119,261704,2,0,B|396:169|396:169|396:218,1,89.9999972534181,10|0,0:0|0:0,0:0:0:0:
187,221,261997,5,4,3:2:0:0:
301,162,262144,1,0,0:0:0:0:
347,296,262290,1,8,0:0:0:0:
232,337,262436,2,0,B|181:343|181:343|127:336,1,89.9999972534181,2|0,3:2|0:0,0:0:0:0:
42,271,262729,1,0,3:0:0:0:
213,181,262875,2,0,B|165:162|165:162|133:142,1,89.9999972534181,10|0,0:0|0:0,0:0:0:0:
367,231,263168,37,4,0:0:0:0:
289,313,263314,1,0,0:0:0:0:
149,246,263461,1,8,0:0:0:0:
270,184,263607,1,0,0:0:0:0:
387,310,263753,1,0,0:0:0:0:
216,289,263900,1,0,3:0:0:0:
440,246,264046,1,8,0:0:0:0:
309,88,264192,6,0,P|310:177|317:267,1,179.999994506836,4|0,3:2|3:0,0:0:0:0:
182,186,264631,1,8,0:0:0:0:
231,330,264778,1,0,3:0:0:0:
75,293,264924,1,0,3:2:0:0:
79,257,264997,1,0,3:2:0:0:
84,221,265070,1,0,3:2:0:0:
89,185,265144,1,0,3:2:0:0:
93,150,265217,2,0,L|103:82,1,44.999998626709,8|0,0:0|0:0,0:0:0:0:
176,21,265363,2,0,L|182:65,1,44.999998626709
255,134,265509,6,0,B|306:147|306:147|354:132,1,89.9999972534181,4|0,3:2|0:0,0:0:0:0:
489,94,265802,2,0,B|473:145|473:145|470:181,1,89.9999972534181,8|0,0:0|0:0,0:0:0:0:
422,341,266095,1,0,3:0:0:0:
386,236,266241,1,0,3:0:0:0:
266,234,266387,2,0,B|250:285|250:285|246:321,1,89.9999972534181,8|0,0:0|0:0,0:0:0:0:
51,243,266680,5,2,3:2:0:0:
150,311,266826,1,0,0:0:0:0:
59,363,266973,1,8,0:0:0:0:
148,205,267119,2,0,P|159:139|163:24,1,179.999994506836,2|0,3:2|3:0,0:0:0:0:
71,114,267558,1,10,0:0:0:0:
252,91,267704,1,0,0:0:0:0:
342,205,267851,38,0,L|245:191,1,89.9999972534181,4|0,3:2|0:0,0:0:0:0:
76,309,268144,1,8,0:0:0:0:
191,293,268290,1,0,0:0:0:0:
99,118,268436,1,0,3:0:0:0:
174,208,268583,1,0,3:0:0:0:
308,105,268729,1,8,0:0:0:0:
192,123,268875,1,0,0:0:0:0:
342,205,269022,6,0,B|391:214|391:214|435:206,1,89.9999972534181,2|0,3:2|0:0,0:0:0:0:
234,260,269314,1,8,0:0:0:0:
192,123,269461,2,0,B|241:114|241:114|285:122,1,89.9999972534181,2|0,3:2|0:0,0:0:0:0:
109,220,269753,1,0,3:0:0:0:
36,61,269900,2,0,P|29:105|24:150,1,89.9999972534181,12|0,0:0|0:0,0:0:0:0:
157,317,270192,6,0,P|151:272|145:227,1,89.9999972534181,4|0,3:2|0:0,0:0:0:0:
256,366,270485,1,8,0:0:0:0:
328,289,270631,2,0,P|354:253|400:209,1,89.9999972534181,2|0,0:0|3:0,0:0:0:0:
422,317,270924,1,0,3:0:0:0:
305,173,271070,2,0,P|291:126|283:84,1,89.9999972534181,10|0,0:0|0:0,0:0:0:0:
172,289,271363,6,0,P|186:242|194:200,1,89.9999972534181,6|0,3:2|0:0,0:0:0:0:
74,269,271656,1,8,0:0:0:0:
241,355,271802,2,0,P|283:343|331:317,1,89.9999972534181,2|0,3:2|0:0,0:0:0:0:
128,377,272095,1,0,3:0:0:0:
280,235,272241,2,0,P|272:191|262:147,1,89.9999972534181,10|0,0:0|0:0,0:0:0:0:
401,35,272534,37,4,3:2:0:0:
369,146,272680,1,0,0:0:0:0:
291,66,272826,1,10,0:0:0:0:
453,106,272973,1,0,0:0:0:0:
282,154,273119,1,0,0:0:0:0:
472,116,273265,1,2,3:2:0:0:
211,105,273412,1,8,0:0:0:0:
361,286,273558,6,0,B|375:245|353:209|353:209|377:176|377:144|355:112,1,179.999994506836,4|0,3:2|0:0,0:0:0:0:
171,270,273997,1,8,0:3:0:0:
268,261,274144,1,0,0:0:0:0:
109,142,274290,5,0,3:0:0:0:
216,187,274436,1,0,3:0:0:0:
324,58,274583,1,8,3:0:0:0:
200,89,274729,1,4,3:0:0:0:
327,196,274875,38,0,P|360:211|398:214,1,75.0000028610231,4|0,0:0|0:0,0:0:0:0:
394,299,275168,2,0,P|430:292|462:273,1,75.0000028610231
459,145,275461,2,0,P|426:130|388:127,1,75.0000028610231
392,42,275753,2,0,P|356:49|324:68,1,75.0000028610231
233,78,276046,70,0,L|228:164,1,75.0000028610231,2|0,0:0|0:0,0:0:0:0:
138,128,276339,2,0,L|155:212,1,75.0000028610231
266,226,276631,2,0,L|245:300,1,75.0000028610231
153,288,276924,2,0,L|195:364,1,75.0000028610231
305,355,277217,6,0,B|338:344|338:344|382:349,1,75.0000028610231,2|0,0:0|0:0,0:0:0:0:
391,278,277509,2,0,B|422:293|422:293|449:328,1,75.0000028610231
341,215,277802,2,0,B|325:246|325:246|293:271,1,75.0000028610231
263,127,278095,2,0,B|274:160|274:160|269:199,1,75.0000028610231
193,163,278387,69,2,0:0:0:0:
124,125,278534,1,0,0:0:0:0:
48,141,278680,1,0,0:0:0:0:
1,201,278826,1,0,0:0:0:0:
3,278,278973,1,0,0:0:0:0:
54,336,279119,1,0,0:0:0:0:
130,347,279265,1,0,0:0:0:0:
196,308,279412,1,0,0:0:0:0:
213,235,279558,6,0,P|248:221|285:223,1,75.0000028610231
382,160,279851,2,0,P|344:162|310:148,1,75.0000028610231
161,147,280144,2,0,P|195:133|232:135,1,75.0000028610231
329,71,280436,2,0,P|291:73|257:59,1,75.0000028610231
115,77,280729,70,0,P|89:107|78:151,1,75.0000028610231,2|0,0:0|0:0,0:0:0:0:
4,124,281022,2,0,P|6:163|30:202,1,75.0000028610231
107,218,281314,2,0,P|140:202|177:201,1,75.0000028610231
182,125,281607,2,0,P|217:137|244:162,1,75.0000028610231
330,164,281900,6,0,L|307:247,1,75.0000028610231,2|0,0:0|0:0,0:0:0:0:
342,322,282192,2,0,L|259:299,1,75.0000028610231
184,334,282485,2,0,L|207:251,1,75.0000028610231
172,176,282778,2,0,L|255:199,1,75.0000028610231
421,102,283070,69,2,0:0:0:0:
350,189,283217,1,2,0:0:0:0:
172,176,283363,1,0,0:0:0:0:
290,127,283509,1,2,0:0:0:0:
414,264,283656,1,2,0:0:0:0:
281,250,283802,1,0,3:0:0:0:
178,111,283948,38,0,P|135:85|71:88,1,97.4999955368044
85,85,284241,6,0,P|52:159|144:132,1,225.000008583069,4|0,3:2|0:0,0:0:0:0:
331,141,284826,2,0,P|332:222|257:161,1,225.000008583069,4|0,3:2|0:0,0:0:0:0:
487,170,285412,6,0,P|509:92|421:131,1,225.000008583069,6|0,3:2|0:0,0:0:0:0:
201,107,285997,2,0,P|199:25|274:86,1,225.000008583069,4|0,3:2|0:0,0:0:0:0:
37,112,286583,70,0,B|70:54|70:54|46:147|46:147|62:223,1,225.000008583069,4|0,3:2|0:0,0:0:0:0:
193,266,287168,2,0,B|160:208|160:208|184:301|184:301|168:377,1,225.000008583069,4|0,3:2|0:0,0:0:0:0:
278,176,287753,54,0,B|300:155|306:100|306:100|306:140|316:163|316:163|316:196|306:231|306:231|365:188|406:231,1,300.000011444092,4|8,3:2|0:3,0:0:0:0:
489,292,288485,1,8,0:3:0:0:
406,121,288631,1,8,0:3:0:0:
369,292,288778,1,0,3:0:0:0:
369,292,288851,1,0,3:0:0:0:
369,292,288924,5,12,3:2:0:0:
210,238,289070,1,0,3:0:0:0:
210,238,289144,1,0,3:0:0:0:
210,238,289217,1,8,0:0:0:0:
323,166,289363,1,0,3:0:0:0:
259,319,289509,1,8,0:0:0:0:
244,105,289656,1,0,3:0:0:0:
244,105,289729,1,0,3:0:0:0:
244,105,289802,1,8,0:0:0:0:
125,153,289948,1,0,3:0:0:0:
347,69,290095,5,8,0:0:0:0:
137,30,290241,1,0,3:0:0:0:
268,226,290387,1,8,0:0:0:0:
267,20,290534,1,0,3:0:0:0:
267,20,290607,1,0,3:0:0:0:
267,20,290680,1,8,0:0:0:0:
183,227,290826,1,0,3:0:0:0:
57,89,290973,1,8,0:0:0:0:
107,318,291119,1,0,3:0:0:0:
386,255,291265,5,12,0:0:0:0:
187,111,291412,1,0,3:0:0:0:
185,136,291485,1,0,3:0:0:0:
183,161,291558,2,0,L|174:261,1,89.9999972534181,10|0,0:0|3:0,0:0:0:0:
345,59,291851,2,0,L|352:156,1,89.9999972534181,10|0,0:0|3:0,0:0:0:0:
119,15,292144,2,0,L|101:116,1,89.9999972534181,10|0,0:0|3:0,0:0:0:0:
278,245,292436,38,0,L|342:236,2,59.9999981689454,8|0|0,0:0|3:0|3:0,0:0:0:0:
218,184,292729,1,8,3:2:0:0:
247,361,292875,1,0,3:0:0:0:
82,205,293022,5,10,0:0:0:0:
82,205,293119,2,0,L|153:193,1,59.9999981689454,8|0,0:3|3:0,0:0:0:0:
353,141,293314,1,10,0:0:0:0:
353,141,293412,2,0,L|285:129,1,59.9999981689454,0|0,0:0|3:0,0:0:0:0:
15,288,293607,6,0,P|69:299|122:313,1,110.000003356934,4|8,3:2|0:0,0:0:0:0:
213,340,293826,1,0,0:0:0:0:
234,351,293900,2,0,L|246:238,1,110.000003356934,0|8,3:0|0:0,0:0:0:0:
98,138,294192,1,2,0:0:0:0:
295,22,294339,1,8,0:0:0:0:
295,22,294412,1,0,0:0:0:0:
295,22,294485,2,0,L|301:138,1,110.000003356934,0|8,3:0|0:0,0:0:0:0:
486,274,294778,6,0,P|436:250|382:240,1,110.000003356934,4|8,3:2|0:0,0:0:0:0:
296,301,294997,1,0,0:0:0:0:
289,314,295070,2,0,P|241:345|176:364,1,110.000003356934,0|8,3:0|0:0,0:0:0:0:
163,180,295363,1,2,3:2:0:0:
174,191,295436,1,0,3:0:0:0:
186,201,295509,1,8,0:0:0:0:
53,248,295656,1,0,3:0:0:0:
113,70,295802,1,8,0:0:0:0:
324,106,295948,38,0,P|321:161|307:214,1,110.000003356934,4|8,3:2|0:0,0:0:0:0:
236,274,296168,1,0,0:0:0:0:
224,285,296241,2,0,P|158:267|102:254,1,110.000003356934,0|8,3:0|0:0,0:0:0:0:
307,357,296534,2,0,P|373:339|429:326,1,110.000003356934,2|8,3:2|0:0,0:0:0:0:
491,308,296753,1,0,0:0:0:0:
491,308,296826,1,0,3:0:0:0:
378,218,296973,1,8,0:0:0:0:
475,50,297119,5,4,3:2:0:0:
279,40,297265,1,8,0:0:0:0:
279,40,297339,1,0,0:0:0:0:
279,40,297412,2,0,B|292:158,1,110.000003356934,0|8,3:0|0:0,0:0:0:0:
449,317,297704,1,2,0:0:0:0:
449,317,297778,1,0,3:0:0:0:
449,317,297851,2,0,L|379:303,1,55.0000016784668,8|0,0:0|0:0,0:0:0:0:
273,349,297997,1,0,3:0:0:0:
273,349,298070,1,0,3:0:0:0:
273,349,298144,2,0,L|282:279,1,55.0000016784668,8|0,0:0|0:0,0:0:0:0:
192,103,298290,6,0,B|179:221,1,110.000003356934,4|8,3:2|0:0,0:0:0:0:
125,285,298509,1,0,0:0:0:0:
113,296,298583,2,0,P|58:277|-16:262,1,110.000003356934,0|8,3:0|0:0,0:0:0:0:
196,365,298875,1,2,0:0:0:0:
355,244,299022,1,8,0:0:0:0:
355,244,299095,1,0,0:0:0:0:
355,244,299168,2,0,P|301:256|249:274,1,110.000003356934,0|8,3:0|0:0,0:0:0:0:
448,335,299461,6,0,P|461:281|466:226,1,110.000003356934,4|8,3:2|0:0,0:0:0:0:
432,140,299680,1,0,0:0:0:0:
426,132,299753,2,0,P|390:89|345:58,1,110.000003356934,0|8,3:0|0:0,0:0:0:0:
202,180,300046,1,2,3:2:0:0:
217,181,300119,1,0,3:0:0:0:
233,183,300192,1,8,0:0:0:0:
195,76,300339,1,0,3:0:0:0:
122,239,300485,1,8,0:0:0:0:
337,315,300631,38,0,P|341:255|334:190,1,110.000003356934,4|8,3:2|0:0,0:0:0:0:
267,147,300851,1,0,0:0:0:0:
258,122,300924,2,0,P|268:58|282:12,1,110.000003356934,0|8,3:0|0:0,0:0:0:0:
401,136,301217,1,2,0:0:0:0:
200,235,301363,1,8,0:0:0:0:
200,235,301436,1,0,0:0:0:0:
200,235,301509,2,0,P|161:182|139:140,1,110.000003356934,0|8,3:0|0:0,0:0:0:0:
321,318,301802,6,0,P|266:324|213:336,1,110.000003356934,4|8,3:2|0:0,0:0:0:0:
130,358,302022,1,0,0:0:0:0:
130,358,302095,1,0,3:0:0:0:
75,242,302241,1,8,0:0:0:0:
212,130,302387,1,2,0:0:0:0:
211,158,302461,1,0,3:0:0:0:
211,185,302534,1,8,0:0:0:0:
332,325,302680,1,0,3:2:0:0:
326,288,302753,1,0,3:2:0:0:
322,253,302826,1,8,3:2:0:0:
319,218,302899,1,0,3:2:0:0:
315,182,302973,6,0,B|373:165|373:165|435:179,1,110.000003356934,4|8,3:2|0:0,0:0:0:0:
475,246,303192,1,0,0:0:0:0:
481,261,303265,2,0,L|471:379,1,110.000003356934,0|8,3:0|0:0,0:0:0:0:
251,368,303558,1,2,0:0:0:0:
321,237,303704,1,8,0:0:0:0:
321,237,303778,1,0,0:0:0:0:
321,237,303851,2,0,B|313:174|313:174|296:130,1,110.000003356934,0|8,3:0|0:0,0:0:0:0:
52,228,304144,6,0,B|110:235|110:235|161:214,1,110.000003356934,4|8,3:2|0:0,0:0:0:0:
208,138,304363,1,0,0:0:0:0:
203,127,304436,2,0,B|211:64|211:64|227:20,1,110.000003356934,0|8,3:0|0:0,0:0:0:0:
390,163,304729,1,2,3:2:0:0:
374,167,304802,1,0,3:2:0:0:
358,171,304875,1,8,0:0:0:0:
420,74,305022,1,0,3:0:0:0:
483,219,305168,1,8,0:0:0:0:
285,271,305314,38,0,B|265:228|265:228|261:164,1,110.000003356934,4|8,3:2|0:0,0:0:0:0:
233,82,305534,1,0,0:0:0:0:
221,68,305607,2,0,B|178:80|178:80|151:73|151:73|102:87,1,110.000003356934,0|8,3:0|0:0,0:0:0:0:
336,129,305900,2,0,B|379:117|379:117|406:124|406:124|455:110,1,110.000003356934,2|8,0:0|0:0,0:0:0:0:
492,49,306119,1,0,0:0:0:0:
492,49,306192,1,0,3:0:0:0:
309,29,306339,1,8,0:0:0:0:
387,207,306485,5,4,3:2:0:0:
236,271,306631,1,8,0:0:0:0:
236,271,306704,1,0,0:0:0:0:
236,271,306778,2,0,B|221:218|221:218|230:152,1,110.000003356934,0|8,3:0|0:0,0:0:0:0:
312,57,307070,1,2,0:0:0:0:
315,85,307144,1,0,3:0:0:0:
318,112,307217,1,8,0:0:0:0:
149,117,307363,1,0,3:2:0:0:
145,155,307436,1,0,3:2:0:0:
141,193,307509,1,8,3:2:0:0:
138,231,307583,1,0,3:2:0:0:
134,270,307656,6,0,P|186:284|241:281,1,110.000003356934,4|8,3:2|3:2,0:0:0:0:
321,259,307875,1,0,0:0:0:0:
321,259,307948,1,0,3:0:0:0:
385,166,308095,1,8,0:0:0:0:
321,55,308241,2,0,P|268:40|213:43,1,110.000003356934,2|8,3:2|0:0,0:0:0:0:
137,77,308461,1,0,0:0:0:0:
137,77,308534,1,0,3:0:0:0:
70,160,308680,1,8,0:0:0:0:
270,174,308826,5,4,3:2:0:0:
222,52,308973,1,8,0:0:0:0:
222,52,309046,1,0,0:0:0:0:
222,52,309119,1,0,3:0:0:0:
176,235,309265,1,8,0:0:0:0:
369,122,309412,1,10,0:0:0:0:
412,121,309485,1,0,0:0:0:0:
449,143,309558,1,8,0:0:0:0:
470,181,309631,1,0,0:0:0:0:
467,224,309704,2,0,P|459:252|440:293,1,55.0000016784668,2|0,0:0|0:0,0:0:0:0:
387,333,309851,2,0,P|357:336|319:331,1,55.0000016784668,10|0,0:0|0:0,0:0:0:0:
265,272,309997,37,4,0:0:0:0:
244,234,310070,1,0,0:0:0:0:
202,222,310144,1,0,1:0:0:0:
165,243,310217,1,0,1:0:0:0:
153,284,310290,1,2,0:0:0:0:
173,321,310363,1,0,0:0:0:0:
214,334,310436,1,0,1:0:0:0:
252,310,310509,1,0,3:2:0:0:
272,271,310583,1,2,3:2:0:0:
276,228,310656,1,0,0:0:0:0:
264,185,310729,1,0,3:0:0:0:
240,147,310802,1,0,0:0:0:0:
239,104,310875,1,2,3:2:0:0:
259,65,310948,1,0,0:0:0:0:
301,53,311022,1,0,1:0:0:0:
340,72,311095,1,0,1:0:0:0:
353,113,311168,6,0,P|351:141|343:167,3,55.0000016784668,6|0|0|0,3:2|3:2|3:2|3:2,0:0:0:0:
443,72,311461,2,0,P|445:99|453:125,3,55.0000016784668,0|0|0|0,3:2|3:2|3:2|3:2,0:0:0:0:
413,214,311753,5,2,3:2:0:0:
378,239,311826,1,0,3:2:0:0:
334,245,311900,1,0,3:2:0:0:
294,228,311973,1,0,3:2:0:0:
260,199,312046,1,0,3:2:0:0:
225,173,312119,1,0,3:2:0:0:
182,168,312192,1,0,3:2:0:0:
142,185,312265,1,0,3:2:0:0:
122,219,312339,6,0,B|108:268|108:268|119:315,1,100,4|8,3:2|0:0,0:0:0:0:
193,358,312558,1,0,0:0:0:0:
206,354,312631,2,0,B|257:342|257:342|310:354,1,100,0|8,0:0|0:0,0:0:0:0:
507,227,312924,2,0,B|460:237|460:237|409:225,1,100,0|8,0:0|0:0,0:0:0:0:
322,94,313217,1,2,0:0:0:0:
293,250,313363,1,8,0:0:0:0:
151,285,313509,38,0,B|159:229|159:229|179:169,1,100,2|8,0:0|0:0,0:0:0:0:
53,52,313802,1,0,0:0:0:0:
80,186,313948,1,8,0:0:0:0:
272,110,314095,1,2,0:0:0:0:
143,100,314241,1,8,0:0:0:0:
143,100,314314,1,0,0:0:0:0:
143,100,314387,1,2,0:0:0:0:
233,254,314534,1,8,0:0:0:0:
372,126,314680,6,0,B|362:70|362:70|328:20,1,100,4|8,0:0|0:0,0:0:0:0:
159,65,314973,1,0,0:0:0:0:
229,228,315119,1,8,0:0:0:0:
337,207,315265,1,2,0:0:0:0:
150,179,315412,1,8,0:0:0:0:
60,299,315558,1,2,0:0:0:0:
226,262,315704,1,8,0:0:0:0:
404,318,315851,6,0,B|354:328|354:328|298:352,1,100,4|8,0:0|0:0,0:0:0:0:
232,378,316070,1,0,0:0:0:0:
232,378,316144,1,0,0:0:0:0:
132,289,316290,1,8,0:0:0:0:
280,178,316436,1,2,0:0:0:0:
230,290,316583,1,8,0:0:0:0:
159,133,316729,1,0,0:0:0:0:
374,74,316875,1,8,0:0:0:0:
382,92,316948,1,0,0:0:0:0:
390,110,317022,6,0,B|399:144|399:144|393:177|393:177|401:207,1,100,4|8,0:0|0:0,0:0:0:0:
319,275,317241,1,0,0:0:0:0:
311,268,317314,2,0,B|292:225|292:225|301:172,1,100,0|8,0:0|0:0,0:0:0:0:
224,3,317607,2,0,B|237:43|237:43|237:100,1,100,2|8,0:0|0:0,0:0:0:0:
191,184,317826,1,0,0:0:0:0:
191,184,317900,1,2,0:0:0:0:
69,120,318046,1,8,0:0:0:0:
64,303,318192,38,0,B|125:282|125:282|172:285,1,100,4|8,0:0|0:0,0:0:0:0:
348,275,318485,1,0,0:0:0:0:
261,362,318631,1,8,0:0:0:0:
432,204,318778,2,0,B|371:183|371:183|324:186,1,100,2|8,0:0|0:0,0:0:0:0:
263,238,318997,1,0,0:0:0:0:
263,238,319070,1,0,0:0:0:0:
213,106,319217,2,0,L|200:162,1,50,8|0,0:0|0:0,0:0:0:0:
119,232,319363,6,0,B|114:172|114:172|98:119,1,100,4|0,3:2|3:0,0:0:0:0:
269,358,319656,2,0,B|274:298|274:298|285:259,1,100,0|8,3:0|3:2,0:0:0:0:
484,258,319948,2,0,B|479:198|479:198|463:145,1,100,2|8,3:2|3:2,0:0:0:0:
390,123,320168,1,0,0:0:0:0:
384,116,320241,2,0,L|396:9,1,100,2|8,3:2|3:2,0:0:0:0:
286,89,320534,5,2,3:2:0:0:
258,111,320607,1,0,3:2:0:0:
226,123,320680,1,8,3:2:0:0:
191,124,320753,1,0,3:2:0:0:
158,113,320826,1,0,3:2:0:0:
133,89,320900,1,0,3:2:0:0:
132,53,320973,1,8,3:2:0:0:
157,28,321046,1,0,3:2:0:0:
191,35,321119,1,2,3:2:0:0:
207,65,321192,1,0,3:2:0:0:
202,99,321265,1,8,3:2:0:0:
183,128,321339,1,0,3:2:0:0:
161,155,321412,1,2,3:2:0:0:
157,189,321485,1,0,3:2:0:0:
170,221,321558,1,8,3:2:0:0:
199,240,321631,1,0,3:2:0:0:
233,234,321704,6,0,P|280:222|326:240,1,100,4|8,3:2|0:0,0:0:0:0:
342,330,321924,1,0,0:0:0:0:
328,339,321997,2,0,P|304:300|315:242,1,100,0|8,3:2|0:0,0:0:0:0:
460,75,322290,2,0,P|481:116|470:174,1,100,2|8,3:2|0:0,0:0:0:0:
449,246,322509,1,0,0:0:0:0:
449,246,322583,1,2,3:2:0:0:
320,159,322729,1,8,0:0:0:0:
236,303,322875,37,4,3:2:0:0:
290,178,323022,1,8,0:0:0:0:
323,363,323168,1,0,3:2:0:0:
153,323,323314,1,8,0:0:0:0:
134,306,323387,1,0,0:0:0:0:
115,289,323461,2,0,B|103:238|103:238|106:180,1,100,2|8,3:2|0:0,0:0:0:0:
277,156,323753,2,0,B|289:105|289:105|286:57,1,100,0|8,3:0|0:0,0:0:0:0:
192,206,324046,5,4,3:2:0:0:
364,242,324192,1,8,0:0:0:0:
267,322,324339,1,0,3:0:0:0:
449,342,324485,2,0,L|436:278,1,50,8|0,0:0|0:0,0:0:0:0:
463,208,324631,2,0,B|473:141|473:141|467:109,1,100,2|8,3:2|0:0,0:0:0:0:
383,45,324851,1,0,0:0:0:0:
383,45,324924,2,0,B|373:112|373:112|378:143,1,100,2|8,3:2|0:0,0:0:0:0:
244,53,325217,5,4,3:2:0:0:
214,199,325363,1,8,0:0:0:0:
109,115,325509,1,0,3:0:0:0:
292,142,325656,1,8,0:0:0:0:
139,256,325802,1,2,3:2:0:0:
139,256,325875,1,0,0:0:0:0:
139,256,325948,1,8,0:0:0:0:
190,118,326095,1,2,3:2:0:0:
228,312,326241,1,8,0:0:0:0:
421,226,326387,6,0,B|371:209|371:209|316:212,1,100,4|8,3:2|0:0,0:0:0:0:
215,289,326680,1,0,3:2:0:0:
281,142,326826,1,10,0:0:0:0:
360,291,326973,1,0,3:0:0:0:
198,190,327119,1,10,0:0:0:0:
297,44,327265,1,0,3:0:0:0:
360,192,327412,1,10,0:0:0:0:
196,111,327558,38,0,B|96:102,1,100,4|8,3:2|0:0,0:0:0:0:
360,192,327851,2,0,B|460:183,1,100,2|8,3:2|0:0,0:0:0:0:
140,229,328144,2,0,B|30:220,1,100,0|8,3:2|0:0,0:0:0:0:
386,309,328436,2,0,B|495:300,1,100,2|8,3:2|0:0,0:0:0:0:
145,310,328729,5,2,3:2:0:0:
129,285,328802,1,0,3:2:0:0:
127,255,328875,1,0,3:2:0:0:
140,229,328948,1,0,3:2:0:0:
164,212,329022,1,0,3:2:0:0:
194,210,329095,1,0,3:2:0:0:
220,223,329168,1,0,3:2:0:0:
237,248,329241,1,0,3:2:0:0:
239,277,329314,5,2,3:2:0:0:
250,310,329387,1,0,3:2:0:0:
276,333,329461,1,0,3:2:0:0:
310,340,329534,1,0,3:2:0:0:
343,330,329607,1,0,3:2:0:0:
366,304,329680,1,0,3:2:0:0:
374,271,329753,1,0,3:2:0:0:
364,238,329826,1,0,3:2:0:0:
340,212,329900,6,0,P|332:188|329:163,3,50,2|0|0|0,3:2|3:2|3:2|3:2,0:0:0:0:
251,140,330192,2,0,P|262:117|278:97,3,50,2|0|0|0,3:2|3:2|3:2|3:2,0:0:0:0:
354,81,330485,37,2,3:2:0:0:
401,98,330558,1,0,3:2:0:0:
432,136,330631,1,0,3:2:0:0:
441,185,330704,1,0,3:2:0:0:
424,231,330778,1,2,3:2:0:0:
386,263,330851,1,0,3:2:0:0:
338,272,330924,1,0,3:2:0:0:
291,256,330997,1,0,3:2:0:0:
258,219,331070,1,4,3:2:0:0:
313,57,350270,54,0,B|354:70|354:70|404:61,1,75.0000028610231,2|0,0:0|0:0,0:0:0:0:
233,158,350570,2,0,B|274:144|274:144|324:154,1,75.0000028610231
132,120,350870,2,0,B|158:90|158:90|204:74,1,75.0000028610231
81,208,351170,2,0,B|55:178|55:178|43:132,1,75.0000028610231
164,226,351470,6,0,B|149:261|149:261|124:289,1,75.0000028610231,2|0,0:0|0:0,0:0:0:0:
232,172,351770,2,0,B|252:205|252:205|260:241,1,75.0000028610231
240,88,352070,2,0,B|278:97|278:97|307:118,1,75.0000028610231
156,119,352370,2,0,L|137:78,3,37.5000014305115,2|0|0|0,0:0|0:0|0:0|0:0,0:0:0:0:
116,184,352670,70,0,B|106:206|106:206|107:228|107:228|98:272,1,75.0000028610231,2|0,0:0|0:0,0:0:0:0:
204,331,352970,2,0,B|197:306|197:306|198:283|198:283|189:258,1,75.0000028610231
293,175,353270,2,0,B|282:201|282:201|284:228|284:228|275:263,1,75.0000028610231
381,334,353570,2,0,B|377:306|377:306|368:285|368:285|365:261,1,75.0000028610231
447,228,353870,6,0,B|456:192|456:192|474:160,1,75.0000028610231,2|0,0:0|0:0,0:0:0:0:
355,67,354170,2,0,B|374:101|374:101|383:137,1,75.0000028610231
262,74,354470,2,0,B|271:38|271:38|289:6,1,75.0000028610231
305,147,354770,2,0,L|301:184,3,37.5000014305115,2|0|0|0,0:0|0:0|0:0|0:0,0:0:0:0:
250,241,355070,70,0,B|214:229|214:229|178:220,1,75.0000028610231,2|0,0:0|0:0,0:0:0:0:
301,304,355370,2,0,B|264:311|264:311|228:324,1,75.0000028610231
402,246,355670,2,0,B|366:238|366:238|331:226,1,75.0000028610231
451,313,355970,2,0,B|414:321|414:321|378:334,1,75.0000028610231
486,237,356270,6,0,B|494:200|494:200|497:163,1,75.0000028610231,2|0,0:0|0:0,0:0:0:0:
417,156,356570,2,0,B|408:119|408:119|405:82,1,75.0000028610231
331,12,356870,2,0,B|326:50|326:50|318:86,1,75.0000028610231
238,203,357170,2,0,B|240:166|240:166|248:130,1,75.0000028610231
333,219,357470,69,2,0:0:0:0:
296,281,357620,1,0,0:0:0:0:
225,300,357770,1,0,0:0:0:0:
161,266,357920,1,0,0:0:0:0:
86,261,358070,1,2,0:0:0:0:
123,198,358220,1,0,0:0:0:0:
194,179,358370,1,0,0:0:0:0:
258,213,358520,1,0,0:0:0:0:
326,181,358670,6,0,B|312:146|312:146|306:109,1,75.0000028610231,2|0,0:0|0:0,0:0:0:0:
405,245,358970,2,0,B|418:210|418:210|424:173,1,75.0000028610231
320,260,359270,2,0,L|283:267,3,37.5000014305115,2|0|0|0,0:0|0:0|0:0|0:0,0:0:0:0:
216,305,359570,2,0,L|179:297,3,37.5000014305115
112,256,359870,70,0,L|30:262,1,75.0000028610231,2|0,0:0|0:0,0:0:0:0:
166,152,360170,2,0,L|84:158,1,75.0000028610231
262,221,360470,2,0,L|187:226,1,75.0000028610231
366,117,360770,2,0,L|291:122,1,75.0000028610231
354,207,361070,6,0,B|365:234|365:234|360:280,1,75.0000028610231,2|0,0:0|0:0,0:0:0:0:
497,128,361370,2,0,B|454:146|454:146|437:169,1,75.0000028610231
300,85,361670,2,0,B|337:112|337:112|366:117,1,75.0000028610231
268,171,361970,2,0,L|231:169,3,37.5000014305115,2|0|0|0,0:0|0:0|0:0|0:0,0:0:0:0:
156,226,362270,70,0,B|135:184|135:184|131:145,1,75.0000028610231,2|0,0:0|0:0,0:0:0:0:
216,287,362570,2,0,B|174:308|174:308|135:312,1,75.0000028610231
300,260,362870,2,0,B|321:302|321:302|325:341,1,75.0000028610231
240,199,363170,2,0,B|282:178|282:178|321:174,1,75.0000028610231
429,151,363470,6,0,B|416:186|416:186|410:222,1,75.0000028610231,2|0,0:0|0:0,0:0:0:0:
360,103,363770,2,0,B|353:67|353:67|340:32,1,75.0000028610231
202,60,364070,2,0,B|236:78|236:78|272:87,1,75.0000028610231
191,147,364370,2,0,L|155:166,3,37.5000014305115,2|0|0|0,0:0|0:0|0:0|0:0,0:0:0:0:
84,157,364670,70,0,B|78:200|78:200|79:244,1,75.0000028610231,2|0,0:0|0:0,0:0:0:0:
3,273,364970,2,0,B|34:302|34:302|71:326,1,75.0000028610231
146,292,365270,2,0,B|188:273|188:273|224:267,1,75.0000028610231
309,274,365570,2,0,B|348:286|348:286|388:311,1,75.0000028610231
475,303,365870,6,0,B|486:257|486:257|483:222,1,75.0000028610231,2|0,0:0|0:0,0:0:0:0:
400,152,366170,2,0,B|397:179|397:179|408:225,1,75.0000028610231
311,255,366470,2,0,B|322:209|322:209|319:174,1,75.0000028610231
236,104,366770,2,0,B|233:131|233:131|244:177,1,75.0000028610231
99,282,367070,69,2,0:0:0:0:
141,221,367220,1,0,0:0:0:0:
149,147,367370,1,0,0:0:0:0:
108,84,367520,1,0,0:0:0:0:
33,95,367670,1,2,0:0:0:0:
12,167,367820,1,0,0:0:0:0:
62,222,367970,1,0,0:0:0:0:
134,202,368120,1,0,0:0:0:0:
177,135,368270,6,0,L|268:130,1,75.0000028610231,2|0,0:0|0:0,0:0:0:0:
350,86,368562,2,0,L|345:136,2,50.0000019073487,0|0|0,3:0|3:0|3:0,0:0:0:0:
430,13,368855,69,8,0:0:0:0:
436,100,369001,1,0,0:0:0:0:
442,187,369148,1,0,0:0:0:0:
448,274,369294,1,0,0:0:0:0:
352,340,369440,6,0,B|291:326|291:326|188:343,1,150.000005722046,4|0,0:0|0:0,0:0:0:0:
69,247,369879,1,0,3:0:0:0:
69,247,370026,2,0,B|155:261|155:261|216:247,1,150.000005722046,8|0,0:0|0:0,0:0:0:0:
210,34,370611,69,0,0:0:0:0:
148,172,370904,1,0,3:0:0:0:
316,102,371196,2,0,B|348:58|348:58|357:153,1,150.000005722046,8|0,0:0|3:0,0:0:0:0:
302,214,371635,1,0,0:0:0:0:
240,158,371782,6,0,B|208:114|208:114|198:209,1,150.000005722046,2|0,3:2|0:0,0:0:0:0:
331,308,372221,1,0,3:0:0:0:
331,308,372367,2,0,B|276:282|276:282|169:295,1,150.000005722046,8|0,0:0|3:0,0:0:0:0:
134,124,372952,69,0,0:0:0:0:
134,124,373245,2,0,L|125:225,1,75.0000028610231,2|0,0:0|3:0,0:0:0:0:
180,365,373538,2,0,L|186:290,1,75.0000028610231,10|0,0:0|3:0,0:0:0:0:
246,197,373830,1,2,0:0:0:0:
246,197,373977,1,0,0:0:0:0:
319,128,374123,6,0,L|403:142,1,75.0000028610231,2|0,3:2|0:0,0:0:0:0:
437,42,374416,1,0,0:0:0:0:
437,42,374562,1,0,3:0:0:0:
501,126,374709,2,0,L|481:221,2,75.0000028610231,10|0|0,0:0|0:0|0:0,0:0:0:0:
321,215,375294,70,0,L|329:304,1,75.0000028610231,2|0,0:0|0:0,0:0:0:0:
228,252,375587,1,0,3:0:0:0:
228,252,375733,1,0,0:0:0:0:
147,319,375879,1,8,0:0:0:0:
147,319,376026,1,0,0:0:0:0:
59,261,376172,1,0,3:0:0:0:
59,261,376318,1,0,0:0:0:0:
91,160,376465,6,0,L|97:85,1,75.0000028610231,2|0,3:2|0:0,0:0:0:0:
264,139,376757,2,0,L|176:134,1,75.0000028610231,0|0,0:0|3:0,0:0:0:0:
242,235,377050,2,0,L|236:310,1,75.0000028610231,10|0,0:0|0:0,0:0:0:0:
409,289,377343,2,0,L|321:284,1,75.0000028610231,0|0,3:0|0:0,0:0:0:0:
490,344,377635,70,0,B|529:261|466:205|466:205|482:161|492:123|492:123|467:38,1,300.000011444092,2|8,0:1|0:0,0:0:0:0:
379,80,378367,2,0,B|336:105|336:105|289:80|289:80|255:96|231:79,1,150.000005722046,0|0,3:0|0:0,0:0:0:0:
162,22,378806,5,4,0:0:0:0:
162,22,378952,1,0,0:0:0:0:
75,125,379099,2,0,L|166:117,1,75.0000028610231,2|0,0:0|3:0,0:0:0:0:
307,187,379391,2,0,L|216:179,1,75.0000028610231,10|0,0:0|0:0,0:0:0:0:
53,232,379684,2,0,L|144:224,1,75.0000028610231,2|0,0:0|0:0,0:0:0:0:
303,199,379977,70,0,L|295:290,1,75.0000028610231,2|0,0:0|0:0,0:0:0:0:
428,151,380270,2,0,L|420:242,1,75.0000028610231,2|0,3:2|0:0,0:0:0:0:
356,43,380562,2,0,L|348:134,1,75.0000028610231,10|0,0:0|0:0,0:0:0:0:
232,141,380855,2,0,L|235:104,3,37.5000014305115,2|0|0|0,3:2|0:0|0:0|0:0,0:0:0:0:
166,214,381148,5,0,3:0:0:0:
166,214,381294,1,0,0:0:0:0:
86,269,381440,2,0,P|74:233|70:196,1,75.0000028610231,2|0,0:0|3:0,0:0:0:0:
194,324,381733,2,0,P|219:296|238:264,1,75.0000028610231,10|0,0:0|0:0,0:0:0:0:
85,357,382026,2,0,P|40:336|12:311,1,75.0000028610231,2|0,3:2|0:0,0:0:0:0:
100,126,382318,70,0,P|86:161|70:195,1,75.0000028610231,2|0,0:0|0:0,0:0:0:0:
191,65,382611,2,0,P|192:102|197:139,1,75.0000028610231,2|0,0:0|3:0,0:0:0:0:
298,91,382904,1,10,0:0:0:0:
298,91,383050,1,0,3:0:0:0:
382,150,383196,2,0,L|372:196,3,37.5000014305115,2|0|0|0,0:0|0:0|0:0|0:0,0:0:0:0:
416,276,383489,5,0,3:0:0:0:
416,276,383635,1,0,0:0:0:0:
304,240,383782,2,0,P|250:226|217:223,1,75.0000028610231,2|0,0:0|3:0,0:0:0:0:
77,294,384074,2,0,P|131:280|164:277,1,75.0000028610231,10|0,0:0|0:0,0:0:0:0:
340,340,384367,2,0,P|286:326|253:323,1,75.0000028610231,2|0,0:0|0:0,0:0:0:0:
88,219,384660,70,0,L|76:293,1,75.0000028610231,2|0,0:0|0:0,0:0:0:0:
176,154,384952,1,2,3:2:0:0:
176,154,385099,1,0,0:0:0:0:
265,208,385245,1,10,0:0:0:0:
265,208,385391,1,0,0:0:0:0:
353,150,385538,1,2,3:2:0:0:
353,150,385684,1,0,0:0:0:0:
432,210,385830,6,0,B|470:173|435:113|435:113|493:63|433:4,1,225.000008583069,2|0,0:0|0:0,0:0:0:0:
273,66,386416,1,8,0:0:0:0:
362,58,386562,1,0,0:0:0:0:
304,170,386709,1,0,0:0:0:0:
194,132,386855,1,0,0:0:0:0:
255,15,387001,69,4,0:0:0:0:
228,222,387148,2,0,B|173:249|145:207|145:207|148:228|148:228|104:178|23:211|43:277,1,250
40,246,387587,21,8,0:0:0:0:
91,364,387733,1,8,0:3:0:0:
226,221,387879,1,2,3:2:0:0:
211,184,387952,1,0,3:0:0:0:
206,147,388026,1,0,3:0:0:0:
209,112,388099,1,0,3:0:0:0:
223,85,388172,6,0,P|288:54|341:156,1,200,4|8,3:1|0:0,0:0:0:0:
226,221,388611,2,0,B|128:177|127:261|21:218,1,200,2|0,0:0|3:0,0:0:0:0:
86,119,389050,1,8,0:0:0:0:
171,305,389196,1,0,3:0:0:0:
322,165,389343,2,0,B|354:140|371:102|371:102|371:166|400:226,1,200,4|8,3:1|0:0,0:0:0:0:
139,229,389928,5,2,3:2:0:0:
302,260,390074,1,0,3:0:0:0:
465,291,390221,2,0,P|479:242|481:170,1,100,8|0,0:0|0:0,0:0:0:0:
304,65,390513,6,0,B|263:155|338:157|299:267,1,200,4|8,3:1|0:0,0:0:0:0:
116,244,390952,2,0,P|124:168|205:225,1,200,2|0,3:2|3:0,0:0:0:0:
166,331,391391,2,0,P|118:344|68:337,1,100,10|0,0:2|3:0,0:0:0:0:
208,208,391684,2,0,B|268:249|328:207|328:207|352:247|400:253,1,200,4|8,3:1|0:0,0:0:0:0:
164,99,392270,37,2,0:0:0:0:
116,244,392416,1,0,3:0:0:0:
270,146,392562,2,0,P|296:82|256:6,1,150,10|0,0:0|0:0,0:0:0:0:
259,22,392855,6,0,P|296:88|359:7,1,200,4|8,3:1|0:0,0:0:0:0:
465,98,393294,2,0,P|423:157|436:306,1,200,2|0,0:0|3:0,0:0:0:0:
296,207,393733,1,8,0:0:0:0:
218,307,393879,1,0,3:0:0:0:
31,245,394026,6,0,P|71:163|157:195,1,200,2|8,0:0|0:0,0:0:0:0:
307,289,394465,2,0,B|273:301|234:280|234:280|207:301|207:301|166:275|115:296,1,200,2|0,0:0|3:0,0:0:0:0:
253,192,394904,2,0,P|271:142|278:93,1,100,8|0,0:0|0:0,0:0:0:0:
168,24,395196,6,0,P|215:65|347:7,1,200,4|8,3:1|0:0,0:0:0:0:
510,176,395635,2,0,P|463:135|331:193,1,200,2|0,3:2|3:0,0:0:0:0:
237,299,396074,1,8,0:0:0:0:
106,192,396221,1,0,0:0:0:0:
106,192,396294,1,0,0:0:0:0:
106,192,396367,2,0,B|74:179|46:160|46:160|77:236|73:290,1,200,4|8,3:1|0:0,0:0:0:0:
324,263,396952,37,0,0:0:0:0:
300,219,397026,1,0,3:0:0:0:
310,171,397099,1,0,3:0:0:0:
347,140,397172,1,0,3:0:0:0:
396,139,397245,1,8,3:2:0:0:
435,170,397318,1,0,3:0:0:0:
445,218,397391,1,4,3:0:0:0:
423,261,397465,1,0,3:0:0:0:
379,286,397538,6,0,B|281:323|284:250|155:295,1,200,4|8,3:1|0:0,0:0:0:0:
66,169,397977,2,0,P|130:197|161:77,1,200,2|0,0:0|3:0,0:0:0:0:
52,79,398416,1,8,0:0:0:0:
74,267,398562,1,0,3:0:0:0:
270,191,398709,2,0,B|310:190|379:159|379:159|356:201|351:246,1,200,4|8,3:1|0:0,0:0:0:0:
149,52,399294,5,2,3:2:0:0:
168,194,399440,1,0,3:0:0:0:
187,338,399587,2,0,P|240:328|290:323,1,100,10|0,0:0|0:0,0:0:0:0:
480,180,399879,6,0,P|414:248|321:225,1,200,4|8,3:1|0:0,0:0:0:0:
207,22,400318,2,0,P|235:84|204:219,1,200,2|0,3:2|3:0,0:0:0:0:
110,318,400757,2,0,P|100:269|110:220,1,100,10|0,0:0|3:0,0:0:0:0:
286,290,401050,2,0,B|310:321|361:311|361:311|370:335|370:335|412:319|432:318|475:354,1,200,4|8,3:1|0:0,0:0:0:0:
369,100,401635,37,2,0:0:0:0:
334,225,401782,1,0,3:0:0:0:
442,55,401928,2,0,P|381:14|312:34,1,150,10|0,0:0|0:0,0:0:0:0:
287,60,402221,6,0,P|242:83|193:83,1,100,4|0,3:1|0:0,0:0:0:0:
73,33,402513,1,8,0:0:0:0:
9,175,402660,2,0,P|80:219|206:194,1,200,2|0,3:2|3:0,0:0:0:0:
328,150,403099,2,0,P|306:211|296:251,1,100,10|0,0:0|3:0,0:0:0:0:
452,170,403391,6,0,P|438:121|421:74,1,100,4|0,3:1|0:0,0:0:0:0:
302,34,403684,1,8,0:0:0:0:
203,130,403830,2,0,P|119:147|126:61,1,200,2|0,0:0|3:0,0:0:0:0:
332,139,404269,2,0,P|316:226|309:295,1,150,10|0,0:0|0:0,0:0:0:0:
385,297,404562,6,0,P|328:237|312:331,1,200,4|8,3:1|0:0,0:0:0:0:
467,234,405001,2,0,P|459:184|449:135,1,100,2|0,3:2|0:0,0:0:0:0:
394,38,405294,1,0,3:0:0:0:
204,117,405440,1,10,3:2:0:0:
318,144,405587,1,0,3:0:0:0:
97,148,405733,2,0,B|86:109|109:77|133:39|133:39|87:64|56:36,1,200,4|8,3:1|0:0,0:0:0:0:
26,220,406318,37,0,3:0:0:0:
57,244,406391,1,0,3:0:0:0:
94,258,406465,1,0,3:0:0:0:
134,259,406538,1,0,3:0:0:0:
173,249,406611,1,8,3:0:0:0:
204,225,406684,1,0,3:0:0:0:
241,211,406757,1,0,3:0:0:0:
281,210,406830,1,0,3:0:0:0:
320,220,406904,6,0,P|353:236|396:285,1,75.0000028610231,4|0,3:2|0:0,0:0:0:0:
465,223,407123,2,0,P|462:186|483:124,1,75.0000028610231,0|0,3:0|0:0,0:0:0:0:
398,100,407343,6,0,P|367:120|303:133,1,75.0000028610231,0|0,3:0|0:0,0:0:0:0:
246,130,407562,2,0,P|233:90|226:50,1,75.0000028610231,0|0,3:0|0:0,0:0:0:0:
156,16,407782,6,0,P|143:56|136:96,1,75.0000028610231,0|0,3:0|0:0,0:0:0:0:
80,158,408001,2,0,P|116:165|152:177,1,75.0000028610231,0|0,3:0|0:0,0:0:0:0:
227,220,408221,38,0,B|256:263|311:262|340:214|340:214|360:243|390:249|428:230,1,225.000008583069,0|0,3:0|3:0,0:0:0:0:
370,27,408952,1,0,1:0:0:0:
370,27,409099,1,0,1:0:0:0:
264,114,409245,6,0,B|247:144|185:152|152:107|152:107|123:143|79:143|79:143|156:162|158:217|141:273|54:261,1,400,4|0,0:0|0:0,0:0:0:0:
85,261,410123,1,2,0:0:0:0:
85,261,410416,6,0,B|134:238|188:274|188:274|243:258|243:258|311:298,2,225.000008583069,2|2|2,0:0|0:0|0:0,0:0:0:0:
107,115,411440,1,0,0:0:0:0:
115,98,411513,1,0,0:0:0:0:
123,81,411587,5,4,3:2:0:0:
223,168,411733,1,0,0:0:0:0:
197,20,411879,1,8,0:0:0:0:
120,200,412026,1,0,0:0:0:0:
314,123,412172,2,0,B|362:134|362:134|411:169,1,100,2|0,3:2|3:0,0:0:0:0:
180,88,412465,1,8,0:0:0:0:
231,243,412611,1,0,0:0:0:0:
343,31,412757,37,4,3:2:0:0:
281,159,412904,1,0,0:0:0:0:
457,102,413050,1,8,0:0:0:0:
506,256,413196,2,0,B|422:295|414:217|313:266,1,200,2|0,3:2|3:0,0:0:0:0:
177,201,413635,1,8,0:0:0:0:
229,356,413782,1,0,0:0:0:0:
19,320,413928,5,4,3:2:0:0:
136,298,414074,1,0,0:0:0:0:
305,228,414221,1,8,0:0:0:0:
177,201,414367,1,0,0:0:0:0:
402,318,414513,2,0,B|415:276|415:276|419:192,1,100,2|0,0:0|0:0,0:0:0:0:
318,53,414806,2,0,B|320:108|320:108|333:150,1,100,10|0,0:0|0:0,0:0:0:0:
157,235,415099,6,0,B|208:220|208:220|276:232,1,100,4|0,3:2|3:0,0:0:0:0:
334,254,415318,1,0,0:0:0:0:
334,254,415391,1,8,0:0:0:0:
109,302,415538,6,0,B|58:254|75:175|135:160|135:160|105:113|139:61,1,259.999988098145,2|0,3:1|3:0,0:0:0:0:
223,1,415977,2,0,P|252:41|261:89,1,100,8|0,0:0|0:0,0:0:0:0:
408,225,416269,38,0,P|360:210|311:201,1,100,4|0,3:2|0:0,0:0:0:0:
172,130,416562,1,10,0:0:0:0:
215,242,416709,1,0,0:0:0:0:
314,21,416855,1,2,3:2:0:0:
265,138,417001,1,0,3:0:0:0:
122,87,417148,1,10,0:0:0:0:
298,144,417294,1,0,0:0:0:0:
104,211,417440,6,0,B|93:152|93:152|104:107,1,100,6|0,3:2|0:0,0:0:0:0:
154,3,417733,1,10,0:0:0:0:
226,151,417879,1,0,3:0:0:0:
322,94,418026,1,2,0:0:0:0:
185,76,418172,1,0,3:0:0:0:
131,200,418318,1,10,0:0:0:0:
234,178,418465,1,0,0:0:0:0:
225,46,418611,5,4,3:2:0:0:
237,221,418757,1,0,0:0:0:0:
385,212,418904,1,10,0:0:0:0:
178,164,419050,1,0,0:0:0:0:
338,127,419196,5,2,0:0:0:0:
297,291,419343,1,0,3:0:0:0:
433,315,419489,1,10,0:0:0:0:
248,363,419635,1,0,3:0:0:0:
163,249,419782,37,2,0:0:0:0:
163,249,419855,1,0,0:0:0:0:
163,249,419928,1,0,3:0:0:0:
235,156,420074,1,10,0:0:0:0:
54,201,420221,1,0,0:0:0:0:
126,35,420367,5,2,3:2:0:0:
160,38,420440,1,0,3:0:0:0:
195,41,420513,1,0,3:0:0:0:
230,44,420587,1,0,3:0:0:0:
265,47,420660,1,10,1:2:0:0:
394,24,420806,2,0,L|406:79,1,50,0|0,3:0|0:0,0:0:0:0:
418,207,420952,6,0,B|377:199|352:183|352:183|321:204|273:208,1,150,4|0,3:2|0:0,0:0:0:0:
201,161,421245,1,10,0:0:0:0:
353,281,421391,1,0,0:0:0:0:
302,105,421538,1,2,3:2:0:0:
213,262,421684,1,0,3:0:0:0:
124,68,421830,1,10,0:0:0:0:
249,177,421977,1,0,0:0:0:0:
80,304,422123,6,0,B|79:269|79:269|90:205,1,100,4|0,3:2|0:0,0:0:0:0:
62,119,422343,1,0,0:0:0:0:
62,119,422416,1,10,0:0:0:0:
191,222,422562,1,0,3:0:0:0:
207,9,422709,2,0,B|206:44|206:44|217:108,1,100,2|0,0:0|3:0,0:0:0:0:
329,173,423001,1,10,0:0:0:0:
196,261,423148,1,0,0:0:0:0:
373,252,423294,38,0,B|424:268|424:268|477:309,1,100,4|0,3:2|0:0,0:0:0:0:
261,218,423587,1,8,0:0:0:0:
281,334,423733,1,0,0:0:0:0:
177,234,423879,1,2,0:0:0:0:
357,246,424026,1,0,3:0:0:0:
244,143,424172,1,10,0:0:0:0:
203,305,424318,1,0,0:0:0:0:
432,301,424465,2,0,B|443:246|443:246|429:190,1,100,2|0,3:2|3:0,0:0:0:0:
344,123,424757,1,8,0:0:0:0:
220,243,424904,6,0,B|189:269|135:259|115:234|109:186|109:186|94:248|39:262,1,259.999988098145,6|0,3:2|3:0,0:0:0:0:
121,353,425343,1,8,0:0:0:0:
121,353,425489,1,0,0:0:0:0:
263,173,425635,6,0,B|371:128|369:203|465:173,1,200,4|8,3:2|0:0,0:0:0:0:
158,90,426221,1,2,3:2:0:0:
131,222,426367,1,0,3:0:0:0:
39,128,426513,2,0,P|22:68|16:17,1,100,8|0,0:0|0:0,0:0:0:0:
277,71,426806,6,0,P|269:120|254:168,1,100,4|0,3:2|0:0,0:0:0:0:
160,46,427099,1,8,0:0:0:0:
163,216,427245,2,0,B|212:212|233:202|233:202|274:211|330:208,1,150,2|0,3:2|0:0,0:0:0:0:
358,207,427538,1,0,3:0:0:0:
203,317,427684,2,0,B|172:319|153:311|153:311|124:322|93:311,1,100,8|0,0:0|0:0,0:0:0:0:
23,117,427977,38,0,B|57:94|98:93|98:93|127:120|164:124|164:124|183:110|232:110,1,200,6|8,3:2|0:0,0:0:0:0:
166,14,428416,1,0,0:0:0:0:
92,193,428562,1,0,0:0:0:0:
282,156,428709,1,0,3:0:0:0:
333,285,428855,2,0,B|293:273|293:273|235:261,1,100,8|4,0:0|3:2,0:0:0:0:
122,336,429148,5,0,0:0:0:0:
204,162,429294,1,8,0:3:0:0:
204,162,429367,1,8,0:3:0:0:
204,162,429440,1,0,3:0:0:0:
60,207,429587,1,0,3:0:0:0:
274,319,429733,1,0,1:0:0:0:
274,319,429806,1,0,1:0:0:0:
274,319,429879,2,0,L|277:269,1,50,0|0,1:0|0:0,0:0:0:0:
290,175,430026,5,0,3:0:0:0:
287,140,430099,1,0,3:0:0:0:
284,105,430172,1,0,3:0:0:0:
281,70,430245,1,0,3:0:0:0:
278,35,430318,1,4,3:2:0:0:
181,231,448465,22,0,L|171:155,1,59.9999981689454,2|0,0:0|0:0,0:0:0:0:
259,142,448765,2,0,L|269:66,1,59.9999981689454,2|0,0:0|0:0,0:0:0:0:
462,133,449065,6,0,P|356:175|339:288,1,239.999992675781,2|0,0:0|3:0,0:0:0:0:
339,288,449943,1,0,0:0:0:0:
258,357,450235,70,0,P|233:300|234:229,1,119.999996337891,2|0,0:0|0:0,0:0:0:0:
167,135,450674,2,0,P|165:195|141:250,1,119.999996337891
66,300,451113,2,0,L|56:257,2,39.9999987792969,0|0|0,3:0|3:0|3:0,0:0:0:0:
37,187,451406,6,0,L|11:63,1,119.999996337891,2|0,0:0|0:0,0:0:0:0:
97,14,451845,2,0,L|121:131,1,119.999996337891
148,217,452284,1,0,0:0:0:0:
305,129,452577,70,0,P|258:152|234:58,1,179.999994506836,2|0,0:0|0:0,0:0:0:0:
334,42,453162,2,0,L|376:57,2,39.9999987792969,0|0|0,3:0|3:0|3:0,0:0:0:0:
446,62,453455,2,0,L|452:115,2,39.9999987792969,0|0|0,3:0|3:0|3:0,0:0:0:0:
508,158,453747,6,0,B|516:224|476:221|491:295,1,119.999996337891,2|0,0:0|0:0,0:0:0:0:
437,347,454186,2,0,P|376:317|316:357,1,119.999996337891
247,356,454625,2,0,L|238:299,2,39.9999987792969,0|0|0,3:0|3:0|3:0,0:0:0:0:
163,294,454918,70,0,P|148:239|165:172,1,119.999996337891,2|0,0:0|0:0,0:0:0:0:
238,119,455357,1,0,0:0:0:0:
347,173,455504,2,0,L|339:219,2,39.9999987792969,0|0|0,3:0|3:0|3:0,0:0:0:0:
431,157,455796,2,0,L|423:113,2,39.9999987792969,0|0|0,3:0|3:0|3:0,0:0:0:0:
346,86,456089,6,0,P|292:65|236:84,1,119.999996337891,2|0,0:0|0:0,0:0:0:0:
157,182,456528,1,0,0:0:0:0:
157,182,456674,2,0,P|198:162|273:185,1,119.999996337891
187,350,457260,69,2,0:0:0:0:
187,350,457552,2,0,L|141:330,2,39.9999987792969,0|0|0,3:0|3:0|3:0,0:0:0:0:
120,254,457845,2,0,L|80:277,2,39.9999987792969,0|0|0,3:0|3:0|3:0,0:0:0:0:
17,232,458138,2,0,L|3:277,2,39.9999987792969,0|0|0,3:0|3:0|3:0,0:0:0:0:
86,180,458430,6,0,P|98:122|87:64,1,119.999996337891,2|0,0:0|0:0,0:0:0:0:
203,10,458869,2,0,P|191:68|202:126,1,119.999996337891
257,198,459308,1,0,0:0:0:0:
423,129,459601,70,0,P|434:187|422:245,1,119.999996337891,2|0,0:0|0:0,0:0:0:0:
238,298,460186,2,0,L|249:256,2,39.9999987792969,0|0|0,3:0|3:0|3:0,0:0:0:0:
172,241,460479,2,0,L|162:203,2,39.9999987792969,0|0|0,3:0|3:0|3:0,0:0:0:0:
241,179,460772,6,0,B|275:116|275:116|264:43,1,119.999996337891,2|0,0:0|0:0,0:0:0:0:
355,15,461211,2,0,B|379:153,1,119.999996337891
316,236,461650,2,0,L|325:186,2,39.9999987792969,0|0|0,0:0|3:0|3:0,0:0:0:0:
336,319,461943,70,0,B|278:333|278:286|200:326,1,119.999996337891,2|0,0:0|0:0,0:0:0:0:
223,174,462528,2,0,L|215:228,2,39.9999987792969,0|0|0,3:0|3:0|3:0,0:0:0:0:
237,97,462821,1,0,0:0:0:0:
105,103,462952,1,8,0:3:0:0:
105,103,463025,1,8,0:3:0:0:
105,103,463098,6,0,L|119:229,1,112.500004291535,4|0,3:2|0:0,0:0:0:0:
127,302,463390,1,4,0:3:0:0:
267,172,463683,69,0,3:0:0:0:
267,172,463756,1,0,3:0:0:0:
267,172,463829,1,8,3:0:0:0:
330,69,463976,1,0,0:0:0:0:
378,224,464122,1,8,3:0:0:0:
162,187,464268,5,4,0:0:0:0:
265,305,464415,2,0,B|317:289|317:289|369:327|432:291,1,150.000005722046,8|0,0:3|0:0,0:0:0:0:
481,165,464854,2,0,P|435:152|398:161,1,75.0000028610231,8|8,3:0|0:3,0:0:0:0:
247,185,465146,1,0,3:0:0:0:
247,185,465219,1,0,3:0:0:0:
247,185,465293,1,8,3:2:0:0:
154,67,465439,1,4,3:2:0:0:
99,247,465732,69,0,3:0:0:0:
99,247,465829,2,0,L|177:239,1,50.0000019073487,0|0,3:0|3:0,0:0:0:0:
247,185,466024,2,0,L|378:175,2,100.000003814697,8|0|8,0:0|3:0|0:0,0:0:0:0:
164,119,466512,1,0,3:0:0:0:
164,119,466610,6,0,L|33:109,1,100.000003814697,8|0,0:0|1:0,0:0:0:0:
129,29,466902,2,0,L|228:36,1,100.000003814697,0|8,3:0|0:0,0:0:0:0:
312,105,467195,69,8,0:0:0:0:
312,105,467293,2,0,L|365:102,1,50.0000019073487,8|8,0:0|0:0,0:0:0:0:
468,189,467488,1,8,0:0:0:0:
468,189,467585,2,0,L|415:186,1,50.0000019073487,0|8,3:0|0:0,0:0:0:0:
178,258,467780,21,4,0:0:0:0:
187,232,468951,1,4,0:0:0:0:
207,92,469537,5,4,3:2:0:0:
204,105,469732,1,0,3:2:0:0:
201,118,469927,1,0,3:2:0:0:
116,164,470122,6,0,P|168:218|272:176,1,179.999994506836,4|0,3:2|3:0,0:0:0:0:
397,97,470512,1,0,0:0:0:0:
397,97,470610,1,0,0:0:0:0:
397,97,470707,2,0,L|384:215,1,89.9999972534181,2|0,0:0|0:0,0:0:0:0:
345,342,471000,1,0,0:0:0:0:
293,207,471146,1,0,3:2:0:0:
126,291,471293,6,0,P|188:348|265:313,1,179.999994506836,12|0,3:2|3:2,0:0:0:0:
306,224,471683,1,0,3:0:0:0:
306,224,471780,1,0,3:0:0:0:
306,224,471878,2,0,L|297:163,2,59.9999981689454,8|0|0,3:2|3:0|3:0,0:0:0:0:
203,273,472171,2,0,L|212:214,2,59.9999981689454,2|0|0,3:2|3:0|3:0,0:0:0:0:
107,319,472463,38,0,B|109:274|86:232|86:232|100:198|94:170|94:170|74:135|87:95,1,224.999993133545,4|0,3:2|0:0,0:0:0:0:
85,101,472902,1,0,0:0:0:0:
208,19,473049,2,0,B|206:53|200:77|200:77|204:102|210:131,1,89.9999972534181,8|0,3:2|0:0,0:0:0:0:
308,150,473268,1,0,0:0:0:0:
316,157,473341,2,0,B|318:127|306:104|306:104|308:47,1,89.9999972534181,2|0,0:0|0:0,0:0:0:0:
477,188,473634,6,0,B|449:213|401:187|401:187|391:253|330:273,1,179.999994506836,4|0,0:0|3:0,0:0:0:0:
186,252,474073,1,0,0:0:0:0:
238,345,474219,2,0,P|261:290|249:160,1,179.999994506836,10|0,0:0|3:0,0:0:0:0:
181,50,474658,1,0,0:0:0:0:
1,173,474805,6,0,P|64:156|179:133,1,179.999994506836,4|0,3:2|0:0,0:0:0:0:
305,106,475244,1,0,3:0:0:0:
434,264,475390,2,0,P|383:246|339:237,1,89.9999972534181,8|0,0:0|0:0,0:0:0:0:
261,232,475610,1,0,0:0:0:0:
260,232,475683,2,0,P|217:243|175:259,1,89.9999972534181,0|0,3:0|0:0,0:0:0:0:
43,106,475976,6,0,B|95:122|95:122|148:98|148:98|193:140|270:109,1,224.999993133545,2|0,0:0|0:0,0:0:0:0:
253,114,476415,1,0,3:0:0:0:
225,23,476561,1,8,0:0:0:0:
244,210,476707,1,8,0:0:0:0:
387,160,476854,1,2,3:2:0:0:
329,295,477000,1,0,3:0:0:0:
154,196,477146,38,0,B|124:175|102:141|102:141|50:234|117:337,1,269.999991760254,4|0,0:2|0:0,0:0:0:0:
259,233,477732,2,0,P|276:180|262:96,1,134.999995880127,8|0,0:0|0:0,0:0:0:0:
250,76,478024,2,0,L|350:60,1,89.9999972534181,2|0,0:0|0:0,0:0:0:0:
506,174,478317,6,0,B|472:171|410:146|410:146|442:236|441:315,1,269.999991760254,2|0,0:0|0:0,0:0:0:0:
298,357,478902,2,0,P|305:300|315:256,1,89.9999972534181,8|0,0:0|0:0,0:0:0:0:
211,57,479195,1,0,3:0:0:0:
243,177,479341,1,0,0:0:0:0:
99,250,479488,6,0,P|49:181|73:83,1,179.999994506836,4|0,3:2|0:0,0:0:0:0:
194,43,479927,1,0,0:0:0:0:
310,152,480073,2,0,P|295:209|282:239,1,89.9999972534181,10|0,0:0|0:0,0:0:0:0:
239,326,480293,1,0,0:0:0:0:
239,326,480366,2,0,P|289:313|337:314,1,89.9999972534181,0|0,3:0|0:0,0:0:0:0:
512,254,480658,6,0,P|449:280|407:180,1,179.999994506836,2|0,0:0|0:0,0:0:0:0:
411,73,481098,1,0,3:0:0:0:
308,156,481244,1,10,0:0:0:0:
308,156,481390,1,0,3:0:0:0:
197,61,481537,2,0,P|207:121|209:162,1,89.9999972534181,2|0,0:0|0:0,0:0:0:0:
124,329,481829,38,0,P|131:263|201:319,1,179.999994506836,4|0,3:2|0:0,0:0:0:0:
32,342,482268,1,0,3:0:0:0:
34,252,482415,2,0,P|37:207|45:162,1,89.9999972534181,10|0,0:0|0:0,0:0:0:0:
152,92,482707,2,0,P|160:136|163:181,1,89.9999972534181
327,192,483000,6,0,P|368:181|433:170,1,89.9999972534181,4|0,3:2|0:0,0:0:0:0:
256,120,483293,2,0,P|244:77|236:33,1,89.9999972534181,2|0,3:2|0:0,0:0:0:0:
184,192,483585,2,0,P|141:203|97:211,1,89.9999972534181,10|0,0:0|0:0,0:0:0:0:
256,263,483878,2,0,P|267:306|275:350,1,89.9999972534181
365,147,484171,5,6,3:2:0:0:
184,192,484366,1,0,3:0:0:0:
310,74,484561,1,0,3:0:0:0:
315,50,484658,1,0,1:0:0:0:
320,26,484756,5,6,3:2:0:0:
121,24,484951,1,0,3:0:0:0:
275,248,485146,1,0,3:0:0:0:
287,282,485244,1,0,0:0:0:0:
299,316,485341,37,6,3:2:0:0:
95,251,485537,2,0,L|24:239,1,59.9999981689454,0|0,3:0|1:0,0:0:0:0:
197,175,485732,1,0,3:0:0:0:
242,159,485829,1,0,3:0:0:0:
287,143,485927,5,14,3:2:0:0:
232,378,486122,1,2,3:2:0:0:
55,212,486317,1,2,3:2:0:0:
356,76,486512,6,0,B|363:125|363:125|363:195,1,100,4|8,0:0|0:0,0:0:0:0:
222,75,486805,1,0,0:0:0:0:
191,250,486951,1,8,0:0:0:0:
222,264,487024,1,0,0:0:0:0:
254,277,487098,2,0,B|303:265|303:265|365:266,1,100,0|8,0:0|0:0,0:0:0:0:
232,180,487390,1,2,0:0:0:0:
316,355,487537,1,8,0:0:0:0:
110,305,487683,6,0,B|98:252|98:252|101:205,1,100,4|8,0:0|0:0,0:0:0:0:
299,163,487976,1,0,0:0:0:0:
197,245,488122,1,8,0:0:0:0:
235,64,488268,1,2,0:0:0:0:
427,165,488415,1,8,0:0:0:0:
431,204,488488,1,0,0:0:0:0:
412,239,488561,2,0,B|365:240|365:240|304:226,1,100,2|8,0:0|0:0,0:0:0:0:
97,310,488854,38,0,B|148:298|148:298|195:299,1,100,4|8,0:0|0:0,0:0:0:0:
367,340,489146,1,0,0:0:0:0:
232,203,489293,1,10,0:0:0:0:
232,203,489366,1,0,0:0:0:0:
232,203,489439,1,0,0:0:0:0:
386,68,489585,2,0,L|382:125,1,50,10|0,0:0|0:0,0:0:0:0:
376,225,489732,1,0,0:0:0:0:
219,326,489878,1,8,0:0:0:0:
179,332,489951,1,0,0:0:0:0:
144,311,490024,6,0,B|154:211,1,100,4|8,0:0|0:0,0:0:0:0:
154,33,490317,1,0,0:0:0:0:
219,164,490463,1,8,0:0:0:0:
305,71,490610,1,2,0:0:0:0:
132,117,490756,1,8,0:0:0:0:
281,237,490902,1,0,0:0:0:0:
412,89,491049,1,8,0:0:0:0:
450,65,491122,1,0,0:0:0:0:
492,80,491195,6,0,B|510:124|510:124|510:190,1,100,4|8,0:0|0:0,0:0:0:0:
443,273,491415,1,0,0:0:0:0:
428,265,491488,2,0,B|412:223|412:223|422:149,1,100,0|8,0:0|0:0,0:0:0:0:
300,93,491780,1,2,0:0:0:0:
243,206,491927,1,8,0:0:0:0:
243,206,492000,1,0,0:0:0:0:
243,206,492073,1,2,0:0:0:0:
149,51,492219,1,8,0:0:0:0:
35,164,492366,6,0,L|141:155,1,100,4|8,0:0|0:0,0:0:0:0:
309,195,492658,1,0,0:0:0:0:
185,277,492805,1,8,0:0:0:0:
232,79,492951,1,2,0:0:0:0:
381,152,493098,1,8,0:0:0:0:
381,152,493171,1,0,0:0:0:0:
381,152,493244,1,0,0:0:0:0:
259,13,493390,2,0,L|269:74,1,50,8|0,0:0|0:0,0:0:0:0:
239,195,493537,37,4,3:2:0:0:
204,288,493683,1,8,3:2:0:0:
196,105,493829,1,0,3:2:0:0:
271,239,493976,1,8,3:2:0:0:
294,84,494122,1,2,3:2:0:0:
186,197,494268,1,8,3:2:0:0:
245,9,494415,1,2,3:2:0:0:
339,175,494561,1,8,3:2:0:0:
151,164,494707,5,2,3:2:0:0:
118,187,494780,1,0,3:2:0:0:
97,220,494854,1,0,3:2:0:0:
91,260,494927,1,0,3:2:0:0:
100,298,495000,1,0,3:2:0:0:
124,330,495073,1,0,3:2:0:0:
161,346,495146,1,0,3:2:0:0:
200,340,495219,1,0,3:2:0:0:
232,316,495293,1,2,3:2:0:0:
263,291,495366,1,0,3:2:0:0:
301,281,495439,1,0,3:2:0:0:
339,290,495512,1,0,3:2:0:0:
363,321,495585,1,2,3:2:0:0:
358,359,495658,1,0,3:2:0:0:
322,379,495732,1,0,3:2:0:0:
284,364,495805,1,0,3:2:0:0:
273,325,495878,6,0,B|274:264|274:264|286:205,1,100,4|8,3:2|0:0,0:0:0:0:
411,106,496171,1,0,3:0:0:0:
431,237,496317,1,8,0:0:0:0:
287,119,496463,2,0,B|235:90|235:90|195:80,1,100,2|8,3:2|0:2,0:2:0:0:
116,77,496683,1,0,0:0:0:0:
104,88,496756,2,0,B|120:192,1,100,0|8,3:2|0:0,0:0:0:0:
270,302,497049,5,4,3:2:0:0:
139,343,497195,1,8,0:0:0:0:
231,212,497341,1,0,3:0:0:0:
373,344,497488,1,8,0:0:0:0:
402,317,497561,1,0,0:0:0:0:
423,283,497634,2,0,B|437:235|437:235|430:185,1,100,2|8,3:2|0:0,0:0:0:0:
278,82,497927,1,2,3:2:0:0:
338,208,498073,1,8,0:0:0:0:
157,209,498219,37,4,3:2:0:0:
349,176,498366,1,8,0:0:0:0:
267,324,498512,1,0,3:2:0:0:
81,209,498658,1,8,0:0:0:0:
96,251,498732,1,0,0:0:0:0:
114,291,498805,2,0,B|170:285|170:285|212:274,1,100,2|8,3:2|0:0,0:0:0:0:
266,204,499024,1,0,0:0:0:0:
263,181,499097,2,0,B|272:120|272:120|284:70,1,100,2|8,3:2|0:0,0:0:0:0:
102,35,499390,5,4,3:2:0:0:
172,146,499537,1,8,0:0:0:0:
207,28,499683,1,0,3:2:0:0:
97,191,499829,1,8,0:0:0:0:
289,210,499976,1,2,3:2:0:0:
289,210,500049,1,0,0:0:0:0:
289,210,500122,1,8,0:0:0:0:
78,268,500268,1,2,3:2:0:0:
179,358,500415,1,8,0:0:0:0:
383,263,500561,6,0,B|277:251,1,100,4|8,3:2|0:0,0:0:0:0:
395,112,500854,1,0,3:2:0:0:
472,203,501000,1,10,0:0:0:0:
285,150,501146,1,0,3:2:0:0:
423,30,501293,1,10,0:0:0:0:
361,188,501439,1,0,3:2:0:0:
282,5,501585,1,8,0:0:0:0:
96,155,501732,6,0,B|196:146,1,100,4|8,3:2|0:0,0:0:0:0:
446,204,502024,2,0,B|346:213,1,100,2|8,3:2|0:0,0:0:0:0:
57,312,502317,2,0,B|157:303,1,100,2|8,3:2|0:0,0:0:0:0:
512,313,502610,2,0,B|412:322,1,100,2|8,3:2|0:0,0:0:0:0:
304,66,502902,37,2,3:2:0:0:
289,103,502976,1,0,3:2:0:0:
291,142,503049,1,0,3:2:0:0:
306,178,503122,1,0,3:2:0:0:
339,200,503195,1,0,3:2:0:0:
377,208,503268,1,0,3:2:0:0:
416,202,503341,1,0,3:2:0:0:
447,175,503415,1,0,3:2:0:0:
457,136,503488,5,2,3:2:0:0:
438,100,503561,1,0,3:2:0:0:
400,86,503634,1,0,3:2:0:0:
363,102,503707,1,0,3:2:0:0:
351,140,503780,1,0,3:2:0:0:
361,179,503854,1,0,3:2:0:0:
382,212,503927,1,0,3:2:0:0:
378,251,504000,1,0,3:2:0:0:
355,283,504073,5,2,3:2:0:0:
316,294,504146,1,0,3:2:0:0:
277,285,504219,1,0,3:2:0:0:
247,257,504293,1,0,3:2:0:0:
208,247,504366,1,2,3:2:0:0:
172,266,504439,1,0,3:2:0:0:
153,301,504512,1,0,3:2:0:0:
161,339,504585,1,0,3:2:0:0:
193,362,504658,1,4,0:0:0:0:
193,362,505244,5,4,3:2:0:0:
247,195,505390,1,8,0:0:0:0:
309,362,505537,1,0,3:0:0:0:
158,268,505683,1,8,0:0:0:0:
335,275,505829,1,0,3:0:0:0:
335,275,505902,1,0,3:0:0:0:
335,275,505976,1,8,0:0:0:0:
274,134,506122,1,0,3:0:0:0:
229,299,506268,1,8,0:0:0:0:
405,302,506415,37,2,3:2:0:0:
213,203,506561,1,8,0:0:0:0:
362,88,506707,2,0,B|360:125|360:125|346:186,1,100,0|8,3:2|0:0,0:0:0:0:
194,244,507000,1,2,0:0:0:0:
194,244,507073,1,0,0:0:0:0:
194,244,507146,1,8,0:0:0:0:
318,320,507293,1,0,3:0:0:0:
163,355,507439,1,8,0:0:0:0:
41,184,507585,6,0,B|98:167|98:167|138:165,1,100,4|0,3:2|0:0,0:0:0:0:
304,196,507878,1,0,3:2:0:0:
204,299,508024,1,8,0:0:0:0:
353,347,508171,1,0,3:2:0:0:
353,347,508244,1,0,3:0:0:0:
353,347,508317,1,8,0:0:0:0:
269,208,508463,1,0,3:2:0:0:
483,271,508610,1,8,0:0:0:0:
363,159,508756,6,0,P|344:91|339:53,1,100,2|8,3:2|0:0,0:0:0:0:
264,16,508976,1,0,0:0:0:0:
264,15,509049,2,0,L|249:113,1,100,0|8,3:0|0:0,0:0:0:0:
221,288,509341,1,2,3:2:0:0:
221,288,509415,1,0,0:0:0:0:
221,288,509488,1,8,0:0:0:0:
80,197,509634,1,0,3:0:0:0:
119,359,509780,1,8,0:0:0:0:
277,203,509927,6,0,B|319:207|367:154|367:154|387:248|491:237,1,259.999988098145,6|0,3:2|3:0,0:0:0:0:
468,135,510366,1,8,0:0:0:0:
339,277,510512,1,0,3:2:0:0:
449,354,510658,1,8,0:0:0:0:
193,322,510805,1,0,3:2:0:0:
329,253,510951,1,8,0:0:0:0:
150,100,511097,38,0,B|143:150|143:150|154:199,1,100,4|8,3:2|0:0,0:0:0:0:
297,99,511390,1,0,3:0:0:0:
398,182,511537,1,8,0:0:0:0:
330,303,511683,2,0,B|286:310|286:310|231:303,1,100,0|8,3:0|0:0,0:0:0:0:
54,198,511976,2,0,B|109:191|109:191|152:198,1,100,0|8,3:0|0:0,0:0:0:0:
321,114,512268,5,4,3:2:0:0:
273,225,512415,1,8,0:0:0:0:
391,60,512561,1,0,3:2:0:0:
426,215,512707,1,8,0:0:0:0:
467,12,512854,5,0,3:2:0:0:
416,203,513000,1,8,0:0:0:0:
242,35,513146,1,0,3:2:0:0:
304,240,513293,1,8,0:0:0:0:
119,79,513439,5,0,3:2:0:0:
97,111,513512,1,0,3:2:0:0:
94,151,513585,1,8,3:2:0:0:
111,186,513658,1,0,3:2:0:0:
144,208,513732,1,0,3:2:0:0:
184,211,513805,1,0,3:2:0:0:
222,198,513878,1,8,3:2:0:0:
251,171,513951,1,0,3:2:0:0:
290,161,514024,1,0,3:2:0:0:
328,170,514097,1,0,3:2:0:0:
358,196,514171,1,8,3:2:0:0:
373,233,514244,1,0,3:2:0:0:
369,272,514317,2,0,P|359:296|329:331,1,50,0|0,3:0|3:0,0:0:0:0:
262,351,514463,2,0,P|238:341|203:311,1,50,8|0,3:2|3:0,0:0:0:0:
163,232,514610,38,0,B|116:216|116:216|48:225,1,100,4|8,3:2|0:0,0:0:0:0:
243,120,514902,1,0,3:0:0:0:
287,244,515049,1,8,0:0:0:0:
360,105,515195,1,0,3:0:0:0:
360,105,515268,1,0,3:0:0:0:
360,105,515341,1,8,0:0:0:0:
169,62,515488,2,0,B|180:186,1,100,0|8,3:0|0:0,0:0:0:0:
13,219,515780,5,4,3:2:0:0:
151,292,515927,1,8,0:0:0:0:
272,154,516073,1,0,3:2:0:0:
109,198,516219,1,8,0:0:0:0:
287,275,516366,1,2,3:2:0:0:
287,275,516439,1,0,3:0:0:0:
287,275,516512,1,8,0:0:0:0:
452,186,516658,2,0,B|461:242|461:242|455:299,1,100,0|8,3:0|0:0,0:0:0:0:
310,168,516951,6,0,B|305:124|305:124|314:68,1,100,4|8,3:2|0:0,0:0:0:0:
201,251,517244,1,0,3:2:0:0:
392,227,517390,1,8,0:0:0:0:
292,314,517537,1,0,3:2:0:0:
99,297,517683,1,8,0:0:0:0:
231,156,517829,1,0,3:2:0:0:
276,337,517976,1,8,0:0:0:0:
131,209,518122,5,2,3:2:0:0:
133,184,518195,1,0,3:0:0:0:
137,159,518268,1,0,3:0:0:0:
140,134,518341,1,0,3:0:0:0:
144,109,518415,2,0,L|151:44,3,50,2|0|0|0,2:0|3:0|3:0|3:0,0:0:0:0:
235,17,518707,2,0,L|240:66,3,50,0|0|0|0,3:0|3:0|3:0|3:0,0:0:0:0:
322,111,519000,2,0,L|327:61,3,50,2|0|0|0,3:2|3:0|3:0|3:0,0:0:0:0:
407,121,519293,5,2,3:2:0:0:
423,139,519366,1,0,3:2:0:0:
435,161,519439,1,0,3:2:0:0:
442,185,519512,1,0,3:2:0:0:
442,210,519585,1,0,3:2:0:0:
436,234,519658,1,0,3:2:0:0:
421,254,519732,1,0,3:2:0:0:
398,264,519805,1,0,3:2:0:0:
373,260,519878,1,0,3:2:0:0:
352,246,519951,1,0,3:2:0:0:
329,236,520024,1,0,3:2:0:0:
305,231,520097,1,0,3:2:0:0:
280,233,520171,1,0,3:2:0:0:
257,243,520244,1,0,3:2:0:0:
238,259,520317,1,0,3:2:0:0:
226,281,520390,1,0,3:2:0:0:
223,305,520463,6,0,L|236:366,3,50,2|0|0|0,3:2|3:0|3:0|3:0,0:0:0:0:
151,247,520756,2,0,L|140:295,3,50,0|0|0|0,3:0|3:0|3:0|3:0,0:0:0:0:
221,174,521049,2,0,L|234:235,3,50,0|0|0|0,3:0|3:0|3:0|3:0,0:0:0:0:
133,156,521341,2,0,P|122:98|125:50,1,100,0|0,1:0|0:0,0:0:0:0:
426,76,521634,6,0,B|515:161|433:278|326:257|280:191|286:116|333:81|394:113|385:150,1,400,4|4,3:2|3:2,0:0:0:0:
101,318,522805,6,0,B|12:233|94:116|201:137|247:203|241:278|194:313|133:281|142:244,1,400,4|4,3:2|3:2,0:0:0:0:
259,25,523976,21,8,3:0:0:0:
282,50,524049,1,0,3:0:0:0:
296,82,524122,1,8,3:0:0:0:
300,117,524195,1,0,3:0:0:0:
294,151,524268,1,0,3:0:0:0:
279,182,524341,1,0,3:0:0:0:
256,208,524415,1,0,3:0:0:0:
233,233,524488,1,0,3:0:0:0:
219,265,524561,1,0,3:0:0:0:
221,299,524634,1,0,3:0:0:0:
241,326,524707,1,0,3:0:0:0:
273,340,524780,1,0,3:0:0:0:
307,336,524854,69,8,1:2:0:0:
335,315,524927,1,0,1:2:0:0:
349,283,525000,1,0,1:2:0:0:
344,249,525073,1,0,1:2:0:0:
324,221,525146,1,8,3:2:0:0:
296,200,525219,1,0,1:0:0:0:
263,188,525293,1,0,1:0:0:0:
228,187,525366,1,0,1:0:0:0:
194,197,525439,1,8,3:2:0:0:
163,211,525512,1,0,1:0:0:0:
128,212,525585,1,0,3:0:0:0:
95,201,525658,1,0,1:0:0:0:
69,178,525732,69,8,1:2:0:0:
53,147,525805,1,0,1:2:0:0:
50,112,525878,1,0,1:2:0:0:
60,79,525951,1,0,1:2:0:0:
81,46,526024,1,8,3:2:0:0:
120,24,526097,1,0,3:0:0:0:
169,21,526171,1,0,1:0:0:0:
212,44,526244,1,0,1:0:0:0:
240,91,526317,1,4,0:0:0:0:
240,91,526902,5,4,1:0:0:0:
416,164,527097,5,0,1:0:0:0:
109,221,527293,37,0,1:0:0:0:
339,382,527488,37,4,1:0:0:0:
