osu file format v14

[General]
AudioFilename: audio.mp3
AudioLeadIn: 0
PreviewTime: 106288
Countdown: 0
SampleSet: Soft
StackLeniency: 0.7
Mode: 0
LetterboxInBreaks: 0
WidescreenStoryboard: 1

[Editor]
Bookmarks: 181215,209312,256142,274873,293605,312337,331068,331218,331368,331518,331668,331818,331968,332118,332268,332418,332568,332718,332868,333018,333168,333393,333468,333693,333843,333993,334068,334218,334368,334518,334743,334818,335043,335193,335343,335493,335643,335793,335943,336093,336243,336468,336618,336768,336918,337068,337218,337368,337593,337893,338043,338268,338418,338568,338718,338868,339018,339243,339393,339543,339693,339843,339993,340143,340293,340443,340668,340818,340968,341118,341268,341418,341643,341793,341943,342093,342243,342393,342543,342768,342918,343068,343218,343368,343518,343743,343893,344043,344268,344418,344568,344718,344943,345093,345618,345918,346068,346293,346443,346593,346743,346968,347118,347268,347493,347643,347793,348018,348168,348318,348468,348693,348843,348993,349218,349368,349518,349743,349893,350043,350268,369438,387292,430316,430389,430463,430609,430682,430828,430902,430975,431048,431121,431267,431414,431633,431780,431926,432072,432219,432292,432438,432585,432731,432950,433097,433243,433389,433609,433755,433902,434048,434194,434341,434487,434560,434707,434853,434999,435146,435292,435365,435585,435658,435804,435950,436097,436243,436389,436536,436682,436975,437048,437267,437341,437560,437853,437999,438219,438365,438585,438731,438877,439097,439243,439463,439609,439755,439975,440121,440341,440487,440707,440853,440999,441146,441365,441511,441731,441877,442097,442389,442609,442755,442902,443121,443267,443633,443780,443999,444146,444292,444658,444804,445024,445316,445463,445682,445902,446048,446267,446487,446853,446999,447219,447365,447511,447731,447877,448097,448316,448463,467778,486510,505242
DistanceSpacing: 0.8
BeatDivisor: 3
GridSize: 32
TimelineZoom: 3.399998

[Metadata]
Title:Uta
TitleUnicode:謳
Artist:Imperial Circus Dead Decadence
ArtistUnicode:Imperial Circus Dead Decadence
Creator:nubery
Version:Story
Source:
Tags:Ora Est- Est Stingy
BeatmapID:1839810
BeatmapSetID:879778

[Difficulty]
HPDrainRate:7
CircleSize:4
OverallDifficulty:8
ApproachRate:9.5
SliderMultiplier:1.8
SliderTickRate:1

[Events]
//Background and Video events
0,0,"50684859_p0_master1200.jpg",0,0
//Break Periods
2,274927,311812
2,331268,385303
2,430516,446663
//Storyboard Layer 0 (Background)
//Storyboard Layer 1 (Fail)
//Storyboard Layer 2 (Pass)
//Storyboard Layer 3 (Foreground)
//Storyboard Sound Samples

[TimingPoints]
1641,428.571428571429,4,2,0,80,1,0
23926,458.015267175573,4,2,0,80,1,0
24842,468.75,4,2,0,80,1,8
25777,500,4,2,0,80,1,0
27777,545.454545454546,4,2,0,80,1,0
28867,555.555555555556,4,2,0,80,1,8
29973,310.880829015544,4,2,0,80,1,0
33703,292.682926829268,4,2,0,80,1,0
33703,-90.9090909090909,4,2,0,80,0,0
33995,-111.111111111111,4,2,0,80,0,0
35751,-83.3333333333333,4,2,0,80,0,0
36044,-90.9090909090909,4,2,0,80,0,0
36337,-111.111111111111,4,2,0,80,0,0
38093,-83.3333333333333,4,2,0,80,0,0
40434,-100,4,2,0,80,0,0
43068,-90.9090909090909,4,2,0,80,0,0
43361,-111.111111111111,4,2,0,80,0,0
45117,-83.3333333333333,4,2,0,80,0,0
45410,-90.9090909090909,4,2,0,80,0,0
45702,-111.111111111111,4,2,0,80,0,0
47459,-83.3333333333333,4,2,0,80,0,0
47751,-90.9090909090909,4,2,0,80,0,0
48044,-111.111111111111,4,2,0,80,0,0
52044,-76.9230769230769,4,2,0,80,0,0
52434,-83.3333333333333,4,2,0,80,0,0
71093,-100,4,2,0,80,0,0
87263,-125,4,2,0,80,0,0
87556,-83.3333333333333,4,2,0,80,0,0
95751,-71.4285714285714,4,2,0,80,0,0
96337,-62.5,4,2,0,80,0,0
96922,-83.3333333333333,4,2,0,80,0,0
105117,-62.5,4,2,0,80,0,0
106288,-100,4,2,0,80,0,0
114922,-83.3333333333333,4,2,0,80,0,0
115654,-100,4,2,0,80,0,0
134385,-90.9090909090909,4,2,0,80,0,0
143751,-76.9230769230769,4,2,0,80,0,1
148288,-76.9230769230769,4,2,0,80,0,0
148434,-76.9230769230769,4,2,0,80,0,1
161312,-66.6666666666667,4,2,0,80,0,1
162483,-76.9230769230769,4,2,0,80,0,0
162776,-83.3333333333333,4,2,0,80,0,0
172142,-90.9090909090909,4,2,0,80,0,0
181215,-76.9230769230769,4,2,0,80,0,0
190581,-100,4,2,0,80,0,0
191093,-76.9230769230769,4,2,0,80,0,0
192337,-100,4,2,0,80,0,0
195849,-76.9230769230769,4,2,0,80,0,0
199361,-100,4,2,0,80,0,0
199946,-83.3333333333333,4,2,0,80,0,0
201849,-100,4,2,0,80,0,0
202142,-83.3333333333333,4,2,0,80,0,0
204190,-100,4,2,0,80,0,0
204483,-111.111111111111,4,2,0,80,0,0
205800,-90.9090909090909,4,2,0,80,0,0
211215,-111.111111111111,4,2,0,80,0,0
211507,-90.9090909090909,4,2,0,80,0,0
213556,-111.111111111111,4,2,0,80,0,0
213849,-90.9090909090909,4,2,0,80,0,0
215898,-111.111111111111,4,2,0,80,0,0
216190,-90.9090909090909,4,2,0,80,0,0
217507,-125,4,2,0,80,0,0
217800,-111.111111111111,4,2,0,80,0,0
218093,-100,4,2,0,80,0,0
218385,-83.3333333333333,4,2,0,80,0,0
218678,-86.9565217391304,4,2,0,80,0,0
222776,-76.9230769230769,4,2,0,80,0,0
223361,-86.9565217391304,4,2,0,80,0,0
232142,-76.9230769230769,4,2,0,80,0,0
232727,-76.9230769230769,4,2,0,80,0,0
233898,-66.6666666666667,4,2,0,80,0,0
235068,-76.9230769230769,4,2,0,80,0,0
240483,-83.3333333333333,4,2,0,80,0,0
245605,-71.4285714285714,4,2,0,80,0,0
246190,-62.5,4,2,0,80,0,0
246776,-83.3333333333333,4,2,0,80,0,0
254971,-71.4285714285714,4,2,0,80,0,0
255556,-83.3333333333333,4,2,0,80,0,0
256142,-100,4,2,0,80,0,0
312337,-76.9230769230769,4,2,0,80,0,0
331068,300,4,2,0,80,1,0
331068,300,4,2,0,80,1,0
368268,292.682926829268,4,2,0,70,1,0
368268,292.682926829268,4,2,0,70,1,0
368368,-100,4,2,0,70,0,0
386999,-90.9090909090909,4,2,0,70,0,0
406902,-133.333333333333,4,2,0,70,0,0
411585,-83.3333333333333,4,2,0,70,0,0
425633,-100,4,2,0,70,0,0
429438,-133.333333333333,4,2,0,70,0,0
430024,-200,4,2,0,70,0,0
448463,300,4,2,0,60,1,8
448463,300,4,2,0,60,1,8
448463,-200,4,2,0,70,0,0
448763,-133.333333333333,4,2,0,70,0,0
449063,292.682926829268,4,2,0,70,1,0
449063,292.682926829268,4,2,0,70,1,0
449063,-200,4,2,0,70,0,0
462950,292.682926829268,4,2,0,80,1,8
462950,292.682926829268,4,2,0,80,1,8
463096,292.682926829268,4,2,0,80,1,0
463096,292.682926829268,4,2,0,80,1,0

[Colours]
Combo1 : 128,128,128
Combo2 : 52,54,75

[HitObjects]
429,76,33703,6,0,L|440:186,1,99.0000030212403
489,289,33995,2,0,P|431:289|389:307,1,80.9999975280763
321,364,34288,2,0,P|303:323|296:277,1,80.9999975280763
330,180,34581,2,0,P|285:178|240:165,1,80.9999975280763
176,59,34873,6,0,P|160:107|127:147,1,80.9999975280763
52,202,35166,2,0,P|94:229|124:272,1,80.9999975280763
195,331,35459,2,0,P|252:326|286:311,1,80.9999975280763
304,169,35751,6,0,B|277:208|277:208|429:241,1,161.999995056153
472,171,36044,6,0,P|419:160|389:120,1,99.0000030212403
349,19,36337,2,0,P|290:48|263:87,1,80.9999975280763
261,165,36629,2,0,P|210:145|186:116,1,80.9999975280763
165,18,36922,2,0,P|134:43|96:57,1,80.9999975280763
18,149,37215,6,0,P|72:158|114:181,1,80.9999975280763
190,231,37507,2,0,P|217:158|248:134,1,80.9999975280763
315,216,37800,2,0,P|381:205|410:185,1,80.9999975280763
381,43,38093,6,0,B|344:17|344:17|336:151,1,161.999995056153
392,198,38385,5,0,0:0:0:0:
256,192,38532,12,0,40142,0:0:0:0:
428,78,40727,5,0,0:0:0:0:
407,62,40800,1,0,0:0:0:0:
381,58,40873,1,0,0:0:0:0:
356,68,40946,1,0,0:0:0:0:
335,85,41020,1,0,0:0:0:0:
310,95,41093,1,0,0:0:0:0:
284,97,41166,1,0,0:0:0:0:
259,90,41239,1,0,0:0:0:0:
237,75,41312,6,0,L|255:8,3,45
160,35,41605,2,0,L|93:53,3,45
175,135,41898,5,0,0:0:0:0:
175,135,41971,1,0,0:0:0:0:
175,135,42044,2,0,B|210:170|210:170|171:279,2,135
153,118,42556,1,0,0:0:0:0:
100,131,42629,1,0,0:0:0:0:
83,152,42702,1,0,0:0:0:0:
96,204,42776,1,0,0:0:0:0:
79,225,42849,1,0,0:0:0:0:
82,278,42922,1,0,0:0:0:0:
65,299,42995,1,0,0:0:0:0:
72,353,43068,5,0,0:0:0:0:
273,290,43361,2,0,P|220:280|186:258,1,80.9999975280763
141,168,43654,2,0,P|194:158|228:136,1,80.9999975280763
274,47,43946,2,0,P|305:90|339:112,1,80.9999975280763
462,141,44239,6,0,P|421:152|380:180,1,80.9999975280763
339,271,44532,2,0,P|317:234|280:201,1,80.9999975280763
182,192,44824,2,0,P|212:161|233:117,1,80.9999975280763
143,24,45117,6,0,B|103:1|103:1|123:123,1,161.999995056153
137,205,45410,6,0,P|76:213|39:248,1,99.0000030212403
124,326,45702,2,0,P|197:306|220:281,1,80.9999975280763
264,209,45995,2,0,P|300:240|318:282,1,80.9999975280763
318,381,46288,2,0,P|357:354|402:347,1,80.9999975280763
506,288,46581,6,0,P|466:278|434:254,1,80.9999975280763
415,146,46873,2,0,P|365:164|335:193,1,80.9999975280763
278,279,47166,2,0,P|238:269|206:245,1,80.9999975280763
211,85,47459,6,0,B|192:48|192:48|88:113,1,161.999995056153
39,196,47751,6,0,P|113:204|148:233,1,99.0000030212403
130,343,48044,2,0,P|83:303|62:262,1,80.9999975280763
88,174,48337,2,0,P|140:174|184:159,1,80.9999975280763
246,86,48629,2,0,P|267:133|300:166,1,80.9999975280763
422,188,48922,6,0,P|388:227|371:271,1,80.9999975280763
316,348,49215,2,0,P|301:281|281:237,1,80.9999975280763
237,173,49507,2,0,P|230:212|217:251,1,80.9999975280763
144,377,49800,2,0,P|121:330|116:283,1,80.9999975280763
94,95,50093,6,0,P|70:180|28:251,1,161.999995056153
16,261,50459,1,0,0:0:0:0:
39,264,50532,1,0,0:0:0:0:
59,276,50605,1,0,0:0:0:0:
74,294,50678,1,0,0:0:0:0:
287,353,50971,6,0,P|274:295|272:254,1,80.9999975280763
323,211,51190,1,0,0:0:0:0:
323,211,51263,2,0,L|378:203,3,40.4999987640381
288,136,51556,2,0,L|331:101,3,40.4999987640381
207,121,51849,2,0,L|194:200,1,53.9999983520508
141,265,52044,6,0,B|112:265|100:255|100:255|63:265|63:265|16:248,2,116.999994644165
248,376,52434,6,0,B|266:346|266:346|275:227,1,107.999996704102
240,76,52727,1,0,0:0:0:0:
158,193,52873,1,0,0:0:0:0:
338,144,53020,2,0,L|408:159,2,53.9999983520508
232,266,53312,1,0,0:0:0:0:
153,104,53459,1,0,0:0:0:0:
118,328,53605,6,0,B|93:272|93:272|87:182,1,107.999996704102
153,104,53898,1,0,0:0:0:0:
225,288,54044,2,0,L|243:158,1,107.999996704102
287,118,54263,2,0,L|352:127,1,53.9999983520508
409,298,54483,2,0,L|279:280,1,107.999996704102
147,208,54776,6,0,B|194:201|194:201|266:232,1,107.999996704102
275,364,55068,1,0,0:0:0:0:
327,204,55215,1,0,0:0:0:0:
190,295,55361,2,0,L|118:286,2,53.9999983520508
256,138,55654,1,0,0:0:0:0:
368,279,55800,1,0,0:0:0:0:
409,59,55946,6,0,B|432:106|432:106|441:188,1,107.999996704102
368,279,56239,1,0,0:0:0:0:
292,109,56385,2,0,B|276:149|276:149|268:222,1,107.999996704102
204,267,56605,2,0,L|133:259,1,53.9999983520508
109,84,56824,2,0,L|251:100,1,107.999996704102
312,200,57117,5,0,0:0:0:0:
137,201,57263,1,0,0:0:0:0:
302,100,57410,1,0,0:0:0:0:
312,307,57556,1,0,0:0:0:0:
228,182,57702,1,0,0:0:0:0:
228,182,57776,1,0,0:0:0:0:
228,182,57849,1,0,0:0:0:0:
217,335,57995,2,0,P|151:314|79:316,1,107.999996704102
4,231,58288,6,0,B|59:219|59:219|117:176,1,107.999996704102
171,95,58581,1,0,0:0:0:0:
278,262,58727,2,0,B|230:272|230:272|153:252,1,107.999996704102
174,178,58946,2,0,L|232:193,1,53.9999983520508
266,344,59166,2,0,L|382:314,1,107.999996704102
417,127,59459,5,0,0:0:0:0:
498,246,59605,1,0,0:0:0:0:
304,188,59751,2,0,B|300:126|300:126|319:53,1,107.999996704102
381,227,60044,1,0,0:0:0:0:
366,244,60117,1,0,0:0:0:0:
347,257,60190,1,0,0:0:0:0:
325,266,60263,1,0,0:0:0:0:
302,268,60336,1,0,0:0:0:0:
279,265,60409,1,0,0:0:0:0:
258,257,60483,1,0,0:0:0:0:
239,243,60556,1,0,0:0:0:0:
225,225,60629,6,0,L|219:306,3,53.9999983520508
155,172,60922,2,0,L|149:91,3,53.9999983520508
107,250,61215,2,0,L|101:331,3,53.9999983520508
36,167,61507,2,0,L|30:86,3,53.9999983520508
160,27,61800,6,0,B|206:24|206:24|290:62,1,107.999996704102
299,234,62093,1,0,0:0:0:0:
174,168,62239,1,0,0:0:0:0:
355,130,62385,2,0,L|425:147,2,53.9999983520508
205,271,62678,1,0,0:0:0:0:
243,105,62824,1,0,0:0:0:0:
306,298,62971,6,0,B|345:300|345:300|429:269,1,107.999996704102
229,189,63263,2,0,B|190:187|190:187|106:218,1,107.999996704102
108,314,63556,1,0,0:0:0:0:
108,314,63629,1,0,0:0:0:0:
108,314,63702,1,0,0:0:0:0:
39,169,63849,1,0,0:0:0:0:
39,169,63922,1,0,0:0:0:0:
39,169,63995,1,0,0:0:0:0:
171,38,64142,6,0,L|161:153,1,107.999996704102
238,316,64434,1,0,0:0:0:0:
99,257,64581,1,0,0:0:0:0:
255,186,64727,1,0,0:0:0:0:
255,186,64800,1,0,0:0:0:0:
255,186,64873,1,0,0:0:0:0:
351,320,65020,2,0,B|391:319|391:319|469:295,1,107.999996704102
462,130,65312,6,0,B|452:92|452:92|442:80,3,53.9999983520508
381,129,65605,2,0,B|353:101|353:101|339:96,3,53.9999983520508
308,164,65898,2,0,B|270:153|270:153|255:156,3,53.9999983520508
265,230,66190,2,0,B|226:240|226:240|215:249,3,53.9999983520508
266,315,66483,5,0,0:0:0:0:
282,330,66556,1,0,0:0:0:0:
303,341,66629,1,0,0:0:0:0:
325,348,66702,1,0,0:0:0:0:
348,348,66775,1,0,0:0:0:0:
370,343,66848,1,0,0:0:0:0:
391,333,66922,1,0,0:0:0:0:
409,319,66995,1,0,0:0:0:0:
424,303,67068,6,0,P|435:273|440:246,3,53.9999983520508
358,253,67361,2,0,P|352:221|343:195,3,53.9999983520508
274,159,67654,5,0,0:0:0:0:
252,156,67727,1,0,0:0:0:0:
230,160,67800,1,0,0:0:0:0:
210,169,67873,1,0,0:0:0:0:
195,185,67946,2,0,L|211:243,3,53.9999983520508
128,128,68239,5,0,0:0:0:0:
106,125,68312,1,0,0:0:0:0:
84,129,68385,1,0,0:0:0:0:
64,138,68458,1,0,0:0:0:0:
49,154,68531,2,0,L|65:212,3,53.9999983520508
0,71,68824,5,0,0:0:0:0:
256,192,68898,12,0,71166,0:0:0:0:
256,192,71239,12,0,73507,0:0:0:0:
256,192,73581,12,0,74678,0:0:0:0:
372,321,75410,5,0,0:0:0:0:
372,321,75483,1,0,0:0:0:0:
372,321,75556,1,0,0:0:0:0:
169,182,75849,6,0,P|181:154|197:136,3,45
106,226,76142,2,0,P|94:197|93:173,3,45
90,301,76434,2,0,P|62:289|43:273,3,45
134,364,76727,2,0,P|105:375|81:376,3,45
198,307,77020,5,0,0:0:0:0:
223,298,77093,1,0,0:0:0:0:
249,294,77166,1,0,0:0:0:0:
275,295,77239,1,0,0:0:0:0:
300,303,77312,1,0,0:0:0:0:
314,313,77385,1,0,0:0:0:0:
330,320,77459,1,0,0:0:0:0:
347,322,77532,1,0,0:0:0:0:
364,318,77605,2,0,L|382:263,3,45
318,228,77898,2,0,L|300:173,3,45
407,172,78190,6,0,B|433:182|433:182|474:180,3,45
360,99,78483,2,0,B|385:87|385:87|413:57,3,45
280,64,78776,2,0,B|290:37|290:37|288:-3,3,45
193,72,79068,2,0,B|181:46|181:46|151:18,3,45
157,155,79361,5,0,0:0:0:0:
138,174,79434,1,0,0:0:0:0:
112,183,79507,1,0,0:0:0:0:
84,184,79581,1,0,0:0:0:0:
57,177,79654,2,0,L|40:122,3,45
108,258,79946,5,0,0:0:0:0:
127,277,80019,1,0,0:0:0:0:
153,286,80092,1,0,0:0:0:0:
181,287,80166,1,0,0:0:0:0:
208,280,80239,2,0,L|225:225,3,45
292,325,80532,6,0,L|347:337,3,45
307,244,80824,2,0,L|362:256,3,45
266,173,81117,2,0,L|222:163,3,45
281,92,81410,2,0,L|237:82,3,45
356,145,81702,5,0,0:0:0:0:
381,153,81776,1,0,0:0:0:0:
406,160,81849,1,0,0:0:0:0:
431,150,81922,1,0,0:0:0:0:
454,136,81995,2,0,L|468:68,3,45
393,231,82288,5,0,0:0:0:0:
368,239,82362,1,0,0:0:0:0:
343,246,82435,1,0,0:0:0:0:
318,236,82508,1,0,0:0:0:0:
295,222,82581,2,0,L|281:154,3,45
303,349,82873,6,0,B|283:352|283:352|262:366,3,45
254,284,83166,2,0,B|234:280|234:280|213:266,3,45
195,344,83459,2,0,B|175:347|175:347|154:361,3,45
140,283,83752,2,0,B|120:279|120:279|99:265,3,45
210,186,84044,5,0,0:0:0:0:
209,159,84117,1,0,0:0:0:0:
192,137,84190,1,0,0:0:0:0:
170,120,84263,1,0,0:0:0:0:
143,113,84337,2,0,L|73:126,3,45
259,84,84629,5,0,0:0:0:0:
285,87,84702,1,0,0:0:0:0:
312,90,84776,1,0,0:0:0:0:
338,93,84849,1,0,0:0:0:0:
364,96,84922,2,0,L|429:103,3,45
282,183,85215,6,0,L|173:171,1,90
364,96,85507,5,0,0:0:0:0:
271,192,85654,2,0,L|162:180,1,90
364,96,85946,5,0,0:0:0:0:
261,202,86093,2,0,L|152:190,1,90
364,96,86385,5,0,0:0:0:0:
251,213,86532,2,0,L|142:201,1,90
236,102,86824,5,0,0:0:0:0:
296,299,86971,2,0,B|341:292|341:292|392:252,1,90
224,93,87263,6,0,B|190:103|190:103|166:132|166:132|151:191,1,108
131,236,87556,6,0,B|118:203|118:203|112:100,1,107.999996704102
229,302,87849,1,0,0:0:0:0:
229,302,87922,1,0,0:0:0:0:
229,302,87995,2,0,B|233:255|233:255|241:228|241:228|248:166,1,107.999996704102
183,80,88288,1,0,0:0:0:0:
321,154,88434,2,0,B|363:150|363:150|407:157|407:157|449:145,1,107.999996704102
251,25,88727,6,0,B|197:47|197:47|111:57,1,107.999996704102
0,36,89020,1,0,0:0:0:0:
30,198,89166,1,0,0:0:0:0:
189,162,89312,1,0,0:0:0:0:
87,321,89459,1,0,0:0:0:0:
277,292,89605,2,0,B|234:282|234:282|163:299,1,107.999996704102
407,164,89898,6,0,B|393:215|393:215|345:282,1,107.999996704102
252,95,90190,1,0,0:0:0:0:
252,95,90263,1,0,0:0:0:0:
252,95,90337,2,0,B|261:141|261:141|276:159|276:159|298:210,1,107.999996704102
407,164,90629,1,0,0:0:0:0:
245,273,90776,2,0,B|219:262|219:262|191:266|191:266|171:257|171:257|146:259|146:259|118:244,1,107.999996704102
0,126,91068,5,0,0:0:0:0:
170,164,91215,1,0,0:0:0:0:
26,289,91361,1,0,0:0:0:0:
170,164,91507,1,0,0:0:0:0:
251,330,91654,2,0,B|191:318|191:318|137:295,1,107.999996704102
267,150,91946,1,0,0:0:0:0:
282,178,92020,1,0,0:0:0:0:
303,201,92093,1,0,0:0:0:0:
437,3,92239,6,0,B|437:23|422:46|422:46|420:77|420:77|404:93|394:122,1,107.999996704102
284,34,92532,1,0,0:0:0:0:
284,34,92605,1,0,0:0:0:0:
284,34,92678,2,0,B|294:75|294:75|289:108|289:108|316:167,1,107.999996704102
411,197,92971,1,0,0:0:0:0:
231,287,93117,2,0,B|193:286|193:286|96:246,1,107.999996704102
110,48,93410,6,0,B|105:77|116:95|116:95|114:121|114:121|119:145|152:183,1,107.999996704102
281,185,93702,1,0,0:0:0:0:
95,262,93849,1,0,0:0:0:0:
280,295,93995,1,0,0:0:0:0:
122,375,94142,1,0,0:0:0:0:
297,293,94288,2,0,B|346:311|346:311|415:367,1,107.999996704102
418,124,94581,6,0,B|416:164|416:164|400:192|400:192|389:238,1,107.999996704102
271,79,94873,1,0,0:0:0:0:
271,79,94946,1,0,0:0:0:0:
271,79,95020,2,0,B|277:147|277:147|296:200,1,107.999996704102
155,242,95312,1,0,0:0:0:0:
304,288,95459,2,0,B|357:305|357:305|405:354,1,107.999996704102
232,103,95751,6,0,B|221:132|221:132|217:152|217:152|221:181|212:208|212:208|208:237,1,125.999996154785
95,21,96044,2,0,B|97:61|109:92|109:92|103:119|103:119|106:170,1,125.999996154785
197,324,96337,6,0,B|166:328|144:310|144:310|109:319|109:319|84:307|43:315,1,144
349,212,96629,2,0,B|324:225|295:220|295:220|268:231|268:231|240:217|195:230,1,144
328,60,96922,6,0,B|362:86|362:86|435:98,1,107.999996704102
357,221,97215,1,0,0:0:0:0:
357,221,97288,1,0,0:0:0:0:
357,221,97361,2,0,B|388:223|408:215|408:215|434:222|434:222|493:226,1,107.999996704102
363,321,97654,1,0,0:0:0:0:
257,195,97800,2,0,B|214:192|214:192|123:225,1,107.999996704102
227,384,98093,6,0,B|230:347|230:347|224:330|224:330|226:306|226:306|220:276,1,107.999996704102
115,79,98385,1,0,0:0:0:0:
267,205,98532,1,0,0:0:0:0:
123,62,98678,2,0,B|174:65|174:65|229:106,1,107.999996704102
345,218,98971,1,0,0:0:0:0:
267,36,99117,1,0,0:0:0:0:
162,168,99263,5,0,0:0:0:0:
350,74,99410,1,0,0:0:0:0:
278,252,99556,1,0,0:0:0:0:
278,252,99629,1,0,0:0:0:0:
278,252,99702,2,0,B|298:208|298:208|304:128,1,107.999996704102
267,36,99995,1,0,0:0:0:0:
394,151,100142,2,0,B|430:148|430:148|509:121,1,107.999996704102
419,332,100434,6,0,B|375:321|375:321|334:323|334:323|296:313,1,107.999996704102
218,181,100727,1,0,0:0:0:0:
101,317,100873,1,0,0:0:0:0:
0,164,101020,1,0,0:0:0:0:
111,225,101166,1,0,0:0:0:0:
222,107,101312,1,0,0:0:0:0:
189,100,101385,1,0,0:0:0:0:
157,109,101459,1,0,0:0:0:0:
202,290,101605,6,0,B|201:252|201:252|189:214|189:214|191:161,1,107.999996704102
330,106,101898,1,0,0:0:0:0:
282,286,102044,1,0,0:0:0:0:
464,195,102190,1,0,0:0:0:0:
311,210,102337,1,0,0:0:0:0:
415,378,102483,2,0,B|378:336|378:336|359:242,1,107.999996704102
330,106,102776,6,0,B|333:131|325:144|325:144|323:174|323:174|306:200|315:227,1,107.999996704102
401,197,103068,1,0,0:0:0:0:
245,325,103215,2,0,B|200:320|200:320|133:329,1,107.999996704102
137,328,103434,1,0,0:0:0:0:
137,328,103507,1,0,0:0:0:0:
49,234,103654,1,0,0:0:0:0:
49,234,103727,1,0,0:0:0:0:
49,234,103800,2,0,L|126:221,1,53.9999983520508
137,141,103946,5,0,0:0:0:0:
160,164,104020,1,0,0:0:0:0:
191,175,104093,1,0,0:0:0:0:
223,175,104166,1,0,0:0:0:0:
249,208,104239,5,0,0:0:0:0:
281,207,104313,1,0,0:0:0:0:
311,193,104386,1,0,0:0:0:0:
333,171,104459,1,0,0:0:0:0:
350,131,104532,5,0,0:0:0:0:
318,139,104605,1,0,0:0:0:0:
285,138,104678,1,0,0:0:0:0:
255,124,104751,1,0,0:0:0:0:
223,95,104824,5,0,0:0:0:0:
194,111,104897,1,0,0:0:0:0:
162,119,104970,1,0,0:0:0:0:
129,113,105043,1,0,0:0:0:0:
87,80,105117,6,0,B|81:112|81:112|80:143|80:143|66:163|66:163|64:196|45:249,1,144
199,349,105410,2,0,B|187:303|187:303|200:265|200:265|186:207,1,144
336,61,105702,2,0,B|336:111|336:111|309:218,1,144
442,376,105995,2,0,L|425:169,1,144
441,43,106288,6,0,B|375:72|375:72|233:47,1,180
185,0,106727,1,0,0:0:0:0:
128,146,106873,2,0,P|72:154|3:146,1,90
178,78,107166,2,0,P|211:128|212:162,1,90
239,259,107459,6,0,B|183:237|183:237|60:260,1,180
190,355,107898,2,0,L|378:369,1,180
456,214,108337,2,0,P|406:245|354:268,1,90
315,92,108629,6,0,B|371:114|371:114|494:91,1,180
429,15,109068,1,0,0:0:0:0:
315,92,109215,1,0,0:0:0:0:
214,52,109361,1,0,0:0:0:0:
193,157,109507,1,0,0:0:0:0:
95,109,109654,1,0,0:0:0:0:
2,237,109800,6,0,L|120:196,1,90
188,348,110093,2,0,P|172:285|166:230,1,90
283,162,110385,2,0,L|262:270,1,90
364,99,110678,2,0,L|385:207,1,90
491,298,110971,6,0,P|430:286|327:351,1,180
429,379,111410,1,0,0:0:0:0:
258,358,111556,1,0,0:0:0:0:
265,250,111702,1,0,0:0:0:0:
272,141,111849,1,0,0:0:0:0:
281,33,111995,1,0,0:0:0:0:
174,189,112142,6,0,P|103:187|36:101,1,180
176,78,112581,2,0,L|388:104,1,180
435,213,113020,2,0,L|446:110,1,90
443,316,113312,6,0,B|402:290|402:290|283:308,1,135
238,363,113605,2,0,P|181:360|144:350,1,90
110,237,113898,2,0,P|55:251|-5:291,1,90
219,108,114190,1,0,0:0:0:0:
111,65,114337,6,0,B|103:128|103:128|123:166|123:166|105:274,1,180
29,170,114776,1,0,0:0:0:0:
219,108,114922,5,0,0:0:0:0:
122,233,115068,1,0,0:0:0:0:
164,223,115142,1,0,0:0:0:0:
206,230,115215,1,0,0:0:0:0:
240,255,115288,1,0,0:0:0:0:
259,293,115361,1,0,0:0:0:0:
160,328,115507,1,0,0:0:0:0:
318,189,115654,6,0,P|407:245|488:213,1,180
464,126,116093,1,0,0:0:0:0:
305,52,116239,2,0,P|270:90|257:138,1,90
225,270,116532,2,0,P|203:206|179:169,1,90
139,30,116824,6,0,B|134:83|134:83|86:206,1,180
76,316,117263,2,0,P|171:299|277:318,1,180
407,284,117702,2,0,P|351:258|330:233,1,90
278,39,117995,6,0,B|273:92|273:92|225:215,1,180
136,143,118434,1,0,0:0:0:0:
59,279,118581,1,0,0:0:0:0:
161,246,118727,1,0,0:0:0:0:
163,353,118873,1,0,0:0:0:0:
271,282,119020,1,0,0:0:0:0:
349,376,119166,6,0,B|355:334|355:334|373:272,1,90
474,175,119459,2,0,B|437:184|437:184|362:182,1,90
307,80,119751,2,0,L|401:95,1,90
202,182,120044,2,0,L|296:167,1,90
182,22,120337,6,0,P|125:101|43:90,1,180
0,11,120776,1,0,0:0:0:0:
11,185,120922,1,0,0:0:0:0:
101,243,121068,1,0,0:0:0:0:
209,237,121215,1,0,0:0:0:0:
296,173,121361,1,0,0:0:0:0:
355,62,121507,6,0,P|319:108|201:135,1,180
165,55,121946,2,0,P|271:88|296:187,1,180
221,273,122385,2,0,P|212:213|200:171,1,90
298,322,122678,2,0,L|468:300,1,135
445,200,122971,2,0,P|408:156|389:111,1,90
372,33,123263,1,0,0:0:0:0:
417,216,123410,2,0,P|392:163|385:115,1,90
177,30,123702,6,0,P|95:41|33:119,1,180
77,207,124068,1,0,0:0:0:0:
94,238,124142,2,0,B|141:242|141:242|224:220,1,90
209,103,124434,2,0,B|239:139|239:139|313:182,1,90
395,102,124727,2,0,B|391:149|391:149|413:232,1,90
339,333,125020,6,0,P|412:302|519:316,2,180
201,273,125751,1,0,0:0:0:0:
94,347,125898,1,0,0:0:0:0:
97,176,126044,6,0,P|198:163|304:143,1,180
414,249,126483,2,0,P|391:187|382:145,1,90
318,53,126776,2,0,P|306:96|289:138,1,90
216,245,127068,2,0,P|193:183|184:141,1,90
99,36,127361,6,0,P|86:144|63:228,2,180
105,303,128093,1,0,0:0:0:0:
197,257,128239,2,0,P|246:261|299:278,1,90
402,160,128532,5,0,0:0:0:0:
377,264,128678,1,0,0:0:0:0:
351,368,128824,2,0,P|259:363|155:337,1,180
146,337,129190,1,0,0:0:0:0:
118,338,129264,1,0,0:0:0:0:
93,349,129337,1,0,0:0:0:0:
72,366,129410,2,0,P|68:321|55:257,1,90
149,92,129702,6,0,P|253:126|324:101,1,180
399,47,130142,1,0,0:0:0:0:
426,221,130288,2,0,P|474:219|519:198,1,90
303,199,130581,2,0,P|266:236|236:276,1,90
188,384,130873,5,0,0:0:0:0:
146,283,131020,1,0,0:0:0:0:
84,194,131166,2,0,P|35:210|-18:233,1,90
141,94,131459,2,0,P|189:128|235:151,1,90
216,142,131678,1,0,0:0:0:0:
216,142,131751,1,0,0:0:0:0:
284,46,131898,1,0,0:0:0:0:
313,245,132044,6,0,L|475:223,1,135
505,171,132337,2,0,P|464:141|427:101,1,90
384,14,132629,2,0,P|364:56|331:92,1,90
199,59,132922,1,0,0:0:0:0:
384,14,133068,6,0,B|393:78|393:78|373:132|373:132|384:196,1,180
403,305,133434,1,0,0:0:0:0:
431,326,133507,2,0,B|471:313|471:313|513:283,1,90
316,253,133800,1,0,0:0:0:0:
299,284,133873,1,0,0:0:0:0:
292,319,133946,1,0,0:0:0:0:
211,192,134093,2,0,P|202:247|190:281,1,90
79,111,134385,6,0,P|97:166|124:214,1,99.0000030212403
191,112,134678,1,0,0:0:0:0:
284,238,134824,2,0,L|306:113,1,99.0000030212403
301,140,135044,1,0,0:0:0:0:
301,140,135117,1,0,0:0:0:0:
421,305,135263,1,0,0:0:0:0:
401,218,135409,1,0,0:0:0:0:
281,364,135556,5,0,0:0:0:0:
301,277,135702,1,0,0:0:0:0:
122,277,135849,2,0,B|157:293|157:293|239:298,1,99.0000030212403
55,203,136142,1,0,0:0:0:0:
89,183,136215,1,0,0:0:0:0:
128,178,136288,1,0,0:0:0:0:
1,80,136434,2,0,L|102:93,1,99.0000030212403
305,131,136727,5,0,0:0:0:0:
198,156,136873,1,0,0:0:0:0:
381,252,137020,5,0,0:0:0:0:
247,232,137166,2,0,B|210:232|210:232|134:249,1,99.0000030212403
149,245,137385,1,0,0:0:0:0:
149,245,137459,1,0,0:0:0:0:
329,361,137605,2,0,L|219:344,1,99.0000030212403
337,201,137898,5,0,0:0:0:0:
347,238,137971,1,0,0:0:0:0:
364,273,138044,1,0,0:0:0:0:
461,108,138190,2,0,P|446:165|427:205,1,99.0000030212403
308,91,138483,2,0,L|377:114,2,49.5000015106202
152,52,138776,1,0,0:0:0:0:
190,43,138849,1,0,0:0:0:0:
224,24,138922,1,0,0:0:0:0:
66,115,139068,6,0,L|194:147,1,99.0000030212403
39,261,139361,5,0,0:0:0:0:
123,210,139507,1,0,0:0:0:0:
179,334,139654,5,0,0:0:0:0:
209,212,139800,1,0,0:0:0:0:
332,272,139946,5,0,0:0:0:0:
249,137,140092,1,0,0:0:0:0:
249,137,140239,6,0,B|284:121|284:121|374:116,1,99.0000030212403
429,278,140532,2,0,B|391:284|391:284|302:265,1,99.0000030212403
184,215,140824,5,0,0:0:0:0:
153,215,140898,1,0,0:0:0:0:
126,227,140971,1,0,0:0:0:0:
105,248,141044,1,0,0:0:0:0:
96,276,141117,2,0,L|69:197,3,49.5000015106202
158,345,141410,5,0,0:0:0:0:
193,362,141483,1,0,0:0:0:0:
232,361,141556,1,0,0:0:0:0:
266,341,141629,1,0,0:0:0:0:
289,309,141702,1,0,0:0:0:0:
296,269,141776,1,0,0:0:0:0:
285,230,141849,1,0,0:0:0:0:
260,199,141922,1,0,0:0:0:0:
224,181,141995,6,0,L|140:190,7,49.5000015106202
316,109,142581,6,0,L|400:118,7,49.5000015106202
228,52,143166,5,0,0:0:0:0:
193,71,143239,1,0,0:0:0:0:
155,58,143312,1,0,0:0:0:0:
120,77,143385,1,0,0:0:0:0:
101,123,143459,5,0,0:0:0:0:
131,148,143532,1,0,0:0:0:0:
170,151,143605,1,0,0:0:0:0:
200,176,143678,1,0,0:0:0:0:
199,222,143751,6,0,B|182:182|182:182|200:99,1,116.999994644165
286,285,144044,2,0,B|296:241|296:241|295:202|295:202|305:159,1,116.999994644165
375,108,144337,2,0,B|404:97|404:97|454:92,1,58.4999973220826
441,171,144483,1,0,0:0:0:0:
420,20,144629,2,0,B|388:22|388:22|346:38|346:38|305:43,1,116.999994644165
230,182,144922,5,0,0:0:0:0:
218,136,144995,1,0,0:0:0:0:
191,97,145068,1,0,0:0:0:0:
145,222,145215,1,0,0:0:0:0:
57,124,145361,1,0,0:0:0:0:
130,316,145507,2,0,B|161:317|161:317|251:277,1,116.999994644165
353,195,145800,2,0,B|384:194|384:194|474:234,1,116.999994644165
396,289,146093,5,0,0:0:0:0:
296,139,146239,1,0,0:0:0:0:
296,139,146312,1,0,0:0:0:0:
296,139,146385,2,0,B|254:146|254:146|224:159|224:159|175:167,1,116.999994644165
103,229,146678,2,0,B|106:258|106:258|128:314,1,58.4999973220826
188,256,146824,1,0,0:0:0:0:
43,310,146971,2,0,B|30:277|30:277|26:232|26:232|11:197,1,116.999994644165
124,65,147263,5,0,0:0:0:0:
105,108,147337,1,0,0:0:0:0:
85,150,147410,1,0,0:0:0:0:
40,27,147556,1,0,0:0:0:0:
211,100,147702,2,0,B|254:112|254:112|299:109|299:109|338:118,1,116.999994644165
331,65,147922,2,0,B|306:57|306:57|266:58,1,58.4999973220826
357,185,148142,1,0,0:0:0:0:
403,176,148215,1,0,0:0:0:0:
441,149,148288,1,0,0:0:0:0:
280,225,148434,5,0,0:0:0:0:
476,281,148581,1,0,0:0:0:0:
195,250,148727,5,0,0:0:0:0:
393,199,148874,1,0,0:0:0:0:
121,293,149020,5,0,0:0:0:0:
266,150,149167,1,0,0:0:0:0:
56,348,149312,5,0,0:0:0:0:
111,152,149459,1,0,0:0:0:0:
194,384,149605,6,0,B|185:347|185:347|174:318|174:318|163:261,1,116.999994644165
333,135,149898,2,0,B|328:172|328:172|312:207|312:207|304:248,1,116.999994644165
113,80,150190,2,0,B|151:83|151:83|173:77|173:77|199:87|199:87|253:91,1,116.999994644165
306,170,150483,2,0,B|330:137|330:137|414:83,1,116.999994644165
404,286,150776,5,0,0:0:0:0:
232,205,150922,1,0,0:0:0:0:
338,346,151068,5,0,0:0:0:0:
229,190,151214,1,0,0:0:0:0:
250,367,151361,5,0,0:0:0:0:
233,178,151507,1,0,0:0:0:0:
163,341,151654,5,0,0:0:0:0:
244,169,151800,1,0,0:0:0:0:
76,310,151946,6,0,B|70:255|70:255|47:170,1,116.999994644165
222,55,152239,2,0,B|228:110|228:110|251:195,1,116.999994644165
480,101,152532,2,0,B|455:91|455:91|431:96|431:96|407:89|407:89|338:104,1,116.999994644165
311,210,152824,2,0,B|294:172|294:172|208:111,1,116.999994644165
129,379,153117,5,0,0:0:0:0:
73,197,153263,1,0,0:0:0:0:
298,332,153410,5,0,0:0:0:0:
159,202,153556,1,0,0:0:0:0:
405,183,153702,5,0,0:0:0:0:
220,140,153848,1,0,0:0:0:0:
405,1,153995,5,0,0:0:0:0:
222,55,154141,1,0,0:0:0:0:
477,83,154288,6,0,B|432:78|432:78|333:110,1,116.999994644165
165,180,154581,2,0,B|209:186|209:186|297:243,1,116.999994644165
158,384,154873,2,0,B|164:319|164:319|189:238,1,116.999994644165
439,279,155166,2,0,B|419:287|419:287|395:308|395:308|359:308|359:308|300:327,1,116.999994644165
263,167,155459,5,0,0:0:0:0:
263,167,155605,1,0,0:0:0:0:
13,162,155751,5,0,0:0:0:0:
151,17,155898,1,0,0:0:0:0:
81,266,156044,5,0,0:0:0:0:
146,76,156191,1,0,0:0:0:0:
191,329,156337,5,0,0:0:0:0:
169,129,156484,1,0,0:0:0:0:
310,325,156629,6,0,B|293:277|293:277|276:159,1,116.999994644165
151,17,156922,2,0,B|141:82|141:82|124:130,1,116.999994644165
16,321,157215,2,0,B|44:329|44:329|74:329|74:329|92:347|92:347|147:373,1,116.999994644165
239,384,157507,2,0,B|290:379|290:379|370:332,1,116.999994644165
353,139,157800,5,0,0:0:0:0:
474,305,157946,1,0,0:0:0:0:
381,95,158093,5,0,0:0:0:0:
260,261,158239,1,0,0:0:0:0:
171,52,158385,5,0,0:0:0:0:
292,218,158531,1,0,0:0:0:0:
200,8,158678,5,0,0:0:0:0:
79,174,158824,1,0,0:0:0:0:
350,106,158971,6,0,B|301:100|301:100|212:132,1,116.999994644165
266,307,159263,1,0,0:0:0:0:
135,179,159410,1,0,0:0:0:0:
321,206,159556,2,0,B|312:245|312:245|262:312,1,116.999994644165
189,256,159776,1,0,0:0:0:0:
154,251,159849,2,0,B|130:252|130:252|56:294,1,58.4999973220826
38,195,159995,2,0,L|48:128,1,58.4999973220826
130,87,160142,5,0,0:0:0:0:
158,106,160215,1,0,0:0:0:0:
192,113,160288,1,0,0:0:0:0:
226,104,160361,1,0,0:0:0:0:
253,82,160434,1,0,0:0:0:0:
285,68,160507,1,0,0:0:0:0:
320,64,160581,1,0,0:0:0:0:
354,72,160654,1,0,0:0:0:0:
381,93,160727,2,0,L|402:17,7,58.4999973220826
410,207,161312,6,0,B|422:228|422:228|434:305,3,67.5000025749208
284,159,161605,2,0,B|260:165|260:165|197:211,3,67.5000025749208
315,260,161898,5,0,0:0:0:0:
281,283,161971,1,0,0:0:0:0:
242,296,162044,1,0,0:0:0:0:
201,294,162117,1,0,0:0:0:0:
167,272,162190,5,0,0:0:0:0:
124,251,162263,1,0,0:0:0:0:
76,253,162337,1,0,0:0:0:0:
40,283,162410,1,0,0:0:0:0:
27,334,162483,6,0,B|41:299|41:299|26:172,1,116.999994644165
114,130,162776,1,0,0:0:0:0:
85,144,162849,1,0,0:0:0:0:
52,147,162922,1,0,0:0:0:0:
22,133,162995,1,0,0:0:0:0:
5,104,163068,2,0,B|6:72|6:72|45:5,1,107.999996704102
184,81,163361,1,0,0:0:0:0:
101,216,163507,1,0,0:0:0:0:
292,191,163654,6,0,B|241:168|241:168|158:177,1,107.999996704102
189,173,163873,1,0,0:0:0:0:
189,173,163946,1,0,0:0:0:0:
312,316,164093,1,0,0:0:0:0:
212,358,164239,2,0,L|229:249,1,107.999996704102
292,191,164458,2,0,B|343:185|343:185|394:208,1,107.999996704102
439,283,164678,1,0,0:0:0:0:
394,97,164824,6,0,L|257:116,1,107.999996704102
183,193,165117,1,0,0:0:0:0:
175,160,165190,1,0,0:0:0:0:
160,131,165263,1,0,0:0:0:0:
91,264,165410,1,0,0:0:0:0:
271,210,165556,2,0,B|305:213|305:213|400:246,1,107.999996704102
374,237,165776,1,0,0:0:0:0:
374,237,165849,1,0,0:0:0:0:
235,379,165995,6,0,B|216:346|216:346|209:251,1,107.999996704102
252,162,166288,1,0,0:0:0:0:
226,182,166361,1,0,0:0:0:0:
194,191,166434,1,0,0:0:0:0:
162,183,166507,1,0,0:0:0:0:
139,159,166581,2,0,B|133:114|133:114|168:30,1,107.999996704102
312,92,166873,2,0,B|353:105|353:105|460:84,1,107.999996704102
253,29,167166,6,0,B|232:72|232:72|235:141,1,107.999996704102
234,132,167385,1,0,0:0:0:0:
234,132,167459,1,0,0:0:0:0:
322,85,167605,1,0,0:0:0:0:
157,117,167751,2,0,L|37:100,1,107.999996704102
78,181,167971,2,0,B|87:215|87:215|63:313,1,107.999996704102
0,325,168190,1,0,0:0:0:0:
155,259,168337,6,0,L|278:278,1,107.999996704102
354,355,168629,1,0,0:0:0:0:
359,322,168702,1,0,0:0:0:0:
373,292,168776,1,0,0:0:0:0:
451,177,168922,2,0,B|469:211|469:211|478:285,1,107.999996704102
477,279,169142,1,0,0:0:0:0:
477,279,169215,1,0,0:0:0:0:
343,187,169361,2,0,L|281:204,1,53.9999983520508
239,257,169507,6,0,L|246:113,1,107.999996704102
240,9,169800,2,0,P|276:45|333:80,1,107.999996704102
165,102,170093,2,0,L|108:95,1,53.9999983520508
40,178,170239,2,0,L|97:171,1,53.9999983520508
162,212,170385,2,0,P|154:239|142:263,1,53.9999983520508
70,321,170532,2,0,P|59:297|52:271,1,53.9999983520508
165,363,170678,5,0,0:0:0:0:
165,363,170751,1,0,0:0:0:0:
165,363,170824,1,0,0:0:0:0:
165,363,170898,1,0,0:0:0:0:
165,363,170971,2,0,B|187:369|187:369|249:358,1,53.9999983520508
258,249,171117,2,0,B|272:276|272:276|290:292,1,53.9999983520508
204,158,171263,2,0,B|221:142|221:142|235:114,1,53.9999983520508
226,24,171410,5,0,0:0:0:0:
226,24,171483,1,0,0:0:0:0:
226,24,171556,1,0,0:0:0:0:
185,10,171629,1,0,0:0:0:0:
142,12,171702,1,0,0:0:0:0:
104,34,171776,1,0,0:0:0:0:
87,82,171849,6,0,B|86:114|86:114|127:190,1,107.999996704102
214,166,172142,1,0,0:0:0:0:
214,166,172215,1,0,0:0:0:0:
214,166,172288,1,0,0:0:0:0:
301,291,172434,2,0,L|411:279,1,99.0000030212403
450,210,172654,2,0,L|340:198,1,99.0000030212403
292,138,172873,1,0,0:0:0:0:
209,264,173020,6,0,L|99:252,1,99.0000030212403
56,175,173312,1,0,0:0:0:0:
149,94,173459,2,0,P|207:129|233:164,1,99.0000030212403
226,152,173678,1,0,0:0:0:0:
226,152,173751,1,0,0:0:0:0:
174,214,173898,1,0,0:0:0:0:
308,125,174044,1,0,0:0:0:0:
350,282,174190,6,0,L|480:266,1,99.0000030212403
507,203,174483,1,0,0:0:0:0:
507,203,174556,1,0,0:0:0:0:
507,203,174629,1,0,0:0:0:0:
410,113,174776,2,0,P|356:125|314:156,1,99.0000030212403
255,201,174995,2,0,L|233:79,1,99.0000030212403
223,25,175215,1,0,0:0:0:0:
174,175,175361,6,0,L|68:155,1,99.0000030212403
134,73,175654,1,0,0:0:0:0:
257,151,175800,2,0,P|248:205|223:245,1,99.0000030212403
225,242,176020,1,0,0:0:0:0:
225,242,176093,1,0,0:0:0:0:
149,228,176239,1,0,0:0:0:0:
304,285,176385,1,0,0:0:0:0:
173,374,176532,6,0,L|69:356,1,99.0000030212403
11,241,176824,1,0,0:0:0:0:
11,241,176898,1,0,0:0:0:0:
11,241,176971,1,0,0:0:0:0:
112,289,177117,1,0,0:0:0:0:
199,174,177263,2,0,P|256:189|295:209,1,99.0000030212403
399,126,177556,2,0,P|426:152|440:169,1,49.5000015106202
467,242,177702,6,0,L|485:115,1,99.0000030212403
69,98,177995,2,0,L|55:196,1,99.0000030212403
275,127,178288,2,0,L|289:29,1,99.0000030212403
261,220,178581,1,0,0:0:0:0:
175,99,178727,1,0,0:0:0:0:
201,299,178873,5,0,0:0:0:0:
237,315,178946,1,0,0:0:0:0:
276,318,179020,1,0,0:0:0:0:
312,303,179093,1,0,0:0:0:0:
340,275,179166,1,0,0:0:0:0:
349,236,179239,1,0,0:0:0:0:
372,204,179312,1,0,0:0:0:0:
406,185,179385,1,0,0:0:0:0:
445,191,179459,6,0,P|470:197|496:211,1,49.5000015106202
439,281,179605,2,0,P|414:275|388:261,1,49.5000015106202
349,90,179751,6,0,P|374:96|400:110,1,49.5000015106202
343,180,179897,2,0,P|318:174|292:160,1,49.5000015106202
303,5,180044,5,0,0:0:0:0:
303,5,180117,1,0,0:0:0:0:
303,5,180190,1,0,0:0:0:0:
502,97,180337,1,0,0:0:0:0:
502,97,180410,1,0,0:0:0:0:
502,97,180483,1,0,0:0:0:0:
178,136,180629,5,0,0:0:0:0:
221,210,181215,5,0,0:0:0:0:
248,200,181288,1,0,0:0:0:0:
277,199,181361,1,0,0:0:0:0:
305,207,181434,1,0,0:0:0:0:
329,224,181507,1,0,0:0:0:0:
348,246,181580,1,0,0:0:0:0:
358,273,181654,1,0,0:0:0:0:
360,302,181727,1,0,0:0:0:0:
354,331,181800,6,0,P|336:348|306:363,3,58.4999973220826
229,368,182093,2,0,P|204:367|172:356,3,58.4999973220826
103,315,182385,5,0,0:0:0:0:
122,293,182458,1,0,0:0:0:0:
134,267,182531,1,0,0:0:0:0:
138,238,182604,1,0,0:0:0:0:
133,209,182677,1,0,0:0:0:0:
120,183,182750,1,0,0:0:0:0:
99,163,182824,1,0,0:0:0:0:
73,149,182897,1,0,0:0:0:0:
44,145,182971,6,0,P|68:124|102:112,3,58.4999973220826
170,105,183263,2,0,P|201:106|233:122,3,58.4999973220826
289,164,183556,5,0,0:0:0:0:
312,180,183629,1,0,0:0:0:0:
340,190,183702,1,0,0:0:0:0:
369,190,183775,1,0,0:0:0:0:
397,182,183848,1,0,0:0:0:0:
421,166,183921,1,0,0:0:0:0:
440,144,183995,1,0,0:0:0:0:
451,117,184068,1,0,0:0:0:0:
454,88,184142,6,0,L|468:155,3,58.4999973220826
512,217,184434,2,0,L|498:283,3,58.4999973220826
435,316,184727,5,0,0:0:0:0:
400,310,184800,1,0,0:0:0:0:
365,304,184873,1,0,0:0:0:0:
331,298,184946,1,0,0:0:0:0:
299,266,185020,1,0,0:0:0:0:
263,267,185093,1,0,0:0:0:0:
228,270,185166,1,0,0:0:0:0:
193,273,185239,1,0,0:0:0:0:
148,281,185312,5,0,0:0:0:0:
144,299,185385,1,0,0:0:0:0:
140,316,185458,1,0,0:0:0:0:
137,333,185531,1,0,0:0:0:0:
134,350,185605,2,0,P|111:300|101:226,1,116.999994644165
201,46,185898,5,0,0:0:0:0:
230,49,185971,1,0,0:0:0:0:
259,52,186044,1,0,0:0:0:0:
288,56,186117,1,0,0:0:0:0:
317,59,186190,1,0,0:0:0:0:
346,63,186263,1,0,0:0:0:0:
375,66,186337,1,0,0:0:0:0:
404,70,186410,1,0,0:0:0:0:
433,73,186483,6,0,P|442:101|438:137,1,58.4999973220826
507,176,186629,2,0,P|487:197|454:211,1,58.4999973220826
455,290,186776,2,0,P|427:283|397:262,1,58.4999973220826
330,301,186922,2,0,P|321:273|325:237,1,58.4999973220826
343,171,187068,5,0,0:0:0:0:
350,142,187141,1,0,0:0:0:0:
347,113,187214,1,0,0:0:0:0:
335,87,187287,1,0,0:0:0:0:
315,65,187360,1,0,0:0:0:0:
290,52,187433,1,0,0:0:0:0:
261,47,187507,1,0,0:0:0:0:
232,53,187580,1,0,0:0:0:0:
207,67,187654,6,0,L|185:12,1,58.4999973220826
174,146,187800,2,0,L|196:201,1,58.4999973220826
105,100,187946,2,0,L|83:45,1,58.4999973220826
76,179,188092,2,0,L|98:234,1,58.4999973220826
133,308,188239,5,0,0:0:0:0:
154,329,188312,1,0,0:0:0:0:
179,342,188385,1,0,0:0:0:0:
208,349,188458,1,0,0:0:0:0:
237,345,188531,1,0,0:0:0:0:
264,334,188604,1,0,0:0:0:0:
286,315,188678,1,0,0:0:0:0:
301,290,188751,1,0,0:0:0:0:
308,262,188824,6,0,P|300:233|306:189,3,58.4999973220826
382,223,189117,2,0,P|403:201|444:184,3,58.4999973220826
448,268,189410,5,0,0:0:0:0:
426,248,189483,1,0,0:0:0:0:
411,223,189556,1,0,0:0:0:0:
404,194,189629,1,0,0:0:0:0:
405,165,189702,1,0,0:0:0:0:
415,138,189775,1,0,0:0:0:0:
431,114,189849,1,0,0:0:0:0:
454,96,189922,1,0,0:0:0:0:
481,85,189995,6,0,P|494:108|508:142,3,58.4999973220826
470,63,190288,2,0,P|399:44|316:96,1,175.499991966248
301,128,190581,6,0,B|212:144|167:68|167:68|75:100|24:25,1,315
52,56,191166,5,0,0:0:0:0:
66,81,191239,1,0,0:0:0:0:
75,109,191312,1,0,0:0:0:0:
74,138,191385,1,0,0:0:0:0:
66,166,191458,1,0,0:0:0:0:
53,192,191531,1,0,0:0:0:0:
46,220,191605,1,0,0:0:0:0:
46,249,191678,1,0,0:0:0:0:
54,277,191751,6,0,L|114:292,3,58.4999973220826
168,350,192044,2,0,L|227:335,3,58.4999973220826
278,281,192337,6,0,P|346:289|413:304,2,135
173,228,192922,2,0,P|145:165|125:99,1,135
388,34,193361,2,0,L|382:91,1,45
330,134,193507,2,0,P|398:126|465:111,1,135
232,320,193946,2,0,L|238:263,1,45
290,220,194093,5,0,0:0:0:0:
120,279,194239,1,0,0:0:0:0:
325,298,194385,1,0,0:0:0:0:
165,212,194532,1,0,0:0:0:0:
370,229,194678,5,0,0:0:0:0:
245,289,194824,1,0,0:0:0:0:
338,156,194971,1,0,0:0:0:0:
406,303,195117,1,0,0:0:0:0:
290,220,195263,2,0,P|268:196|331:74,1,180
314,77,195849,5,0,0:0:0:0:
283,93,195922,1,0,0:0:0:0:
249,100,195995,1,0,0:0:0:0:
214,95,196068,1,0,0:0:0:0:
183,79,196141,1,0,0:0:0:0:
153,61,196214,1,0,0:0:0:0:
119,52,196288,1,0,0:0:0:0:
84,53,196361,1,0,0:0:0:0:
51,64,196434,5,0,0:0:0:0:
57,92,196507,1,0,0:0:0:0:
62,121,196580,1,0,0:0:0:0:
68,150,196653,1,0,0:0:0:0:
115,147,196727,1,0,0:0:0:0:
109,176,196800,1,0,0:0:0:0:
103,204,196873,1,0,0:0:0:0:
97,233,196946,1,0,0:0:0:0:
92,262,197020,6,0,L|80:326,1,58.4999973220826
166,280,197166,2,0,L|154:344,1,58.4999973220826
240,298,197312,2,0,L|228:362,1,58.4999973220826
314,316,197459,2,0,L|302:380,1,58.4999973220826
403,349,197605,5,0,0:0:0:0:
403,349,197678,1,0,0:0:0:0:
403,349,197751,1,0,0:0:0:0:
403,349,197824,1,0,0:0:0:0:
403,349,197898,2,0,L|472:339,3,58.4999973220826
502,270,198190,2,0,L|433:260,3,58.4999973220826
397,193,198483,1,0,0:0:0:0:
414,190,198556,1,0,0:0:0:0:
431,187,198629,1,0,0:0:0:0:
449,185,198702,1,0,0:0:0:0:
484,179,198776,5,0,0:0:0:0:
481,149,198849,1,0,0:0:0:0:
470,123,198922,1,0,0:0:0:0:
451,101,198995,1,0,0:0:0:0:
426,85,199068,1,0,0:0:0:0:
397,79,199141,1,0,0:0:0:0:
368,81,199215,1,0,0:0:0:0:
341,92,199288,1,0,0:0:0:0:
319,110,199361,6,0,P|310:163|306:248,2,135
176,34,199946,5,0,0:0:0:0:
176,34,200020,1,0,0:0:0:0:
176,34,200093,1,0,0:0:0:0:
193,216,200239,2,0,L|199:276,2,53.9999983520508
93,133,200532,1,0,0:0:0:0:
275,116,200678,2,0,L|335:110,2,53.9999983520508
198,269,200971,1,0,0:0:0:0:
198,269,201044,1,0,0:0:0:0:
198,269,201117,5,0,0:0:0:0:
371,325,201263,1,0,0:0:0:0:
264,201,201410,1,0,0:0:0:0:
282,361,201556,1,0,0:0:0:0:
426,242,201702,1,0,0:0:0:0:
269,371,201849,2,0,L|84:346,1,180
30,151,202288,5,0,0:0:0:0:
30,151,202362,1,0,0:0:0:0:
30,151,202435,1,0,0:0:0:0:
212,168,202581,2,0,L|272:174,2,53.9999983520508
129,69,202874,1,0,0:0:0:0:
112,251,203020,2,0,L|105:311,2,53.9999983520508
265,173,203312,1,0,0:0:0:0:
265,173,203385,1,0,0:0:0:0:
265,173,203459,5,0,0:0:0:0:
242,319,203605,1,0,0:0:0:0:
138,150,203751,1,0,0:0:0:0:
351,124,203898,1,0,0:0:0:0:
164,252,204044,1,0,0:0:0:0:
360,316,204190,2,0,L|386:137,1,180
292,184,204629,6,0,P|267:115|345:41,1,161.999995056153
262,336,205215,1,0,0:0:0:0:
91,163,205507,1,0,0:0:0:0:
120,45,205654,1,0,0:0:0:0:
141,229,205800,2,0,P|87:246|11:140,1,198.000006042481
457,70,206385,1,0,0:0:0:0:
400,186,206532,1,0,0:0:0:0:
373,30,206678,1,0,0:0:0:0:
480,218,206824,6,0,B|491:295|456:367|456:367|416:296,1,198.000006042481
414,298,207190,1,0,0:0:0:0:
389,273,207263,2,0,P|339:273|288:283,1,99.0000030212403
136,350,207556,2,0,P|184:359|234:359,1,99.0000030212403
291,200,207849,1,0,0:0:0:0:
177,256,207995,1,0,0:0:0:0:
147,116,208142,6,0,L|132:45,2,66.0000020141602
93,196,208434,1,0,0:0:0:0:
229,167,208581,1,0,0:0:0:0:
101,300,208727,2,0,P|46:295|-15:275,1,99.0000030212403
185,247,209020,1,0,0:0:0:0:
185,247,209093,1,0,0:0:0:0:
185,247,209166,1,0,0:0:0:0:
185,247,209239,1,0,0:0:0:0:
185,247,209312,6,0,P|211:254|245:267,2,49.5000015106202
205,384,209605,2,0,P|231:377|265:364,2,49.5000015106202
325,271,209898,1,0,0:0:0:0:
325,271,210044,2,0,L|390:289,2,49.5000015106202
437,346,210337,2,0,L|484:332,2,49.5000015106202
325,271,210629,1,0,0:0:0:0:
325,271,210775,2,0,L|390:289,2,49.5000015106202
248,187,211068,1,0,0:0:0:0:
373,95,211215,2,0,L|347:185,2,80.9999975280763
231,15,211654,6,0,P|200:23|171:38,2,49.5000015106202
100,102,211946,2,0,P|129:115|155:135,2,49.5000015106202
248,187,212239,2,0,P|217:195|188:210,1,49.5000015106202
117,274,212385,2,0,P|146:287|172:307,2,49.5000015106202
263,359,212678,2,0,P|232:367|203:382,2,49.5000015106202
117,274,212971,2,0,P|146:287|172:307,1,49.5000015106202
248,187,213117,2,0,P|217:195|188:210,2,49.5000015106202
100,102,213410,1,0,0:0:0:0:
321,129,213556,2,0,L|507:149,1,161.999995056153
378,294,213995,6,0,L|427:288,2,49.5000015106202
291,216,214288,1,0,0:0:0:0:
291,216,214361,1,0,0:0:0:0:
291,216,214434,1,0,0:0:0:0:
210,314,214581,1,0,0:0:0:0:
127,233,214727,1,0,0:0:0:0:
127,233,214800,1,0,0:0:0:0:
127,233,214873,1,0,0:0:0:0:
49,333,215020,2,0,L|98:327,2,49.5000015106202
127,233,215312,1,0,0:0:0:0:
222,325,215459,1,0,0:0:0:0:
222,325,215532,1,0,0:0:0:0:
222,325,215605,1,0,0:0:0:0:
308,213,215751,1,0,0:0:0:0:
266,112,215898,2,0,P|273:144|301:201,2,80.9999975280763
266,112,216337,6,0,P|178:133|97:165,1,148.50000453186
45,223,216629,1,0,0:0:0:0:
35,194,216702,1,0,0:0:0:0:
20,167,216776,1,0,0:0:0:0:
114,324,216922,2,0,P|136:269|160:227,1,99.0000030212403
6,301,217215,1,0,0:0:0:0:
206,384,217361,1,0,0:0:0:0:
206,384,217507,6,0,L|341:376,1,108
389,354,217800,6,0,P|347:359|294:395,1,80.9999975280763
332,175,218093,6,0,P|298:200|270:258,1,90
165,25,218385,6,0,L|156:176,1,107.999996704102
150,288,218605,1,0,0:0:0:0:
122,253,218678,6,0,B|100:230|100:230|302:243,2,207.000003948212
220,345,219410,1,0,0:0:0:0:
304,157,219556,1,0,0:0:0:0:
304,157,219849,2,0,L|521:171,1,207.000003948212
409,62,220288,2,0,L|202:48,1,207.000003948212
79,38,220727,1,0,0:0:0:0:
109,339,221020,6,0,B|130:269|130:269|107:219|107:219|129:133,1,207.000003948212
126,142,221605,1,0,0:0:0:0:
274,280,221751,1,0,0:0:0:0:
311,108,221898,1,0,0:0:0:0:
204,208,222044,1,0,0:0:0:0:
386,256,222190,6,0,P|382:204|373:153,1,103.500001974106
471,190,222483,2,0,P|474:138|483:87,1,103.500001974106
456,325,222776,6,0,B|423:382|340:408|288:353|271:304|271:304|232:336|232:336|190:274|121:319,1,409.499981254578
47,379,223361,6,0,B|29:343|29:343|35:238,1,103.500001974106
61,164,223654,1,0,0:0:0:0:
61,164,223800,1,0,0:0:0:0:
276,152,223946,6,0,B|240:134|240:134|135:140,1,103.500001974106
61,164,224239,1,0,0:0:0:0:
61,164,224385,1,0,0:0:0:0:
204,326,224532,6,0,B|165:313|165:313|95:234,1,103.500001974106
61,164,224825,1,0,0:0:0:0:
61,164,224971,1,0,0:0:0:0:
204,3,225117,6,0,B|165:15|165:15|95:94,1,103.500001974106
61,164,225410,1,0,0:0:0:0:
61,164,225556,1,0,0:0:0:0:
204,3,225702,6,0,B|165:15|165:15|95:94,1,103.500001974106
276,152,225995,6,0,B|240:134|240:134|135:140,1,103.500001974106
204,326,226288,6,0,B|165:313|165:313|95:234,1,103.500001974106
47,379,226581,6,0,B|29:343|29:343|35:238,1,103.500001974106
185,129,226873,5,0,0:0:0:0:
123,266,227020,1,0,0:0:0:0:
267,346,227166,1,0,0:0:0:0:
227,217,227312,1,0,0:0:0:0:
152,355,227459,1,0,0:0:0:0:
110,355,227532,1,0,0:0:0:0:
71,339,227605,1,0,0:0:0:0:
45,306,227678,1,0,0:0:0:0:
36,265,227751,2,0,P|66:197|114:173,1,103.500001974106
258,107,228044,6,0,L|8:84,2,207.000003948212
383,29,228776,1,0,0:0:0:0:
321,214,228922,2,0,L|196:202,1,103.500001974106
432,175,229215,2,0,L|422:278,2,103.500001974106
335,67,229654,2,0,L|316:273,1,207.000003948212
307,376,230093,1,0,0:0:0:0:
54,258,230385,6,0,B|85:278|85:278|172:253,1,103.500001974106
314,130,230678,2,0,B|283:110|283:110|196:135,1,103.500001974106
263,254,230971,1,0,0:0:0:0:
90,207,231117,1,0,0:0:0:0:
162,384,231263,1,0,0:0:0:0:
335,337,231409,1,0,0:0:0:0:
378,169,231556,2,0,B|364:208|364:208|377:234|377:234|359:269,1,103.500001974106
293,131,231849,2,0,B|277:101|277:101|290:75|290:75|276:36,1,103.500001974106
452,116,232142,6,0,B|312:151|312:151|253:230|253:230|65:267,1,409.499981254578
89,262,232727,6,0,B|88:244|88:244|115:177,3,58.4999973220826
170,246,233020,2,0,B|178:229|178:229|235:185,3,58.4999973220826
239,288,233312,2,0,B|254:278|254:278|325:268,3,58.4999973220826
255,365,233605,2,0,B|273:364|273:364|340:391,3,58.4999973220826
367,320,233898,6,0,B|385:321|385:321|452:294,3,67.5000025749208
291,193,234190,2,0,B|307:184|307:184|351:127,3,67.5000025749208
159,140,234483,2,0,B|168:124|168:124|178:53,3,67.5000025749208
28,168,234776,2,0,B|29:150|29:150|2:83,3,67.5000025749208
71,275,235068,5,0,0:0:0:0:
106,252,235142,1,0,0:0:0:0:
145,243,235215,1,0,0:0:0:0:
185,246,235288,1,0,0:0:0:0:
221,264,235361,1,0,0:0:0:0:
248,294,235434,1,0,0:0:0:0:
269,328,235507,1,0,0:0:0:0:
305,346,235581,1,0,0:0:0:0:
345,353,235654,5,0,0:0:0:0:
383,338,235727,1,0,0:0:0:0:
410,308,235800,1,0,0:0:0:0:
422,269,235873,1,0,0:0:0:0:
416,228,235946,2,0,P|416:161|428:109,1,116.999994644165
426,112,236239,2,0,B|332:76|278:152|278:152|257:79|257:79|181:169|36:140|26:38|126:-16|205:23|187:81|147:139|147:139|137:183|118:214|118:214|131:266|131:266|87:374,1,877.49995983124
256,192,237410,12,0,240337,0:0:0:0:
163,322,240629,6,0,B|186:311|186:311|214:316|214:316|262:296|306:305,1,107.999996704102
425,188,240922,5,0,0:0:0:0:
333,359,241068,1,0,0:0:0:0:
298,164,241215,1,0,0:0:0:0:
429,320,241361,1,0,0:0:0:0:
189,218,241507,2,0,B|172:252|172:252|162:326,1,107.999996704102
171,120,241800,1,0,0:0:0:0:
139,128,241873,1,0,0:0:0:0:
113,147,241946,1,0,0:0:0:0:
328,58,242093,6,0,B|294:52|268:56|268:56|254:47|254:47|229:48|206:33,1,107.999996704102
358,160,242385,1,0,0:0:0:0:
358,160,242459,1,0,0:0:0:0:
358,160,242532,2,0,B|315:158|315:158|293:149|293:149|264:156|232:148,1,107.999996704102
150,237,242824,1,0,0:0:0:0:
48,133,242971,2,0,B|40:101|40:101|69:21,1,107.999996704102
165,246,243263,6,0,B|173:278|173:278|144:358,1,107.999996704102
63,214,243556,1,0,0:0:0:0:
233,155,243702,1,0,0:0:0:0:
283,325,243849,1,0,0:0:0:0:
244,141,243995,1,0,0:0:0:0:
377,273,244142,2,0,B|419:273|419:273|496:237,1,107.999996704102
418,56,244434,6,0,B|416:76|405:97|405:97|412:114|412:114|397:138|394:172,1,107.999996704102
282,21,244727,1,0,0:0:0:0:
282,21,244800,1,0,0:0:0:0:
282,21,244873,2,0,B|292:81|292:81|291:158,1,107.999996704102
221,235,245166,1,0,0:0:0:0:
84,148,245312,2,0,B|33:177|33:177|4:253,1,107.999996704102
234,328,245605,6,0,B|240:297|240:297|237:269|237:269|246:244|246:244|237:212|234:160,1,125.999996154785
127,384,245898,2,0,B|116:352|122:329|122:329|115:300|115:300|128:269|127:216,1,125.999996154785
221,67,246190,6,0,B|234:100|234:100|223:133|223:133|240:164|237:223,1,144
376,6,246483,2,0,B|374:22|364:38|364:38|375:71|375:71|357:105|357:105|365:128|361:161,1,144
455,305,246776,6,0,B|422:317|422:317|375:308|375:308|312:320,1,107.999996704102
250,216,247068,1,0,0:0:0:0:
250,216,247142,1,0,0:0:0:0:
250,216,247215,1,0,0:0:0:0:
212,368,247361,2,0,B|153:366|153:366|84:331,1,107.999996704102
108,137,247654,2,0,B|100:158|84:174|84:174|86:208|86:208|74:267,1,107.999996704102
195,23,247946,6,0,B|211:44|212:69|212:69|225:88|225:88|223:108|230:132,1,107.999996704102
188,281,248239,1,0,0:0:0:0:
108,137,248385,1,0,0:0:0:0:
295,246,248532,2,0,B|342:239|342:239|447:252,1,107.999996704102
211,371,248824,2,0,B|163:368|163:368|76:313,1,107.999996704102
190,133,249117,5,0,0:0:0:0:
6,247,249263,1,0,0:0:0:0:
52,75,249410,1,0,0:0:0:0:
52,75,249483,1,0,0:0:0:0:
52,75,249556,1,0,0:0:0:0:
197,147,249702,2,0,B|233:155|233:155|255:144|255:144|281:149|303:134,1,107.999996704102
403,269,249995,1,0,0:0:0:0:
454,82,250142,1,0,0:0:0:0:
507,301,250288,6,0,B|446:294|446:294|402:278,1,107.999996704102
322,340,250581,1,0,0:0:0:0:
203,200,250727,1,0,0:0:0:0:
123,367,250873,1,0,0:0:0:0:
203,200,251020,1,0,0:0:0:0:
0,196,251166,2,0,B|15:231|15:231|110:267,1,107.999996704102
137,3,251459,6,0,B|138:18|127:40|127:40|135:72|135:72|115:136,1,107.999996704102
40,81,251751,1,0,0:0:0:0:
40,81,251824,1,0,0:0:0:0:
40,81,251898,1,0,0:0:0:0:
200,175,252044,2,0,B|245:162|245:162|332:182,1,107.999996704102
331,330,252337,1,0,0:0:0:0:
424,169,252483,1,0,0:0:0:0:
468,311,252629,5,0,0:0:0:0:
309,169,252776,1,0,0:0:0:0:
223,286,252922,1,0,0:0:0:0:
292,70,253068,1,0,0:0:0:0:
378,248,253215,1,0,0:0:0:0:
378,248,253288,1,0,0:0:0:0:
378,248,253361,2,0,B|379:218|379:218|399:155,1,53.9999983520508
468,126,253507,1,0,0:0:0:0:
468,126,253580,1,0,0:0:0:0:
468,126,253654,2,0,B|444:120|444:120|418:106,1,53.9999983520508
328,30,253800,5,0,0:0:0:0:
295,28,253873,1,0,0:0:0:0:
263,34,253946,1,0,0:0:0:0:
234,49,254020,1,0,0:0:0:0:
191,44,254093,5,0,0:0:0:0:
167,66,254166,1,0,0:0:0:0:
148,93,254239,1,0,0:0:0:0:
138,124,254313,1,0,0:0:0:0:
104,150,254385,5,0,0:0:0:0:
102,183,254458,1,0,0:0:0:0:
108,215,254531,1,0,0:0:0:0:
123,244,254605,1,0,0:0:0:0:
117,286,254678,5,0,0:0:0:0:
139,311,254751,1,0,0:0:0:0:
166,329,254824,1,0,0:0:0:0:
197,339,254898,1,0,0:0:0:0:
233,378,254971,6,0,B|272:384|272:384|408:358,1,125.999996154785
206,221,255263,1,0,0:0:0:0:
206,221,255337,1,0,0:0:0:0:
206,221,255410,2,0,L|135:235,1,62.9999980773926
270,286,255556,2,0,L|421:258,1,107.999996704102
247,123,255849,1,0,0:0:0:0:
247,123,255923,1,0,0:0:0:0:
247,123,255996,2,0,L|176:137,1,53.9999983520508
108,325,256142,6,0,B|166:301|166:301|289:331,1,180
379,353,256581,1,0,0:0:0:0:
225,195,256727,2,0,P|221:241|249:290,1,90
293,136,257020,2,0,P|255:109|198:109,1,90
99,213,257312,6,0,B|127:157|127:157|98:26,1,180
21,140,257751,2,0,B|-7:196|-7:196|22:327,1,180
134,321,258190,2,0,L|34:317,1,90
206,368,258483,6,0,L|411:364,1,180
494,360,258922,1,0,0:0:0:0:
432,271,259068,1,0,0:0:0:0:
491,180,259215,1,0,0:0:0:0:
383,173,259361,1,0,0:0:0:0:
329,266,259507,1,0,0:0:0:0:
391,160,259654,6,0,L|282:149,1,90
432,271,259946,1,0,0:0:0:0:
401,148,260093,2,0,L|292:137,1,90
204,127,260385,1,0,0:0:0:0:
278,246,260532,2,0,B|251:223|251:223|164:213,1,90
36,122,260824,6,0,P|103:151|226:106,1,180
268,39,261263,1,0,0:0:0:0:
311,138,261410,1,0,0:0:0:0:
249,226,261556,1,0,0:0:0:0:
292,325,261703,1,0,0:0:0:0:
353,236,261849,1,0,0:0:0:0:
206,325,261995,6,0,B|150:297|150:297|19:326,1,180
84,195,262434,2,0,P|155:180|266:250,1,180
292,325,262873,2,0,L|405:319,1,90
466,220,263166,6,0,B|449:261|466:293|466:293|474:327|463:356,1,135
373,335,263459,2,0,L|283:339,1,90
376,215,263751,2,0,L|465:219,1,90
384,56,264044,1,0,0:0:0:0:
154,153,264190,6,0,B|228:153|228:153|265:136|265:136|343:137,1,180,0|0,0:0|0:0,2:0:0:0:
288,225,264629,1,0,0:0:0:0:
202,66,264776,1,0,0:0:0:0:
58,202,264922,1,0,0:0:0:0:
57,168,264995,1,0,0:0:0:0:
56,134,265068,1,0,0:0:0:0:
55,100,265141,1,0,0:0:0:0:
54,67,265214,1,0,0:0:0:0:
154,153,265361,1,0,0:0:0:0:
2,277,265507,6,0,B|60:253|60:253|183:283,1,180
153,384,265946,1,0,0:0:0:0:
320,351,266093,2,0,P|273:339|221:352,1,90
408,336,266385,2,0,P|386:298|350:272,1,90
490,373,266678,6,0,L|493:193,1,180
317,107,267117,2,0,B|378:130|378:130|502:105,1,180
316,20,267556,2,0,L|204:41,1,90
54,131,267849,6,0,P|136:105|231:140,1,180
298,211,268288,1,0,0:0:0:0:
380,141,268434,1,0,0:0:0:0:
428,238,268581,1,0,0:0:0:0:
347,309,268727,1,0,0:0:0:0:
447,347,268873,1,0,0:0:0:0:
327,298,269020,6,0,L|218:292,1,90
428,238,269312,1,0,0:0:0:0:
308,285,269459,2,0,L|199:279,1,90
110,273,269751,1,0,0:0:0:0:
187,384,269898,2,0,B|159:362|159:362|72:357,1,90
14,135,270190,6,0,B|44:191|44:191|10:322,1,180
110,273,270629,1,0,0:0:0:0:
143,169,270776,1,0,0:0:0:0:
88,75,270922,1,0,0:0:0:0:
196,72,271069,1,0,0:0:0:0:
257,160,271215,1,0,0:0:0:0:
409,266,271361,6,0,B|353:236|353:236|222:270,1,180
448,371,271800,2,0,P|514:300|499:214,1,180,0|0,2:0|2:0,2:0:0:0:
421,152,272239,2,0,L|295:136,1,90
116,169,272532,6,0,B|157:156|193:173|193:173|243:180|286:156,1,135
264,84,272824,2,0,L|138:68,1,90
26,180,273117,2,0,L|152:164,1,90
56,55,273410,1,0,0:0:0:0:
78,296,273556,6,0,B|152:296|152:296|189:279|189:279|267:280,1,180,0|0,0:0|0:0,2:0:0:0:
360,315,273922,1,0,0:0:0:0:
394,315,273995,2,0,B|443:315|443:315|491:294,1,90
386,141,274288,2,0,B|371:179|371:179|336:213,1,90
218,89,274581,2,0,B|234:126|234:126|234:175,1,90,0|0,3:0|3:0,3:0:0:0:
275,125,312337,6,0,P|310:70|383:53,1,116.999994644165
258,209,312629,1,0,0:0:0:0:
247,236,312702,1,0,0:0:0:0:
229,258,312775,1,0,0:0:0:0:
204,274,312848,1,0,0:0:0:0:
176,282,312922,2,0,L|57:258,1,116.999994644165
189,149,313215,1,0,0:0:0:0:
44,119,313361,1,0,0:0:0:0:
247,236,313507,6,0,P|305:250|366:234,1,116.999994644165
359,237,313727,1,0,0:0:0:0:
359,237,313800,1,0,0:0:0:0:
306,129,313946,1,0,0:0:0:0:
425,196,314093,2,0,P|439:138|423:77,1,116.999994644165
356,51,314312,2,0,P|388:100|394:163,1,116.999994644165
359,237,314532,1,0,0:0:0:0:
189,149,314678,6,0,L|70:173,1,116.999994644165
74,172,314898,1,0,0:0:0:0:
74,172,314971,1,0,0:0:0:0:
306,129,315117,1,0,0:0:0:0:
312,152,315190,1,0,0:0:0:0:
317,172,315263,1,0,0:0:0:0:
231,49,315410,1,0,0:0:0:0:
191,232,315556,1,0,0:0:0:0:
306,129,315702,1,0,0:0:0:0:
129,283,315849,6,0,P|190:312|259:279,1,116.999994644165
317,172,316142,1,0,0:0:0:0:
339,153,316215,1,0,0:0:0:0:
367,144,316288,1,0,0:0:0:0:
396,144,316361,1,0,0:0:0:0:
424,154,316434,5,0,0:0:0:0:
430,198,316507,1,0,0:0:0:0:
437,242,316580,1,0,0:0:0:0:
444,286,316653,1,0,0:0:0:0:
424,264,316727,1,0,0:0:0:0:
401,246,316800,1,0,0:0:0:0:
373,237,316873,1,0,0:0:0:0:
344,237,316946,1,0,0:0:0:0:
316,247,317020,6,0,L|206:315,1,116.999994644165
69,256,317312,1,0,0:0:0:0:
84,231,317385,1,0,0:0:0:0:
99,206,317458,1,0,0:0:0:0:
115,181,317531,1,0,0:0:0:0:
131,156,317605,2,0,P|189:170|250:154,1,116.999994644165
276,87,317824,2,0,P|227:119|164:125,1,116.999994644165
90,90,318044,1,0,0:0:0:0:
271,10,318190,6,0,P|334:38|353:83,1,116.999994644165
243,157,318483,1,0,0:0:0:0:
214,161,318556,1,0,0:0:0:0:
189,176,318629,1,0,0:0:0:0:
170,198,318702,1,0,0:0:0:0:
161,226,318776,2,0,L|394:268,1,233.999989288331
275,160,319215,1,0,0:0:0:0:
116,294,319361,6,0,P|80:242|95:174,1,116.999994644165
85,190,319581,1,0,0:0:0:0:
85,190,319654,1,0,0:0:0:0:
200,76,319800,1,0,0:0:0:0:
161,226,319946,2,0,P|213:262|281:247,1,116.999994644165
330,213,320166,2,0,P|294:265|309:333,1,116.999994644165
372,281,320385,1,0,0:0:0:0:
229,185,320532,5,0,0:0:0:0:
207,157,320605,1,0,0:0:0:0:
195,123,320678,1,0,0:0:0:0:
197,88,320751,1,0,0:0:0:0:
214,57,320824,1,0,0:0:0:0:
241,34,320898,1,0,0:0:0:0:
273,20,320971,1,0,0:0:0:0:
281,117,321117,1,0,0:0:0:0:
161,226,321263,5,0,0:0:0:0:
120,208,321336,1,0,0:0:0:0:
80,190,321409,1,0,0:0:0:0:
40,172,321482,1,0,0:0:0:0:
0,155,321555,1,0,0:0:0:0:
80,297,321702,6,0,P|100:239|76:186,1,116.999994644165
24,356,321995,1,0,0:0:0:0:
24,356,322068,1,0,0:0:0:0:
24,356,322141,1,0,0:0:0:0:
168,373,322288,2,0,L|287:362,1,116.999994644165
322,299,322507,2,0,L|441:310,1,116.999994644165
476,243,322727,1,0,0:0:0:0:
246,290,322873,6,0,P|203:239|206:177,1,116.999994644165
376,185,323166,1,0,0:0:0:0:
283,214,323312,1,0,0:0:0:0:
253,131,323459,1,0,0:0:0:0:
253,131,323532,1,0,0:0:0:0:
253,131,323605,1,0,0:0:0:0:
201,191,323751,1,0,0:0:0:0:
336,101,323898,1,0,0:0:0:0:
161,114,324044,6,0,P|118:165|121:227,1,116.999994644165
240,89,324337,1,0,0:0:0:0:
240,89,324410,1,0,0:0:0:0:
240,89,324483,1,0,0:0:0:0:
201,191,324629,1,0,0:0:0:0:
337,101,324776,2,0,L|436:35,1,116.999994644165
434,36,324995,1,0,0:0:0:0:
434,36,325068,1,0,0:0:0:0:
240,89,325215,6,0,P|209:121|205:203,1,116.999994644165
337,101,325507,1,0,0:0:0:0:
281,161,325654,1,0,0:0:0:0:
439,168,325800,1,0,0:0:0:0:
439,168,325873,1,0,0:0:0:0:
439,168,325946,1,0,0:0:0:0:
268,174,326093,1,0,0:0:0:0:
349,87,326240,1,0,0:0:0:0:
505,214,326385,6,0,L|527:341,1,116.999994644165
494,142,326678,1,0,0:0:0:0:
494,142,326751,1,0,0:0:0:0:
494,142,326824,1,0,0:0:0:0:
404,232,326971,1,0,0:0:0:0:
268,174,327117,2,0,P|209:166|163:273,1,175.499991966248
228,237,327410,1,0,0:0:0:0:
84,185,327556,6,0,L|62:58,1,116.999994644165
156,255,327849,2,0,L|156:381,1,116.999994644165
229,185,328142,2,0,L|248:69,1,116.999994644165
304,255,328434,1,0,0:0:0:0:
156,176,328581,1,0,0:0:0:0:
372,290,328727,6,0,P|381:319|377:357,1,58.4999973220826
304,255,328873,2,0,P|275:246|237:250,1,58.4999973220826
259,378,329020,2,0,P|268:349|264:311,1,58.4999973220826
139,349,329166,2,0,P|168:340|206:344,1,58.4999973220826
247,247,329312,5,0,0:0:0:0:
256,209,329385,1,0,0:0:0:0:
253,174,329458,1,0,0:0:0:0:
236,139,329531,1,0,0:0:0:0:
233,100,329604,1,0,0:0:0:0:
244,62,329677,1,0,0:0:0:0:
267,31,329751,1,0,0:0:0:0:
301,11,329824,1,0,0:0:0:0:
342,11,329898,6,0,L|352:92,3,58.4999973220826
324,139,330190,6,0,L|314:220,3,58.4999973220826
338,236,330483,5,0,0:0:0:0:
340,256,330556,1,0,0:0:0:0:
344,279,330629,1,0,0:0:0:0:
345,302,330702,1,0,0:0:0:0:
324,313,330776,5,0,0:0:0:0:
322,328,330849,1,0,0:0:0:0:
319,343,330922,1,0,0:0:0:0:
318,359,330995,1,0,0:0:0:0:
342,372,331068,5,0,0:0:0:0:
60,159,385828,6,0,B|104:178|124:146|124:146|137:175|137:175|167:142|231:158,1,180
279,36,386268,1,0,0:0:0:0:
304,175,386414,2,0,P|356:211|403:214,1,90
470,98,386707,2,0,P|420:102|377:125,1,90
276,344,386999,6,0,L|265:244,1,99.0000030212403
248,17,387292,2,0,L|237:117,1,99.0000030212403
188,228,387585,2,0,P|128:219|87:198,1,99.0000030212403
276,189,387877,1,0,0:0:0:0:
289,226,387950,1,0,0:0:0:0:
282,265,388024,1,0,0:0:0:0:
260,298,388097,1,0,0:0:0:0:
217,327,388170,6,0,B|254:295|254:295|420:358,1,198.000006042481
455,274,388609,2,0,P|404:180|410:87,1,198.000006042481
475,40,389048,1,0,0:0:0:0:
475,40,389194,1,0,0:0:0:0:
323,150,389341,6,0,B|267:177|267:177|146:74,1,198.000006042481
135,352,389926,1,0,0:0:0:0:
135,352,390072,1,0,0:0:0:0:
63,183,390219,2,0,P|79:232|101:278,1,99.0000030212403
323,150,390511,6,0,P|226:140|153:211,1,198.000006042481
224,300,390950,2,0,B|279:323|313:281|313:281|346:301|346:301|373:269|411:286,1,198.000006042481
444,88,391389,5,0,0:0:0:0:
342,208,391536,1,0,0:0:0:0:
206,67,391682,6,0,B|259:37|259:37|362:126,1,198.000006042481
264,343,392268,1,0,0:0:0:0:
264,343,392414,1,0,0:0:0:0:
229,164,392560,2,0,P|236:210|250:278,1,99.0000030212403
492,189,392853,6,0,B|423:214|423:214|377:180|377:180|311:207,1,198.000006042481
149,274,393292,2,0,L|345:297,1,198.000006042481
238,109,393731,1,0,0:0:0:0:
238,109,393877,1,0,0:0:0:0:
26,65,394024,6,0,P|111:115|175:44,1,198.000006042481
269,35,394463,2,0,L|466:73,1,198.000006042481
408,248,394902,2,0,P|373:175|379:112,1,99.0000030212403
478,326,395194,6,0,B|413:349|413:349|356:332|356:332|289:352,1,198.000006042481
103,318,395633,2,0,P|180:248|279:286,1,198.000006042481
203,356,396072,1,0,0:0:0:0:
203,356,396219,1,0,0:0:0:0:
275,153,396365,6,0,B|296:110|296:110|351:272,1,198.000006042481
51,283,396950,1,0,0:0:0:0:
88,269,397024,1,0,0:0:0:0:
127,269,397097,1,0,0:0:0:0:
162,285,397170,1,0,0:0:0:0:
191,349,397243,2,0,B|158:367|158:367|99:339,1,99.0000030212403
163,92,397536,6,0,B|146:169|146:169|171:209|171:209|147:305,1,198.000006042481
240,159,397975,2,0,P|332:131|440:163,1,198.000006042481
492,224,398414,1,0,0:0:0:0:
492,224,398560,1,0,0:0:0:0:
379,342,398707,6,0,B|335:370|335:370|279:198,1,198.000006042481
48,279,399292,1,0,0:0:0:0:
48,279,399438,1,0,0:0:0:0:
202,353,399585,2,0,P|145:337|98:305,1,99.0000030212403
342,190,399877,6,0,B|294:173|294:173|172:277,1,198.000006042481
302,339,400316,2,0,B|326:336|346:320|346:320|382:355|382:355|427:334|465:287,1,198.000006042481
479,108,400755,5,0,0:0:0:0:
384,251,400902,1,0,0:0:0:0:
243,83,401048,6,0,P|348:97|410:171,1,198.000006042481
268,352,401633,1,0,0:0:0:0:
268,352,401780,1,0,0:0:0:0:
199,184,401926,2,0,P|211:231|236:283,1,99.0000030212403
435,165,402219,6,0,P|340:163|281:199,1,148.50000453186
330,256,402511,1,0,0:0:0:0:
314,81,402658,2,0,B|272:51|272:51|133:119,1,198.000006042481
32,201,403097,1,0,0:0:0:0:
32,201,403243,1,0,0:0:0:0:
167,284,403389,6,0,P|262:286|321:250,1,148.50000453186
272,193,403681,1,0,0:0:0:0:
294,361,403828,2,0,B|336:391|336:391|475:323,1,198.000006042481
438,171,404267,2,0,P|405:220|399:260,1,99.0000030212403
275,43,404560,6,0,B|328:26|328:26|302:194,1,198.000006042481
186,263,404999,2,0,P|110:176|170:156,1,198.000006042481
232,121,405438,1,0,0:0:0:0:
232,121,405585,1,0,0:0:0:0:
265,325,405731,6,0,B|326:342|326:342|386:304|386:304|468:324,1,198.000006042481
79,224,406316,1,0,0:0:0:0:
106,195,406389,1,0,0:0:0:0:
144,182,406463,1,0,0:0:0:0:
182,189,406536,1,0,0:0:0:0:
216,208,406609,2,0,B|226:231|226:231|195:306,1,99.0000030212403
24,348,406902,6,0,P|74:315|129:329,1,101.250003862381
216,382,407341,2,0,L|319:376,1,101.250003862381
441,212,407780,5,0,0:0:0:0:
331,86,407999,1,0,0:0:0:0:
177,151,408219,1,0,0:0:0:0:
191,317,408438,1,0,0:0:0:0:
353,354,408658,2,0,P|324:292|305:228,1,135.000005149842
424,258,409097,1,0,0:0:0:0:
254,340,409243,6,0,B|205:358|180:321|180:321|147:345|147:345|115:299|67:320|67:320|44:300|44:300|9:309,1,270.000010299683
18,316,410121,1,0,0:0:0:0:
14,326,410414,2,0,B|33:254|33:254|12:204|12:204|38:121,2,202.500007724762
212,64,411585,5,0,0:0:0:0:
318,272,411731,1,0,0:0:0:0:
331,103,411877,1,0,0:0:0:0:
168,297,412024,1,0,0:0:0:0:
434,275,412170,5,0,0:0:0:0:
196,203,412316,1,0,0:0:0:0:
434,275,412463,2,0,P|383:209|348:189,1,107.999996704102
244,334,412755,5,0,0:0:0:0:
144,127,412902,1,0,0:0:0:0:
69,286,413048,1,0,0:0:0:0:
242,136,413194,6,0,P|188:49|84:47,1,215.999993408203
64,173,413633,1,0,0:0:0:0:
170,229,413780,1,0,0:0:0:0:
344,93,413926,2,0,B|382:104|382:104|481:85,1,107.999996704102
344,205,414219,2,0,B|306:194|306:194|207:213,1,107.999996704102
440,268,414511,5,0,0:0:0:0:
299,367,414658,1,0,0:0:0:0:
238,206,414804,2,0,B|230:248|230:248|199:312,1,107.999996704102
59,138,415097,6,0,P|120:138|178:104,1,107.999996704102
227,72,415316,1,0,0:0:0:0:
227,72,415389,1,0,0:0:0:0:
309,242,415536,6,0,B|354:258|386:232|386:232|421:265|421:265|449:212|523:230,1,215.999993408203
408,93,415975,2,0,P|355:134|339:184,1,107.999996704102
277,381,416267,6,0,B|238:346|238:346|213:248,1,107.999996704102
271,103,416560,1,0,0:0:0:0:
42,149,416707,1,0,0:0:0:0:
129,285,416853,5,0,0:0:0:0:
149,55,416999,1,0,0:0:0:0:
276,237,417146,2,0,P|215:203|186:164,1,107.999996704102
395,138,417438,5,0,0:0:0:0:
325,359,417585,1,0,0:0:0:0:
491,234,417731,2,0,P|417:248|377:273,1,107.999996704102
241,68,418024,5,0,0:0:0:0:
311,289,418171,1,0,0:0:0:0:
157,163,418317,2,0,P|231:177|271:202,1,107.999996704102
268,373,418609,6,0,P|282:306|302:255,1,107.999996704102
403,126,418902,1,0,0:0:0:0:
403,126,419048,1,0,0:0:0:0:
450,312,419194,6,0,P|390:264|367:219,1,107.999996704102
318,56,419487,1,0,0:0:0:0:
318,56,419633,1,0,0:0:0:0:
190,176,419780,6,0,B|165:144|165:144|150:63,1,107.999996704102
212,27,419999,1,0,0:0:0:0:
212,27,420072,1,0,0:0:0:0:
83,113,420219,5,0,0:0:0:0:
250,115,420365,1,2,0:0:0:0:
274,150,420438,1,0,0:0:0:0:
281,192,420511,1,2,0:0:0:0:
263,231,420584,1,0,0:0:0:0:
230,260,420658,2,0,P|162:265|105:207,1,107.999996704102,2|2,0:0|0:0,0:0:0:0:
363,169,420950,6,0,B|519:192|519:192|485:213|456:248,1,215.999993408203
345,321,421389,1,0,0:0:0:0:
275,84,421536,5,0,0:0:0:0:
151,251,421682,1,0,0:0:0:0:
170,109,421828,1,0,0:0:0:0:
277,288,421975,1,0,0:0:0:0:
406,152,422121,6,0,P|340:169|283:198,1,107.999996704102
172,329,422414,1,0,0:0:0:0:
100,145,422560,1,0,0:0:0:0:
34,340,422707,6,0,B|59:298|59:298|68:207,1,107.999996704102
9,95,422999,1,0,0:0:0:0:
176,189,423146,1,0,0:0:0:0:
331,55,423292,6,0,B|277:40|277:40|194:65,1,107.999996704102
236,276,423585,2,0,B|290:291|290:291|373:266,1,107.999996704102
244,152,423877,5,0,0:0:0:0:
87,280,424024,1,0,0:0:0:0:
12,112,424170,1,0,0:0:0:0:
87,280,424316,1,0,0:0:0:0:
170,48,424463,6,0,B|131:28|131:28|33:34,2,107.999996704102
287,117,424902,6,0,B|330:124|360:91|360:91|414:117|414:117|446:87|493:102,1,215.999993408203
394,282,425341,2,0,P|367:219|368:161,1,107.999996704102
460,347,425633,6,0,B|389:366|389:366|346:347|346:347|271:368,1,180
126,224,426219,1,0,0:0:0:0:
141,327,426365,1,0,0:0:0:0:
151,132,426511,2,0,P|105:133|54:160,1,90
251,233,426804,6,0,L|446:207,1,180
306,143,427243,2,0,P|218:124|178:50,1,180
163,199,427682,2,0,P|119:237|74:248,1,90
237,328,427975,6,0,B|292:309|292:309|441:356,2,180
135,366,428707,1,0,0:0:0:0:
135,366,428853,1,0,0:0:0:0:
52,296,428999,6,0,L|41:86,1,180
126,173,429438,6,0,L|129:240,1,67.5000025749208
204,179,429731,6,0,L|206:213,2,33.7500012874604
283,201,430024,6,0,L|282:179,2,22.5
359,182,430316,5,0,0:0:0:0:
102,235,448463,6,0,P|130:243|157:256,1,60
346,272,448763,6,0,P|301:288|258:294,1,90.0000034332277
90,317,449063,2,0,P|149:285|272:300,1,180
361,354,449941,2,0,P|400:352|461:310,1,90
382,219,450623,2,0,L|385:174,8,30
484,120,451794,2,0,L|481:75,2,30
392,30,452380,2,0,L|395:-15,2,30
289,122,452965,1,0,0:0:0:0:
272,114,453063,1,0,0:0:0:0:
254,110,453160,1,0,0:0:0:0:
235,110,453258,1,0,0:0:0:0:
217,113,453355,1,0,0:0:0:0:
193,127,453453,2,0,L|167:124,6,15
109,179,454136,2,0,L|63:177,2,30
29,245,454721,2,0,L|-17:243,2,30
142,307,455306,1,0,0:0:0:0:
156,297,455404,1,0,0:0:0:0:
173,292,455502,1,0,0:0:0:0:
189,288,455599,1,0,0:0:0:0:
206,287,455697,1,0,0:0:0:0:
224,289,455794,1,0,0:0:0:0:
241,293,455892,1,0,0:0:0:0:
256,298,455989,1,0,0:0:0:0:
272,307,456087,1,0,0:0:0:0:
73,344,456477,1,0,0:0:0:0:
62,322,456575,1,0,0:0:0:0:
62,298,456672,1,0,0:0:0:0:
348,298,457063,1,0,0:0:0:0:
348,322,457160,1,0,0:0:0:0:
337,344,457258,1,0,0:0:0:0:
214,138,457648,1,0,0:0:0:0:
214,138,457745,1,0,0:0:0:0:
214,138,457843,2,0,L|213:83,2,30
154,42,458136,2,0,L|152:14,4,15
303,36,458428,2,0,L|491:42,1,180
406,284,459404,1,0,0:0:0:0:
430,284,459502,1,0,0:0:0:0:
453,284,459599,1,0,0:0:0:0:
