osu file format v14

[General]
AudioFilename: audio.mp3
AudioLeadIn: 0
PreviewTime: 387648
Countdown: 0
SampleSet: Soft
StackLeniency: 0.7
Mode: 0
LetterboxInBreaks: 0
WidescreenStoryboard: 0

[Editor]
Bookmarks: 35013,290159
DistanceSpacing: 0.7
BeatDivisor: 4
GridSize: 32
TimelineZoom: 2.2

[Metadata]
Title:Uta
TitleUnicode:Uta
Artist:Imperial Circus Dead Decadence
ArtistUnicode:Imperial Circus Dead Decadence
Creator:ne0ku
Version:Hijoshiki
Source:
Tags:
BeatmapID:1272510
BeatmapSetID:602447

[Difficulty]
HPDrainRate:5
CircleSize:4
OverallDifficulty:7.8
ApproachRate:9.3
SliderMultiplier:1.6
SliderTickRate:1

[Events]
//Background and Video events
0,0,"ICDD-Uta.jpg",0,0
//Break Periods
2,181480,197117
2,275139,283751
2,331335,349800
2,430580,448557
//Storyboard Layer 0 (Background)
//Storyboard Layer 1 (Fail)
//Storyboard Layer 2 (Pass)
//Storyboard Layer 3 (Foreground)
//Storyboard Sound Samples

[TimingPoints]
33184.0203352689,292.682926829268,4,2,0,100,1,0
33769,-133.333333333333,4,2,1,65,0,0
35818,-100,4,2,1,65,0,0
40793,-133.333333333333,4,2,1,70,0,0
42257,-100,4,2,1,70,0,0
43427,-133.333333333333,4,2,1,65,0,0
45184,-100,4,2,1,65,0,0
50159,-133.333333333333,4,2,1,65,0,0
51623,-100,4,2,1,65,0,0
51915,-66.6666666666667,4,2,1,65,0,0
52501,-100,4,2,1,70,0,0
54549,-133.333333333333,4,2,1,70,0,0
54842,-100,4,2,1,70,0,0
57184,-100,4,2,1,55,0,0
59525,-133.333333333333,4,2,1,55,0,0
61866,-100,4,2,1,70,0,0
66549,-100,4,2,1,50,0,0
68891,-200,4,2,1,70,0,0
75623,-133.333333333333,4,2,1,70,0,0
76505,-200,4,2,1,70,0,0
77086,-100,4,2,1,70,0,0
77452,-133.333333333333,4,2,1,70,0,0
82940,-133.333333333333,4,2,1,70,0,0
85281,-80,4,2,1,70,0,1
87623,-80,4,2,1,65,0,1
93476,-80,4,2,1,65,0,1
106354,-100,4,2,1,65,0,0
108842,-100,4,2,1,70,0,0
110452,-100,4,2,1,65,0,0
120403,-100,4,2,1,65,0,0
125086,-80,4,2,1,65,0,0
125964,-100,4,2,1,65,0,0
126549,-80,4,2,1,65,0,0
127427,-100,4,2,1,65,0,0
133574,-100,4,2,1,70,0,0
143818,-133.333333333333,4,2,1,70,0,1
144403,-100,4,2,1,70,0,1
147330,-133.333333333333,4,2,1,70,0,1
148208,-100,4,2,1,70,0,1
150257,-76.9230769230769,4,2,1,70,0,1
150842,-100,4,2,1,70,0,1
152598,-133.333333333333,4,2,1,70,0,1
154062,-100,4,2,1,70,0,1
160208,-133.333333333333,4,2,1,70,0,0
162549,-100,4,2,1,70,0,0
178940,-133.333333333333,4,2,1,70,0,0
180403,-100,4,2,1,70,0,0
218744,-100,4,2,1,70,0,1
219110,-133.333333333333,4,2,1,60,0,1
220793,-100,4,2,1,60,0,1
221671,-100,4,2,1,70,0,1
228110,-66.6666666666667,4,2,1,70,0,1
230013,-100,4,2,1,70,0,1
232793,-100,4,2,1,60,0,1
233379,-133.333333333333,4,2,1,60,0,1
234257,-100,4,2,1,60,0,1
237476,-100,4,2,1,60,0,0
240696,-100,4,2,1,70,0,0
246549,-66.6666666666667,4,2,1,70,0,0
247135,-100,4,2,1,70,0,0
255037,-83.3333333333333,4,2,1,70,0,0
255330,-66.6666666666667,4,2,1,70,0,0
255915,-100,4,2,1,70,0,0
260305,-58.8235294117647,4,2,1,70,0,0
260598,-83.3333333333333,4,2,1,70,0,0
261184,-100,4,2,1,70,0,0
262940,-100,4,2,1,70,0,0
272452,-100,4,2,1,70,0,0
284305,-200,4,2,1,70,0,0
284891,-200,4,2,1,70,0,0
288984,-100,4,2,1,70,0,0
293671,-83.3333333333333,4,2,1,70,0,0
309769,-83.3333333333333,4,2,1,70,0,1
310135,-133.333333333333,4,2,1,70,0,1
310940,-100,4,2,1,70,0,1
328793,-133.333333333333,4,2,1,70,0,1
329379,-100,4,2,1,70,0,1
331135,-100,4,2,1,70,0,0
350354,300,4,2,1,70,1,0
350354,-83.3333333333333,4,2,2,70,0,0
369502,292.682926829268,4,2,1,70,1,0
369502,-100,4,2,1,70,0,0
371843,-133.333333333333,4,2,1,70,0,0
373014,-100,4,2,1,70,0,0
387648,-100,4,2,1,70,0,1
388233,-66.6666666666667,4,2,1,100,0,1
388526,-66.6666666666667,4,2,1,70,0,1
397014,-83.3333333333333,4,2,1,70,0,1
397599,-66.6666666666667,4,2,1,70,0,1
400672,-100,4,2,1,70,0,1
401111,-66.6666666666667,4,2,1,70,0,1
406380,-100,4,2,1,70,0,1
406965,-100,4,2,1,70,0,0
411648,-100,4,2,1,70,0,1
415745,-66.6666666666667,4,2,1,70,0,1
416477,-100,4,2,1,70,0,1
424526,-133.333333333333,4,2,1,70,0,1
424965,-100,4,2,1,70,0,1
426282,-133.333333333333,4,2,1,70,0,0
426867,-133.333333333333,4,2,1,70,0,0
449111,-166.666666666667,4,2,1,70,0,0
458477,-125,4,2,1,70,0,0
463160,-100,4,2,1,70,0,0
467258,-100,4,2,1,70,0,0
471941,-66.6666666666667,4,2,1,70,0,0
472522,-100,4,2,1,70,0,0
486575,-80,4,2,1,70,0,1
491258,-66.6666666666667,4,2,1,70,0,1
491550,-80,4,2,1,70,0,1
502965,-133.333333333333,4,2,1,70,0,1
503550,-100,4,2,1,70,0,1
504428,-80,4,2,1,70,0,1
505306,-66.6666666666667,4,2,1,70,0,1
514380,-100,4,2,1,70,0,1
515550,-66.6666666666667,4,2,1,70,0,1
522282,-100,4,2,1,70,0,1
524038,-133.333333333333,4,2,1,70,0,1
527550,-133.333333333333,4,2,1,70,0,0

[Colours]
Combo1 : 255,0,255
Combo2 : 255,0,0
Combo3 : 255,255,0
Combo4 : 128,255,0
Combo5 : 0,255,255

[HitObjects]
72,108,33769,6,0,B|93:152|93:152|145:188,1,90.0000034332277,8|0,0:0|0:0,0:0:0:0:
152,97,34062,2,0,P|195:76|257:83,1,90.0000034332277,8|0,0:0|0:0,0:0:0:0:
213,148,34354,2,0,B|231:192|231:192|224:251,1,90.0000034332277,8|0,0:0|0:0,0:0:0:0:
156,265,34647,2,0,P|185:301|244:312,1,90.0000034332277,8|0,0:0|0:0,0:0:0:0:
301,293,34940,2,0,B|311:239|311:239|348:192,1,90.0000034332277,8|0,0:0|0:0,0:0:0:0:
391,262,35232,2,0,P|438:263|481:220,1,90.0000034332277,8|0,0:0|0:0,0:0:0:0:
412,187,35525,2,0,B|399:134|399:134|370:99,1,90.0000034332277,8|0,0:0|0:0,0:0:0:0:
327,167,35818,2,0,P|287:184|161:162,1,160,8|4,0:0|0:0,0:0:0:0:
364,268,36403,6,0,P|328:288|240:280,1,120,8|0,0:0|0:0,0:0:0:0:
292,212,36696,2,0,B|252:160|252:160|248:100,1,120,8|0,0:0|0:0,0:0:0:0:
332,127,36989,2,0,P|364:91|352:23,1,120,8|0,0:0|0:0,0:0:0:0:
284,64,37281,2,0,B|216:52|216:52|148:72,1,120,8|0,0:0|0:0,0:0:0:0:
224,132,37574,2,0,P|216:180|152:220,1,120,8|0,0:0|0:0,0:0:0:0:
144,140,37867,2,0,B|92:100|92:100|76:44,1,120,8|0,0:0|0:0,0:0:0:0:
160,56,38159,6,0,P|216:40|316:72,1,160,8|4,0:0|0:0,0:0:0:0:
256,192,38744,12,0,40500,0:0:0:0:
200,228,40793,5,8,0:0:0:0:
219,205,40867,1,0,0:0:0:0:
230,177,40940,1,0,0:0:0:0:
231,147,41013,1,0,0:0:0:0:
221,119,41086,1,8,0:0:0:0:
202,96,41159,1,0,0:0:0:0:
177,81,41232,1,0,0:0:0:0:
148,75,41306,1,0,0:0:0:0:
118,79,41379,1,8,0:0:0:0:
95,93,41452,5,0,0:0:0:0:
91,122,41525,1,0,0:0:0:0:
88,152,41598,1,0,0:0:0:0:
85,182,41671,1,8,0:0:0:0:
82,212,41745,1,0,0:0:0:0:
79,242,41818,1,0,0:0:0:0:
78,270,41891,1,0,0:0:0:0:
102,253,41964,1,8,0:0:0:0:
127,236,42037,1,0,0:0:0:0:
152,220,42110,5,0,0:0:0:0:
177,203,42184,1,0,0:0:0:0:
201,187,42257,2,8,L|260:147,3,40
240,264,42549,2,0,L|199:292,3,40
307,217,42842,2,0,B|357:175|357:175|374:100,1,120
278,136,43135,6,0,B|224:101|224:101|165:100,1,120,8|0,0:0|0:0,0:0:0:0:
203,177,43427,2,0,P|186:223|207:278,1,90.0000034332277,8|0,0:0|0:0,0:0:0:0:
270,224,43720,2,0,B|315:247|315:247|338:284,1,90.0000034332277,8|0,0:0|0:0,0:0:0:0:
256,311,44013,2,0,P|231:333|153:333,1,90.0000034332277,8|0,0:0|0:0,0:0:0:0:
190,263,44305,2,0,B|164:215|164:215|121:192,1,90.0000034332277,8|0,0:0|0:0,0:0:0:0:
178,134,44598,2,0,P|190:98|236:71,1,90.0000034332277,8|0,0:0|0:0,0:0:0:0:
258,149,44891,6,0,P|305:163|391:133,1,120.000004577637,8|8,0:0|0:0,0:0:0:0:
328,86,45476,6,0,B|282:42|282:42|225:28,1,120,4|0,0:0|0:0,0:0:0:0:
241,111,45769,2,0,P|191:137|162:205,1,120,8|0,0:0|0:0,0:0:0:0:
250,195,46062,2,0,B|301:234|301:234|361:240,1,120,8|0,0:0|0:0,0:0:0:0:
330,157,46354,2,0,P|353:109|420:83,1,120,8|0,0:0|0:0,0:0:0:0:
415,165,46647,2,0,B|461:212|461:212|469:273,1,120,8|0,0:0|0:0,0:0:0:0:
391,279,46940,2,0,P|365:310|274:321,1,120,8|0,0:0|0:0,0:0:0:0:
311,248,47232,6,0,P|241:180|243:97,1,160,8|8,0:0|0:0,0:0:0:0:
317,154,47818,6,0,B|387:150|387:150|440:118,1,120,4|0,0:0|0:0,0:0:0:0:
365,71,48110,2,0,P|329:37|235:47,1,120,8|0,0:0|0:0,0:0:0:0:
289,107,48403,2,0,B|233:133|233:133|195:199,1,120,8|0,0:0|0:0,0:0:0:0:
294,194,48696,6,0,P|328:232|321:314,1,120,8|0,0:0|0:0,0:0:0:0:
253,265,48988,2,0,B|190:259|190:259|136:282,1,120,8|0,0:0|0:0,0:0:0:0:
103,211,49281,2,0,P|70:178|69:103,1,120,8|0,0:0|0:0,0:0:0:0:
142,138,49574,6,0,P|196:95|284:113,1,160,8|8,0:0|0:0,0:0:0:0:
221,175,50159,5,4,0:0:0:0:
238,198,50232,1,0,0:0:0:0:
263,216,50306,1,0,0:0:0:0:
291,224,50379,1,0,0:0:0:0:
321,224,50452,1,8,0:0:0:0:
349,213,50525,1,0,0:0:0:0:
373,195,50598,1,0,0:0:0:0:
390,170,50672,1,0,0:0:0:0:
397,142,50745,5,8,0:0:0:0:
369,130,50818,1,0,0:0:0:0:
341,119,50891,1,0,0:0:0:0:
313,108,50964,1,0,0:0:0:0:
285,97,51037,1,8,0:0:0:0:
257,90,51111,5,0,0:0:0:0:
243,116,51184,1,0,0:0:0:0:
238,146,51257,1,0,0:0:0:0:
241,175,51330,1,8,0:0:0:0:
252,203,51403,1,0,0:0:0:0:
271,226,51476,1,0,0:0:0:0:
295,243,51550,1,0,0:0:0:0:
323,253,51623,2,0,L|383:261,3,40,8|8|8|8,0:0|0:0|0:0|0:0,0:0:0:0:
404,185,51915,6,0,P|464:151|320:106,1,360.000013732911,8|0,0:0|0:0,0:0:0:0:
400,106,52501,6,0,B|461:162|461:162|488:257,1,160,4|0,0:0|0:0,0:0:0:0:
388,208,52940,1,0,0:0:0:0:
388,208,53013,1,0,0:0:0:0:
388,208,53086,1,0,0:0:0:0:
261,288,53232,1,0,0:0:0:0:
245,150,53379,1,0,0:0:0:0:
245,150,53671,6,0,B|192:124|192:124|136:124|136:124|84:100,1,160
180,36,54110,1,0,0:0:0:0:
172,208,54257,2,0,B|144:292|200:296|168:384,1,160
248,256,54842,6,0,P|336:264|424:252,1,160
456,120,55281,1,0,0:0:0:0:
456,120,55354,1,0,0:0:0:0:
456,120,55427,1,0,0:0:0:0:
344,16,55574,1,0,0:0:0:0:
288,152,55720,1,0,0:0:0:0:
288,152,56013,6,0,B|200:144|200:144|120:92,1,160
224,64,56452,1,0,0:0:0:0:
376,96,56598,2,0,B|388:144|388:144|380:208,1,80
440,28,56891,1,0,0:0:0:0:
440,28,57184,6,0,B|466:111|466:111|455:192,1,160,4|0,0:0|0:0,0:0:0:0:
376,280,57623,1,0,0:0:0:0:
376,280,57769,2,0,B|358:193|358:193|377:113,1,160
260,348,58354,6,0,P|176:360|92:344,1,160
168,276,58793,1,0,0:0:0:0:
168,276,58866,1,0,0:0:0:0:
168,276,58940,2,0,B|192:188|148:188|172:104,1,160
242,100,59525,5,8,0:0:0:0:
262,78,59598,1,0,0:0:0:0:
289,64,59671,1,0,0:0:0:0:
318,58,59745,1,0,0:0:0:0:
348,61,59818,1,8,0:0:0:0:
375,73,59891,1,0,0:0:0:0:
398,92,59964,1,0,0:0:0:0:
414,117,60037,1,0,0:0:0:0:
422,146,60110,1,8,0:0:0:0:
426,172,60184,5,0,0:0:0:0:
398,183,60257,1,0,0:0:0:0:
369,187,60330,1,0,0:0:0:0:
339,192,60403,1,8,0:0:0:0:
311,203,60476,1,0,0:0:0:0:
287,220,60549,1,0,0:0:0:0:
269,244,60623,1,0,0:0:0:0:
258,268,60696,2,8,L|246:311,4,30.0000011444092
377,279,61135,5,0,0:0:0:0:
349,96,61281,2,0,B|295:61|295:61|225:47,1,120.000004577637
134,222,61866,6,8,B|125:96|125:96|158:105,1,160
245,178,62305,1,8,0:0:0:0:
311,92,62452,1,8,0:0:0:0:
376,178,62598,1,8,0:0:0:0:
345,282,62744,1,0,0:0:0:0:
450,339,62891,1,0,0:0:0:0:
464,232,63037,6,0,P|483:174|461:72,1,160
343,25,63476,1,0,0:0:0:0:
343,25,63623,2,0,P|324:83|346:185,1,160
405,132,64062,5,0,0:0:0:0:
405,132,64135,1,8,0:0:0:0:
405,132,64208,2,8,B|281:106|281:106|291:149,1,160
347,231,64647,5,8,0:0:0:0:
268,312,64793,1,8,0:0:0:0:
226,205,64940,1,8,0:0:0:0:
113,226,65086,1,0,0:0:0:0:
96,117,65232,1,0,0:0:0:0:
191,73,65379,6,0,B|268:120|268:120|362:137,1,160
457,95,65818,1,0,0:0:0:0:
457,95,65964,2,0,B|379:48|379:48|285:30,1,160
342,143,66550,5,8,0:0:0:0:
342,143,66623,1,0,0:0:0:0:
342,143,66696,1,0,0:0:0:0:
342,143,66769,1,8,0:0:0:0:
342,143,66842,1,0,0:0:0:0:
342,143,66915,1,0,0:0:0:0:
339,162,66989,1,0,0:0:0:0:
333,181,67062,1,0,0:0:0:0:
323,199,67135,5,8,0:0:0:0:
310,214,67208,1,0,0:0:0:0:
294,226,67281,1,0,0:0:0:0:
276,234,67354,1,0,0:0:0:0:
261,240,67428,2,0,L|205:251,4,40,8|8|8|8|8,0:0|0:0|0:0|0:0|0:0,0:0:0:0:
138,170,68013,5,0,0:0:0:0:
184,75,68159,1,0,0:0:0:0:
273,134,68306,1,0,0:0:0:0:
273,134,68891,6,0,B|291:172|325:200|389:199|421:172|421:172|390:131|412:65|412:65|382:88|333:84|333:84|298:47|247:45|205:67|191:111|198:141,1,560,4|8,0:0|0:0,0:0:0:0:
228,200,71232,2,0,B|252:238|296:266|342:270|388:271|426:263|451:246|488:214|488:214|473:293|486:329|486:329|454:324|454:324|411:338|378:342|310:342|255:315,1,640,4|4,0:0|0:0,0:0:0:0:
146,167,74744,1,4,0:0:0:0:
146,167,75623,6,0,P|176:204|233:216,1,90.0000034332277
225,132,75915,5,8,0:0:0:0:
254,127,75989,1,0,0:0:0:0:
283,132,76062,1,0,0:0:0:0:
309,147,76135,1,0,0:0:0:0:
328,170,76208,1,8,0:0:0:0:
338,198,76281,1,0,0:0:0:0:
338,228,76354,1,0,0:0:0:0:
328,256,76428,1,0,0:0:0:0:
309,279,76501,1,8,0:0:0:0:
290,295,76574,5,0,0:0:0:0:
270,290,76647,1,0,0:0:0:0:
251,283,76720,1,0,0:0:0:0:
234,273,76793,1,8,0:0:0:0:
219,260,76866,1,0,0:0:0:0:
206,245,76940,1,0,0:0:0:0:
196,228,77013,1,0,0:0:0:0:
190,212,77086,2,0,L|186:165,4,40,8|8|8|8|8,0:0|0:0|0:0|0:0|0:0,0:0:0:0:
265,149,77452,5,0,0:0:0:0:
294,153,77525,1,0,0:0:0:0:
324,149,77598,1,0,0:0:0:0:
352,138,77672,1,8,0:0:0:0:
375,120,77745,1,0,0:0:0:0:
394,96,77818,1,0,0:0:0:0:
405,69,77891,1,0,0:0:0:0:
406,42,77964,6,8,B|340:27|340:27|278:42,1,120.000004577637
210,118,78550,2,8,B|271:133|271:133|330:118,1,120.000004577637
410,177,78989,1,0,0:0:0:0:
410,177,79062,1,0,0:0:0:0:
410,177,79135,2,8,B|417:244|417:244|392:304,1,120.000004577637,0|8,0:0|0:0,0:0:0:0:
311,344,79720,2,8,B|304:276|304:276|331:217,1,120.000004577637
341,197,80159,5,0,0:0:0:0:
348,163,80306,2,8,P|346:122|266:92,1,120.000004577637,8|12,0:0|0:0,0:0:0:0:
204,196,80891,2,8,B|152:232|152:232|72:244,1,120.000004577637
112,160,81330,1,0,0:0:0:0:
112,160,81403,1,0,0:0:0:0:
112,160,81476,2,8,B|164:124|164:124|244:112,1,120.000004577637
256,108,81915,5,0,0:0:0:0:
288,104,82062,2,0,P|328:92|344:16,1,120.000004577637,8|8,0:0|0:0,0:0:0:0:
164,36,82646,5,8,0:0:0:0:
164,36,82939,2,0,B|164:128|164:128|128:180|128:180|128:264,1,240.000009155274,4|0,0:0|0:0,0:0:0:0:
127,263,83817,1,0,0:0:0:0:
84,296,84110,2,0,P|121:317|101:213,1,240.000009155274
120,44,85281,6,0,B|102:83|102:83|106:166,1,100,8|0,0:0|0:0,0:0:0:0:
140,284,85574,5,8,0:0:0:0:
187,69,85720,6,0,B|153:96|153:96|120:172,1,100,0|8,0:0|0:0,0:0:0:0:
140,284,86013,5,0,0:0:0:0:
240,119,86159,6,0,B|198:128|198:128|134:181,1,100,8|0,0:0|0:0,0:0:0:0:
140,284,86452,5,8,0:0:0:0:
237,200,86598,6,0,B|279:191|279:191|343:139,1,100,0|8,0:0|0:0,0:0:0:0:
290,45,86891,5,0,0:0:0:0:
402,65,87037,2,0,L|433:173,2,100,8|0|0,0:0|0:0|0:0,0:0:0:0:
317,158,87623,6,0,P|257:157|177:126,1,100,12|0,0:0|0:0,0:0:0:0:
103,83,87916,1,8,0:0:0:0:
273,52,88062,1,0,0:0:0:0:
266,254,88208,2,0,B|317:283|317:283|395:288,1,100,8|0,0:0|0:0,0:0:0:0:
150,325,88501,6,0,B|100:223|178:211|135:109,1,200,8|8,0:0|0:0,0:0:0:0:
52,174,88940,1,0,0:0:0:0:
242,171,89086,2,0,P|301:164|356:136,1,100,8|0,0:0|0:0,0:0:0:0:
406,57,89379,1,8,0:0:0:0:
341,254,89525,2,0,B|329:312|329:312|280:358,1,100,0|8,0:0|0:0,0:0:0:0:
187,256,89818,5,0,0:0:0:0:
187,256,89891,1,0,0:0:0:0:
187,256,89964,2,0,B|172:181|172:181|195:126|195:126|182:56,1,200,4|8,0:0|0:0,0:0:0:0:
72,208,90403,2,0,P|69:266|84:320,1,100,0|8,0:0|0:0,0:0:0:0:
295,142,90696,2,0,P|301:85|283:37,1,100,0|8,0:0|0:0,0:0:0:0:
120,130,90989,5,0,0:0:0:0:
191,267,91135,1,8,0:0:0:0:
145,25,91281,1,0,0:0:0:0:
259,164,91428,1,8,0:0:0:0:
339,43,91574,1,0,0:0:0:0:
406,208,91720,1,8,0:0:0:0:
253,87,91867,1,0,0:0:0:0:
285,273,92013,1,8,0:0:0:0:
100,149,92159,5,0,0:0:0:0:
100,149,92232,1,0,0:0:0:0:
100,149,92306,2,0,B|186:186|186:186|294:180,1,200,4|0,0:0|0:0,0:0:0:0:
329,54,92745,1,0,0:0:0:0:
357,258,92891,2,0,P|374:307|420:353,1,100,8|0,0:0|0:0,0:0:0:0:
458,181,93184,2,0,P|446:118|414:78,1,100,8|0,0:0|0:0,0:0:0:0:
336,156,93476,6,0,B|240:128|220:192|124:132,1,200
147,35,93915,1,0,0:0:0:0:
147,35,94355,6,0,B|202:76|202:76|228:145|228:145|277:187,1,200,8|4,0:0|0:0,0:0:0:0:
406,292,94794,1,0,0:0:0:0:
374,94,94940,1,8,0:0:0:0:
241,263,95086,2,0,P|190:286|125:278,1,100,0|8,0:0|0:0,0:0:0:0:
70,162,95379,1,0,0:0:0:0:
184,74,95525,2,0,P|244:64|321:76,1,100,8|0,0:0|0:0,0:0:0:0:
244,155,95818,5,8,0:0:0:0:
244,155,95891,1,0,0:0:0:0:
244,155,95964,2,0,L|226:217,2,50,8|0|8,0:0|0:0|0:0,0:0:0:0:
377,106,96257,1,0,0:0:0:0:
342,286,96403,1,0,0:0:0:0:
280,39,96550,1,0,0:0:0:0:
220,237,96696,2,0,P|139:228|30:149,1,200,8|4,0:0|0:0,0:0:0:0:
166,121,97135,5,0,0:0:0:0:
322,160,97281,2,0,P|344:103|344:37,1,100,8|0,0:0|0:0,0:0:0:0:
187,42,97574,5,8,0:0:0:0:
216,205,97720,1,0,0:0:0:0:
253,21,97867,1,8,0:0:0:0:
106,163,98013,1,0,0:0:0:0:
326,221,98159,6,8,P|325:277|289:329,1,100
220,108,98451,2,8,P|245:61|304:23,1,100
134,254,98744,2,8,P|67:272|-5:249,1,100
341,47,99184,5,0,0:0:0:0:
341,47,99257,1,0,0:0:0:0:
341,47,99330,2,0,B|358:110|358:110|407:164|407:164|425:244,1,200,8|8,0:0|0:0,0:0:0:0:
266,282,99769,1,0,0:0:0:0:
181,148,99915,1,8,0:0:0:0:
210,363,100062,1,0,0:0:0:0:
96,236,100208,1,8,0:0:0:0:
289,174,100354,1,0,0:0:0:0:
135,316,100501,2,0,P|184:264|157:136,1,200,8|8,0:0|0:0,0:0:0:0:
66,218,100939,5,0,0:0:0:0:
278,162,101085,2,0,P|302:112|307:47,1,100,8|0,0:0|0:0,0:0:0:0:
206,52,101378,1,8,0:0:0:0:
168,202,101524,1,0,0:0:0:0:
416,164,101671,6,0,B|448:124|448:124|480:296,1,200,4|0,0:0|0:0,0:0:0:0:
364,336,102110,1,0,0:0:0:0:
364,336,102549,2,0,B|276:300|264:360|140:308,1,200
264,156,103135,1,0,0:0:0:0:
264,156,103208,1,0,0:0:0:0:
264,156,103281,2,0,P|272:88|268:40,1,100
256,192,103720,12,0,106062,0:0:0:0:
384,220,106355,6,0,P|407:154|392:51,1,160,4|8,0:0|0:0,0:0:0:0:
280,188,106794,1,0,0:0:0:0:
151,100,106940,2,8,P|149:172|205:255,1,160
307,294,107379,1,0,0:0:0:0:
382,167,107525,1,8,0:0:0:0:
425,281,107672,1,0,0:0:0:0:
294,208,107818,2,0,B|251:188|226:148,1,80,8|0,0:0|0:0,0:0:0:0:
274,40,108111,5,8,0:0:0:0:
396,78,108257,1,0,0:0:0:0:
301,146,108403,2,8,P|251:155|139:123,1,160
199,43,108841,5,0,0:0:0:0:
211,223,108988,1,8,0:0:0:0:
111,88,109134,1,0,0:0:0:0:
294,269,109281,1,8,0:0:0:0:
312,93,109427,1,0,0:0:0:0:
149,204,109573,1,8,0:0:0:0:
369,199,109720,1,0,0:0:0:0:
256,326,109866,6,0,B|223:237|281:236|244:139,1,160,4|8,0:0|0:0,0:0:0:0:
120,127,110452,6,0,P|178:116|244:49,1,120,8|0,0:0|0:0,0:0:0:0:
251,126,110744,2,0,P|211:157|134:177,1,120,8|0,0:0|0:0,0:0:0:0:
147,227,111037,2,0,P|237:202|308:139,1,160,8|0,0:0|0:0,0:0:0:0:
243,49,111476,1,0,0:0:0:0:
327,240,111623,2,0,P|344:282|347:338,1,80,8|0,0:0|0:0,0:0:0:0:
268,292,111915,2,8,P|248:243|326:160,1,160,8|12,0:0|0:0,0:0:0:0:
451,201,112354,5,0,0:0:0:0:
451,201,112427,1,0,0:0:0:0:
451,201,112500,2,0,P|464:138|457:94,1,80,8|0,0:0|0:0,0:0:0:0:
337,75,112793,1,8,0:0:0:0:
266,186,112939,1,0,0:0:0:0:
268,19,113085,1,8,0:0:0:0:
161,113,113232,2,0,P|142:165|143:219,1,80,0|4,0:0|0:0,0:0:0:0:
259,267,113525,5,0,0:0:0:0:
321,117,113672,1,8,0:0:0:0:
296,356,113818,1,0,0:0:0:0:
410,233,113964,1,8,0:0:0:0:
174,260,114111,1,0,0:0:0:0:
214,98,114257,1,8,0:0:0:0:
324,267,114403,1,0,0:0:0:0:
168,201,114549,2,8,P|126:166|108:48,1,160
255,128,114989,5,0,0:0:0:0:
255,128,115062,1,0,0:0:0:0:
255,128,115135,2,0,L|281:185,2,40,8|0|8,0:0|0:0|0:0,0:0:0:0:
347,143,115427,2,8,P|345:191|223:228,1,160
161,142,115866,5,0,0:0:0:0:
154,277,116012,2,0,P|158:327|183:366,1,80,8|0,0:0|0:0,0:0:0:0:
296,207,116305,2,8,B|325:118|269:116|302:19,1,160
415,145,116744,1,0,0:0:0:0:
189,128,116890,2,8,P|145:116|104:86,1,80
218,253,117183,2,8,P|259:268|312:268,1,80
412,129,117476,6,8,B|416:188|416:188|443:224|443:224|444:284,1,160
380,337,117915,1,0,0:0:0:0:
356,253,118061,2,8,P|311:252|243:146,1,160
307,54,118500,1,0,0:0:0:0:
349,153,118646,1,8,0:0:0:0:
201,81,118793,1,0,0:0:0:0:
201,81,118939,2,0,P|161:136|157:177,1,80,8|0,0:0|0:0,0:0:0:0:
83,122,119232,6,8,P|92:196|196:215,1,160
163,226,119671,1,0,0:0:0:0:
102,315,119818,2,8,P|147:330|202:332,1,80
302,263,120110,2,8,P|234:258|206:260,1,80
130,221,120403,2,0,B|160:133|110:132|135:52,1,160,4|0,0:0|0:0,0:0:0:0:
252,168,120842,1,0,0:0:0:0:
298,43,120988,1,8,0:0:0:0:
323,243,121134,1,0,0:0:0:0:
373,137,121281,6,0,P|422:124|465:79,1,80,8|0,0:0|0:0,0:0:0:0:
444,225,121573,2,0,P|425:276|386:309,1,80,4|0,0:0|0:0,0:0:0:0:
344,224,121866,2,0,P|291:223|242:196,1,80,8|0,0:0|0:0,0:0:0:0:
227,86,122159,1,8,0:0:0:0:
149,200,122305,1,0,0:0:0:0:
91,74,122452,2,8,P|60:132|56:243,1,160,8|12,0:0|0:0,0:0:0:0:
193,321,122891,6,0,P|225:272|241:225,1,80,0|8,0:0|0:0,0:0:0:0:
256,103,123183,1,0,0:0:0:0:
134,174,123330,1,8,0:0:0:0:
343,219,123476,2,0,P|387:224|440:215,1,80,0|8,0:0|0:0,0:0:0:0:
371,65,123769,5,0,0:0:0:0:
210,125,123915,1,8,0:0:0:0:
468,138,124061,1,0,0:0:0:0:
271,37,124208,1,8,0:0:0:0:
239,242,124354,1,0,0:0:0:0:
128,83,124500,1,8,0:0:0:0:
301,159,124647,2,0,P|359:166|397:153,2,80
250,39,125086,6,8,B|249:98|249:98|212:162|212:162|213:229,2,200
311,179,125817,1,0,0:0:0:0:
153,86,125964,2,0,P|104:78|66:79,1,80,8|0,0:0|0:0,0:0:0:0:
26,209,126256,1,8,0:0:0:0:
188,187,126403,5,0,0:0:0:0:
188,187,126476,1,0,0:0:0:0:
188,187,126549,2,0,P|252:156|309:73,1,150,8|0,0:0|0:0,0:0:0:0:
288,28,126842,2,0,P|323:97|439:150,1,200,8|0,0:0|0:0,0:0:0:0:
401,54,127281,1,0,0:0:0:0:
271,176,127427,6,0,B|203:227|203:227|154:232,1,120,8|0,0:0|0:0,0:0:0:0:
173,148,127720,2,0,B|177:51|177:51|143:59,1,120,8|0,0:0|0:0,0:0:0:0:
90,114,128012,2,8,B|68:193|68:193|97:273,1,160
184,290,128451,1,0,0:0:0:0:
268,231,128598,2,8,P|337:220|405:307,1,160,12|8,0:0|0:0,0:0:0:0:
312,310,129037,5,0,0:0:0:0:
383,142,129183,1,4,0:0:0:0:
383,142,129256,1,0,0:0:0:0:
383,142,129329,1,0,0:0:0:0:
330,68,129476,2,0,B|250:82|250:82|163:60,1,160,0|4,0:0|0:0,0:0:0:0:
173,62,129915,5,0,0:0:0:0:
116,200,130061,1,8,0:0:0:0:
186,259,130354,2,0,P|242:248|280:251,1,80,8|0,0:0|0:0,0:0:0:0:
235,328,130647,2,8,P|284:332|337:221,1,160
243,163,131086,5,0,0:0:0:0:
389,101,131232,1,8,0:0:0:0:
308,56,131525,2,0,P|260:64|200:48,1,80
264,148,131818,2,0,B|280:236|280:236|268:312,1,160
457,226,132256,5,0,0:0:0:0:
383,341,132403,1,8,0:0:0:0:
417,138,132549,1,0,0:0:0:0:
249,248,132696,1,8,0:0:0:0:
455,299,132842,1,0,0:0:0:0:
325,113,132988,1,8,0:0:0:0:
175,263,133135,1,0,0:0:0:0:
175,263,133573,5,8,0:0:0:0:
142,240,133646,1,0,0:0:0:0:
122,206,133720,1,0,0:0:0:0:
119,166,133793,1,0,0:0:0:0:
133,129,133866,1,8,0:0:0:0:
161,102,133939,1,0,0:0:0:0:
199,89,134012,1,0,0:0:0:0:
238,94,134086,1,0,0:0:0:0:
265,124,134159,6,0,B|286:177|286:177|285:225|285:225|316:275,1,160,8|8,0:0|0:0,0:0:0:0:
441,304,134598,1,0,0:0:0:0:
459,152,134744,2,8,P|468:93|491:57,1,80
322,202,135037,2,8,P|311:250|313:299,1,80
443,333,135329,1,8,0:0:0:0:
359,119,135476,1,0,0:0:0:0:
359,119,135622,2,8,P|288:119|197:63,1,160
306,35,136061,5,0,0:0:0:0:
227,222,136208,2,0,P|211:269|211:315,1,80,8|0,0:0|0:0,0:0:0:0:
345,365,136500,1,8,0:0:0:0:
429,205,136647,1,0,0:0:0:0:
309,246,136793,6,0,P|284:177|319:52,1,200,8|0,0:0|0:0,0:0:0:0:
398,124,137232,2,0,P|321:158|172:85,1,240,0|8,0:0|0:0,0:0:0:0:
250,35,137817,1,0,0:0:0:0:
129,194,137964,2,0,B|151:264|104:285|131:354,1,160,4|0,0:0|0:0,0:0:0:0:
271,272,138403,5,0,0:0:0:0:
218,110,138549,1,0,0:0:0:0:
372,297,138695,1,0,0:0:0:0:
440,93,138842,1,0,0:0:0:0:
256,186,138988,1,0,0:0:0:0:
455,219,139134,2,0,P|399:193|323:90,1,160,4|0,0:0|0:0,0:0:0:0:
316,40,139573,5,0,0:0:0:0:
211,202,139720,2,0,P|176:233|122:252,1,80
208,104,140013,2,0,P|220:62|251:25,1,80
296,152,140305,2,0,P|344:156|392:188,2,80
140,196,140744,1,0,0:0:0:0:
184,317,140891,2,4,B|243:321|243:321|294:299|294:299|364:298,1,160,8|8,0:0|0:0,0:0:0:0:
256,192,141476,12,0,143525,0:0:0:0:
76,300,143818,5,8,0:0:0:0:
105,293,143891,1,0,0:0:0:0:
132,281,143965,1,0,0:0:0:0:
157,264,144038,1,0,0:0:0:0:
177,242,144111,1,8,0:0:0:0:
193,217,144184,1,0,0:0:0:0:
204,189,144257,1,0,0:0:0:0:
209,159,144331,1,0,0:0:0:0:
208,132,144404,6,0,L|200:80,6,40,8|8|8|8|8|8|8,0:0|0:0|0:0|0:0|0:0|0:0|0:0,0:0:0:0:
356,224,144989,1,8,0:0:0:0:
280,76,145135,1,0,0:0:0:0:
232,256,145282,1,8,0:0:0:0:
388,116,145428,1,0,0:0:0:0:
200,152,145574,2,0,P|148:156|40:120,1,160,8|0,0:0|0:0,0:0:0:0:
140,60,146012,5,0,0:0:0:0:
79,251,146159,2,0,B|163:278|163:278|261:273,1,160,8|0,0:0|0:0,0:0:0:0:
305,199,146598,1,0,0:0:0:0:
382,322,146744,2,0,P|401:272|403:211,1,80,8|0,0:0|0:0,0:0:0:0:
325,33,147037,2,0,P|321:73|332:126,1,80,8|0,0:0|0:0,0:0:0:0:
446,155,147330,5,8,0:0:0:0:
431,181,147403,1,0,0:0:0:0:
411,202,147476,1,8,0:0:0:0:
386,219,147549,1,0,0:0:0:0:
357,229,147622,1,8,0:0:0:0:
328,231,147696,1,0,0:0:0:0:
298,225,147769,1,8,0:0:0:0:
271,213,147842,1,0,0:0:0:0:
247,194,147915,1,8,0:0:0:0:
334,46,148208,6,0,P|342:96|328:161,1,80,8|0,0:0|0:0,0:0:0:0:
244,136,148501,5,0,0:0:0:0:
136,80,148647,1,0,0:0:0:0:
32,172,148793,5,0,0:0:0:0:
140,132,148940,1,0,0:0:0:0:
268,232,149086,5,0,0:0:0:0:
156,192,149232,1,0,0:0:0:0:
28,276,149379,5,0,0:0:0:0:
136,244,149525,1,0,0:0:0:0:
240,308,149671,6,0,P|288:320|344:312,1,80
400,196,149964,2,0,P|412:144|400:88,1,80
316,32,150257,2,0,B|276:120|340:136|300:240,1,207.999990478516
56,112,150842,5,8,0:0:0:0:
252,120,150988,1,0,0:0:0:0:
152,240,151135,1,8,0:0:0:0:
152,108,151281,2,0,P|127:54|91:27,1,80,0|8,0:0|0:0,0:0:0:0:
48,156,151573,5,0,0:0:0:0:
208,232,151719,1,8,0:0:0:0:
211,68,151866,1,0,0:0:0:0:
211,68,152012,2,8,P|260:41|390:51,1,160,8|0,0:0|0:0,0:0:0:0:
409,127,152451,6,0,B|373:136|373:136|316:126,1,80,0|8,0:0|0:0,0:0:0:0:
276,189,152744,1,0,0:0:0:0:
283,218,152818,1,0,0:0:0:0:
298,244,152891,1,8,0:0:0:0:
321,264,152964,1,0,0:0:0:0:
348,277,153037,1,0,0:0:0:0:
377,281,153110,1,0,0:0:0:0:
407,276,153184,1,12,0:0:0:0:
447,138,153330,5,0,0:0:0:0:
300,312,153476,1,0,0:0:0:0:
282,107,153623,1,0,0:0:0:0:
444,247,153769,1,8,0:0:0:0:
221,197,153915,1,0,0:0:0:0:
360,120,154062,2,0,P|369:77|355:20,1,80,8|0,0:0|0:0,0:0:0:0:
136,138,154354,2,0,P|129:195|141:248,1,80,8|0,0:0|0:0,0:0:0:0:
274,299,154647,5,8,0:0:0:0:
431,198,154793,1,0,0:0:0:0:
207,183,154940,2,0,B|162:172|162:172|112:181,1,80,8|0,0:0|0:0,0:0:0:0:
61,272,155232,1,0,0:0:0:0:
61,272,155305,1,0,0:0:0:0:
61,272,155378,1,0,0:0:0:0:
290,319,155818,6,0,P|309:266|300:211,1,80,8|0,0:0|0:0,0:0:0:0:
197,149,156111,1,8,0:0:0:0:
124,312,156257,1,0,0:0:0:0:
292,208,156404,1,8,0:0:0:0:
76,196,156550,1,0,0:0:0:0:
215,297,156696,2,8,P|260:315|381:308,1,160
419,201,157135,1,0,0:0:0:0:
419,201,157208,1,0,0:0:0:0:
419,201,157281,2,0,P|414:136|401:106,2,80,8|0|0,0:0|0:0|0:0,0:0:0:0:
248,268,157866,5,8,0:0:0:0:
114,161,158013,1,0,0:0:0:0:
169,338,158159,1,8,0:0:0:0:
208,79,158305,1,0,0:0:0:0:
104,248,158452,5,8,0:0:0:0:
288,168,158598,1,0,0:0:0:0:
52,160,158744,1,8,0:0:0:0:
256,260,158891,1,0,0:0:0:0:
112,88,159037,1,8,0:0:0:0:
136,280,159184,1,0,0:0:0:0:
136,280,159257,1,0,0:0:0:0:
136,280,159330,2,0,B|216:316|216:316|316:320,1,160
135,114,160208,5,4,0:0:0:0:
112,133,160281,1,0,0:0:0:0:
95,158,160354,1,0,0:0:0:0:
87,186,160427,1,0,0:0:0:0:
87,216,160501,1,8,0:0:0:0:
96,245,160574,1,0,0:0:0:0:
113,269,160647,1,0,0:0:0:0:
137,287,160720,1,0,0:0:0:0:
164,295,160793,5,8,0:0:0:0:
179,269,160866,1,0,0:0:0:0:
193,242,160940,1,0,0:0:0:0:
204,215,161013,1,0,0:0:0:0:
214,186,161086,1,8,0:0:0:0:
221,157,161159,1,0,0:0:0:0:
226,130,161232,5,0,0:0:0:0:
253,141,161305,1,0,0:0:0:0:
281,153,161379,1,8,0:0:0:0:
308,165,161452,1,0,0:0:0:0:
336,176,161525,1,0,0:0:0:0:
364,188,161598,1,0,0:0:0:0:
390,200,161671,2,8,P|421:215|326:263,1,240.000009155274
287,196,162549,6,0,P|242:159|143:137,1,160,4|0,0:0|0:0,0:0:0:0:
71,242,162988,1,0,0:0:0:0:
270,69,163135,2,8,P|324:98|427:98,1,160
420,99,163574,1,0,0:0:0:0:
349,257,163720,2,8,B|262:270|262:270|174:258,1,160
121,151,164159,5,0,0:0:0:0:
299,86,164306,1,8,0:0:0:0:
225,266,164452,1,0,0:0:0:0:
196,90,164598,2,0,P|143:56|102:52,1,80,8|0,0:0|0:0,0:0:0:0:
63,176,164891,6,0,B|98:256|41:255|86:355,1,160,8|0,0:0|0:0,0:0:0:0:
190,266,165330,1,0,0:0:0:0:
190,266,165403,1,0,0:0:0:0:
190,266,165476,2,0,P|232:232|264:196,2,80,8|0|0,0:0|0:0|0:0,0:0:0:0:
320,310,165915,1,0,0:0:0:0:
185,349,166062,2,0,P|137:335|125:219,1,160,8|0,0:0|0:0,0:0:0:0:
208,108,166501,5,0,0:0:0:0:
208,108,166648,1,8,0:0:0:0:
297,182,166794,1,0,0:0:0:0:
196,240,166940,1,8,0:0:0:0:
196,240,167232,6,0,P|145:209|112:89,1,160,4|0,0:0|0:0,0:0:0:0:
210,36,167671,1,0,0:0:0:0:
204,151,167818,2,0,P|165:174|48:156,1,160,8|8,0:0|0:0,0:0:0:0:
105,277,168257,1,0,0:0:0:0:
105,277,168403,2,0,B|162:288|162:288|200:317|200:317|289:336,1,160,8|8,0:0|0:0,0:0:0:0:
320,221,168842,2,0,P|340:165|336:120,1,80,0|8,0:0|0:0,0:0:0:0:
210,66,169427,5,0,0:0:0:0:
210,66,169574,2,0,P|210:117|131:209,1,160,8|8,0:0|0:0,0:0:0:0:
97,85,170013,1,0,0:0:0:0:
59,181,170159,2,0,P|54:227|108:328,1,160,8|8,0:0|0:0,0:0:0:0:
180,260,170598,5,0,0:0:0:0:
180,260,170671,1,0,0:0:0:0:
180,260,170744,2,8,B|219:174|156:173|200:67,1,160
308,24,171184,2,0,P|321:71|317:120,1,80,0|8,0:0|0:0,0:0:0:0:
332,302,171623,5,8,0:0:0:0:
396,143,171769,1,0,0:0:0:0:
214,329,171915,2,0,P|149:301|86:229,1,160,4|8,0:0|0:0,0:0:0:0:
139,95,172354,1,0,0:0:0:0:
257,208,172501,1,8,0:0:0:0:
226,41,172647,2,0,P|270:33|327:48,1,80,0|8,0:0|0:0,0:0:0:0:
308,297,172940,1,0,0:0:0:0:
462,323,173086,2,0,B|403:323|403:323|356:297|356:297|279:297,1,160,4|8,0:0|0:0,0:0:0:0:
252,160,173525,5,0,0:0:0:0:
252,160,173598,1,0,0:0:0:0:
252,160,173671,2,0,P|316:148|352:156,1,80,8|0,0:0|0:0,0:0:0:0:
133,215,173964,5,8,0:0:0:0:
47,106,174110,1,0,0:0:0:0:
39,298,174257,2,0,P|85:320|199:309,1,160,4|8,0:0|0:0,0:0:0:0:
244,216,174696,1,0,0:0:0:0:
291,103,174842,2,0,P|351:73|387:70,1,80,8|0,0:0|0:0,0:0:0:0:
463,166,175135,1,8,0:0:0:0:
314,264,175281,1,0,0:0:0:0:
400,264,175427,2,0,P|393:304|290:350,1,160,4|8,0:0|0:0,0:0:0:0:
185,261,175866,5,0,0:0:0:0:
185,261,175940,1,0,0:0:0:0:
185,261,176013,2,0,B|166:213|166:213|176:160,1,80,8|0,0:0|0:0,0:0:0:0:
269,34,176305,6,0,B|312:107|250:125|323:211,1,160,8|8,0:0|0:0,0:0:0:0:
419,257,176744,1,0,0:0:0:0:
418,128,176891,2,0,P|426:78|418:40,1,80,8|0,0:0|0:0,0:0:0:0:
184,117,177184,2,0,P|141:126|93:224,1,160,8|8,0:0|0:0,0:0:0:0:
220,296,177623,1,0,0:0:0:0:
303,197,177769,2,0,B|321:114|321:114|298:27,1,160,8|8,0:0|0:0,0:0:0:0:
225,113,178208,1,0,0:0:0:0:
423,164,178354,2,8,P|446:221|434:336,1,160
333,274,178939,5,4,0:0:0:0:
305,262,179013,1,0,0:0:0:0:
277,250,179086,1,0,0:0:0:0:
250,238,179159,1,0,0:0:0:0:
222,226,179232,1,8,0:0:0:0:
195,214,179305,1,0,0:0:0:0:
167,202,179379,1,0,0:0:0:0:
155,190,179452,5,0,0:0:0:0:
183,179,179525,1,8,0:0:0:0:
209,164,179598,1,0,0:0:0:0:
229,142,179671,1,0,0:0:0:0:
238,113,179744,1,0,0:0:0:0:
236,84,179818,1,8,0:0:0:0:
223,56,179891,1,0,0:0:0:0:
201,37,179964,5,0,0:0:0:0:
172,28,180037,1,0,0:0:0:0:
143,30,180110,1,8,0:0:0:0:
86,126,180403,6,8,B|69:210|69:210|91:285,1,160
201,206,180842,1,0,0:0:0:0:
201,206,180988,2,0,P|275:192|390:216,1,160,8|8,0:0|0:0,0:0:0:0:
256,192,197671,12,0,199720,0:0:0:0:
118,163,200013,6,0,P|132:215|126:276,1,80,8|8,0:0|0:0,0:0:0:0:
64,320,200306,1,0,0:0:0:0:
11,148,200452,1,0,0:0:0:0:
88,93,200598,2,0,P|147:87|197:188,1,160,8|0,0:0|0:0,0:0:0:0:
248,243,201037,1,0,0:0:0:0:
313,166,201184,2,0,P|322:123|311:70,1,80
216,37,201476,5,8,0:0:0:0:
157,206,201623,1,0,0:0:0:0:
107,80,201769,2,0,P|137:112|251:140,1,160,8|0,0:0|0:0,0:0:0:0:
349,68,202354,5,8,0:0:0:0:
465,131,202501,1,8,0:0:0:0:
390,240,202647,1,0,0:0:0:0:
465,131,202793,1,0,0:0:0:0:
349,68,202940,2,0,P|308:121|199:143,1,160,8|0,0:0|0:0,0:0:0:0:
250,61,203379,1,0,0:0:0:0:
250,61,203452,1,0,0:0:0:0:
250,61,203525,2,0,B|302:127|302:127|306:218,2,160,8|0|8,0:0|0:0|0:0,0:0:0:0:
216,151,204403,6,0,P|178:166|132:156,1,80
127,82,204696,2,0,P|75:118|105:231,1,160,8|0,0:0|0:0,0:0:0:0:
231,258,205135,1,0,0:0:0:0:
316,139,205281,2,0,P|368:106|469:142,1,160,8|0,0:0|0:0,0:0:0:0:
390,211,205720,1,0,0:0:0:0:
352,24,205866,2,0,P|262:36|189:23,1,160,8|0,0:0|0:0,0:0:0:0:
88,84,206305,5,0,0:0:0:0:
184,208,206451,1,8,0:0:0:0:
20,156,206597,1,0,0:0:0:0:
184,120,206744,2,0,P|236:112|288:116,1,80
333,32,207037,2,0,P|360:108|337:181,1,160,8|0,0:0|0:0,0:0:0:0:
208,240,207475,5,0,0:0:0:0:
208,240,207549,1,0,0:0:0:0:
208,240,207622,2,0,L|188:196,2,40,8|0|8,0:0|0:0|0:0,0:0:0:0:
140,312,207915,2,0,B|224:324|224:324|304:280,1,160,0|8,0:0|0:0,0:0:0:0:
316,148,208354,5,0,0:0:0:0:
164,80,208501,1,0,0:0:0:0:
200,248,208647,1,0,0:0:0:0:
256,80,208793,1,8,0:0:0:0:
124,176,208940,1,0,0:0:0:0:
280,216,209086,2,0,P|332:236|372:232,1,80,8|0,0:0|0:0,0:0:0:0:
389,223,209305,1,0,0:0:0:0:
424,193,209379,2,8,P|464:165|356:165,1,320
409,129,210110,5,0,0:0:0:0:
409,129,210257,2,0,B|331:160|331:160|244:151,1,160,0|8,0:0|0:0,0:0:0:0:
311,55,210696,1,0,0:0:0:0:
237,240,210842,2,0,P|294:260|418:252,1,160,0|8,0:0|0:0,0:0:0:0:
456,142,211281,1,0,0:0:0:0:
345,60,211428,1,0,0:0:0:0:
250,145,211574,1,0,0:0:0:0:
358,237,211720,6,8,P|367:288|391:338,2,80
433,161,212159,2,8,P|423:88|412:57,2,80
455,290,212598,1,0,0:0:0:0:
455,290,212745,1,0,0:0:0:0:
351,151,212891,2,0,P|324:85|216:41,1,160,8|0,0:0|0:0,0:0:0:0:
239,136,213330,5,0,0:0:0:0:
239,136,213403,1,0,0:0:0:0:
239,136,213476,1,8,0:0:0:0:
402,51,213623,2,0,P|446:60|492:58,1,80
464,152,214062,6,0,B|455:214|455:214|421:253|421:253|414:310,1,160,8|0,0:0|0:0,0:0:0:0:
415,298,214501,1,0,0:0:0:0:
380,175,214647,2,0,P|382:134|280:70,1,160,8|0,0:0|0:0,0:0:0:0:
299,150,215086,1,0,0:0:0:0:
279,230,215232,2,8,P|271:281|283:331,1,80
363,264,215525,2,8,P|409:268|447:256,1,80
374,174,215818,2,0,P|352:127|441:56,1,160,8|0,0:0|0:0,0:0:0:0:
447,126,216257,1,0,0:0:0:0:
274,87,216403,6,8,P|220:73|111:77,1,160
116,75,216842,1,0,0:0:0:0:
101,173,216989,2,8,P|82:236|85:272,2,80
225,143,217428,1,0,0:0:0:0:
282,247,217574,2,8,P|300:292|396:339,1,160
376,245,218013,5,8,0:0:0:0:
414,66,218159,1,8,0:0:0:0:
482,277,218306,1,8,0:0:0:0:
316,99,218452,1,0,0:0:0:0:
241,249,218598,1,0,0:0:0:0:
199,138,218744,2,0,B|111:132|111:132|32:80,1,160,4|0,0:0|0:0,0:0:0:0:
143,57,219110,5,0,0:0:0:0:
171,47,219184,1,0,0:0:0:0:
201,46,219257,1,0,0:0:0:0:
230,54,219330,1,8,0:0:0:0:
255,70,219403,1,0,0:0:0:0:
274,93,219476,1,0,0:0:0:0:
287,120,219549,1,0,0:0:0:0:
291,150,219623,1,0,0:0:0:0:
291,177,219696,5,0,0:0:0:0:
261,184,219769,1,0,0:0:0:0:
232,191,219842,1,0,0:0:0:0:
203,199,219915,1,8,0:0:0:0:
174,206,219988,1,0,0:0:0:0:
145,214,220062,1,0,0:0:0:0:
116,221,220135,1,0,0:0:0:0:
90,228,220208,6,0,L|49:244,3,30.0000011444092
32,156,220501,2,8,L|75:144,3,30.0000011444092
110,65,220793,5,0,0:0:0:0:
145,48,220867,1,0,0:0:0:0:
185,51,220940,1,0,0:0:0:0:
217,74,221013,1,0,0:0:0:0:
242,104,221086,2,0,B|246:159|290:220|348:248,1,160,8|0,0:0|0:0,0:0:0:0:
439,135,221672,5,0,0:0:0:0:
295,269,221818,1,8,0:0:0:0:
341,86,221964,1,8,0:0:0:0:
419,277,222111,1,0,0:0:0:0:
237,158,222257,2,0,P|191:137|161:104,1,80,8|0,0:0|0:0,0:0:0:0:
344,184,222550,1,8,0:0:0:0:
344,184,222696,1,8,0:0:0:0:
204,266,222842,6,0,P|155:296|45:286,1,160,8|0,0:0|0:0,0:0:0:0:
124,40,223428,5,4,0:0:0:0:
168,178,223574,1,0,0:0:0:0:
286,95,223720,1,0,0:0:0:0:
66,127,223867,1,0,0:0:0:0:
167,265,224013,5,8,0:0:0:0:
201,102,224159,1,8,0:0:0:0:
282,304,224306,1,8,0:0:0:0:
124,182,224452,1,0,0:0:0:0:
322,194,224598,5,4,0:0:0:0:
157,259,224745,1,0,0:0:0:0:
406,257,224891,1,0,0:0:0:0:
239,108,225037,1,8,0:0:0:0:
258,313,225184,6,0,B|336:340|336:340|424:329,1,160,8|0,0:0|0:0,0:0:0:0:
417,206,225770,5,4,0:0:0:0:
434,170,225843,1,0,0:0:0:0:
432,130,225916,1,0,0:0:0:0:
411,96,225988,1,0,0:0:0:0:
385,68,226063,2,0,P|344:46|282:47,1,80,8|0,0:0|0:0,0:0:0:0:
181,117,226354,2,0,P|225:136|274:144,1,80,4|0,0:0|0:0,0:0:0:0:
413,195,226648,5,0,0:0:0:0:
342,32,226794,1,0,0:0:0:0:
252,220,226940,1,4,0:0:0:0:
429,111,227087,1,0,0:0:0:0:
208,80,227233,1,0,0:0:0:0:
335,170,227379,2,0,P|370:197|257:304,1,240
299,240,227963,1,0,0:0:0:0:
299,240,228110,2,8,B|206:186|175:99|175:99|259:139,1,240.000009155274
345,96,228696,5,0,0:0:0:0:
398,208,228842,1,0,0:0:0:0:
345,96,228989,1,0,0:0:0:0:
273,272,229135,5,8,0:0:0:0:
247,95,229282,1,8,0:0:0:0:
273,272,229427,1,8,0:0:0:0:
146,83,229574,5,0,0:0:0:0:
111,297,229720,1,0,0:0:0:0:
146,83,229866,1,0,0:0:0:0:
229,223,230013,2,8,P|273:244|334:254,2,80
381,138,230452,5,0,0:0:0:0:
231,78,230598,1,0,0:0:0:0:
381,138,230744,1,0,0:0:0:0:
315,312,230891,5,8,0:0:0:0:
401,177,231037,1,8,0:0:0:0:
315,312,231184,1,8,0:0:0:0:
144,224,231330,5,0,0:0:0:0:
273,331,231476,1,0,0:0:0:0:
144,224,231623,2,0,B|118:145|133:84|133:84|175:104,1,160
216,158,232062,1,0,0:0:0:0:
216,158,232135,1,0,0:0:0:0:
216,158,232208,2,0,P|287:168|351:93,1,160
290,83,232794,5,4,0:0:0:0:
329,81,232867,1,0,0:0:0:0:
365,97,232940,1,0,0:0:0:0:
389,129,233013,1,0,0:0:0:0:
396,168,233086,1,8,0:0:0:0:
384,205,233159,1,0,0:0:0:0:
356,233,233233,1,0,0:0:0:0:
319,245,233306,1,0,0:0:0:0:
279,249,233379,5,8,0:0:0:0:
263,223,233452,1,0,0:0:0:0:
247,198,233525,1,0,0:0:0:0:
231,172,233599,1,0,0:0:0:0:
215,147,233672,1,8,0:0:0:0:
203,123,233745,1,0,0:0:0:0:
183,100,233818,5,0,0:0:0:0:
156,88,233891,1,0,0:0:0:0:
126,88,233964,1,8,0:0:0:0:
100,102,234038,1,0,0:0:0:0:
81,125,234111,1,0,0:0:0:0:
75,154,234184,1,0,0:0:0:0:
76,182,234257,6,8,L|79:237,3,40
167,218,234550,2,8,L|162:165,3,40
234,145,234842,5,8,0:0:0:0:
273,145,234916,1,0,0:0:0:0:
311,132,234989,1,0,0:0:0:0:
342,106,235062,1,0,0:0:0:0:
371,80,235135,1,8,0:0:0:0:
406,60,235208,1,0,0:0:0:0:
445,57,235281,1,0,0:0:0:0:
478,78,235355,1,0,0:0:0:0:
490,115,235428,1,8,0:0:0:0:
477,152,235501,5,0,0:0:0:0:
445,176,235574,1,0,0:0:0:0:
405,180,235647,1,0,0:0:0:0:
369,165,235720,1,8,0:0:0:0:
343,134,235794,1,0,0:0:0:0:
326,98,235867,1,0,0:0:0:0:
306,64,235940,1,0,0:0:0:0:
275,40,236013,6,0,B|192:30|192:30|108:68,1,160,8|8,0:0|0:0,0:0:0:0:
70,211,236452,1,0,0:0:0:0:
246,268,236599,1,0,0:0:0:0:
154,126,236745,1,0,0:0:0:0:
109,306,236891,1,0,0:0:0:0:
257,155,237038,5,0,0:0:0:0:
257,155,237111,1,0,0:0:0:0:
257,155,237184,2,0,B|338:127|338:127|438:137,1,160,0|4,0:0|0:0,0:0:0:0:
256,192,237623,12,0,240110,0:0:0:0:
99,77,240696,6,0,B|77:164|77:164|102:264,1,160,8|8,0:0|0:0,0:0:0:0:
252,272,241135,1,0,0:0:0:0:
206,119,241281,1,8,0:0:0:0:
131,315,241428,1,0,0:0:0:0:
285,176,241574,2,0,P|327:151|395:138,1,80,8|0,0:0|0:0,0:0:0:0:
489,210,241867,2,0,P|441:237|396:239,1,80,8|0,0:0|0:0,0:0:0:0:
215,252,242159,2,8,B|283:314|283:314|384:341,1,160
322,238,242745,6,0,P|339:196|337:149,1,80,8|0,0:0|0:0,0:0:0:0:
136,100,243037,1,8,0:0:0:0:
272,32,243184,2,0,P|327:44|372:36,1,80,0|8,0:0|0:0,0:0:0:0:
472,56,243476,1,8,0:0:0:0:
351,185,243623,6,8,B|272:168|272:168|192:180,1,160
96,256,244062,1,0,0:0:0:0:
218,309,244208,2,8,B|343:329|343:329|322:300,1,160
280,245,244647,5,8,0:0:0:0:
280,245,244793,2,8,B|251:161|251:161|290:78,1,160
339,162,245233,1,0,0:0:0:0:
339,162,245306,1,0,0:0:0:0:
339,162,245379,2,8,P|394:179|383:285,1,160
307,264,245964,1,0,0:0:0:0:
307,264,246257,5,8,0:0:0:0:
268,254,246330,1,8,0:0:0:0:
237,229,246403,1,0,0:0:0:0:
220,194,246477,1,8,0:0:0:0:
218,154,246550,2,8,P|229:92|281:181,1,240.000009155274
266,131,247135,6,8,B|352:145|352:145|433:127,1,160
384,48,247574,1,0,0:0:0:0:
392,232,247721,2,8,P|388:280|276:324,1,160
264,176,248159,1,8,0:0:0:0:
264,176,248232,1,8,0:0:0:0:
264,176,248305,2,0,P|256:128|228:84,1,80,8|0,0:0|0:0,0:0:0:0:
172,200,248599,2,0,P|144:232|128:288,1,80,8|0,0:0|0:0,0:0:0:0:
244,264,248891,2,0,P|292:296|324:296,1,80,8|0,0:0|0:0,0:0:0:0:
338,198,249184,6,8,B|362:114|362:114|338:38,1,160
250,111,249623,1,0,0:0:0:0:
250,111,249769,2,0,P|214:168|237:268,1,160,8|8,0:0|0:0,0:0:0:0:
351,292,250208,1,0,0:0:0:0:
378,153,250354,2,0,B|387:108|387:108|376:68,1,80,8|0,0:0|0:0,0:0:0:0:
241,28,250647,2,0,B|232:73|232:73|241:115,1,80,8|0,0:0|0:0,0:0:0:0:
285,197,250940,2,8,P|247:247|127:233,1,160
188,167,251379,5,8,0:0:0:0:
188,167,251452,1,0,0:0:0:0:
188,167,251525,2,0,P|161:107|163:71,1,80,8|0,0:0|0:0,0:0:0:0:
259,32,251818,1,8,0:0:0:0:
349,157,251964,1,0,0:0:0:0:
303,307,252111,2,8,B|214:325|214:325|130:301,1,160
95,188,252550,5,8,0:0:0:0:
155,79,252696,2,8,P|188:133|294:147,1,160
246,68,253280,5,8,0:0:0:0:
246,68,253574,1,8,0:0:0:0:
246,68,253867,5,8,0:0:0:0:
252,107,253940,1,0,0:0:0:0:
251,147,254013,1,0,0:0:0:0:
228,179,254087,1,0,0:0:0:0:
197,204,254160,1,8,0:0:0:0:
175,237,254233,1,0,0:0:0:0:
174,276,254306,1,0,0:0:0:0:
195,310,254379,1,0,0:0:0:0:
229,331,254452,1,8,0:0:0:0:
268,334,254526,5,0,0:0:0:0:
304,317,254599,1,0,0:0:0:0:
327,285,254672,1,0,0:0:0:0:
333,246,254745,1,8,0:0:0:0:
316,211,254818,1,0,0:0:0:0:
285,186,254891,1,0,0:0:0:0:
249,170,254965,1,0,0:0:0:0:
210,180,255038,2,0,L|154:197,3,47.9999985351563,8|0|8|0,0:0|0:0|0:0|0:0,0:0:0:0:
102,136,255330,2,0,P|52:90|152:99,1,240.000009155274,8|8,0:0|0:0,0:0:0:0:
103,86,255915,6,0,B|186:108|186:108|268:79,1,160,8|4,0:0|0:0,0:0:0:0:
181,27,256354,1,0,0:0:0:0:
142,213,256500,2,0,P|128:264|138:314,1,80
246,171,256793,2,0,P|302:154|416:178,1,160
432,284,257232,5,0,0:0:0:0:
322,343,257378,1,0,0:0:0:0:
264,247,257525,1,0,0:0:0:0:
369,177,257671,1,0,0:0:0:0:
304,84,257817,2,0,B|240:52|240:52|136:52|136:52|60:88,1,240
160,136,258403,1,8,0:0:0:0:
160,136,258476,1,8,0:0:0:0:
160,136,258549,2,0,P|192:212|152:312,1,160,8|0,0:0|0:0,0:0:0:0:
100,216,258988,6,0,P|56:208|16:188,1,80
276,200,259281,2,0,P|328:208|384:240,1,80
440,324,259574,1,0,0:0:0:0:
440,324,259720,2,0,B|408:243|456:219|431:141,1,160
286,93,260305,6,0,P|231:37|254:130,1,204.000003890991
269,169,260598,2,0,P|238:213|104:208,1,191.999994140625,0|4,0:0|0:0,0:0:0:0:
175,143,261037,1,8,0:0:0:0:
206,322,261183,2,0,P|261:341|389:311,1,191.999994140625,8|0,0:0|0:0,0:0:0:0:
419,190,261623,1,0,0:0:0:0:
371,77,261769,1,0,0:0:0:0:
286,206,261915,6,0,B|243:221|243:221|198:214,1,80,0|4,0:0|0:0,0:0:0:0:
109,108,262208,2,0,B|158:102|158:102|201:113,1,80,8|0,0:0|0:0,0:0:0:0:
154,184,262501,1,0,0:0:0:0:
154,184,262940,6,0,B|152:274|152:274|194:257,1,120
233,203,263233,2,0,B|316:179|316:179|402:205,1,160,4|0,0:0|0:0,0:0:0:0:
317,278,263672,5,0,0:0:0:0:
262,103,263818,2,0,P|236:64|185:35,1,80
174,118,264111,2,0,P|148:159|30:167,1,160,0|8,0:0|0:0,0:0:0:0:
91,104,264476,5,0,0:0:0:0:
109,68,264549,1,0,0:0:0:0:
141,45,264622,1,0,0:0:0:0:
180,38,264695,1,8,0:0:0:0:
218,49,264769,1,0,0:0:0:0:
247,76,264842,1,0,0:0:0:0:
261,113,264915,1,0,0:0:0:0:
265,153,264988,2,0,L|280:219,4,40,8|0|8|0|8,0:0|0:0|0:0|0:0|0:0,0:0:0:0:
169,124,265574,6,0,B|144:204|144:204|171:276,1,160
230,195,266013,1,8,0:0:0:0:
230,195,266160,2,0,P|261:151|293:124,1,80,0|8,0:0|0:0,0:0:0:0:
415,64,266452,1,0,0:0:0:0:
415,64,266744,2,0,B|393:147|437:147|411:251,1,160,8|0,0:0|0:0,0:0:0:0:
416,222,267183,5,8,0:0:0:0:
321,306,267330,1,8,0:0:0:0:
288,178,267476,1,8,0:0:0:0:
159,197,267622,1,0,0:0:0:0:
173,73,267769,1,0,0:0:0:0:
173,73,267915,6,0,P|231:50|322:87,1,160
352,184,268354,1,0,0:0:0:0:
244,124,268500,2,0,B|170:166|170:166|92:180,1,160
96,179,268939,1,0,0:0:0:0:
130,77,269086,6,0,P|193:47|231:45,1,80
259,230,269379,2,0,P|211:252|152:260,1,80
225,164,269671,6,0,P|283:157|333:252,1,160,8|0,0:0|0:0,0:0:0:0:
384,106,270110,1,0,0:0:0:0:
462,314,270257,2,0,B|483:226|442:219|465:143,1,160,4|0,0:0|0:0,0:0:0:0:
474,63,270696,5,8,0:0:0:0:
474,63,270842,2,0,B|389:76|389:76|291:62,1,160,8|0,0:0|0:0,0:0:0:0:
222,103,271281,5,8,0:0:0:0:
222,103,271427,2,0,B|234:191|234:191|218:278,1,160,4|0,0:0|0:0,0:0:0:0:
141,316,271866,5,8,0:0:0:0:
141,316,272013,2,0,P|96:273|116:149,1,160,8|0,0:0|0:0,0:0:0:0:
199,164,272452,1,8,0:0:0:0:
169,229,272598,2,0,P|234:227|132:140,1,320,4|0,0:0|0:0,0:0:0:0:
269,303,273622,6,0,B|363:311|363:311|434:291,1,160,8|0,0:0|0:0,0:0:0:0:
352,231,274061,5,8,0:0:0:0:
343,192,274134,1,0,0:0:0:0:
320,159,274207,1,0,0:0:0:0:
287,138,274281,1,0,0:0:0:0:
248,131,274354,1,8,0:0:0:0:
209,139,274427,1,0,0:0:0:0:
176,162,274500,1,0,0:0:0:0:
155,195,274573,1,0,0:0:0:0:
148,233,274647,6,0,B|191:302|191:302|286:343,1,160,0|4,0:0|0:0,0:0:0:0:
84,277,284305,6,0,B|153:290|153:290|228:276,1,140,8|0,0:0|0:0,0:0:0:0:
152,208,284890,2,0,P|160:166|250:107,1,140,8|0,0:0|0:0,0:0:0:0:
233,188,285476,2,0,B|283:197|283:197|321:226|321:226|377:230,1,140,8|0,0:0|0:0,0:0:0:0:
404,168,286062,2,0,P|439:233|400:295,1,140,8|0,0:0|0:0,0:0:0:0:
340,322,286647,6,0,B|276:339|268:301|199:324,1,140,8|0,0:0|0:0,0:0:0:0:
119,287,287232,2,0,B|120:230|120:230|96:192|96:192|97:140,1,140,8|0,0:0|0:0,0:0:0:0:
175,151,287818,2,0,P|216:143|134:95,1,240,8|8,0:0|0:0,0:0:0:0:
85,115,288988,6,0,P|131:126|186:119,1,80,8|0,0:0|0:0,0:0:0:0:
180,47,289281,2,0,P|234:50|274:43,1,80,8|0,0:0|0:0,0:0:0:0:
361,39,289573,6,0,P|350:85|357:140,1,80,8|0,0:0|0:0,0:0:0:0:
429,134,289866,2,0,P|426:187|433:227,1,80,8|0,0:0|0:0,0:0:0:0:
350,268,290159,6,0,P|304:257|249:264,1,80,8|0,0:0|0:0,0:0:0:0:
255,336,290451,2,0,P|201:332|161:339,1,80,8|0,0:0|0:0,0:0:0:0:
117,265,290744,6,0,P|128:219|121:164,1,80,8|0,0:0|0:0,0:0:0:0:
49,169,291037,2,0,P|52:114|45:75,1,80,8|0,0:0|0:0,0:0:0:0:
256,192,291330,12,0,293379,0:0:0:0:
100,91,293671,6,8,B|74:190|74:190|100:282,1,191.999994140625
162,188,294110,1,0,0:0:0:0:
200,104,294257,2,0,P|253:93|305:61,1,95.9999970703126,8|0,0:0|0:0,0:0:0:0:
248,173,294549,2,8,B|242:282|353:331,1,191.999994140625
359,232,294988,1,0,0:0:0:0:
359,232,295061,1,0,0:0:0:0:
359,232,295134,2,8,B|390:167|335:118|361:38,1,191.999994140625
431,81,295574,5,0,0:0:0:0:
290,175,295720,1,8,0:0:0:0:
290,175,296013,6,8,P|285:231|167:284,1,191.999994140625
199,191,296452,1,0,0:0:0:0:
199,191,296598,1,8,0:0:0:0:
323,322,296744,2,0,P|385:331|439:322,1,95.9999970703126,0|8,0:0|0:0,0:0:0:0:
405,155,297037,1,0,0:0:0:0:
452,240,297183,2,8,B|352:220|352:220|240:240,1,191.999994140625
185,172,297622,1,0,0:0:0:0:
185,172,297695,1,0,0:0:0:0:
185,172,297769,2,0,B|292:151|292:151|362:94,1,191.999994140625,0|8,0:0|0:0,0:0:0:0:
136,71,298354,6,8,P|78:93|56:215,1,191.999994140625
129,156,298793,1,0,0:0:0:0:
122,249,298939,6,8,P|180:227|202:105,1,191.999994140625
123,68,299378,2,0,B|170:37|170:37|233:33,1,95.9999970703126,0|8,0:0|0:0,0:0:0:0:
286,72,299671,1,0,0:0:0:0:
382,158,299817,1,8,0:0:0:0:
264,194,299964,1,0,0:0:0:0:
264,194,300037,1,0,0:0:0:0:
264,194,300110,2,8,P|278:267|383:343,1,191.999994140625
418,195,300695,6,0,P|401:133|426:48,1,143.999995605469,8|0,0:0|0:0,0:0:0:0:
367,75,300988,2,8,P|333:115|175:120,1,191.999994140625
255,61,301427,1,0,0:0:0:0:
263,232,301573,2,0,P|256:285|226:335,1,95.9999970703126,8|0,0:0|0:0,0:0:0:0:
179,248,301866,5,8,0:0:0:0:
108,152,302013,1,0,0:0:0:0:
237,132,302159,1,8,0:0:0:0:
179,248,302305,1,0,0:0:0:0:
167,69,302452,1,8,0:0:0:0:
311,72,303037,6,0,P|354:103|448:96,1,143.999995605469,8|0,0:0|0:0,0:0:0:0:
441,99,303330,2,8,B|410:205|468:194|426:303,1,191.999994140625
331,335,303769,1,0,0:0:0:0:
361,235,303915,1,8,0:0:0:0:
258,256,304062,2,0,P|217:220|203:145,1,95.9999970703126,0|8,0:0|0:0,0:0:0:0:
194,83,304354,1,0,0:0:0:0:
297,42,304500,5,8,0:0:0:0:
297,42,304573,1,0,0:0:0:0:
297,42,304647,2,0,P|359:41|404:26,1,95.9999970703126,0|8,0:0|0:0,0:0:0:0:
399,108,305379,6,8,B|398:178|398:178|373:226|373:226|375:302,1,191.999994140625
459,233,305818,1,0,0:0:0:0:
316,166,305965,2,8,P|218:153|163:43,1,191.999994140625
267,85,306404,1,0,0:0:0:0:
183,239,306550,2,8,B|267:292|267:292|381:297,2,191.999994140625
112,72,307720,6,8,B|80:228|80:228|124:196,1,191.999994140625
176,152,308159,1,0,0:0:0:0:
208,236,308305,2,8,P|252:284|384:268,1,191.999994140625
308,196,308744,5,0,0:0:0:0:
308,196,308817,1,0,0:0:0:0:
308,196,308891,2,8,B|288:128|288:128|388:204,1,191.999994140625
424,312,309330,1,0,0:0:0:0:
192,272,309476,1,8,0:0:0:0:
192,272,309769,6,8,P|136:228|220:192,1,191.999994140625
272,312,310135,5,0,0:0:0:0:
301,315,310208,1,0,0:0:0:0:
331,313,310281,1,0,0:0:0:0:
360,304,310354,1,8,0:0:0:0:
386,290,310427,1,0,0:0:0:0:
408,270,310500,1,0,0:0:0:0:
426,246,310574,1,0,0:0:0:0:
438,219,310647,1,8,0:0:0:0:
445,189,310720,5,0,0:0:0:0:
445,159,310793,1,0,0:0:0:0:
438,130,310866,1,0,0:0:0:0:
428,104,310940,2,8,L|396:68,3,40
328,144,311232,5,8,0:0:0:0:
304,162,311305,1,0,0:0:0:0:
275,167,311378,1,0,0:0:0:0:
246,160,311452,1,0,0:0:0:0:
224,140,311525,1,8,0:0:0:0:
212,113,311598,1,0,0:0:0:0:
212,84,311671,1,0,0:0:0:0:
220,55,311744,1,0,0:0:0:0:
240,33,311817,5,8,0:0:0:0:
267,22,311891,1,0,0:0:0:0:
297,26,311964,1,0,0:0:0:0:
322,42,312037,1,0,0:0:0:0:
340,68,312110,6,0,B|372:124|372:124|376:184,1,120,8|0,0:0|0:0,0:0:0:0:
352,204,312403,2,8,P|296:188|180:220,1,160
272,272,312842,1,0,0:0:0:0:
284,80,312988,2,8,B|376:92|376:92|456:144,1,160
408,232,313427,1,0,0:0:0:0:
240,200,313574,2,8,P|188:208|164:312,1,160
232,276,314013,5,0,0:0:0:0:
124,112,314159,1,8,0:0:0:0:
96,240,314305,1,0,0:0:0:0:
232,160,314452,2,0,P|288:132|324:128,1,80,8|0,0:0|0:0,0:0:0:0:
344,200,314744,2,8,P|380:148|320:56,1,160
228,64,315183,5,0,0:0:0:0:
228,64,315256,1,0,0:0:0:0:
228,64,315330,2,0,P|176:116|168:144,1,80,8|0,0:0|0:0,0:0:0:0:
200,272,315622,2,0,P|244:232|260:192,1,80,8|0,0:0|0:0,0:0:0:0:
320,104,315915,2,8,P|364:88|448:172,1,160
360,184,316354,1,0,0:0:0:0:
360,184,316500,2,8,B|340:240|340:240|344:300|344:300|328:360,1,160
76,216,317086,6,8,B|52:124|88:128|64:32,1,160
69,57,317526,1,0,0:0:0:0:
144,156,317672,2,8,P|192:168|304:136,1,160
212,80,318110,1,0,0:0:0:0:
244,308,318257,2,8,B|160:332|160:332|76:308,1,160
160,240,318696,1,0,0:0:0:0:
160,240,318769,1,0,0:0:0:0:
160,240,318842,2,0,P|192:188|296:172,1,160,8|0,0:0|0:0,0:0:0:0:
360,240,319281,5,0,0:0:0:0:
452,328,319427,2,8,B|452:260|452:260|472:216|472:216|472:152,1,160
400,64,319866,1,0,0:0:0:0:
316,200,320013,1,8,0:0:0:0:
496,136,320159,1,0,0:0:0:0:
288,56,320305,6,8,B|200:40|200:40|124:60,1,160
204,116,320744,1,0,0:0:0:0:
212,155,320818,1,0,0:0:0:0:
210,194,320891,1,8,0:0:0:0:
200,233,320964,1,0,0:0:0:0:
197,273,321037,1,0,0:0:0:0:
209,311,321110,1,0,0:0:0:0:
220,348,321183,6,8,P|276:356|388:340,1,160
378,343,321622,1,0,0:0:0:0:
320,256,321769,2,8,P|408:260|484:240,1,160
392,144,322208,2,0,B|380:100|380:100|352:56,1,80,0|8,0:0|0:0,0:0:0:0:
256,40,322500,2,0,B|264:92|264:92|296:144,1,80,0|8,0:0|0:0,0:0:0:0:
296,208,322793,1,0,0:0:0:0:
296,208,322940,6,8,B|224:244|224:244|120:240,1,160
208,156,323379,1,0,0:0:0:0:
208,156,323452,1,0,0:0:0:0:
208,156,323525,2,0,P|196:108|192:64,1,80,8|0,0:0|0:0,0:0:0:0:
316,32,323818,5,8,0:0:0:0:
408,108,323964,1,0,0:0:0:0:
296,152,324110,2,8,B|280:212|280:212|284:268|284:268|264:336,1,160
272,308,324549,1,0,0:0:0:0:
400,288,324696,2,0,P|448:300|484:296,1,80
384,188,325135,1,0,0:0:0:0:
384,188,325281,2,0,P|316:192|208:156,1,160
60,156,325720,5,0,0:0:0:0:
60,156,325866,2,8,P|36:120|120:72,1,160
172,120,326305,1,0,0:0:0:0:
248,176,326452,2,8,P|276:216|272:332,1,160
392,208,326891,2,0,B|392:120|392:120|360:52,1,160
361,54,327330,1,8,0:0:0:0:
300,136,327476,2,0,P|244:176|208:180,1,80,0|8,0:0|0:0,0:0:0:0:
48,120,327769,2,0,P|108:92|148:88,1,80,0|8,0:0|0:0,0:0:0:0:
116,192,328062,5,0,0:0:0:0:
116,192,328135,1,0,0:0:0:0:
116,192,328208,2,8,P|116:244|128:288,2,80
168,116,328793,5,8,0:0:0:0:
189,95,328866,1,0,0:0:0:0:
215,79,328940,1,0,0:0:0:0:
243,70,329013,1,0,0:0:0:0:
273,66,329086,1,8,0:0:0:0:
303,70,329159,1,0,0:0:0:0:
331,80,329232,1,0,0:0:0:0:
356,95,329305,1,0,0:0:0:0:
380,116,329379,6,8,L|408:152,4,40
352,232,329818,1,0,0:0:0:0:
352,232,329964,2,8,P|256:232|184:180,1,160
280,144,330403,1,0,0:0:0:0:
280,144,330549,2,8,B|220:76|220:76|128:44,1,160
104,288,331135,5,8,0:0:0:0:
88,56,350354,6,0,B|72:104|72:104|88:176,1,95.9999970703126
160,200,350654,2,0,B|172:148|172:148|156:100,1,95.9999970703126
243,69,350954,1,0,0:0:0:0:
344,52,351104,1,0,0:0:0:0:
433,88,351254,1,0,0:0:0:0:
464,187,351404,1,0,0:0:0:0:
409,287,351554,2,0,B|357:297|357:297|307:286,1,95.9999970703126
356,217,351854,2,0,P|362:156|271:65,1,191.999994140625
277,154,352454,6,0,L|231:186,3,47.9999985351563
167,227,352754,2,0,B|177:281|177:281|165:350,1,95.9999970703126
91,282,353054,2,0,B|80:228|80:228|93:159,1,95.9999970703126
160,126,353354,2,0,B|263:151|266:96|372:137,1,191.999994140625
302,201,353804,1,0,0:0:0:0:
261,278,353954,2,0,B|210:296|210:296|148:291,1,95.9999970703126
103,225,354254,2,0,B|154:207|154:207|215:212,1,95.9999970703126
286,241,354554,5,0,0:0:0:0:
383,281,354704,1,0,0:0:0:0:
472,231,354854,2,0,L|485:171,3,47.9999985351563
412,126,355154,6,0,B|346:102|346:102|288:102|288:102|210:70,1,191.999994140625
123,78,355604,1,0,0:0:0:0:
51,142,355754,1,0,0:0:0:0:
41,239,355904,1,0,0:0:0:0:
107,313,356054,1,0,0:0:0:0:
209,331,356204,1,0,0:0:0:0:
292,278,356354,6,0,B|322:229|322:229|326:166,1,95.9999970703126
270,111,356654,2,0,B|240:160|240:160|236:222,1,95.9999970703126
198,275,356954,2,0,B|144:263|144:263|90:216,1,95.9999970703126
93,140,357254,2,0,B|147:152|147:152|201:199,1,95.9999970703126
265,210,357554,2,0,L|320:192,3,47.9999985351563
339,267,357854,6,0,P|385:286|446:279,1,95.9999970703126
400,198,358154,2,0,P|425:146|420:85,1,95.9999970703126
334,122,358454,2,0,P|279:99|251:47,1,95.9999970703126
354,43,358754,6,0,B|427:100|427:100|447:212,1,191.999994140625
422,278,359204,1,0,0:0:0:0:
422,278,359354,2,0,B|327:300|325:239|196:281,1,191.999994140625
367,197,359954,6,0,B|379:143|379:143|366:91,1,95.9999970703126
290,47,360254,2,0,B|280:98|280:98|292:143,1,95.9999970703126
283,222,360554,2,0,B|234:240|234:240|163:235,1,95.9999970703126
127,171,360854,2,0,B|176:153|176:153|247:157,1,95.9999970703126,0|0,0:3|0:3,0:3:0:0:
313,182,361154,1,0,0:0:0:0:
409,207,361304,1,0,0:0:0:0:
496,172,361454,1,0,0:0:0:0:
505,81,361604,1,0,0:0:0:0:
429,24,361754,2,0,B|380:42|380:42|325:34,1,95.9999970703126
311,111,362054,6,0,L|284:157,3,47.9999985351563
374,171,362354,2,0,B|410:210|410:210|421:290,1,95.9999970703126
369,325,362654,2,0,B|333:285|333:285|322:206,1,95.9999970703126
300,157,362954,1,0,0:0:0:0:
258,76,363104,1,0,0:0:0:0:
174,30,363254,2,0,P|125:40|46:157,2,191.999994140625
147,119,364004,1,0,0:0:0:0:
147,119,364154,2,0,B|198:206|198:206|297:249,1,191.999994140625
256,143,364604,5,0,0:0:0:0:
256,143,364679,1,0,0:0:0:0:
256,143,364754,2,0,B|286:93|286:93|332:62,1,95.9999970703126
413,78,365054,2,0,B|383:128|383:128|337:159,1,95.9999970703126
300,212,365354,2,0,P|308:273|418:334,1,191.999994140625
395,246,365954,2,0,P|401:181|331:73,1,191.999994140625
310,168,366554,2,0,B|228:212|196:148|117:180,1,191.999994140625
174,53,367154,5,0,0:0:0:0:
98,109,367304,1,0,0:0:0:0:
72,200,367454,1,0,0:0:0:0:
107,288,367604,1,0,0:0:0:0:
187,338,367754,1,0,0:0:0:0:
281,329,367904,1,0,0:0:0:0:
350,265,368054,1,0,0:0:0:0:
367,172,368204,1,0,0:0:0:0:
323,86,368354,2,0,B|275:56|275:56|220:48,2,95.9999970703126
243,137,368804,5,0,0:0:0:0:
243,137,368879,1,0,0:0:0:0:
243,137,368954,2,0,P|187:180|58:176,1,191.999994140625
106,90,369502,6,0,B|126:176|75:176|112:263,1,160
174,196,369941,1,0,0:0:0:0:
301,58,370087,1,0,0:0:0:0:
301,58,370380,2,0,B|326:146|326:146|387:223,1,160
435,162,370965,2,0,P|425:247|339:270,1,160
364,194,371550,5,0,0:0:0:0:
282,96,371697,1,0,0:0:0:0:
245,212,371843,2,0,B|201:235|154:232|154:232|172:250|172:250|116:271|53:254|53:254,1,240.000009155274
116,153,372721,5,0,0:0:0:0:
186,75,372867,1,0,0:0:0:0:
297,62,373014,2,0,B|320:129|277:132|311:207,1,120
269,198,373306,2,0,P|232:230|155:227,1,120
151,251,373599,2,0,B|163:314|163:314|221:366,1,120
236,341,373892,2,0,P|268:311|399:284,1,160
377,280,374331,1,0,0:0:0:0:
397,167,374623,5,0,0:0:0:0:
397,167,374770,2,0,P|347:137|313:107,1,80
318,22,375062,2,0,P|361:45|395:73,1,80
249,92,375355,2,0,B|211:107|120:100|120:100|134:148,1,160
206,185,375794,1,0,0:0:0:0:
206,185,375867,1,0,0:0:0:0:
206,185,375941,2,0,B|287:179|326:158|326:158|321:209,1,160
282,268,376380,5,0,0:0:0:0:
186,284,376526,1,0,0:0:0:0:
109,225,376672,1,0,0:0:0:0:
121,128,376819,1,0,0:0:0:0:
213,90,376965,1,0,0:0:0:0:
302,139,377111,2,0,P|338:158|460:150,1,160
387,89,377550,1,0,0:0:0:0:
387,89,377623,1,0,0:0:0:0:
387,89,377697,2,0,B|361:171|411:184|385:269,1,160
346,315,378136,5,0,0:0:0:0:
231,157,378282,1,0,0:0:0:0:
231,157,378867,6,0,P|200:199|85:217,1,160
139,142,379306,1,0,0:0:0:0:
210,284,379453,2,0,B|291:307|291:307|381:278,2,160
168,205,380184,1,0,0:0:0:0:
369,134,380331,1,0,0:0:0:0:
369,134,380623,6,0,P|313:138|269:48,1,160
343,62,381063,1,0,0:0:0:0:
343,62,381136,1,0,0:0:0:0:
343,62,381209,2,0,B|319:117|319:117|321:169|321:169|289:248,1,160
227,153,381648,1,0,0:0:0:0:
146,112,381794,1,0,0:0:0:0:
62,138,381941,1,0,0:0:0:0:
22,217,382087,6,0,P|30:263|122:317,1,160
110,224,382526,1,0,0:0:0:0:
110,224,382672,2,0,P|154:181|186:166,1,80
303,185,382965,2,0,P|269:217|220:243,1,80
242,132,383258,2,0,P|279:107|383:159,1,160
287,29,383697,5,0,0:0:0:0:
287,29,383843,2,0,B|266:34|241:39|224:49|209:62|209:62|107:57,1,160
96,123,384428,2,0,B|93:186|66:244|66:244|126:235,1,160
167,189,384867,5,0,0:0:0:0:
167,189,385014,2,0,P|207:161|324:192,1,160
241,239,385599,2,0,P|218:282|284:263,1,160
320,138,387062,1,0,0:0:0:0:
207,83,387648,6,0,P|157:97|72:69,1,120,8|0,0:0|0:0,0:0:0:0:
75,99,387941,2,0,P|89:149|68:244,1,120,8|0,0:0|0:0,0:0:0:0:
97,241,388233,2,0,B|211:275|232:218|338:248,1,240.000009155274,4|0,0:0|0:0,0:0:0:0:
204,319,388672,1,0,0:0:0:0:
204,319,389111,2,0,P|173:210|213:101,1,180.000006866455,8|0,0:0|0:0,0:0:0:0:
252,179,389404,2,0,P|310:158|212:80,1,240.000009155274,4|0,0:0|0:0,0:0:0:0:
416,328,389989,5,8,0:0:0:0:
416,328,390282,2,0,P|436:260|425:129,1,180.000006866455,8|0,0:0|0:0,0:0:0:0:
360,188,390575,2,0,P|304:183|253:29,1,240.000009155274,4|8,0:0|0:0,0:0:0:0:
433,58,391014,1,0,0:0:0:0:
433,58,391160,2,0,P|453:116|431:191,1,120.000004577637,8|0,0:0|0:0,0:0:0:0:
479,263,391453,2,0,B|387:291|375:238|289:263,1,180.000006866455,8|0,0:0|0:0,0:0:0:0:
290,286,391745,2,0,P|259:336|254:231,1,240.000009155274,4|8,0:0|0:0,0:0:0:0:
131,243,392331,6,0,B|112:179|150:175|128:109,1,120.000004577637
49,221,392623,2,0,P|56:280|165:319,1,180.000006866455
254,266,392916,2,0,B|311:171|217:114|264:29,1,240.000009155274,4|0,0:0|0:0,0:0:0:0:
349,80,393355,1,0,0:0:0:0:
349,80,393941,5,0,0:0:0:0:
349,80,394014,1,0,0:0:0:0:
349,80,394087,2,0,B|400:153|400:153|409:230|409:230|461:292,1,240.000009155274,4|8,0:0|0:0,0:0:0:0:
476,177,394526,1,0,0:0:0:0:
324,189,394672,2,8,B|203:223|198:138|49:190,1,240.000009155274
122,261,395258,6,0,B|177:306|177:306|254:321,1,120.000004577637,4|0,0:0|0:0,0:0:0:0:
216,237,395550,2,0,P|273:204|321:336,1,240.000009155274,8|8,0:0|0:0,0:0:0:0:
277,276,395989,1,0,0:0:0:0:
315,89,396136,1,8,0:0:0:0:
315,89,396428,6,0,B|243:157|136:173|136:173|157:115,1,240.000009155274,4|8,0:0|0:0,0:0:0:0:
255,220,397014,5,8,0:0:0:0:
258,260,397087,1,0,0:0:0:0:
278,296,397160,1,0,0:0:0:0:
312,319,397233,1,0,0:0:0:0:
353,324,397306,1,8,0:0:0:0:
392,312,397379,1,0,0:0:0:0:
421,284,397453,1,0,0:0:0:0:
436,245,397526,1,0,0:0:0:0:
434,202,397599,6,0,B|427:131|351:50|351:50|426:69,1,240.000009155274,4|8,0:0|0:0,0:0:0:0:
304,107,398038,2,0,B|246:137|246:137|163:136,1,120.000004577637,0|8,0:0|0:0,0:0:0:0:
230,61,398331,1,0,0:0:0:0:
230,61,398477,2,0,P|166:30|44:88,1,180.000006866455,8|0,0:0|0:0,0:0:0:0:
147,104,398770,2,0,B|99:205|197:241|152:341,1,240.000009155274,4|8,0:0|0:0,0:0:0:0:
300,287,399355,2,0,P|357:253|474:266,1,180.000006866455,8|0,0:0|0:0,0:0:0:0:
445,288,399648,2,0,P|422:206|465:100,1,180.000006866455,8|0,0:0|0:0,0:0:0:0:
470,151,399941,6,0,P|333:157|229:108,1,240.000009155274,4|8,0:0|0:0,0:0:0:0:
300,66,400380,2,0,P|359:88|422:86,2,120.000004577637,0|8|0,0:0|0:0|0:0,0:0:0:0:
265,267,400819,1,8,0:0:0:0:
346,310,400965,1,0,0:0:0:0:
276,360,401111,2,0,P|212:365|293:298,1,240.000009155274,4|0,0:0|0:0,0:0:0:0:
319,217,401697,6,0,P|338:157|300:36,1,180.000006866455,8|0,0:0|0:0,0:0:0:0:
285,73,401989,2,0,B|182:96|182:96|63:80,1,180.000006866455,8|0,0:0|0:0,0:0:0:0:
141,117,402282,2,0,P|142:183|291:245,1,240.000009155274,4|8,0:0|0:0,0:0:0:0:
231,166,402721,1,0,0:0:0:0:
231,166,402867,2,0,B|208:233|208:233|149:286,1,120.000004577637,8|0,0:0|0:0,0:0:0:0:
69,278,403160,2,0,B|87:213|87:213|137:171,1,120.000004577637,8|0,0:0|0:0,0:0:0:0:
162,255,403453,2,0,B|281:316|313:220|433:264,1,240.000009155274,4|8,0:0|0:0,0:0:0:0:
364,333,403892,1,0,0:0:0:0:
364,333,404331,6,0,P|291:278|286:165,1,180.000006866455
363,238,404623,2,0,P|402:185|314:34,1,240.000009155274
339,42,405062,1,0,0:0:0:0:
323,138,405501,2,0,P|282:186|256:73,1,240.000009155274
185,276,406380,5,8,0:0:0:0:
146,268,406453,1,0,0:0:0:0:
115,243,406526,1,0,0:0:0:0:
99,207,406599,1,0,0:0:0:0:
101,167,406672,1,8,0:0:0:0:
121,133,406745,1,0,0:0:0:0:
155,112,406819,1,0,0:0:0:0:
195,110,406892,1,0,0:0:0:0:
233,123,406965,6,8,P|266:153|336:166,1,80
308,88,407184,2,8,P|357:75|410:86,1,80
400,152,407404,2,8,P|410:199|439:243,1,80
489,283,407623,2,8,P|446:309|389:308,1,80
343,361,407843,2,8,P|331:320|341:251,1,80
283,217,408062,2,8,P|230:207|176:218,1,80
151,151,408282,2,8,P|124:117|226:119,1,240
216,208,409014,5,0,0:0:0:0:
216,208,409087,1,0,0:0:0:0:
216,208,409160,2,4,P|227:257|216:312,1,80,0|4,0:0|0:0,0:0:0:0:
220,104,410184,6,0,P|256:136|344:136,1,120
325,143,410477,2,0,P|292:204|300:312,1,160
372,232,410916,1,0,0:0:0:0:
372,232,411062,2,0,P|296:240|188:212,1,160
288,156,411648,6,0,L|276:76,2,80,8|0|8,0:0|0:0|0:0,0:0:0:0:
220,208,412087,1,0,0:0:0:0:
300,240,412233,2,0,L|312:327,2,80,8|0|8,0:0|0:0|0:0,0:0:0:0:
368,192,412672,1,0,0:0:0:0:
216,184,412819,6,0,P|168:180|104:152,1,80,8|0,0:0|0:0,0:0:0:0:
84,48,413111,2,0,P|152:72|184:72,1,80,8|0,0:0|0:0,0:0:0:0:
152,296,413550,5,0,0:0:0:0:
152,296,413697,2,0,P|152:240|156:196,1,80,8|0,0:0|0:0,0:0:0:0:
288,160,413989,5,8,0:0:0:0:
212,40,414135,1,0,0:0:0:0:
232,260,414282,1,8,0:0:0:0:
352,80,414428,1,0,0:0:0:0:
348,328,414574,5,8,0:0:0:0:
232,168,414721,1,0,0:0:0:0:
444,272,414867,1,8,0:0:0:0:
444,272,415014,1,0,0:0:0:0:
488,52,415160,6,8,B|404:80|388:28|312:56,1,160
360,132,415599,5,0,0:0:0:0:
360,132,415672,1,0,0:0:0:0:
360,132,415745,2,8,P|384:200|304:136,1,240.000009155274
176,104,416477,5,0,0:0:0:0:
176,104,416623,2,0,B|164:148|164:148|172:208,1,80,8|0,0:0|0:0,0:0:0:0:
268,32,416916,2,8,P|352:24|428:32,1,160
488,96,417355,5,0,0:0:0:0:
416,184,417501,1,8,0:0:0:0:
440,296,417648,1,0,0:0:0:0:
328,248,417794,1,8,0:0:0:0:
232,316,417941,1,0,0:0:0:0:
172,220,418087,1,8,0:0:0:0:
248,132,418233,1,0,0:0:0:0:
172,56,418380,1,8,0:0:0:0:
92,132,418526,1,0,0:0:0:0:
92,132,418672,6,0,P|87:191|97:234,1,80,8|0,0:0|0:0,0:0:0:0:
206,329,418965,2,0,P|209:270|202:226,1,80,8|0,0:0|0:0,0:0:0:0:
92,132,419258,6,0,P|87:191|97:234,1,80,8|0,0:3|0:3,0:3:0:0:
206,329,419551,2,0,P|209:270|202:226,1,80,8|0,0:3|0:3,0:3:0:0:
210,151,419843,5,8,0:0:0:0:
236,121,419916,1,0,0:0:0:0:
272,103,419989,1,0,0:0:0:0:
311,99,420062,1,0,0:0:0:0:
351,103,420136,2,0,B|393:122|393:122|416:151,1,80,8|0,0:0|0:0,0:0:0:0:
404,292,420428,2,0,B|362:272|362:272|339:244,1,80,8|0,0:3|0:3,0:3:0:0:
285,152,420721,5,8,0:0:0:0:
181,140,420867,1,0,0:0:0:0:
110,231,421014,2,8,B|156:253|156:253|233:254|233:254|275:279,1,160
368,322,421453,5,0,0:0:0:0:
452,256,421599,1,8,0:0:0:0:
429,150,421745,1,0,0:0:0:0:
327,112,421892,1,8,0:0:0:0:
291,213,422038,1,0,0:0:0:0:
184,235,422184,5,8,0:0:0:0:
130,143,422331,1,0,0:0:0:0:
208,68,422477,1,8,0:0:0:0:
114,21,422623,1,0,0:0:0:0:
38,96,422770,1,8,0:0:0:0:
65,197,422916,1,0,0:0:0:0:
174,175,423062,6,0,P|224:159|273:161,1,80,8|0,0:0|0:0,0:0:0:0:
347,189,423355,1,8,0:0:0:0:
422,261,423501,1,0,0:0:0:0:
370,348,423648,1,8,0:0:0:0:
273,318,423794,1,0,0:0:0:0:
251,220,423941,1,8,0:0:0:0:
162,164,424087,1,0,0:0:0:0:
62,211,424233,6,0,P|65:253|79:306,1,80,8|0,0:0|0:0,0:0:0:0:
142,336,424526,2,0,B|195:351|195:351|245:352|245:352|301:339,1,150.000005722046,8|0,0:0|0:0,0:0:0:0:
254,274,424965,2,0,P|223:245|331:273,1,400,0|8,0:0|0:0,0:0:0:0:
291,202,426282,5,8,0:0:0:0:
291,202,426867,1,8,0:0:0:0:
256,192,428038,12,4,430380,0:0:0:0:
168,272,449111,6,0,P|132:248|216:212,1,191.999994140625
268,288,449989,1,0,0:0:0:0:
268,288,450282,2,0,P|284:248|272:128,1,143.999995605469
220,68,451160,6,0,P|188:72|132:64,1,71.9999978027344
128,96,451453,2,0,P|136:168|124:240,1,143.999995605469
204,328,452331,2,0,B|256:336|256:336|316:328,1,95.9999970703126
316,216,453209,5,0,0:0:0:0:
308,176,453501,1,0,0:0:0:0:
300,136,453794,2,0,P|316:112|464:112,1,191.999994140625
388,168,454672,1,0,0:0:0:0:
388,168,454965,2,0,P|396:216|380:288,1,119.999996337891
352,304,455404,2,0,P|312:288|200:296,1,143.999995605469
120,228,456136,6,0,B|104:148|104:148|120:44,1,167.999994873047
152,48,456721,2,0,P|184:56|248:56,1,95.9999970703126
328,136,457306,1,0,0:0:0:0:
320,256,457892,5,0,0:0:0:0:
292,284,458184,1,0,0:0:0:0:
264,312,458477,2,0,P|184:328|92:308,1,160
84,280,458916,2,0,B|96:180|96:180|76:80,1,192
172,52,459648,1,0,0:0:0:0:
300,104,460233,6,0,P|312:144|296:208,1,96
272,216,460526,2,0,P|232:200|152:200,1,96
156,228,460819,2,0,P|108:236|172:308,1,192
292,276,461697,5,0,0:0:0:0:
292,276,461989,2,0,B|268:216|312:192|280:128,1,128
240,56,462575,6,0,P|172:68|116:52,1,128
144,176,463014,1,8,0:0:0:0:
144,176,463087,1,8,0:0:0:0:
144,176,463160,2,0,P|132:252|156:344,1,160,4|0,0:0|0:0,0:0:0:0:
240,248,463745,6,8,L|288:236,2,40
240,144,464038,5,0,0:0:0:0:
328,92,464184,1,8,0:0:0:0:
328,92,464258,1,8,0:0:0:0:
328,92,464331,2,0,B|368:120|368:120|432:132,1,80,4|0,0:0|0:0,0:0:0:0:
468,192,464623,2,0,P|444:244|468:348,1,160
463,341,465062,1,0,0:0:0:0:
356,296,465209,5,0,0:0:0:0:
356,296,465282,1,0,0:0:0:0:
356,296,465355,2,0,P|300:284|256:280,1,80
356,208,465648,1,8,0:0:0:0:
192,180,465794,5,8,0:0:0:0:
192,180,465867,1,8,0:0:0:0:
192,180,465941,2,0,P|248:192|292:196,1,80,8|0,0:0|0:0,0:0:0:0:
192,264,466233,1,0,0:0:0:0:
348,40,466379,6,0,P|349:97|356:140,2,80,0|0|4,0:0|0:0|0:0,0:0:0:0:
140,76,467258,6,0,B|120:136|156:136|136:208,1,120
152,224,467550,2,8,P|200:212|320:224,1,160
272,288,468721,5,0,0:0:0:0:
272,288,468794,1,0,0:0:0:0:
272,288,468867,2,0,P|220:296|168:288,1,80,0|4,0:0|0:0,0:0:0:0:
88,192,469453,5,8,0:0:0:0:
88,192,469599,2,8,P|140:196|176:192,1,80
200,120,469819,2,8,P|200:72|212:32,1,80
280,24,470038,2,8,P|328:36|364:32,1,80,8|4,0:0|0:0,0:0:0:0:
388,128,470623,5,0,0:0:0:0:
388,128,470770,2,8,P|380:192|388:236,2,80
392,44,471209,1,0,0:0:0:0:
424,284,471355,2,8,B|372:296|372:296|308:296|308:296|260:312,1,160
252,224,471794,1,0,0:0:0:0:
252,224,471867,1,0,0:0:0:0:
252,224,471941,2,8,P|200:176|296:192,1,240.000009155274
464,196,472526,6,8,B|472:108|472:108|456:36,1,160
456,38,472965,1,0,0:0:0:0:
396,128,473111,2,8,B|388:188|360:248|360:248|404:244,1,160
468,280,473550,1,0,0:0:0:0:
412,344,473697,2,0,P|356:352|256:336,1,120,8|0,0:0|0:0,0:0:0:0:
268,328,473989,2,8,P|280:276|264:164,1,160
188,200,474721,5,0,0:0:0:0:
188,200,474867,2,8,P|100:208|20:196,1,160
100,128,475306,1,0,0:0:0:0:
108,292,475453,2,8,P|164:296|272:284,1,160
252,184,476038,5,8,0:0:0:0:
240,144,476111,1,0,0:0:0:0:
248,103,476184,1,0,0:0:0:0:
275,71,476257,1,0,0:0:0:0:
308,48,476331,2,0,P|348:36|452:52,1,120,8|0,0:0|0:0,0:0:0:0:
440,64,476623,2,8,B|416:144|456:152|432:236,1,160
352,296,477062,5,0,0:0:0:0:
244,340,477209,2,8,B|164:348|164:348|56:332,1,160
164,272,477648,1,0,0:0:0:0:
164,272,477794,2,8,P|176:208|168:100,1,160
170,113,478233,1,0,0:0:0:0:
256,196,478380,2,8,B|312:196|312:196|368:228|368:228|420:228,1,160
400,148,478819,5,0,0:0:0:0:
400,148,478892,1,0,0:0:0:0:
400,148,478965,2,0,P|412:92|400:12,1,120,8|0,0:0|0:0,0:0:0:0:
372,24,479258,2,0,P|324:36|240:28,1,120,8|0,0:0|0:0,0:0:0:0:
240,52,479550,2,8,B|216:136|260:136|236:224,1,160
164,172,479989,1,0,0:0:0:0:
164,172,480136,2,0,P|112:176|76:164,1,80,8|0,0:0|0:0,0:0:0:0:
124,84,480575,5,0,0:0:0:0:
116,264,480721,2,0,P|136:312|232:320,1,120,8|0,0:0|0:0,0:0:0:0:
228,304,481014,2,0,P|228:260|232:220,2,80,8|0|8,0:0|0:0|0:0,0:0:0:0:
336,264,481599,6,0,P|384:272|432:264,1,80,8|0,0:0|0:0,0:0:0:0:
432,184,481892,2,0,B|444:100|444:100|428:16,1,160,8|0,0:0|0:0,0:0:0:0:
352,96,482331,1,0,0:0:0:0:
352,96,482623,6,0,P|336:156|204:184,1,200
264,116,483062,2,0,B|176:72|176:72|152:112,1,120,8|0,0:0|0:0,0:0:0:0:
128,160,483355,2,0,B|144:220|104:220|136:292,1,120,8|0,0:0|0:0,0:0:0:0:
208,308,483648,2,8,B|292:292|292:292|376:312,1,160,0|0,0:0|0:0,0:0:0:0:
256,192,484233,12,4,485989,0:0:0:0:
133,317,486575,6,0,P|193:337|256:320,1,100,8|0,0:0|0:0,0:0:0:0:
61,247,486867,2,8,B|90:134|35:134|69:36,1,200
184,98,487306,1,0,0:0:0:0:
184,98,487380,1,0,0:0:0:0:
184,98,487453,2,0,P|190:151|179:206,1,100,8|0,0:0|0:0,0:0:0:0:
254,277,487745,6,0,P|316:287|428:264,1,150,8|0,0:0|0:0,0:0:0:0:
408,250,488038,2,8,B|383:144|383:144|411:37,1,200
475,131,488477,1,0,0:0:0:0:
318,82,488623,1,8,0:0:0:0:
309,236,488770,1,0,0:0:0:0:
309,236,488916,2,8,P|249:254|94:224,1,200
209,155,489355,5,0,0:0:0:0:
209,155,489428,1,0,0:0:0:0:
209,155,489501,2,0,P|211:86|209:44,2,100,8|0|8,0:0|0:0|0:0,0:0:0:0:
345,104,489941,1,0,0:0:0:0:
345,104,490087,2,8,B|333:177|336:259|336:259|304:216,1,200
429,188,490526,5,0,0:0:0:0:
429,188,490672,2,0,P|434:254|424:305,1,100,8|0,0:0|0:0,0:0:0:0:
228,234,490965,2,0,P|223:171|239:107,1,100,8|0,0:0|0:0,0:0:0:0:
134,281,491258,6,0,P|106:348|66:281,1,180.000006866455,8|0,0:0|0:0,0:0:0:0:
91,218,491550,2,0,P|113:158|88:23,1,200,8|0,0:0|0:0,0:0:0:0:
35,112,491989,1,0,0:0:0:0:
191,118,492136,2,0,B|248:135|248:135|313:119,1,100,8|0,0:0|0:0,0:0:0:0:
441,291,492428,2,0,B|473:183|416:181|442:77,1,200,8|0,0:0|0:0,0:0:0:0:
346,22,492867,5,0,0:0:0:0:
346,22,492941,1,0,0:0:0:0:
346,22,493014,2,0,P|334:80|343:143,1,100,8|0,0:0|0:0,0:0:0:0:
317,207,493306,1,8,0:0:0:0:
220,310,493453,1,0,0:0:0:0:
175,162,493599,6,0,P|170:103|59:66,1,150,8|0,0:0|0:0,0:0:0:0:
93,138,493892,2,8,B|111:242|58:242|86:337,1,200
172,278,494331,5,0,0:0:0:0:
172,278,494404,1,0,0:0:0:0:
172,278,494477,1,8,0:0:0:0:
272,165,494623,1,0,0:0:0:0:
358,289,494770,2,8,P|420:280|465:146,1,200
379,193,495209,1,0,0:0:0:0:
379,193,495355,2,8,B|368:128|368:128|384:87|384:87|352:37|352:37|297:23,1,200
281,104,495794,5,0,0:0:0:0:
466,131,495941,2,8,B|471:207|464:288|464:288|426:248,1,200,4|8,0:0|0:0,0:0:0:0:
336,215,496380,1,0,0:0:0:0:
289,308,496526,2,8,P|233:321|76:283,1,200
190,225,496965,1,0,0:0:0:0:
190,225,497038,1,0,0:0:0:0:
190,225,497111,2,0,P|207:164|195:99,1,100,8|0,0:0|0:0,0:0:0:0:
116,117,497404,5,8,0:0:0:0:
195,31,497550,1,0,0:0:0:0:
291,113,497697,1,8,0:0:0:0:
291,113,497989,5,8,0:0:0:0:
209,215,498136,1,0,0:0:0:0:
308,309,498282,2,8,P|371:302|445:175,1,200,4|8,0:0|0:0,0:0:0:0:
417,57,498721,1,0,0:0:0:0:
271,83,498867,2,0,B|260:140|260:140|269:192,1,100,8|0,0:0|0:0,0:0:0:0:
142,276,499160,2,0,B|154:215|154:215|139:149,1,100,8|0,0:0|0:0,0:0:0:0:
51,63,499453,6,8,B|150:87|150:40|266:76,1,200
187,144,499892,1,0,0:0:0:0:
295,148,500038,2,8,B|258:242|310:242|288:363,1,200
204,277,500477,1,0,0:0:0:0:
362,209,500623,1,4,0:0:0:0:
369,100,501794,1,4,0:0:0:0:
382,102,502965,5,4,0:0:0:0:
359,82,503038,1,0,0:0:0:0:
331,72,503111,1,0,0:0:0:0:
301,71,503184,1,0,0:0:0:0:
273,81,503257,1,8,0:0:0:0:
249,100,503330,1,0,0:0:0:0:
234,125,503404,1,0,0:0:0:0:
228,155,503477,1,0,0:0:0:0:
232,182,503550,6,8,L|245:236,4,40
315,149,503917,5,0,0:0:0:0:
336,182,503990,1,0,0:0:0:0:
345,221,504063,1,0,0:0:0:0:
340,260,504136,1,8,0:0:0:0:
321,295,504209,1,0,0:0:0:0:
292,322,504282,1,0,0:0:0:0:
255,337,504356,1,0,0:0:0:0:
216,340,504428,6,0,B|159:335|159:335|103:293,1,100,8|0,0:0|0:0,0:0:0:0:
115,109,504721,6,0,B|169:120|169:120|228:159,1,100,8|0,0:0|0:0,0:0:0:0:
382,245,505014,6,0,B|409:198|409:198|413:141,1,100,8|0,0:0|0:0,0:0:0:0:
271,42,505306,6,8,B|210:169|303:152|246:315,1,240.000009155274
161,207,505745,1,0,0:0:0:0:
102,88,505892,1,8,0:0:0:0:
28,207,506038,1,0,0:0:0:0:
28,207,506111,1,0,0:0:0:0:
28,207,506184,2,0,P|18:283|34:350,1,120.000004577637,8|0,0:0|0:0,0:0:0:0:
166,317,506477,6,8,P|236:296|408:330,1,240.000009155274
484,240,506916,1,0,0:0:0:0:
410,93,507062,1,8,0:0:0:0:
321,213,507209,1,0,0:0:0:0:
321,213,507282,1,0,0:0:0:0:
321,213,507355,2,0,B|253:199|253:199|190:152,1,120.000004577637,8|0,0:0|0:0,0:0:0:0:
229,40,507648,6,8,P|169:25|65:170,1,240.000009155274
162,278,508087,1,0,0:0:0:0:
164,116,508233,1,8,0:0:0:0:
308,192,508380,1,0,0:0:0:0:
308,192,508453,1,0,0:0:0:0:
308,192,508526,2,0,B|375:179|375:179|427:152,1,120.000004577637,8|0,0:0|0:0,0:0:0:0:
456,237,508819,2,8,B|436:275|446:314|446:314|380:299|354:342|271:312,1,240.000009155274
345,230,509258,5,0,0:0:0:0:
255,100,509404,1,8,0:0:0:0:
172,232,509550,1,0,0:0:0:0:
172,232,509623,1,0,0:0:0:0:
172,232,509697,2,0,P|93:222|47:189,1,120.000004577637,8|0,0:0|0:0,0:0:0:0:
87,74,509989,6,8,B|171:70|208:110|208:110|245:82|259:47|259:47|283:95|322:109|322:109|360:103|381:74|381:74|415:110|500:103,1,480.000018310548,0|0,0:0|0:0,0:0:0:0:
432,216,510721,1,0,0:0:0:0:
308,304,510867,1,8,0:0:0:0:
288,164,511014,1,0,0:0:0:0:
288,164,511087,1,0,0:0:0:0:
288,164,511160,2,0,P|228:144|96:160,1,180.000006866455,8|0,0:0|0:0,0:0:0:0:
100,184,511453,2,8,B|128:252|104:336|104:336|148:308|220:304,1,240.000009155274
240,228,511892,5,0,0:0:0:0:
332,120,512038,1,8,0:0:0:0:
408,256,512184,1,0,0:0:0:0:
408,256,512331,2,8,P|440:188|416:24,1,240.000009155274
280,60,512770,5,0,0:0:0:0:
336,192,512916,1,8,0:0:0:0:
192,152,513062,1,0,0:0:0:0:
196,288,513209,1,8,0:0:0:0:
64,224,513355,1,0,0:0:0:0:
64,224,513428,1,0,0:0:0:0:
64,224,513501,2,8,P|72:108|188:64,1,240.000009155274
148,152,513941,5,0,0:0:0:0:
192,280,514087,1,8,0:0:0:0:
304,200,514233,1,0,0:0:0:0:
252,72,514380,5,8,0:0:0:0:
297,56,514453,1,0,0:0:0:0:
344,60,514526,1,0,0:0:0:0:
387,82,514599,1,0,0:0:0:0:
420,120,514672,2,8,P|448:168|448:288,1,160
352,332,515111,5,0,0:0:0:0:
280,196,515258,1,8,0:0:0:0:
196,308,515404,1,0,0:0:0:0:
196,308,515477,1,0,0:0:0:0:
196,308,515550,2,0,P|128:296|48:244,1,120.000004577637,8|0,0:0|0:0,0:0:0:0:
152,192,515843,2,8,P|172:112|336:72,1,240.000009155274
264,160,516282,5,0,0:0:0:0:
348,296,516428,1,8,0:0:0:0:
436,172,516575,1,0,0:0:0:0:
436,172,516648,1,0,0:0:0:0:
436,172,516721,2,0,P|448:104|440:48,1,120.000004577637,8|0,0:0|0:0,0:0:0:0:
356,100,517014,6,8,B|248:156|244:64|80:112,1,240.000009155274
56,200,517453,5,0,0:0:0:0:
156,312,517599,1,8,0:0:0:0:
212,172,517745,1,0,0:0:0:0:
212,172,517819,1,0,0:0:0:0:
212,172,517892,1,8,0:0:0:0:
344,216,518038,1,0,0:0:0:0:
420,88,518184,2,8,B|444:164|444:164|444:252|444:252|416:344,1,240.000009155274
364,200,518623,5,0,0:0:0:0:
364,200,518770,2,8,B|296:200|296:200|264:164|264:164|176:164|176:164|144:200,1,240.000009155274
256,192,519355,12,0,521697,0:0:0:0:
112,132,522282,6,0,P|76:180|184:152,1,280,8|0,0:0|0:0,0:0:0:0:
184,88,522867,2,0,B|316:56|344:128|472:88,1,280,8|0,0:0|0:0,0:0:0:0:
424,176,523453,2,0,B|424:240|452:312|452:312|404:288|344:292,1,240,8|0,0:0|0:0,0:0:0:0:
312,216,524038,5,4,0:0:0:0:
289,196,524111,1,0,0:0:0:0:
264,180,524184,1,0,0:0:0:0:
235,172,524257,1,0,0:0:0:0:
205,171,524330,1,8,0:0:0:0:
175,171,524403,1,0,0:0:0:0:
145,166,524477,1,0,0:0:0:0:
118,155,524550,1,0,0:0:0:0:
92,144,524623,5,8,0:0:0:0:
68,126,524696,1,0,0:0:0:0:
61,97,524769,1,0,0:0:0:0:
72,70,524842,1,0,0:0:0:0:
97,53,524915,1,8,0:0:0:0:
126,50,524988,1,0,0:0:0:0:
154,61,525062,1,0,0:0:0:0:
172,85,525135,1,0,0:0:0:0:
179,114,525208,5,8,0:0:0:0:
181,144,525281,1,0,0:0:0:0:
182,174,525354,1,0,0:0:0:0:
187,203,525427,1,0,0:0:0:0:
203,229,525501,1,8,0:0:0:0:
229,243,525574,1,0,0:0:0:0:
258,239,525647,1,0,0:0:0:0:
280,219,525720,1,0,0:0:0:0:
289,191,525793,5,8,0:0:0:0:
289,161,525866,1,0,0:0:0:0:
286,131,525940,1,0,0:0:0:0:
287,101,526013,1,0,0:0:0:0:
299,74,526086,1,8,0:0:0:0:
323,56,526159,1,0,0:0:0:0:
352,51,526232,1,0,0:0:0:0:
381,58,526305,1,0,0:0:0:0:
405,76,526379,1,8,0:0:0:0:
160,96,526965,5,4,0:0:0:0:
160,288,527160,1,4,0:0:0:0:
352,288,527355,1,4,0:0:0:0:
352,96,527550,1,4,0:0:0:0:
