osu file format v14

[General]
AudioFilename: audio.mp3
AudioLeadIn: 0
PreviewTime: 387421
Countdown: 0
SampleSet: Soft
StackLeniency: 0.7
Mode: 0
LetterboxInBreaks: 0
WidescreenStoryboard: 0

[Editor]
Bookmarks: 33613,106198,181125,256052,330978,332178,333378,334578,335778,336978,338178,339378,340578,341778,342978,344178,345378,346578,347778,348978,350178,369348,448973
DistanceSpacing: 0.95
BeatDivisor: 4
GridSize: 32
TimelineZoom: 2.08

[Metadata]
Title:Uta
TitleUnicode:謳
Artist:Imperial Circus Dead Decadence
ArtistUnicode:Imperial Circus Dead Decadence
Creator:deetz
Version:Collab
Source:osu!
Tags:vinxis nyquill sing cheesecake icdd fa featured artist black symphonic death metal japanese extol declare express Ode To The Dreadful Sacrament 惨劇の血に赫く染まった愛と絶望の黒い死とが紡ぐ最期の物語 Sangeki no Chi ni Kagayaku Somatta Ai to Zetsubou no Kuroi Shitoga Tsumugu Saigo no Monogatari Rib:y(uhki) L.G.C. KIM Kylie Hull VAGUEDGE Another Stream Kimiko PEATH2 TOME あにょ REINO Hellnear mappers guild
BeatmapID:2015472
BeatmapSetID:962562

[Difficulty]
HPDrainRate:5
CircleSize:4
OverallDifficulty:8
ApproachRate:9.2
SliderMultiplier:1.4
SliderTickRate:1

[Events]
//Background and Video events
0,0,"uta4.jpg",0,0
//Break Periods
2,200162,207479
2,239967,244943
2,275089,282406
2,331291,349591
2,432873,447800
//Storyboard Layer 0 (Background)
//Storyboard Layer 1 (Fail)
//Storyboard Layer 2 (Pass)
//Storyboard Layer 3 (Foreground)
//Storyboard Sound Samples

[TimingPoints]
1554,428.571428571429,4,2,0,100,1,0
23411,454.545454545455,4,2,0,100,1,0
24320,458.015267175573,4,2,0,100,1,0
24778,461.538461538462,4,2,0,100,1,0
25239,465.116279069767,4,2,0,100,1,0
25704,500,4,2,0,100,1,0
27704,545.454545454546,4,2,0,100,1,0
29885,534.521158129176,4,2,0,100,1,0
33626,292.682926829268,4,2,0,55,1,0
33626,-125,4,2,0,55,0,0
35674,-71.4285714285714,4,2,0,55,0,0
35967,-125,4,2,0,55,0,0
38016,-71.4285714285714,4,2,0,55,0,0
38308,-100,4,2,0,55,0,0
42991,-125,4,2,0,55,0,0
45040,-71.4285714285714,4,2,0,55,0,0
45333,-125,4,2,0,55,0,0
47382,-71.4285714285714,4,2,0,55,0,0
47482,-100,4,2,0,55,0,0
47674,-125,4,2,0,55,0,0
51918,-76.9230769230769,4,2,0,55,0,0
52357,-100,4,1,0,60,0,0
78113,-100,4,1,0,50,0,0
85138,-142.857142857143,4,2,0,60,0,0
87479,-90.9090909090909,4,1,0,60,0,0
106211,-90.9090909090909,4,1,0,55,0,0
132991,-71.4285714285714,4,1,0,55,0,0
133430,-83.3333333333333,4,1,0,60,0,0
143674,-76.9230769230769,4,1,0,60,0,0
148065,-71.4285714285714,4,1,0,60,0,0
148357,-76.9230769230769,4,1,0,60,0,0
150113,-71.4285714285714,4,1,0,60,0,0
150699,-76.9230769230769,4,1,0,60,0,0
162406,-76.9230769230769,4,1,0,70,0,1
171772,-76.9230769230769,4,1,0,60,0,0
181138,-83.3333333333333,4,1,0,55,0,0
209235,-100,4,1,0,55,0,0
246699,-100,4,1,0,60,0,0
256065,-100,4,1,0,55,0,0
261918,-90.9090909090909,4,1,0,55,0,0
262357,-100,4,1,0,55,0,0
267040,-83.3333333333333,4,1,0,55,0,0
267479,-100,4,1,0,55,0,0
271284,-90.9090909090909,4,1,0,55,0,0
271723,-100,4,1,0,55,0,0
283138,-133.333333333333,4,1,0,55,0,0
284162,-100,4,1,0,55,0,0
288845,-90.9090909090909,4,1,0,60,0,0
293528,-76.9230769230769,4,1,0,60,0,0
311089,-66.6666666666667,4,1,0,55,0,0
312260,-71.4285714285714,4,1,0,70,0,1
321625,-66.6666666666667,4,1,0,60,0,0
330991,300,4,2,1,40,1,0
350191,-250,4,2,1,40,0,0
354841,-133.333333333333,4,2,1,40,0,0
354991,-250,4,2,1,40,0,0
364441,-133.333333333333,4,2,1,40,0,0
364591,-250,4,2,1,40,0,0
368191,292.682926829268,4,2,2,55,1,0
369361,-117.647058823529,4,2,2,55,0,0
388093,-83.3333333333333,4,1,0,55,0,1
409166,-125,4,2,0,55,0,0
410337,-166.666666666667,4,2,0,55,0,0
411508,-83.3333333333333,4,1,0,55,0,1
430239,-83.3333333333333,4,1,0,55,0,0
448386,300,4,2,1,30,1,8
448386,-200,4,2,1,30,0,8
448686,-142.857142857143,4,2,1,30,0,8
448986,292.682926829268,4,2,3,40,1,0
448986,-111.111111111111,4,2,3,40,0,0
449864,-142.857142857143,4,2,3,40,0,0
463034,-83.3333333333333,4,1,3,55,0,0
472400,-83.3333333333333,4,1,3,60,0,0
484107,-71.4285714285714,4,1,3,60,0,0
486449,-83.3333333333333,4,1,3,70,0,1
495815,-83.3333333333333,4,1,3,70,0,0
521571,-71.4285714285714,4,1,3,75,0,0

[Colours]
Combo1 : 255,94,55
Combo2 : 173,255,95
Combo3 : 17,254,176
Combo4 : 255,88,100

[HitObjects]
50,280,33626,5,6,1:2:0:0:
50,280,33918,2,0,B|77:290|77:290|104:290,1,56
202,347,34211,2,0,B|174:347|174:347|147:357,1,56
180,253,34504,2,0,B|185:226|185:226|177:198,1,56
257,286,34796,6,0,B|283:276|283:276|311:280,1,56
369,191,35089,2,0,B|342:200|342:200|314:196,1,56
255,133,35382,2,0,B|251:105|251:105|256:78,1,56
72,3,35674,6,0,B|64:52|64:52|74:93|74:93|58:157,1,146.999995513916,0|0,1:0|0:0,0:0:0:0:
60,146,35967,5,6,1:2:0:0:
60,146,36260,2,0,B|61:177|61:177|56:202,1,56
144,168,36552,2,0,B|143:137|143:137|148:112,1,56
220,202,36845,2,0,B|247:199|247:199|275:202,1,56
344,154,37138,6,0,B|342:127|342:127|347:97,1,56
428,192,37430,2,0,B|430:219|430:219|425:249,1,56
341,291,37723,2,0,B|339:264|339:264|344:234,1,56
270,178,38016,6,0,B|231:151|231:151|113:168,1,146.999995513916,0|0,1:0|0:0,0:0:0:0:
132,165,38308,6,0,B|180:75|96:3|96:3|6:81|41:167|41:167|69:210|69:210|49:259|49:259|56:357,1,560,6|0,1:2|0:0,0:0:0:0:
55,345,39772,2,0,L|130:347,1,70
182,285,40065,2,0,L|257:283,1,70
309,345,40357,2,0,L|384:347,1,70
444,293,40650,5,6,1:2:0:0:
372,249,40796,1,4,3:0:0:0:
374,221,40869,1,4,3:0:0:0:
376,193,40942,1,4,3:0:0:0:
378,165,41015,1,4,3:0:0:0:
380,137,41088,1,4,3:0:0:0:
317,81,41235,1,0,0:0:0:0:
241,120,41382,2,0,L|194:111,1,35,2|0,0:3|0:0,0:3:0:0:
146,65,41528,2,0,L|159:14,3,35,0|0|0|0,3:0|3:0|3:0|3:0,3:0:0:0:
76,114,41821,5,0,3:0:0:0:
78,141,41894,1,0,3:0:0:0:
80,169,41967,1,0,3:0:0:0:
82,197,42040,1,0,3:0:0:0:
85,225,42113,2,8,L|77:273,3,35,8|8|8|8,0:3|0:3|0:3|0:3,0:3:0:0:
173,267,42406,2,4,L|164:314,3,35,4|4|4|4,0:3|0:3|0:3|0:3,0:3:0:0:
260,308,42699,1,2,0:0:0:0:
347,349,42845,1,2,0:0:0:0:
462,323,42991,5,6,1:2:0:0:
462,323,43284,2,0,B|471:296|471:296|462:254,1,56
373,196,43577,2,0,B|364:223|364:223|373:265,1,56
461,175,43869,2,0,B|467:149|467:149|458:122,1,56
383,79,44162,6,0,B|356:70|356:70|328:73,1,56
289,154,44455,2,0,B|262:163|262:163|234:159,1,56
160,208,44747,2,0,B|151:235|151:235|154:262,1,56
62,371,45040,6,0,B|76:322|76:322|58:288|58:288|65:222,1,146.999995513916,0|0,1:0|0:0,0:0:0:0:
64,230,45333,5,6,1:2:0:0:
64,230,45625,2,0,B|69:203|69:203|65:175,1,56
114,111,45918,2,0,B|141:102|141:102|169:106,1,56
230,159,46211,2,0,B|258:163|258:163|284:153,1,56
338,90,46503,6,0,B|330:62|330:62|335:35,1,56
263,0,46796,2,0,B|236:10|236:10|208:10,1,56
129,34,47089,2,0,B|102:24|102:24|75:24,1,56
197,88,47382,6,0,L|203:238,1,146.999995513916,0|0,1:0|0:0,0:0:0:0:
202,234,47674,5,6,1:2:0:0:
202,234,47967,2,0,B|203:265|203:265|198:290,1,56
286,256,48259,2,0,B|285:225|285:225|290:200,1,56
362,290,48552,2,0,B|389:287|389:287|417:290,1,56
489,247,48845,6,0,B|491:220|491:220|487:192,1,56
402,148,49138,2,0,B|400:175|400:175|405:204,1,56
317,245,49430,2,0,B|319:218|319:218|314:189,1,56
248,147,49723,2,0,L|181:143,1,56
157,64,50016,6,0,P|101:72|45:73,1,112,6|4,1:2|0:3,0:0:0:0:
47,101,50382,1,4,0:3:0:0:
49,128,50455,1,4,0:3:0:0:
52,156,50528,1,4,0:3:0:0:
55,184,50601,1,6,1:2:0:0:
159,272,50894,1,4,0:3:0:0:
156,244,50967,1,4,0:3:0:0:
153,216,51040,1,4,0:3:0:0:
151,189,51113,1,4,0:3:0:0:
150,161,51186,5,6,1:2:0:0:
434,36,51479,2,0,P|435:79|439:120,1,74.6666666666667,0|0,1:1|0:0,0:0:0:0:
437,110,51772,1,0,1:0:0:0:
356,158,51918,6,2,B|307:140|307:140|273:161|273:161|219:133|139:164,1,227.499989585877,2|0,0:1|0:0,0:1:0:0:
97,89,52357,6,0,P|52:112|11:119,1,70,6|8,1:2|0:0,0:0:0:0:
77,272,52650,2,0,P|122:249|163:242,1,70,4|8,0:3|1:0,0:0:0:0:
177,173,52943,1,4,0:3:0:0:
177,173,53016,1,4,0:3:0:0:
177,173,53089,1,8,1:0:0:0:
214,308,53235,1,4,0:3:0:0:
350,274,53382,1,8,1:0:0:0:
312,138,53528,6,0,L|319:50,1,70,4|8,0:3|1:0,0:0:0:0:
397,35,53821,1,4,0:3:0:0:
251,15,53967,2,0,P|189:32|121:26,1,105,8|4,1:0|1:3,0:0:0:0:
123,26,54260,2,0,L|117:99,1,70,8|4,1:0|0:3,0:0:0:0:
64,151,54552,1,8,1:0:0:0:
190,143,54699,6,0,P|245:139|286:141,1,70,6|8,1:2|0:0,0:0:0:0:
339,93,54991,1,4,0:3:0:0:
416,144,55138,1,8,1:0:0:0:
494,95,55284,2,0,L|500:15,1,70,4|8,0:3|1:0,0:0:0:0:
356,71,55577,2,0,L|362:-9,1,70,4|8,0:3|1:0,0:0:0:0:
323,213,55869,6,0,L|328:282,1,70,4|8,0:3|1:0,0:0:0:0:
185,237,56162,1,4,0:3:0:0:
185,237,56308,2,0,L|193:352,1,105,8|4,1:0|0:3,0:0:0:0:
192,341,56601,1,8,1:0:0:0:
95,252,56747,1,4,0:3:0:0:
241,155,56894,1,8,1:0:0:0:
143,65,57040,6,0,L|146:136,1,70,6|8,1:2|0:0,0:0:0:0:
92,205,57333,1,4,0:3:0:0:
191,252,57479,1,8,1:0:0:0:
98,349,57625,1,4,0:3:0:0:
98,349,57699,1,4,0:3:0:0:
98,349,57772,1,8,1:0:0:0:
205,363,57918,1,4,0:3:0:0:
312,377,58065,1,8,1:0:0:0:
369,319,58211,6,0,L|366:248,1,70,6|8,1:2|0:0,0:0:0:0:
420,179,58504,1,4,0:3:0:0:
321,132,58650,1,8,1:0:0:0:
414,35,58796,1,4,0:3:0:0:
414,35,58870,1,4,0:3:0:0:
414,35,58943,1,8,1:0:0:0:
307,21,59089,1,4,0:3:0:0:
200,7,59236,1,8,1:0:0:0:
243,83,59382,6,0,L|236:160,1,70,4|0,1:2|0:0,0:0:0:0:
342,169,59674,2,0,L|348:99,1,70,4|0,1:2|0:0,0:0:0:0:
274,232,59967,1,0,1:0:0:0:
239,234,60040,1,0,1:0:0:0:
204,236,60113,1,0,1:0:0:0:
169,237,60186,1,0,1:0:0:0:
134,236,60260,2,0,L|132:284,3,35,0|0|0|0,1:0|1:0|1:0|1:0,1:0:0:0:
74,172,60552,6,8,L|65:124,3,35,8|8|8|8,2:3|2:3|2:3|2:3,2:3:0:0:
159,139,60845,2,4,L|162:89,3,35,4|4|4|4,2:3|2:3|2:3|2:3,2:3:0:0:
245,175,61138,2,8,L|254:127,3,35,4|4|4|4,2:3|2:3|2:3|2:3,2:3:0:0:
297,237,61430,2,0,L|301:318,1,70,4|0,0:3|0:0,0:0:0:0:
300,306,61650,1,0,0:0:0:0:
300,306,61723,5,6,1:2:0:0:
229,374,61869,1,12,1:0:0:0:
151,313,62016,1,4,0:3:0:0:
145,215,62162,1,8,1:0:0:0:
59,263,62308,2,0,P|58:287|59:343,1,70,4|8,0:3|1:0,0:0:0:0:
145,215,62601,2,0,P|146:180|144:145,1,70,4|8,0:3|1:0,0:0:0:0:
82,90,62894,5,4,0:3:0:0:
186,69,63040,1,8,1:0:0:0:
267,138,63186,1,4,0:3:0:0:
371,108,63333,2,0,P|372:82|368:29,1,70,8|4,1:0|0:3,0:0:0:0:
369,38,63552,1,4,2:3:0:0:
369,38,63625,1,4,2:3:0:0:
369,38,63699,1,4,2:3:0:0:
369,38,63772,2,4,L|416:33,3,35,4|4|4|4,2:3|2:3|2:3|2:3,2:3:0:0:
458,99,64065,6,0,L|456:180,1,70,4|8,1:2|1:0,0:0:0:0:
374,268,64357,2,0,L|372:198,1,70,4|8,3:0|1:0,0:0:0:0:
306,141,64650,1,4,0:3:0:0:
306,141,64723,1,4,0:3:0:0:
306,141,64796,1,8,1:0:0:0:
214,202,64943,1,4,0:3:0:0:
131,142,65089,1,8,1:0:0:0:
50,203,65235,5,8,2:3:0:0:
51,229,65308,1,8,2:3:0:0:
52,255,65381,1,8,2:3:0:0:
54,281,65454,1,4,2:3:0:0:
55,307,65528,1,4,1:2:0:0:
147,357,65674,1,4,0:3:0:0:
147,357,65747,1,4,0:3:0:0:
147,357,65821,2,0,L|193:358,3,35,4|0|0|0,0:3|0:0|0:0|0:0,0:0:0:0:
206,282,66113,2,0,L|281:290,1,70,4|0,1:2|0:0,0:0:0:0:
351,244,66406,6,0,L|345:197,3,35,0|0|0|0,1:0|1:0|1:0|1:0,1:0:0:0:
436,228,66699,2,8,L|430:181,3,35,8|8|8|8,2:3|2:3|2:3|2:3,2:3:0:0:
484,141,66991,1,4,2:3:0:0:
477,106,67064,1,4,2:3:0:0:
481,72,67137,1,4,2:3:0:0:
486,38,67210,1,4,2:3:0:0:
479,3,67284,2,4,L|431:10,3,35,4|4|4|4,2:3|2:3|2:3|2:3,2:3:0:0:
376,61,67577,5,4,1:2:0:0:
341,54,67650,1,4,2:3:0:0:
307,48,67723,1,4,2:3:0:0:
272,41,67796,1,4,2:3:0:0:
238,35,67869,2,4,L|192:41,3,35,4|4|4|4,2:3|2:3|2:3|2:3,2:3:0:0:
138,8,68162,2,0,L|57:13,1,70,4|4,1:3|1:3,3:0:0:0:
0,76,68455,1,4,1:2:0:0:
355,204,68747,5,6,1:2:0:0:
157,204,71089,5,6,1:2:0:0:
282,323,73430,5,6,1:2:0:0:
230,61,74601,1,6,1:2:0:0:
230,61,75333,2,2,L|237:15,2,35,2|2|2,2:3|2:3|2:3,2:3:0:0:
457,161,75772,6,4,L|463:201,3,35,4|4|4|4,2:3|2:3|2:3|2:3,2:3:0:0:
384,114,76065,2,4,L|390:74,3,35,4|4|4|4,2:3|2:3|2:3|2:3,2:3:0:0:
326,194,76357,1,4,1:3:0:0:
299,191,76430,1,4,2:3:0:0:
273,189,76504,1,4,2:3:0:0:
247,187,76576,1,4,2:3:0:0:
221,185,76650,2,0,L|219:139,3,35
149,229,76943,5,8,2:3:0:0:
116,216,77016,1,8,2:3:0:0:
81,211,77089,1,8,2:3:0:0:
46,212,77162,1,8,2:3:0:0:
13,221,77235,1,8,2:3:0:0:
79,293,77382,1,8,0:3:0:0:
144,364,77528,1,12,2:3:0:0:
111,373,77601,1,12,2:3:0:0:
76,374,77674,1,12,2:3:0:0:
41,369,77747,1,12,2:3:0:0:
9,357,77820,1,12,2:3:0:0:
79,293,77967,1,4,0:3:0:0:
217,306,78113,6,4,L|221:353,1,35,4|4,1:2|0:3,0:3:0:0:
301,293,78260,2,4,L|305:340,1,35,4|4,0:3|0:3,0:3:0:0:
359,179,78406,2,4,L|355:226,1,35,4|4,0:3|0:3,0:3:0:0:
275,166,78553,2,4,L|271:213,1,35,4|4,0:3|0:3,0:3:0:0:
207,111,78699,2,4,L|164:120,3,35,4|4|4|4,0:3|0:3|0:3|0:3,0:3:0:0:
187,26,78991,2,4,L|144:35,3,35,4|4|4|4,0:3|0:3|0:3|0:3,0:3:0:0:
68,69,79284,5,4,0:3:0:0:
71,103,79357,1,4,0:3:0:0:
74,138,79430,1,4,0:3:0:0:
77,173,79503,1,4,0:3:0:0:
81,208,79577,2,4,L|85:251,3,35,4|4|4|4,0:3|0:3|0:3|0:3,0:3:0:0:
179,205,79869,1,4,0:3:0:0:
176,239,79942,1,4,0:3:0:0:
173,274,80015,1,4,0:3:0:0:
170,309,80088,1,4,0:3:0:0:
166,344,80162,2,4,L|162:387,3,35,4|4|4|4,1:2|0:3|0:3|0:3,0:3:0:0:
271,345,80455,6,0,L|318:339,1,35,4|4,1:2|0:3,0:0:0:0:
257,260,80601,2,4,L|304:254,1,35,4|4,0:3|0:3,0:3:0:0:
351,190,80747,2,4,L|398:184,1,35,4|4,0:3|0:3,0:3:0:0:
337,105,80893,2,4,L|384:99,1,35,4|4,0:3|0:3,0:3:0:0:
235,54,81040,2,4,L|244:97,3,35,4|4|4|4,0:3|0:3|0:3|0:3,0:3:0:0:
150,74,81332,2,4,L|159:117,3,35,4|4|4|4,0:3|0:3|0:3|0:3,0:3:0:0:
135,189,81625,5,4,0:3:0:0:
169,191,81698,1,4,0:3:0:0:
204,193,81771,1,4,0:3:0:0:
239,195,81844,1,4,0:3:0:0:
274,197,81918,2,4,L|321:202,3,35,4|4|4|4,0:3|0:3|0:3|0:3,0:3:0:0:
231,285,82211,1,4,0:3:0:0:
196,287,82284,1,4,0:3:0:0:
161,289,82357,1,4,0:3:0:0:
126,291,82430,1,4,0:3:0:0:
91,294,82504,2,4,L|44:298,3,35,4|4|4|4,1:2|0:3|0:3|0:3,0:3:0:0:
84,208,82796,5,4,1:2:0:0:
89,182,82869,1,4,0:3:0:0:
91,156,82942,1,4,0:3:0:0:
91,129,83015,1,4,0:3:0:0:
89,103,83089,2,4,L|42:99,3,35,4|4|4|4,0:3|0:3|0:3|0:3,0:3:0:0:
204,126,83382,1,4,0:3:0:0:
198,100,83455,1,4,0:3:0:0:
196,74,83528,1,4,0:3:0:0:
196,47,83601,1,4,0:3:0:0:
198,21,83675,2,4,L|245:16,3,35,4|4|4|4,0:3|0:3|0:3|0:3,0:3:0:0:
305,76,83967,6,4,L|306:123,3,35,4|4|4|4,0:3|0:3|0:3|0:3,0:3:0:0:
393,71,84260,2,4,L|394:118,3,35,4|4|4|4,0:3|0:3|0:3|0:3,0:3:0:0:
308,190,84552,2,4,L|309:237,3,35,4|4|4|4,0:3|0:3|0:3|0:3,0:3:0:0:
396,185,84845,2,4,L|397:232,3,35,4|4|4|4,0:3|0:3|0:3|0:3,0:3:0:0:
348,302,85138,6,0,L|294:309,1,48.9999985046387,2|0,0:0|0:0,0:0:0:0:
207,342,85430,1,0,0:0:0:0:
207,342,85577,2,0,L|153:349,1,48.9999985046387,2|0,0:0|0:0,0:0:0:0:
230,237,85869,1,0,0:0:0:0:
230,237,86016,2,0,L|176:244,1,48.9999985046387,2|0,0:0|0:0,0:0:0:0:
52,272,86308,5,0,0:0:0:0:
52,272,86455,2,0,L|59:326,1,48.9999985046387,2|0,0:0|0:0,0:0:0:0:
78,172,86747,1,0,0:0:0:0:
78,172,86894,2,0,L|132:165,1,48.9999985046387,2|0,0:0|0:0,0:0:0:0:
230,88,87186,2,0,B|195:93|195:93|152:83,1,73.4999977569581,2|0,0:0|0:0,0:0:0:0:
157,84,87479,5,6,1:2:0:0:
242,189,87625,1,8,1:0:0:0:
358,127,87772,1,4,0:3:0:0:
391,253,87918,2,0,P|394:307|389:373,1,115.50000352478,8|0,1:0|0:0,0:0:0:0:
389,368,88211,1,8,1:0:0:0:
210,373,88357,1,4,0:3:0:0:
293,317,88504,1,8,1:0:0:0:
200,190,88650,6,0,L|207:277,1,77.0000023498536,4|8,0:3|1:0,0:0:0:0:
293,317,88943,1,4,0:3:0:0:
104,311,89089,2,0,P|106:257|91:156,1,154.000004699707,8|8,1:0|1:0,0:0:0:0:
0,82,89528,2,0,P|-3:126|3:167,1,77.0000023498536,4|8,0:3|1:0,0:0:0:0:
161,105,89821,5,4,1:2:0:0:
213,20,89967,1,8,1:0:0:0:
161,105,90113,1,4,0:3:0:0:
234,162,90260,2,0,L|311:147,1,77.0000023498536,8|4,1:0|0:3,0:0:0:0:
202,253,90552,1,8,1:0:0:0:
202,253,90699,2,0,L|126:267,1,77.0000023498536,4|8,0:3|1:0,0:0:0:0:
300,349,90991,6,0,P|327:309|333:268,1,77.0000023498536,4|8,0:3|1:0,0:0:0:0:
472,215,91284,2,0,P|449:245|439:282,1,77.0000023498536,4|8,0:3|1:0,0:0:0:0:
218,268,91577,2,0,P|221:219|206:181,1,77.0000023498536,4|8,0:3|1:0,0:0:0:0:
299,65,91870,2,0,P|294:102|304:139,1,77.0000023498536,4|8,0:3|1:0,0:0:0:0:
173,114,92162,6,0,B|137:150|137:150|27:162,1,154.000004699707,6|4,1:2|0:3,0:0:0:0:
77,237,92601,2,0,L|69:313,1,77.0000023498536,8|4,1:0|0:3,0:0:0:0:
14,371,92894,1,8,1:0:0:0:
144,375,93040,2,0,L|151:298,1,77.0000023498536,4|12,0:3|1:0,0:0:0:0:
216,225,93333,6,0,P|272:251|373:243,1,154.000004699707,4|4,1:2|0:3,0:0:0:0:
512,331,93772,2,0,P|436:324|365:352,1,154.000004699707,8|8,1:2|1:0,0:0:0:0:
251,329,94211,1,4,0:3:0:0:
144,375,94357,1,8,1:0:0:0:
51,319,94504,6,0,P|51:256|69:156,1,154.000004699707,6|4,1:2|0:3,0:0:0:0:
157,112,94943,2,0,L|158:191,1,77.0000023498536,8|4,1:0|0:3,0:0:0:0:
263,180,95235,1,8,1:0:0:0:
263,180,95382,2,0,L|262:103,1,77.0000023498536,4|8,0:3|1:0,0:0:0:0:
310,32,95674,5,4,0:3:0:0:
338,34,95747,1,4,0:3:0:0:
367,37,95820,1,4,0:3:0:0:
396,40,95893,1,4,0:3:0:0:
424,43,95966,1,4,1:2:0:0:
423,252,96260,1,4,0:3:0:0:
394,249,96333,1,4,0:3:0:0:
365,246,96406,1,4,0:3:0:0:
336,243,96479,1,4,0:3:0:0:
308,240,96552,2,0,B|300:288|300:288|310:306|310:306|301:360,1,115.50000352478,4|0,1:2|2:0,0:0:0:0:
229,375,96845,5,6,1:2:0:0:
166,318,96991,2,0,L|179:227,1,77.0000023498536,8|4,1:0|0:3,0:0:0:0:
77,227,97284,2,0,L|66:303,1,77.0000023498536,8|4,1:0|0:3,0:0:0:0:
21,146,97577,1,8,1:0:0:0:
21,146,97723,2,0,L|31:69,1,77.0000023498536,4|8,0:3|1:0,0:0:0:0:
134,24,98016,6,0,P|202:22|226:24,1,77.0000023498536,4|8,0:3|1:0,0:0:0:0:
212,144,98308,2,0,P|173:145|135:142,1,77.0000023498536,4|8,0:3|1:0,0:0:0:0:
288,88,98601,1,4,0:3:0:0:
350,164,98747,2,0,L|339:274,1,77.0000023498536,8|4,1:0|0:3,0:0:0:0:
386,315,99040,1,8,1:0:0:0:
266,323,99186,6,0,L|172:311,1,77.0000023498536,4|8,1:2|1:0,1:0:0:0:
47,240,99479,2,0,L|123:249,1,77.0000023498536,4|8,0:3|1:0,1:0:0:0:
277,215,99772,2,0,L|183:203,1,77.0000023498536,4|8,0:3|1:0,1:0:0:0:
58,132,100065,2,0,L|134:141,1,77.0000023498536,4|8,0:3|1:0,1:0:0:0:
198,93,100357,5,4,0:3:0:0:
142,22,100504,1,8,1:0:0:0:
235,8,100650,1,4,0:3:0:0:
293,80,100796,2,0,P|349:74|452:63,1,154.000004699707,8|8,1:0|1:0,0:0:0:0:
511,111,101235,2,0,P|511:158|512:191,1,77.0000023498536,4|8,0:3|1:0,0:0:0:0:
429,329,101528,6,0,P|429:290|429:252,1,77.0000023498536,4|8,1:2|1:0,0:0:0:0:
373,194,101821,1,4,0:3:0:0:
309,257,101967,2,0,L|126:244,1,154.000004699707,8|8,1:0|1:0,0:0:0:0:
106,180,102406,1,4,0:3:0:0:
73,271,102552,1,8,1:0:0:0:
16,167,102699,6,0,P|15:128|15:90,1,77.0000023498536,4|8,1:2|1:0,0:0:0:0:
72,32,102992,1,4,0:3:0:0:
136,95,103138,2,0,L|319:82,1,154.000004699707,8|8,1:0|1:0,0:0:0:0:
377,145,103577,1,4,0:3:0:0:
438,66,103723,1,8,1:0:0:0:
377,145,103869,5,4,1:3:0:0:
366,182,103943,1,4,2:3:0:0:
360,220,104016,1,4,2:3:0:0:
358,258,104089,1,4,2:3:0:0:
361,296,104162,2,4,L|368:353,3,38.5000011749268,4|4|4|4,2:3|2:3|2:3|2:3,2:3:0:0:
264,310,104455,2,4,L|271:367,3,38.5000011749268,4|4|4|4,1:3|2:3|2:3|2:3,2:3:0:0:
182,243,104747,2,4,L|189:186,3,38.5000011749268,8|4|8|4,2:3|2:3|2:3|2:3,2:3:0:0:
121,335,105040,5,8,1:3:0:0:
37,291,105186,1,8,2:3:0:0:
26,200,105333,1,4,1:3:0:0:
33,162,105406,1,4,2:3:0:0:
38,124,105479,1,4,2:3:0:0:
42,85,105552,1,4,2:3:0:0:
43,47,105625,2,4,L|38:-1,3,38.5000011749268,4|4|4|4,1:3|2:3|1:3|2:3,2:3:0:0:
132,43,105918,2,0,L|126:-5,3,38.5000011749268,0|0|0|0,1:0|1:0|1:0|1:0,1:0:0:0:
220,38,106211,5,4,0:1:0:0:
220,38,106504,1,8,0:0:0:0:
265,116,106650,2,4,B|313:139|348:127|348:127|370:82|409:73,1,154.000004699707,4|4,0:3|0:3,0:3:0:0:
310,229,107089,2,0,P|261:220|227:195,1,77.0000023498536,8|0,0:0|0:0,0:0:0:0:
426,163,107382,6,4,P|475:172|509:197,1,77.0000023498536,4|4,0:3|0:3,0:3:0:0:
283,357,107674,1,8,0:0:0:0:
192,365,107821,2,4,P|159:274|168:206,1,154.000004699707,4|4,0:3|0:3,0:3:0:0:
322,89,108260,2,0,L|310:177,1,77.0000023498536,8|0,0:0|0:0,0:0:0:0:
472,257,108552,6,0,B|478:197|478:197|473:180|473:180|481:119,1,115.50000352478,4|0,0:1|0:0,0:0:0:0:
482,126,108845,2,0,P|429:122|403:111,1,77.0000023498536,8|0,0:0|0:0,0:0:0:0:
402,281,109138,2,4,P|343:283|307:291,1,77.0000023498536,4|4,0:3|0:3,0:3:0:0:
275,109,109430,2,0,P|231:103|180:109,1,77.0000023498536,8|0,0:0|0:0,0:0:0:0:
103,210,109723,5,4,0:3:0:0:
103,210,109869,1,4,0:3:0:0:
198,105,110016,1,8,0:0:0:0:
0,56,110162,2,4,B|53:51|53:51|79:26|79:26|168:16,1,154.000004699707,4|4,0:3|0:3,0:3:0:0:
387,40,110601,2,0,L|287:49,1,77.0000023498536,8|0,0:0|0:0,0:0:0:0:
255,249,110894,6,0,P|349:212|370:161,1,154.000004699707,4|8,0:0|0:0,0:0:0:0:
181,203,111333,2,4,P|90:185|33:232,1,154.000004699707,4|4,0:3|0:3,0:3:0:0:
108,343,111772,2,0,L|118:258,1,77.0000023498536,8|0,0:0|0:0,0:0:0:0:
257,164,112065,6,0,P|291:252|264:308,1,154.000004699707,4|8,0:0|0:0,0:0:0:0:
108,343,112504,2,4,P|77:308|109:184,1,154.000004699707,4|4,0:3|0:3,0:3:0:0:
180,62,112943,2,0,L|173:153,1,77.0000023498536,8|0,0:0|0:0,0:0:0:0:
192,284,113235,1,4,0:3:0:0:
192,284,113382,1,4,0:3:0:0:
350,233,113528,6,0,B|308:222|308:222|253:232,1,77.0000023498536,8|0,0:0|0:0,0:0:0:0:
32,338,113821,2,0,B|74:349|74:349|129:339,1,77.0000023498536,4|4,0:3|0:3,0:0:0:0:
9,236,114113,1,8,0:0:0:0:
192,284,114260,6,2,B|205:236|205:236|198:122,1,154.000004699707
337,17,114699,2,0,L|342:123,1,77.0000023498536,10|0,0:0|0:0,0:0:0:0:
405,335,114991,1,2,0:2:0:0:
423,300,115065,1,2,0:2:0:0:
428,261,115138,1,2,0:2:0:0:
416,224,115211,1,2,0:2:0:0:
389,196,115284,2,0,L|290:199,1,77.0000023498536,2|4,0:2|0:3,0:0:0:0:
155,362,115577,6,0,P|231:357|339:352,1,154.000004699707,4|8,0:0|0:0,0:0:0:0:
216,249,116016,2,4,P|208:194|272:104,1,154.000004699707,4|4,0:3|0:3,0:3:0:0:
113,193,116455,2,0,P|49:205|20:198,1,77.0000023498536,8|0,0:0|0:0,0:0:0:0:
119,38,116747,6,4,P|146:93|148:128,1,77.0000023498536,4|4,0:3|0:3,0:3:0:0:
173,307,117040,1,8,0:0:0:0:
359,198,117186,2,4,B|322:179|322:179|261:200|207:176,1,154.000004699707,4|4,0:3|0:3,0:3:0:0:
300,282,117625,1,8,0:0:0:0:
259,99,117772,1,0,0:0:0:0:
125,220,117918,6,0,P|115:297|189:368,1,154.000004699707,4|8,0:0|0:0,0:0:0:0:
218,210,118357,1,0,0:0:0:0:
167,128,118504,2,4,L|68:121,1,77.0000023498536,4|4,0:3|0:3,0:3:0:0:
282,284,118796,2,0,L|374:277,1,77.0000023498536,8|0,0:0|0:0,0:0:0:0:
402,120,119089,6,4,B|393:160|393:160|403:210,1,77.0000023498536,4|4,0:3|0:3,0:3:0:0:
480,93,119382,1,8,0:0:0:0:
326,6,119528,2,4,B|312:62|312:62|323:92|323:92|306:164,1,154.000004699707,4|4,0:3|0:3,0:3:0:0:
457,273,119967,1,8,0:0:0:0:
457,273,120260,6,0,P|397:258|300:300,1,154.000004699707,4|8,0:0|0:0,0:0:0:0:
251,181,120699,2,4,P|221:123|242:34,1,154.000004699707,4|4,0:3|0:3,0:3:0:0:
126,141,121138,2,0,L|34:138,1,77.0000023498536,8|0,0:0|0:0,0:0:0:0:
0,308,121430,6,0,B|55:310|55:310|88:296|88:296|161:297,1,154.000004699707,4|8,0:0|0:0,0:0:0:0:
303,366,121869,2,4,P|345:309|330:227,1,154.000004699707,4|4,0:3|0:3,0:3:0:0:
215,107,122308,2,0,L|225:212,1,77.0000023498536,8|0,0:0|0:0,0:0:0:0:
241,289,122601,5,4,0:3:0:0:
241,289,122747,1,4,0:3:0:0:
375,155,122894,2,0,B|335:145|335:145|285:162,1,77.0000023498536,8|0,0:0|0:0,0:0:0:0:
85,247,123186,2,4,B|125:257|125:257|175:240,1,77.0000023498536,4|4,0:3|0:3,0:3:0:0:
119,139,123479,1,8,0:0:0:0:
51,315,123625,6,2,B|124:337|124:337|222:301,1,154.000004699707,6|2,0:0|0:0,0:0:0:0:
327,202,124065,2,0,P|313:284|300:360,1,154.000004699707,10|2,0:0|0:2,0:0:0:0:
281,130,124504,1,2,0:2:0:0:
196,113,124650,1,2,0:2:0:0:
121,154,124796,1,2,0:2:0:0:
111,242,124943,6,0,P|171:248|279:263,1,154.000004699707,4|8,0:0|0:0,0:0:0:0:
504,29,125528,2,0,P|444:35|336:50,1,154.000004699707,4|8,0:3|0:0,0:0:0:0:
413,171,125967,1,0,0:0:0:0:
488,228,126113,6,0,P|421:289|348:282,1,154.000004699707,4|8,0:3|0:0,0:0:0:0:
204,167,126552,1,8,0:3:0:0:
256,296,126699,1,8,0:0:0:0:
256,296,126772,1,4,0:3:0:0:
256,296,126845,2,0,L|273:186,2,77.0000023498536,4|8|4,0:3|0:0|0:3,0:0:0:0:
77,350,127284,6,0,B|89:288|89:288|83:264|83:264|100:181,1,154.000004699707,4|8,0:0|0:0,0:0:0:0:
206,64,127723,1,4,0:3:0:0:
253,145,127869,2,0,B|215:159|215:159|166:149,1,77.0000023498536,4|0,0:3|0:0,0:0:0:0:
5,123,128162,2,0,B|43:109|43:109|92:119,1,77.0000023498536,8|0,0:0|0:0,0:0:0:0:
302,210,128455,6,0,B|263:228|263:228|247:296|247:296|197:325,1,154.000004699707,4|8,0:3|0:0,0:0:0:0:
155,227,128894,1,4,0:3:0:0:
344,296,129040,1,2,0:2:0:0:
374,291,129113,1,2,0:2:0:0:
404,287,129186,1,2,0:2:0:0:
434,283,129260,1,2,0:2:0:0:
464,280,129333,2,0,L|476:195,1,77.0000023498536,8|0,0:0|0:0,0:0:0:0:
378,54,129625,5,4,0:0:0:0:
378,54,129772,1,4,0:3:0:0:
334,131,129918,2,0,B|371:141|371:141|444:123,1,77.0000023498536,8|0,0:0|0:0,0:0:0:0:
264,64,130211,2,4,B|227:54|227:54|154:72,1,77.0000023498536,4|4,0:3|0:3,0:3:0:0:
249,241,130504,2,0,L|259:142,1,77.0000023498536,8|0,0:0|0:0,0:0:0:0:
103,103,130796,6,0,P|99:179|141:247,1,154.000004699707,4|8,0:2|0:0,0:0:0:0:
339,182,131235,2,0,P|343:106|301:38,1,154.000004699707,4|4,0:2|0:3,0:0:0:0:
304,40,131601,1,4,0:3:0:0:
304,40,131674,1,8,0:0:0:0:
200,147,131821,1,4,0:3:0:0:
76,14,131967,6,0,B|171:9|123:69|244:44,1,154.000004699707,4|8,0:0|0:0,0:0:0:0:
93,113,132406,1,0,0:0:0:0:
180,217,132552,2,4,P|202:168|189:123,1,77.0000023498536,4|4,0:3|0:3,0:3:0:0:
111,293,132845,1,8,0:0:0:0:
6,131,132991,6,2,B|17:160|17:160|13:211|46:243|46:243|14:292|46:333,1,195.999994018555,6|4,0:0|0:3,0:0:0:0:
43,354,133357,1,4,0:3:0:0:
43,354,133430,2,0,L|140:346,1,83.9999974365235,6|4,0:0|0:3,0:0:0:0:
231,290,133723,1,2,0:2:0:0:
264,285,133796,1,2,0:2:0:0:
296,293,133869,1,2,0:2:0:0:
322,314,133943,1,2,0:2:0:0:
348,334,134016,1,2,0:2:0:0:
381,338,134089,1,2,0:2:0:0:
413,331,134162,1,2,0:2:0:0:
442,314,134235,1,2,0:2:0:0:
463,288,134308,6,0,L|460:189,1,83.9999974365235,4|8,0:0|0:0,0:0:0:0:
340,60,134601,2,0,L|337:7,2,41.9999987182618,4|4|8,0:3|0:3|0:0,0:0:0:0:
381,189,134894,2,0,B|337:200|337:200|272:176,1,83.9999974365235,4|8,0:3|0:0,0:0:0:0:
148,94,135186,2,0,B|192:83|192:83|257:107,1,83.9999974365235,4|8,0:3|0:0,0:0:0:0:
85,253,135479,6,0,L|81:143,1,83.9999974365235,4|8,0:3|0:0,0:0:0:0:
254,279,135772,2,0,L|257:362,1,83.9999974365235,4|8,0:3|0:0,0:0:0:0:
309,97,136065,2,0,L|306:49,2,41.9999987182618,4|4|8,0:3|0:3|0:0,0:0:0:0:
390,214,136357,2,0,B|433:221|433:221|493:193,1,83.9999974365235,4|8,0:3|0:0,0:0:0:0:
217,143,136650,6,0,P|168:143|138:188,1,83.9999974365235,4|8,0:0|0:0,0:0:0:0:
169,331,136943,2,0,P|176:290|151:241,1,83.9999974365235,4|8,0:3|0:0,0:0:0:0:
0,206,137235,2,0,P|34:224|92:219,1,83.9999974365235,4|8,0:3|0:0,0:0:0:0:
63,52,137528,1,4,0:3:0:0:
53,133,137674,1,8,0:0:0:0:
147,84,137821,5,4,0:3:0:0:
153,53,137894,1,4,0:3:0:0:
148,28,137967,1,8,0:0:0:0:
156,175,138113,2,0,L|269:165,1,83.9999974365235,4|8,0:3|0:0,0:0:0:0:
393,217,138406,2,0,L|307:226,1,83.9999974365235,4|8,0:3|0:0,0:0:0:0:
130,365,138699,1,2,0:2:0:0:
154,358,138772,1,2,0:2:0:0:
178,355,138845,1,2,0:2:0:0:
202,351,138918,1,2,0:2:0:0:
227,345,138991,6,0,B|242:306|242:306|221:234,1,83.9999974365235,4|8,0:0|0:0,0:0:0:0:
47,213,139284,2,0,B|32:252|32:252|53:324,1,83.9999974365235,4|8,0:3|0:0,0:0:0:0:
153,189,139577,1,4,0:3:0:0:
164,99,139723,1,8,0:0:0:0:
76,76,139869,1,4,0:3:0:0:
70,100,139943,1,4,0:3:0:0:
75,124,140016,1,8,0:0:0:0:
243,157,140162,6,0,L|358:153,1,83.9999974365235,4|8,0:3|0:0,0:0:0:0:
496,283,140455,2,0,L|377:286,1,83.9999974365235,4|8,0:3|0:0,0:0:0:0:
317,252,140747,1,2,0:2:0:0:
275,241,140821,1,2,0:2:0:0:
233,246,140894,1,2,0:2:0:0:
197,268,140967,1,2,0:2:0:0:
178,299,141040,2,0,L|191:390,1,83.9999974365235,4|8,0:3|0:0,0:0:0:0:
86,196,141333,5,8,0:3:0:0:
84,179,141406,1,8,0:3:0:0:
80,162,141479,1,8,0:3:0:0:
77,145,141552,1,8,0:3:0:0:
72,124,141625,2,4,L|134:134,3,41.9999987182618,4|4|4|4,0:3|0:3|0:3|0:3,0:3:0:0:
175,79,141918,2,8,L|237:89,3,41.9999987182618,8|8|8|8,0:3|0:3|0:3|0:3,0:3:0:0:
279,41,142211,2,4,L|360:51,3,41.9999987182618,4|4|4|4,0:3|0:3|0:3|0:3,0:3:0:0:
402,38,142504,6,0,B|413:79|413:79|387:136,1,83.9999974365235,4|8,0:0|0:0,0:0:0:0:
169,166,142796,1,8,0:3:0:0:
169,166,142869,1,8,0:3:0:0:
169,166,142943,2,0,L|270:171,1,83.9999974365235,4|2,0:3|0:2,0:0:0:0:
286,172,143162,1,2,0:2:0:0:
317,184,143235,1,2,0:2:0:0:
336,211,143308,1,2,0:2:0:0:
339,244,143382,1,2,0:2:0:0:
330,276,143455,1,2,0:2:0:0:
312,304,143528,2,4,B|308:375,1,41.9999987182618,4|4,0:3|0:3,0:3:0:0:
378,379,143674,6,0,L|211:385,1,136.499993751526,6|2,0:0|0:0,0:0:0:0:
200,381,143967,2,0,P|211:324|245:296,1,90.9999958343508,0|8,0:0|0:0,0:0:0:0:
153,71,144260,1,2,0:0:0:0:
249,46,144406,2,2,P|231:138|178:176,1,136.499993751526,10|0,0:0|0:0,0:0:0:0:
178,174,144699,2,0,L|95:170,1,45.4999979171754,8|0,0:0|0:0,0:0:0:0:
54,141,144845,6,0,L|59:290,2,136.499993751526,6|2|8,0:0|0:0|0:0,0:0:0:0:
182,276,145430,1,2,0:0:0:0:
182,276,145504,1,0,0:0:0:0:
182,276,145577,2,0,L|188:389,1,90.9999958343508,10|0,0:0|0:0,0:0:0:0:
305,213,145869,1,8,0:0:0:0:
364,136,146016,6,0,P|251:136|217:168,1,136.499993751526,6|2,0:0|0:0,0:0:0:0:
169,189,146308,2,0,L|174:84,1,90.9999958343508,0|0,0:0|0:0,0:0:0:0:
19,315,146601,2,0,B|64:324|64:324|134:300,1,90.9999958343508,2|8,0:0|0:0,0:0:0:0:
181,280,146821,2,0,B|223:270|223:270|293:288,1,90.9999958343508,2|0,0:0|0:0,0:0:0:0:
343,338,147040,2,0,L|341:267,1,45.4999979171754,8|0,0:0|0:0,0:0:0:0:
335,178,147186,5,4,0:3:0:0:
335,178,147333,1,4,0:3:0:0:
431,278,147479,2,0,B|441:236|441:236|419:182,1,90.9999958343508,8|4,0:0|0:3,0:0:0:0:
243,152,147772,2,0,B|234:200|234:200|256:254,1,90.9999958343508,8|4,0:0|0:3,0:0:0:0:
369,97,148065,2,2,B|344:89|324:106|324:106|308:79|285:64|246:52|210:76,1,146.999995513916,2|0,0:0|0:0,0:0:0:0:
209,77,148357,6,0,P|168:98|110:80,1,90.9999958343508,4|8,0:0|0:0,0:0:0:0:
21,245,148650,2,0,P|62:224|120:242,1,90.9999958343508,4|8,0:3|0:0,0:0:0:0:
389,93,148943,2,0,P|344:85|305:106,1,90.9999958343508,4|8,0:3|0:0,0:0:0:0:
99,358,149235,2,0,P|143:365|182:344,1,90.9999958343508,4|8,0:3|0:0,0:0:0:0:
161,112,149528,6,0,P|116:119|77:98,1,90.9999958343508,4|8,0:0|0:0,0:0:0:0:
354,291,149821,2,0,P|398:283|437:304,1,90.9999958343508,4|8,0:3|0:0,0:0:0:0:
450,53,150113,2,2,B|430:76|406:79|406:79|378:83|378:83|390:103|390:103|366:106|366:106|338:110|289:153,1,195.999994018555
253,266,150552,1,4,0:3:0:0:
144,48,150699,6,0,L|160:153,1,90.9999958343508,4|8,0:0|0:0,0:0:0:0:
401,366,150991,2,0,L|377:259,1,90.9999958343508,4|8,0:3|0:0,0:0:0:0:
60,187,151284,2,0,P|110:262|140:271,1,90.9999958343508,4|8,0:3|0:0,0:0:0:0:
478,187,151577,2,0,P|428:112|398:103,1,90.9999958343508,4|8,0:3|0:0,0:0:0:0:
365,73,151796,1,4,0:3:0:0:
365,73,151869,6,0,L|265:85,1,90.9999958343508,4|10,0:3|0:0,0:0:0:0:
153,261,152162,2,0,L|53:273,1,90.9999958343508,4|10,0:3|0:0,0:0:0:0:
188,57,152455,2,0,L|75:70,1,90.9999958343508,4|10,0:3|0:0,0:0:0:0:
400,289,152747,2,0,L|287:302,1,90.9999958343508,4|10,0:3|0:0,0:0:0:0:
176,355,153040,5,4,0:0:0:0:
176,355,153186,1,8,0:0:0:0:
209,205,153333,1,4,0:3:0:0:
209,205,153479,1,8,0:1:0:0:
78,370,153625,1,4,0:3:0:0:
78,370,153772,1,8,0:1:0:0:
124,150,153918,1,4,0:3:0:0:
124,150,154065,1,8,0:1:0:0:
9,259,154211,5,4,0:0:0:0:
87,289,154357,1,8,0:0:0:0:
170,278,154504,1,2,0:3:0:0:
247,236,154650,1,8,0:0:0:0:
300,158,154796,1,4,0:3:0:0:
375,113,154943,1,8,0:0:0:0:
462,92,155089,2,2,P|323:85|251:79,1,181.999991668702,2|4,0:1|0:0,0:1:0:0:
499,171,155528,5,8,0:0:0:0:
478,255,155674,1,2,0:3:0:0:
401,296,155821,1,8,0:0:0:0:
322,262,155967,1,4,0:3:0:0:
272,189,156113,1,8,0:0:0:0:
198,145,156260,1,2,0:3:0:0:
115,159,156406,1,8,0:0:0:0:
58,230,156552,5,4,0:0:0:0:
58,230,156625,1,4,0:3:0:0:
58,230,156699,1,4,0:3:0:0:
15,140,156845,2,0,L|22:84,2,45.4999979171754,8|4|4,0:0|0:3|0:3,0:0:0:0:
0,300,157138,1,4,0:3:0:0:
135,256,157284,2,2,B|164:258|177:239|177:239|187:257|188:275|188:275|196:265|215:247|215:247|218:271|220:278|220:278|283:235|359:305,1,272.999987503052,2|4,0:0|0:0,0:0:0:0:
425,335,157869,5,8,0:0:0:0:
493,193,158016,2,0,P|417:213|396:243,1,90.9999958343508,4|8,0:3|0:0,0:0:0:0:
219,113,158308,1,4,0:3:0:0:
326,201,158455,1,8,0:0:0:0:
382,111,158601,2,0,P|313:102|276:125,1,90.9999958343508,4|8,0:3|0:0,0:0:0:0:
123,56,158894,5,4,0:0:0:0:
184,196,159040,1,8,0:0:0:0:
290,24,159186,2,0,P|218:4|176:18,1,90.9999958343508,4|8,0:3|0:0,0:0:0:0:
5,143,159479,1,2,0:2:0:0:
39,154,159552,1,2,0:2:0:0:
75,157,159625,1,2,0:2:0:0:
109,144,159699,1,2,0:2:0:0:
141,128,159772,1,2,0:2:0:0:
177,124,159845,1,2,0:2:0:0:
213,126,159918,1,2,0:2:0:0:
247,136,159991,1,2,0:2:0:0:
270,164,160065,6,8,L|275:227,7,45.4999979171754,8|8|8|8|8|8|8|8,0:3|0:3|0:3|0:3|0:3|0:3|0:3|0:3,0:3:0:0:
349,258,160650,2,4,L|356:310,3,45.4999979171754,4|4|4|4,0:3|0:3|0:3|0:3,0:3:0:0:
436,215,160943,2,0,L|443:155,3,45.4999979171754,2|2|2|2,0:2|0:2|0:2|0:2,0:0:0:0:
446,133,161235,5,2,0:0:0:0:
419,108,161308,1,2,0:0:0:0:
382,101,161382,1,2,0:0:0:0:
345,104,161455,1,2,0:0:0:0:
318,129,161528,1,2,0:0:0:0:
284,142,161601,1,2,0:0:0:0:
247,137,161674,1,2,0:0:0:0:
213,122,161747,1,2,0:0:0:0:
188,94,161821,2,0,L|177:213,1,90.9999958343508,0|0,0:0|0:0,0:0:0:0:
99,45,162113,1,2,0:2:0:0:
92,89,162186,1,2,0:2:0:0:
87,134,162260,1,2,0:2:0:0:
82,179,162333,1,2,0:2:0:0:
78,224,162406,6,4,P|118:266|265:247,1,181.999991668702,4|0,0:0|0:3,0:3:0:0:
336,15,162845,2,4,P|261:49|231:147,1,181.999991668702,4|0,0:3|0:3,0:3:0:0:
303,291,163284,1,4,0:3:0:0:
323,121,163430,1,4,0:3:0:0:
135,217,163577,6,4,B|191:194|198:254|275:208,1,136.499993751526,4|0,0:0|0:3,0:3:0:0:
291,202,163869,2,4,P|349:203|390:231,1,90.9999958343508,4|0,0:3|0:3,0:3:0:0:
154,301,164162,2,4,P|80:304|26:264,1,136.499993751526,4|0,0:3|0:3,0:3:0:0:
18,252,164455,2,4,L|29:145,1,90.9999958343508,4|0,0:3|0:3,0:3:0:0:
188,10,164747,6,4,P|215:80|175:139,1,136.499993751526,4|0,0:0|0:3,0:3:0:0:
169,141,165040,1,4,0:3:0:0:
108,206,165186,1,4,0:3:0:0:
125,67,165333,2,4,P|70:38|-29:78,2,136.499993751526,4|4|4,0:3|0:3|0:3,0:3:0:0:
307,146,165918,6,4,P|382:127|408:11,1,181.999991668702,4|4,0:0|0:3,0:3:0:0:
238,110,166357,1,4,0:3:0:0:
193,215,166504,2,4,P|118:196|92:80,1,181.999991668702,4|4,0:3|0:3,0:3:0:0:
170,44,166943,1,4,0:3:0:0:
297,0,167089,6,4,P|257:100|204:116,1,136.499993751526,4|0,0:0|0:3,0:3:0:0:
218,122,167382,2,4,P|213:183|229:230,1,90.9999958343508,4|4,0:3|0:3,0:3:0:0:
349,299,167674,2,4,P|425:293|487:324,2,136.499993751526,4|4|4,0:3|0:3|0:3,0:3:0:0:
236,339,168260,6,4,P|171:347|144:330,1,90.9999958343508,4|4,0:0|0:3,0:3:0:0:
34,129,168552,2,4,P|99:121|126:138,1,90.9999958343508,4|4,0:3|0:3,0:3:0:0:
331,196,168845,2,4,P|243:247|161:220,1,181.999991668702,4|0,0:3|0:3,0:3:0:0:
290,110,169284,1,4,0:3:0:0:
391,126,169430,6,4,P|433:166|425:271,1,136.499993751526,4|0,0:0|0:3,0:3:0:0:
432,252,169723,2,4,B|415:296|415:296|427:346,1,90.9999958343508,4|4,0:3|0:3,0:3:0:0:
237,257,170016,2,4,B|254:213|254:213|242:163,1,90.9999958343508,4|4,0:3|0:3,0:3:0:0:
445,40,170308,2,4,B|434:82|434:82|451:126,1,90.9999958343508,4|4,0:3|0:3,0:3:0:0:
333,270,170601,6,4,L|347:106,1,136.499993751526,4|0,0:0|0:3,0:3:0:0:
346,113,170894,2,4,P|281:87|240:94,1,90.9999958343508,4|4,0:3|0:3,0:3:0:0:
40,233,171186,1,8,0:3:0:0:
74,244,171260,1,8,0:3:0:0:
110,243,171333,1,8,0:3:0:0:
144,230,171406,1,8,0:3:0:0:
166,201,171479,2,4,L|163:103,1,90.9999958343508,4|4,0:3|0:3,0:3:0:0:
395,251,171772,6,0,B|307:291|307:291|197:244,1,181.999991668702,4|4,0:0|0:3,0:0:0:0:
358,72,172211,1,8,0:0:0:0:
442,144,172357,2,0,L|289:202,1,136.499993751526,4|0,0:3|0:0,0:0:0:0:
300,195,172650,2,0,P|274:143|293:93,1,90.9999958343508,4|8,0:3|0:0,0:0:0:0:
147,0,172943,6,0,B|174:43|174:43|151:202,1,181.999991668702,4|4,0:0|0:3,0:0:0:0:
82,247,173382,1,8,0:0:0:0:
19,170,173528,1,4,0:3:0:0:
19,170,173601,1,4,0:3:0:0:
19,170,173674,2,0,P|38:114|86:100,1,90.9999958343508,8|4,0:0|0:3,0:0:0:0:
177,259,173967,1,8,0:0:0:0:
273,236,174113,6,0,P|283:181|222:68,1,181.999991668702,4|4,0:0|0:3,0:0:0:0:
177,259,174552,1,8,0:0:0:0:
247,329,174699,2,0,P|316:339|396:316,1,136.499993751526,4|0,0:3|0:0,0:0:0:0:
395,326,174991,2,0,L|399:218,1,90.9999958343508,4|8,0:3|0:0,0:0:0:0:
480,51,175284,6,0,B|476:132|476:132|487:149|487:149|481:253,1,181.999991668702,4|4,0:0|0:3,0:0:0:0:
313,380,175723,1,8,0:0:0:0:
247,329,175869,2,0,B|243:248|243:248|254:231|254:231|248:127,1,181.999991668702,4|4,0:3|0:3,0:0:0:0:
280,4,176308,1,8,0:0:0:0:
355,35,176455,6,0,P|293:93|177:84,1,181.999991668702,4|4,0:0|0:3,0:0:0:0:
28,164,176894,2,0,P|83:163|155:204,1,136.499993751526,8|0,0:0|0:0,0:0:0:0:
161,215,177186,2,0,L|152:312,1,90.9999958343508,8|4,0:0|0:3,0:0:0:0:
354,216,177479,1,8,0:0:0:0:
341,131,177625,6,0,P|272:136|237:163,1,90.9999958343508,4|8,0:0|0:0,0:0:0:0:
239,328,177918,2,0,P|308:323|343:296,1,90.9999958343508,4|8,0:3|0:0,0:0:0:0:
512,149,178211,2,0,P|443:154|408:181,1,90.9999958343508,4|8,0:3|0:0,0:0:0:0:
395,358,178504,1,4,0:3:0:0:
488,257,178650,1,8,0:0:0:0:
352,227,178796,5,4,0:0:0:0:
316,218,178869,1,8,0:3:0:0:
279,219,178943,1,8,0:3:0:0:
247,237,179016,1,8,0:3:0:0:
229,268,179089,1,4,0:3:0:0:
199,288,179162,1,4,0:3:0:0:
162,292,179235,1,4,0:3:0:0:
129,275,179308,1,4,0:3:0:0:
116,240,179382,2,4,L|120:183,3,45.4999979171754,4|4|4|4,0:3|0:3|0:3|0:3,0:3:0:0:
43,301,179674,2,4,L|50:374,3,45.4999979171754,4|4|4|4,0:3|0:3|0:3|0:3,0:3:0:0:
40,277,179967,5,8,0:3:0:0:
38,258,180040,1,8,0:3:0:0:
36,239,180113,1,8,0:3:0:0:
35,220,180187,1,8,0:3:0:0:
33,201,180260,1,2,0:1:0:0:
31,182,180333,1,2,0:1:0:0:
29,163,180406,1,2,0:1:0:0:
26,144,180479,1,2,0:1:0:0:
24,125,180552,1,2,0:1:0:0:
24,125,181138,5,2,0:2:0:0:
52,119,181211,1,2,0:2:0:0:
80,126,181284,1,2,0:2:0:0:
103,145,181357,1,2,0:2:0:0:
115,172,181430,2,0,L|111:224,3,41.9999987182618,2|2|2|2,0:2|0:2|0:2|0:2,0:0:0:0:
231,286,181723,6,0,P|235:241|234:200,1,83.9999974365235,0|8,0:0|0:0,0:0:0:0:
146,298,182016,2,0,P|142:343|143:384,1,83.9999974365235,0|8,0:0|0:0,0:0:0:0:
284,356,182309,5,2,0:2:0:0:
313,362,182382,1,2,0:2:0:0:
341,355,182455,1,2,0:2:0:0:
364,336,182528,1,2,0:2:0:0:
375,309,182601,2,0,L|371:257,3,41.9999987182618,2|2|2|2,0:2|0:2|0:2|0:2,0:0:0:0:
491,195,182894,6,0,P|495:240|494:281,1,83.9999974365235,0|8,0:0|0:0,0:0:0:0:
406,183,183187,2,0,P|402:138|403:97,1,83.9999974365235,0|8,0:0|0:0,0:0:0:0:
406,6,183479,5,2,0:2:0:0:
434,0,183552,1,2,0:2:0:0:
462,7,183625,1,2,0:2:0:0:
485,26,183698,1,2,0:2:0:0:
497,53,183771,2,0,L|493:105,3,41.9999987182618,2|2|2|2,0:2|0:2|0:2|0:2,0:0:0:0:
440,155,184065,5,0,0:0:0:0:
407,164,184138,1,0,0:0:0:0:
374,156,184211,1,8,0:0:0:0:
341,165,184284,1,0,0:0:0:0:
310,158,184357,2,0,L|250:172,3,41.9999987182618,0|0|8|0,0:0|0:0|0:0|0:0,0:0:0:0:
327,77,184650,5,2,0:2:0:0:
297,74,184723,1,2,0:2:0:0:
268,80,184796,1,2,0:2:0:0:
240,88,184869,1,2,0:2:0:0:
211,102,184942,1,2,0:2:0:0:
195,127,185016,1,2,0:2:0:0:
188,155,185089,1,2,0:2:0:0:
189,184,185162,1,2,0:2:0:0:
202,210,185235,6,0,L|220:259,3,41.9999987182618,0|0|8|0,0:0|0:0|0:0|0:0,0:0:0:0:
120,219,185528,2,0,P|140:269|161:302,1,83.9999974365235,0|8,0:0|0:0,0:0:0:0:
10,373,185821,5,6,0:2:0:0:
33,355,185894,1,2,0:2:0:0:
50,331,185967,1,2,0:2:0:0:
57,303,186040,1,2,0:2:0:0:
55,274,186113,2,0,L|31:213,3,41.9999987182618,2|2|2|2,0:2|0:2|0:2|0:2,0:0:0:0:
24,102,186406,6,0,P|72:107|118:125,1,83.9999974365235,0|8,0:0|0:0,0:0:0:0:
189,214,186699,2,0,P|141:209|95:191,1,83.9999974365235,0|8,0:0|0:0,0:0:0:0:
160,61,186992,5,2,0:2:0:0:
188,55,187065,1,2,0:2:0:0:
218,60,187138,1,2,0:2:0:0:
242,74,187211,1,2,0:2:0:0:
261,97,187284,2,0,L|286:157,3,41.9999987182618,2|2|2|2,0:2|0:2|0:2|0:2,0:0:0:0:
360,242,187577,6,0,P|390:204|410:159,1,83.9999974365235,0|8,0:0|0:0,0:0:0:0:
398,46,187870,2,0,P|367:83|347:128,1,83.9999974365235,0|8,0:0|0:0,0:0:0:0:
467,120,188162,5,2,0:2:0:0:
481,145,188235,1,2,0:2:0:0:
492,172,188308,1,2,0:2:0:0:
499,201,188381,1,2,0:2:0:0:
501,230,188455,2,0,L|447:262,3,41.9999987182618,2|2|2|2,0:2|0:2|0:2|0:2,0:0:0:0:
512,337,188747,5,0,0:0:0:0:
479,328,188820,1,0,0:0:0:0:
446,336,188893,1,8,0:0:0:0:
413,327,188966,1,0,0:0:0:0:
382,334,189040,2,0,L|322:320,3,41.9999987182618,0|0|8|0,0:0|0:0|0:0|0:0,0:0:0:0:
388,247,189333,6,2,B|319:244|287:221|287:221|284:261|244:299,1,167.999994873047
202,348,189772,2,0,L|106:366,1,83.9999974365235,8|0,0:0|0:0,0:0:0:0:
119,363,189991,1,0,0:0:0:0:
119,363,190065,1,10,0:0:0:0:
124,273,190211,2,0,L|25:280,1,83.9999974365235,2|8,0:0|0:0,0:0:0:0:
187,205,190504,6,2,B|152:170|152:170|90:195|21:169,1,167.999994873047,6|2,0:0|0:0,0:0:0:0:
5,82,190943,1,8,0:0:0:0:
114,0,191089,5,2,0:2:0:0:
145,11,191162,1,2,0:2:0:0:
169,34,191235,1,2,0:2:0:0:
182,65,191308,1,2,0:2:0:0:
182,98,191382,2,0,L|232:104,3,41.9999987182618,2|0|0|0,0:2|0:0|0:2|0:0,0:0:0:0:
285,152,191674,5,2,0:2:0:0:
316,141,191747,1,2,0:2:0:0:
340,118,191820,1,2,0:2:0:0:
353,87,191893,1,2,0:2:0:0:
353,54,191967,2,0,L|403:48,3,41.9999987182618,2|0|0|0,0:2|0:0|0:0|0:0,0:0:0:0:
483,17,192260,6,2,P|485:74|465:108,1,83.9999974365235,2|0,0:0|0:0,0:0:0:0:
450,99,192479,2,2,P|446:151|448:232,1,125.999996154785,2|8,0:0|0:0,0:0:0:0:
323,381,192845,6,0,P|327:329|325:248,2,125.999996154785,2|2|0,0:0|0:0|0:0,0:0:0:0:
494,292,193430,2,0,P|491:357|491:381,1,83.9999974365235,2|8,0:0|0:0,0:0:0:0:
413,325,193723,1,0,0:0:0:0:
413,325,193796,1,0,0:0:0:0:
413,325,193869,1,8,0:0:0:0:
285,188,194016,6,4,L|264:122,2,41.9999987182618,4|4|4,0:3|0:3|0:3,0:3:0:0:
238,265,194308,2,0,L|166:210,1,83.9999974365235,8|4,0:0|0:3,0:0:0:0:
271,342,194601,2,0,P|216:352|186:361,1,83.9999974365235,8|4,0:0|0:3,0:0:0:0:
10,276,194894,2,2,B|38:258|38:258|92:252|99:323,1,125.999996154785,2|0,0:0|0:0,0:0:0:0:
97,313,195186,6,0,P|66:242|121:170,1,167.999994873047,4|0,0:2|0:0,0:0:0:0:
195,186,195625,1,8,0:0:0:0:
17,143,195772,5,2,0:2:0:0:
41,119,195845,1,2,0:2:0:0:
70,103,195918,1,2,0:2:0:0:
102,93,195991,1,2,0:2:0:0:
135,91,196065,2,0,L|188:105,3,41.9999987182618,2|0|0|0,0:2|0:0|0:0|0:0,0:0:0:0:
175,13,196357,5,2,0:2:0:0:
203,17,196430,1,2,0:2:0:0:
230,29,196503,1,2,0:2:0:0:
252,48,196576,1,2,0:2:0:0:
268,73,196650,2,0,L|253:129,3,41.9999987182618,2|0|0|0,0:2|0:0|0:0|0:0,0:0:0:0:
317,168,196943,5,4,0:2:0:0:
430,84,197089,1,4,0:2:0:0:
405,199,197235,5,4,0:2:0:0:
342,59,197382,1,4,0:2:0:0:
473,151,197528,6,8,L|522:127,4,41.9999987182618,8|8|8|8|8,0:3|0:3|0:3|0:3|0:3,0:3:0:0:
453,267,197967,2,4,L|477:316,4,41.9999987182618,4|4|4|4|4,0:3|0:3|0:3|0:3|0:3,0:3:0:0:
337,247,198406,2,4,L|288:271,3,41.9999987182618,4|4|4|4,0:3|0:3|0:3|0:3,0:3:0:0:
359,355,198699,5,2,0:2:0:0:
342,326,198772,1,2,0:2:0:0:
315,305,198845,1,2,0:2:0:0:
283,297,198918,1,2,0:2:0:0:
250,301,198992,1,2,0:2:0:0:
217,305,199065,1,2,0:2:0:0:
185,297,199138,1,2,0:2:0:0:
158,276,199211,1,2,0:2:0:0:
142,248,199284,2,2,P|157:194|189:110,2,125.999996154785
23,93,199869,5,4,0:1:0:0:
256,192,208065,12,0,209089,2:0:0:0:
351,187,209235,6,0,P|352:140|350:107,1,70,4|0,0:0|0:0,0:0:0:0:
298,61,209528,2,4,L|245:61,2,35,4|4|4,0:3|0:3|0:3,0:3:0:0:
427,110,209821,2,0,P|428:63|426:30,2,70,8|0|0,0:0|0:0|0:0,0:0:0:0:
494,186,210260,5,4,0:3:0:0:
494,186,210333,1,4,0:3:0:0:
494,186,210406,1,4,0:3:0:0:
455,251,210552,1,4,0:3:0:0:
425,329,210699,1,4,0:3:0:0:
425,329,210772,1,4,0:3:0:0:
425,329,210845,1,4,0:3:0:0:
335,222,210991,6,0,P|325:283|324:386,1,140,8|0,0:0|0:0,0:0:0:0:
322,361,211430,1,0,0:0:0:0:
144,209,211577,6,4,L|96:202,2,35,4|4|4,0:3|0:3|0:3,0:3:0:0:
218,236,211869,2,4,L|266:229,2,35,4|4|4,0:3|0:3|0:3,0:3:0:0:
141,372,212162,2,0,P|104:374|60:374,1,70,8|4,0:0|0:3,0:0:0:0:
71,373,212382,1,4,0:3:0:0:
71,373,212455,1,4,0:3:0:0:
0,277,212601,2,0,B|32:275|57:277|57:277|75:293|75:293|110:295|143:291,1,140,4|0,0:3|0:0,0:0:0:0:
282,162,213040,1,4,0:3:0:0:
282,162,213113,1,4,0:3:0:0:
282,162,213186,1,4,0:3:0:0:
216,305,213333,5,8,0:0:0:0:
216,305,213479,2,4,P|202:245|191:164,1,140,4|4,0:3|0:3,0:3:0:0:
213,46,213918,6,0,P|170:32|120:22,1,70,4|0,0:0|0:0,0:0:0:0:
66,1,214211,2,4,L|17:2,2,35,4|4|4,0:3|0:3|0:3,0:3:0:0:
140,109,214504,2,0,P|97:95|47:85,2,70,8|0|0,0:0|0:0|0:0,0:0:0:0:
252,162,214943,5,4,0:3:0:0:
252,162,215016,1,4,0:3:0:0:
252,162,215089,1,4,0:3:0:0:
172,183,215235,1,4,0:3:0:0:
110,228,215382,1,4,0:3:0:0:
110,228,215455,1,4,0:3:0:0:
110,228,215528,1,4,0:3:0:0:
163,321,215674,6,0,P|101:319|-6:302,1,140,8|0,0:0|0:0,0:0:0:0:
305,358,216113,1,4,0:3:0:0:
305,358,216260,2,0,P|253:355|216:353,1,70,4|0,0:2|0:0,0:0:0:0:
386,338,216552,2,4,L|436:339,2,35,4|4|4,0:3|0:3|0:3,0:3:0:0:
225,258,216845,6,0,L|325:279,1,70,8|0,0:0|0:0,0:0:0:0:
423,224,217138,2,4,L|363:238,2,35,4|4|4,0:3|0:3|0:3,0:3:0:0:
211,155,217430,6,0,P|289:138|363:130,1,140,4|4,0:2|0:3,0:0:0:0:
456,23,217869,1,4,0:3:0:0:
370,120,218016,1,8,0:0:0:0:
376,0,218162,1,4,0:3:0:0:
463,141,218308,1,8,0:1:0:0:
463,141,218382,1,4,0:3:0:0:
463,141,218455,1,4,0:3:0:0:
325,222,218601,6,0,P|322:264|321:294,1,70,4|0,0:0|0:0,0:0:0:0:
404,195,218894,2,0,P|400:259|398:339,1,140,8|4,0:0|0:3,0:0:0:0:
385,356,219260,1,2,0:2:0:0:
363,367,219333,1,2,0:2:0:0:
338,370,219406,1,2,0:2:0:0:
313,367,219479,2,0,L|226:358,1,70,8|0,0:0|0:0,0:0:0:0:
227,262,219772,5,4,0:3:0:0:
202,265,219845,1,2,0:2:0:0:
180,275,219918,1,2,0:2:0:0:
162,291,219991,1,2,0:2:0:0:
150,312,220065,1,8,0:0:0:0:
71,366,220211,2,4,P|62:321|56:281,1,70,4|0,0:3|0:3,0:3:0:0:
93,170,220504,2,0,P|102:215|108:255,1,70,4|8,0:3|0:0,0:0:0:0:
4,156,220796,1,4,0:3:0:0:
57,9,220943,6,0,P|118:23|134:112,1,140,4|8,0:2|0:0,0:0:0:0:
142,90,221528,2,4,L|180:101,2,35,4|4|4,0:3|0:3|0:3,0:3:0:0:
232,149,221821,2,0,P|276:137|308:130,1,70,8|0,0:0|0:0,0:0:0:0:
333,59,222113,5,4,0:3:0:0:
357,57,222186,1,2,0:2:0:0:
381,57,222259,1,2,0:2:0:0:
406,57,222332,1,2,0:2:0:0:
431,59,222406,2,0,L|470:77,3,35,8|2|2|2,0:0|0:2|0:2|0:2,0:0:0:0:
406,136,222699,6,0,B|443:147|464:159|464:159|481:200|461:263,1,140,4|8,0:3|0:0,0:3:0:0:
442,308,223138,1,4,0:3:0:0:
210,323,223284,6,0,P|163:335|133:341,1,70,4|0,0:2|0:0,0:0:0:0:
283,363,223577,1,8,0:0:0:0:
283,363,223723,1,0,0:0:0:0:
263,168,223869,5,4,0:3:0:0:
153,259,224016,2,0,P|199:246|229:240,1,70,4|8,0:3|0:0,0:0:0:0:
55,129,224308,1,4,0:3:0:0:
70,212,224455,2,0,P|57:258|51:288,1,70,4|0,0:2|0:0,0:0:0:0:
209,96,224747,1,8,0:0:0:0:
209,96,224893,1,0,0:0:0:0:
147,46,225040,5,4,0:3:0:0:
256,35,225185,1,0,0:0:0:0:
158,154,225333,1,8,0:0:0:0:
267,143,225478,1,0,0:0:0:0:
336,46,225625,6,0,L|345:149,1,70,4|0,0:2|0:0,0:0:0:0:
416,65,225918,2,0,L|425:167,1,70,8|0,0:0|0:0,0:0:0:0:
425,311,226211,6,4,L|434:208,1,70,4|4,0:3|0:3,0:3:0:0:
504,292,226504,2,0,L|513:189,1,70,8|0,0:0|0:0,0:0:0:0:
237,258,226796,6,0,L|251:354,1,70,4|0,0:3|0:0,0:0:0:0:
335,274,227089,1,8,0:0:0:0:
362,108,227235,1,4,0:3:0:0:
296,198,227382,1,4,0:3:0:0:
266,179,227455,1,2,0:2:0:0:
232,173,227528,1,2,0:2:0:0:
198,182,227601,1,2,0:2:0:0:
170,203,227674,2,0,P|119:194|90:197,1,70,8|0,0:0|0:0,0:0:0:0:
32,357,227967,6,0,B|86:353|117:328|117:328|126:271,1,140,4|8,0:2|0:0,0:0:0:0:
28,184,228406,1,0,0:0:0:0:
28,184,228552,2,4,L|10:107,1,70,4|4,0:3|0:3,0:3:0:0:
2,32,228845,1,8,0:0:0:0:
126,14,228991,6,0,L|144:91,1,70,4|0,0:3|0:0,0:0:0:0:
152,165,229284,1,4,0:3:0:0:
131,293,229430,5,8,0:0:0:0:
190,233,229577,1,4,0:3:0:0:
270,209,229723,1,4,0:3:0:0:
275,95,229869,5,8,0:3:0:0:
335,154,230016,1,8,0:0:0:0:
359,234,230162,1,8,0:3:0:0:
455,210,230308,6,0,L|466:286,2,70,4|0|8,0:2|0:0|0:0,0:0:0:0:
512,149,230747,2,0,L|501:73,2,70,4|0|4,0:3|0:0|0:3,0:0:0:0:
382,246,231186,2,0,P|391:297|401:376,1,105,8|0,0:0|2:0,0:0:0:0:
398,349,231479,6,4,P|354:361|325:369,1,70,4|4,0:3|0:3,0:3:0:0:
191,353,231772,2,0,P|234:340|263:332,1,70,8|0,0:0|0:0,0:0:0:0:
16,243,232065,5,4,0:3:0:0:
144,290,232211,1,4,0:3:0:0:
64,375,232357,2,0,L|71:280,1,70,8|0,0:0|0:0,0:0:0:0:
84,114,232650,6,0,L|79:173,3,35,4|2|2|2,0:3|0:2|0:2|0:2,0:0:0:0:
156,148,232943,2,0,L|151:207,3,35,8|2|2|2,0:0|0:2|0:2|0:2,0:0:0:0:
234,174,233235,1,4,0:3:0:0:
230,198,233308,1,2,0:2:0:0:
235,221,233381,1,2,0:2:0:0:
249,241,233454,1,2,0:2:0:0:
269,258,233528,2,0,L|348:267,1,70,8|0,0:0|0:0,0:0:0:0:
492,71,233821,6,0,L|467:19,3,35,4|2|2|2,0:3|0:2|0:2|0:2,0:0:0:0:
417,116,234113,2,0,L|369:84,3,35,8|2|2|2,0:0|0:2|0:2|0:2,0:0:0:0:
375,193,234406,2,0,L|318:188,3,35,4|2|2|2,0:3|0:2|0:2|0:2,0:0:0:0:
377,279,234699,2,0,L|325:303,3,35,8|2|2|2,0:0|0:2|0:2|0:2,0:0:0:0:
487,356,234991,5,6,0:2:0:0:
472,323,235064,1,2,0:2:0:0:
453,295,235137,1,2,0:2:0:0:
428,270,235210,1,2,0:2:0:0:
399,251,235283,1,8,0:0:0:0:
366,238,235356,1,2,0:2:0:0:
332,231,235430,1,2,0:2:0:0:
297,230,235503,1,2,0:2:0:0:
263,236,235577,2,0,L|215:255,3,35,4|2|4|2,0:3|0:2|0:3|0:2,0:0:0:0:
100,102,235869,2,0,P|102:150|112:189,1,70,8|4,0:0|0:2,0:0:0:0:
40,356,236162,5,4,0:3:0:0:
199,260,236308,1,8,0:3:0:0:
42,273,236455,2,0,B|91:264|123:280|123:280|135:313|164:330,1,140,8|0,0:3|0:0,0:0:0:0:
334,349,236894,5,4,0:3:0:0:
183,348,237040,1,4,0:3:0:0:
315,329,237187,1,4,0:3:0:0:
215,373,237333,5,4,0:0:0:0:
256,192,237406,12,0,239674,0:0:0:0:
256,192,245528,12,0,246552,0:0:0:0:
379,295,246699,6,0,P|420:343|434:370,1,70,4|8,0:0|0:0,0:0:0:0:
415,200,246991,2,0,P|478:204|507:214,1,70,4|8,0:3|0:0,0:0:0:0:
373,106,247284,2,0,P|421:64|448:50,1,70,4|8,0:3|0:0,0:0:0:0:
276,69,247577,2,0,P|280:5|290:-23,1,70,4|8,0:3|0:1,0:0:0:0:
75,159,247869,6,0,P|81:193|81:228,1,70,4|8,0:3|0:0,0:0:0:0:
157,257,248162,1,4,0:3:0:0:
262,188,248308,1,8,0:0:0:0:
149,131,248455,1,4,0:3:0:0:
157,257,248601,1,8,0:0:0:0:
262,188,248747,6,0,P|329:178|357:177,1,70,4|8,0:3|0:0,0:0:0:0:
202,335,249040,2,0,P|135:345|107:346,1,70,4|8,0:3|0:0,0:0:0:0:
14,223,249333,1,4,0:3:0:0:
14,223,249406,1,4,0:3:0:0:
14,223,249479,2,0,P|48:226|83:233,1,70,8|4,0:0|0:3,0:0:0:0:
138,169,249772,1,8,0:0:0:0:
88,41,249918,2,0,P|81:75|77:110,1,70,4|8,0:3|0:0,0:0:0:0:
214,219,250211,6,0,P|220:184|224:149,1,70,0|8,0:0|0:0,0:0:0:0:
281,87,250504,1,4,0:3:0:0:
337,202,250650,1,4,0:3:0:0:
430,114,250796,1,4,0:3:0:0:
351,126,250943,2,0,P|357:91|361:56,1,70,8|4,0:0|0:3,0:0:0:0:
361,56,251162,1,4,0:3:0:0:
361,56,251235,1,8,0:0:0:0:
216,42,251382,6,0,P|181:35|146:31,1,70,4|8,0:0|0:0,0:0:0:0:
183,198,251674,1,4,0:3:0:0:
183,198,251747,1,4,0:3:0:0:
183,198,251821,2,0,P|217:204|252:208,2,70,4|4|8,0:3|0:3|0:0,0:0:0:0:
23,137,252260,6,0,P|16:171|12:206,1,70,4|8,0:3|0:0,0:0:0:0:
91,333,252552,2,0,P|97:298|101:263,1,70,4|8,0:3|0:0,0:0:0:0:
193,128,252845,2,0,P|186:162|182:197,1,70,4|8,0:3|0:0,0:0:0:0:
261,324,253137,2,0,P|267:289|271:254,1,70,4|12,0:3|0:1,0:0:0:0:
495,169,253430,1,4,0:3:0:0:
495,169,253504,1,4,0:3:0:0:
495,169,253577,1,4,0:3:0:0:
408,234,253723,6,0,L|341:247,7,35,6|2|2|2|2|2|2|2,0:0|0:0|0:0|0:0|0:0|0:0|0:0|0:0,0:0:0:0:
307,164,254308,6,4,L|240:151,7,35,4|4|4|4|4|4|4|4,0:3|0:3|0:3|0:3|0:3|0:3|0:3|0:3,0:3:0:0:
297,255,254894,5,8,0:3:0:0:
263,264,254967,1,8,0:3:0:0:
236,285,255040,1,8,0:3:0:0:
219,316,255113,1,8,0:3:0:0:
215,350,255186,2,4,P|280:360|316:370,1,70,4|4,0:3|0:3,0:3:0:0:
204,201,255479,6,8,L|195:144,3,35
131,278,255772,2,4,L|126:311,3,35,4|4|4|4,0:3|0:3|0:3|0:3,0:3:0:0:
56,231,256065,6,0,P|48:305|40:376,2,140,4|8|4,0:0|0:0|0:3,0:0:0:0:
126,195,256796,1,4,0:3:0:0:
210,220,256943,2,0,P|199:172|190:108,1,105,8|0,0:0|2:0,0:0:0:0:
190,116,257235,6,0,P|142:100|101:78,2,70,4|0|8,0:3|0:0|0:0,0:0:0:0:
279,156,257674,2,4,B|371:138|313:189|438:158,1,140,4|4,0:3|0:3,0:3:0:0:
501,132,258113,2,0,P|490:180|481:244,1,105,8|0,0:0|2:0,0:0:0:0:
481,235,258406,6,0,P|405:242|316:255,1,140,4|8,0:1|0:0,0:0:0:0:
378,82,258845,1,4,0:3:0:0:
378,82,258991,2,0,P|326:77|300:72,1,70,4|0,0:3|0:0,0:0:0:0:
288,186,259284,2,0,P|236:191|210:196,1,70,8|0,0:0|0:0,0:0:0:0:
111,117,259577,5,4,0:3:0:0:
126,195,259723,2,0,L|138:272,2,70,4|8|0,0:3|0:0|0:0,0:0:0:0:
224,17,260162,2,0,P|173:33|144:50,1,70,4|0,0:3|0:0,0:0:0:0:
10,143,260455,2,0,P|75:132|131:104,1,105,8|0,0:0|2:0,0:0:0:0:
110,116,260747,6,0,P|182:125|262:175,1,140,4|8,0:0|0:0,0:0:0:0:
320,164,261186,2,0,P|312:198|308:244,1,70
465,245,261479,1,0,0:0:0:0:
387,217,261625,2,0,P|381:286|368:346,1,105,8|0,0:0|2:0,0:0:0:0:
374,321,261918,6,0,B|310:325|310:325|294:339|294:339|202:349,1,154.000004699707,4|8,0:0|0:0,0:0:0:0:
147,371,262357,2,0,L|152:290,1,70,4|0,0:3|0:0,0:0:0:0:
69,336,262650,1,4,0:3:0:0:
254,260,262796,2,0,L|239:139,1,105,8|0,0:0|2:0,0:0:0:0:
241,155,263089,6,0,P|285:161|334:161,1,70,4|0,0:0|0:0,0:0:0:0:
166,195,263382,1,8,0:0:0:0:
69,71,263528,2,0,P|25:65|-23:65,1,70,4|0,0:3|0:0,0:0:0:0:
151,114,263821,2,0,L|160:31,1,70,4|8,0:3|0:0,0:0:0:0:
359,20,264113,6,2,P|290:24|238:94,1,140
173,264,264552,2,0,P|172:229|165:194,1,70,10|2,0:0|0:0,0:0:0:0:
307,133,264845,1,2,0:2:0:0:
296,157,264918,1,2,0:2:0:0:
287,181,264991,1,2,0:2:0:0:
280,207,265065,1,2,0:2:0:0:
275,232,265137,1,2,0:2:0:0:
90,245,265284,1,4,0:3:0:0:
247,310,265430,6,0,L|398:323,1,140,4|8,0:0|0:0,0:0:0:0:
458,287,265869,2,0,P|462:337|469:383,1,70,4|0,0:3|0:0,0:0:0:0:
387,244,266162,1,4,0:3:0:0:
512,225,266308,2,0,P|508:175|501:129,1,70,8|0,0:0|0:0,0:0:0:0:
307,133,266601,6,0,B|225:127|269:161|171:154,1,140,4|8,0:3|0:0,0:0:0:0:
5,71,267040,2,4,P|65:78|73:189,1,167.999994873047,4|4,0:3|0:3,0:3:0:0:
148,332,267479,2,0,P|143:273|150:208,1,105,8|0,0:0|2:0,0:0:0:0:
146,227,267772,6,0,P|225:241|288:243,1,140,4|8,0:0|0:0,0:0:0:0:
69,273,268211,2,0,P|25:267|-14:270,1,70,4|0,3:0|0:0,0:0:0:0:
123,148,268504,1,4,3:0:0:0:
135,384,268650,2,0,P|134:349|139:314,1,70,8|0,0:0|0:0,0:0:0:0:
268,164,268943,5,4,0:3:0:0:
347,183,269089,2,0,L|424:198,1,70,4|8,0:3|0:0,0:0:0:0:
189,146,269382,2,0,L|120:132,1,70,4|0,0:3|0:0,0:0:0:0:
278,11,269674,1,4,0:3:0:0:
268,164,269821,2,0,P|287:114|347:69,1,105,8|0,0:0|2:0,0:0:0:0:
323,79,270113,6,0,B|428:104|428:104|419:63,1,140,4|8,0:0|0:0,0:0:0:0:
502,182,270552,2,0,L|418:189,1,70,4|0,0:3|0:0,0:0:0:0:
510,100,270845,1,4,0:3:0:0:
346,191,270991,2,0,P|369:241|386:318,1,105,8|0,0:0|0:0,0:0:0:0:
381,289,271284,6,0,P|326:285|237:359,1,154.000004699707,4|8,0:0|0:0,0:0:0:0:
90,294,271723,2,0,P|77:243|58:208,1,70,4|0,0:3|0:0,0:0:0:0:
233,242,272016,1,4,0:3:0:0:
157,368,272162,2,0,P|170:317|189:282,1,70,8|0,0:0|0:0,0:0:0:0:
346,191,272455,6,0,L|352:283,1,70,4|0,0:1|0:0,0:0:0:0:
411,138,272747,1,8,0:0:0:0:
241,86,272894,2,0,L|236:16,1,70,4|0,0:3|0:0,0:0:0:0:
114,164,273186,2,0,P|152:140|196:134,1,70,4|8,0:3|0:0,0:0:0:0:
289,286,273479,6,2,P|253:233|153:218,1,140
111,245,273845,1,2,0:3:0:0:
111,245,273918,2,0,P|61:259|17:258,1,70,8|4,0:0|0:3,0:0:0:0:
107,92,274211,5,2,0:2:0:0:
176,134,274357,1,2,0:2:0:0:
241,86,274504,1,2,0:2:0:0:
285,99,274650,1,2,0:2:0:0:
305,86,274796,1,6,0:2:0:0:
512,318,282991,5,0,0:0:0:0:
433,332,283138,2,0,L|374:341,1,52.5000020027161,2|0,0:0|0:0,0:0:0:0:
349,218,283430,2,0,L|290:209,1,52.5000020027161,2|0,0:0|0:0,0:0:0:0:
240,372,283723,5,0,0:0:0:0:
205,302,283869,2,2,P|185:258|151:222,1,78.7500030040742,2|0,0:0|2:0,0:0:0:0:
165,234,284162,6,0,B|121:275|63:242|40:192|96:189|81:129|28:101|-24:145,1,245,4|0,0:0|2:0,0:0:0:0:
0,130,284747,2,0,P|59:150|122:7,1,245,4|0,0:0|2:0,0:0:0:0:
238,9,285333,6,0,B|213:104|247:164|247:164|290:117|287:66,1,245,4|0,0:0|2:0,0:0:0:0:
285,89,285918,2,0,B|325:94|357:95|357:95|392:169|392:169|435:171|501:186,1,245,4|0,0:0|2:0,0:0:0:0:
310,174,286504,6,0,P|223:189|78:266,1,245,4|0,0:0|2:0,0:0:0:0:
84,260,287089,2,0,P|80:209|152:283,1,245,4|0,0:0|2:0,0:0:0:0:
128,330,287674,6,0,P|175:342|211:363,1,70,4|0,0:0|0:0,0:0:0:0:
264,315,287967,1,8,0:0:0:0:
57,377,288113,1,4,0:3:0:0:
57,377,288186,1,4,0:3:0:0:
57,377,288260,1,8,0:0:0:0:
84,259,288406,2,8,P|73:226|59:194,1,70
169,125,288699,5,8,0:3:0:0:
169,125,288772,1,8,0:3:0:0:
169,125,288845,2,0,L|281:111,1,77.0000023498536,4|6,0:0|0:3,0:0:0:0:
259,112,289065,1,4,0:3:0:0:
270,111,289138,1,8,0:0:0:0:
438,83,289284,1,4,0:3:0:0:
345,61,289430,2,0,P|356:117|361:163,1,77.0000023498536,8|4,0:0|0:3,0:0:0:0:
358,136,289650,1,4,0:3:0:0:
358,136,289723,1,8,0:0:0:0:
411,4,289869,1,4,0:3:0:0:
435,173,290016,6,0,P|411:214|392:261,1,77.0000023498536,8|4,0:0|0:3,0:0:0:0:
245,265,290308,2,0,P|292:265|342:258,1,77.0000023498536,8|4,0:0|0:3,0:0:0:0:
321,262,290528,1,4,0:3:0:0:
321,262,290601,1,8,0:0:0:0:
462,288,290747,1,4,0:3:0:0:
420,384,290894,2,0,P|396:342|365:302,1,77.0000023498536,8|4,0:0|0:3,0:0:0:0:
278,172,291186,5,8,0:0:0:0:
68,242,291333,1,4,0:3:0:0:
68,242,291406,1,4,0:3:0:0:
68,242,291479,2,0,L|76:161,1,77.0000023498536,8|4,0:0|0:3,0:0:0:0:
184,171,291772,2,0,L|163:92,1,77.0000023498536,8|4,0:0|0:3,0:0:0:0:
268,64,292065,2,0,L|222:-3,1,77.0000023498536,8|4,0:0|0:3,0:0:0:0:
56,85,292357,6,0,L|-11:74,2,38.5000011749268,4|8|8,0:0|0:3|0:3,0:0:0:0:
137,100,292650,1,8,0:3:0:0:
68,242,292796,1,4,0:3:0:0:
68,242,292869,1,4,0:3:0:0:
68,242,292943,2,4,L|136:232,2,51.3333348999024,4|4|4,0:3|0:3|0:3,0:3:0:0:
189,172,293235,2,0,P|194:221|203:269,1,77.0000023498536,8|4,0:0|0:3,0:0:0:0:
264,304,293455,1,4,0:3:0:0:
264,304,293528,6,0,P|339:314|417:354,1,136.499993751526,6|2,0:0|0:0,0:0:0:0:
394,338,293821,2,0,P|411:281|435:240,1,90.9999958343508,4|8,0:3|0:0,0:0:0:0:
467,176,294113,2,0,L|522:181,2,45.4999979171754,2|0|0,0:0|0:0|0:0,0:0:0:0:
388,170,294333,1,2,0:0:0:0:
388,170,294406,2,0,P|316:164|287:158,1,90.9999958343508,4|8,0:3|0:0,0:0:0:0:
63,2,294699,6,0,P|135:8|164:14,1,90.9999958343508,2|8,0:0|0:0,0:0:0:0:
225,39,294918,1,2,0:0:0:0:
225,39,294991,2,0,L|229:138,1,90.9999958343508,4|8,0:3|0:0,0:0:0:0:
72,194,295284,2,0,L|63:250,2,45.4999979171754,2|0|8,0:0|0:0|0:0,0:0:0:0:
7,142,295577,1,4,0:3:0:0:
7,142,295723,1,4,0:3:0:0:
153,212,295869,6,0,L|169:359,1,136.499993751526,2|2,0:0|0:0,0:0:0:0:
167,347,296162,2,0,P|224:352|270:363,1,90.9999958343508,4|8,0:3|0:0,0:0:0:0:
267,175,296455,1,2,0:0:0:0:
267,175,296528,2,0,P|323:170|369:159,1,90.9999958343508,0|2,0:0|0:0,0:0:0:0:
369,150,296747,2,0,L|385:251,1,90.9999958343508,4|8,0:3|0:0,0:0:0:0:
503,278,297040,5,2,0:0:0:0:
503,278,297113,1,0,0:0:0:0:
503,278,297186,2,0,L|427:267,1,45.4999979171754,8|2,0:0|0:0,0:0:0:0:
407,331,297333,2,0,L|295:346,1,90.9999958343508,4|8,0:3|0:0,0:0:0:0:
231,242,297625,1,2,0:0:0:0:
231,242,297699,2,0,L|72:218,1,136.499993751526,0|4,0:0|0:3,0:0:0:0:
88,215,297991,1,4,0:3:0:0:
78,207,298065,1,4,0:3:0:0:
290,85,298211,5,6,0:0:0:0:
359,142,298357,2,0,L|353:198,2,45.4999979171754,0|2|4,0:0|0:0|0:3,0:0:0:0:
443,115,298650,1,8,0:0:0:0:
512,173,298796,1,2,0:0:0:0:
512,173,298869,1,0,0:0:0:0:
512,173,298943,1,0,0:0:0:0:
443,101,299089,2,0,P|454:52|471:11,1,90.9999958343508,2|8,0:0|0:0,0:0:0:0:
269,166,299382,6,0,P|258:215|241:256,1,90.9999958343508,2|8,0:0|0:0,0:0:0:0:
229,263,299601,1,2,0:0:0:0:
229,263,299674,1,4,0:3:0:0:
345,229,299821,1,8,0:0:0:0:
171,180,299967,1,2,0:0:0:0:
171,180,300040,1,0,0:0:0:0:
171,180,300113,1,8,0:0:0:0:
281,338,300260,2,0,L|172:356,1,90.9999958343508,4|8,0:3|0:0,0:0:0:0:
0,274,300552,6,0,P|7:315|11:378,1,90.9999958343508,2|0,0:0|0:0,0:0:0:0:
100,279,300772,1,2,0:0:0:0:
100,279,300845,2,0,P|92:237|89:175,1,90.9999958343508,4|8,0:3|0:0,0:0:0:0:
203,57,301138,2,0,L|213:130,2,45.4999979171754,2|0|0,0:0|0:0|0:0,0:0:0:0:
171,180,301430,1,4,0:3:0:0:
122,24,301577,1,10,0:0:0:0:
288,74,301723,5,2,0:0:0:0:
288,74,301796,1,0,0:0:0:0:
288,74,301869,2,0,P|345:69|396:59,1,90.9999958343508,8|4,0:0|0:3,0:0:0:0:
455,17,302162,1,8,0:0:0:0:
263,228,302308,2,8,L|253:183,3,45.4999979171754,8|8|8|8,0:3|0:3|0:3|0:3,0:3:0:0:
331,156,302601,1,4,0:3:0:0:
334,178,302674,1,4,0:3:0:0:
338,200,302747,1,4,0:3:0:0:
341,223,302820,1,4,0:3:0:0:
345,245,302893,5,6,0:0:0:0:
444,357,303040,1,0,0:0:0:0:
444,357,303113,1,2,0:0:0:0:
444,357,303186,2,0,P|387:352|336:342,1,90.9999958343508,4|8,0:3|0:0,0:0:0:0:
278,317,303479,1,2,0:0:0:0:
278,317,303552,2,0,L|269:372,2,45.4999979171754,0|0|2,0:0|0:0|0:0,0:0:0:0:
197,326,303772,2,0,P|152:318|106:315,1,90.9999958343508,4|8,0:3|0:0,0:0:0:0:
253,92,304065,5,2,0:0:0:0:
79,77,304211,2,0,L|100:207,1,90.9999958343508,10|4,0:0|0:3,0:0:0:0:
169,56,304504,1,8,0:0:0:0:
11,134,304650,1,2,0:0:0:0:
11,134,304723,1,0,0:0:0:0:
11,134,304796,1,8,0:0:0:0:
185,141,304943,2,0,L|164:271,1,90.9999958343508,4|8,0:3|0:0,0:0:0:0:
377,328,305235,6,0,P|349:269|344:222,1,90.9999958343508,2|0,0:0|0:0,0:0:0:0:
444,275,305455,1,2,0:0:0:0:
444,275,305528,2,0,P|454:210|477:169,1,90.9999958343508,4|8,0:3|0:0,0:0:0:0:
293,362,305821,2,0,L|235:354,2,45.4999979171754,2|0|0,0:0|0:0|0:0,0:0:0:0:
503,331,306113,1,4,0:3:0:0:
372,172,306260,1,8,0:0:0:0:
256,260,306406,5,0,0:0:0:0:
256,260,306479,1,0,0:0:0:0:
256,260,306552,2,0,P|208:251|150:247,1,90.9999958343508,8|4,0:0|0:3,0:0:0:0:
289,180,306845,1,8,0:0:0:0:
96,283,306991,2,0,L|109:348,2,45.4999979171754,0|0|8,0:0|0:0|0:0,0:0:0:0:
16,243,307284,1,4,0:3:0:0:
16,243,307357,1,0,0:0:0:0:
16,243,307430,1,8,0:0:0:0:
222,123,307577,6,0,B|132:109|179:155|69:129,1,136.499993751526,2|2,0:0|0:0,0:0:0:0:
13,154,307869,2,0,P|17:78|10:38,1,90.9999958343508,4|8,0:3|0:0,0:0:0:0:
289,180,308162,6,0,B|379:166|332:212|442:186,1,136.499993751526,2|2,0:0|0:0,0:0:0:0:
498,211,308454,2,0,P|494:135|501:95,1,90.9999958343508,4|8,0:3|0:0,0:0:0:0:
201,206,308747,6,0,P|151:256|165:327,1,136.499993751526,2|2,0:0|0:0,0:0:0:0:
153,334,309040,1,4,0:3:0:0:
359,334,309186,1,8,0:0:0:0:
259,301,309333,6,0,L|251:361,3,45.4999979171754,4|0|4|0,0:3|0:0|0:3|0:0,0:0:0:0:
325,248,309625,2,0,L|333:188,3,45.4999979171754,4|0|4|0,0:3|0:0|0:3|0:0,0:0:0:0:
435,371,309918,5,8,0:3:0:0:
468,371,309991,1,8,0:3:0:0:
497,354,310064,1,8,0:3:0:0:
512,324,310137,1,8,0:3:0:0:
510,290,310211,2,4,L|494:244,3,45.4999979171754,4|4|4|4,0:3|0:3|0:3|0:3,0:3:0:0:
425,213,310504,5,2,0:2:0:0:
414,217,310577,1,2,0:2:0:0:
403,213,310650,1,2,0:2:0:0:
399,202,310723,1,2,0:2:0:0:
403,191,310796,1,2,0:2:0:0:
414,187,310869,1,2,0:2:0:0:
425,191,310943,1,2,0:2:0:0:
429,202,311016,1,2,0:2:0:0:
413,201,311089,6,0,P|343:196|287:169,1,105.000004005432,2|0,0:0|0:0,0:0:0:0:
245,144,311308,1,2,0:0:0:0:
245,144,311382,2,0,L|251:84,1,52.5000020027161
190,206,311528,2,0,L|196:266,1,52.5000020027161,2|0,0:0|0:0,0:0:0:0:
123,156,311674,2,8,L|70:169,3,52.5000020027161
14,231,311967,1,4,0:3:0:0:
14,231,312040,1,4,0:3:0:0:
14,231,312113,1,4,0:3:0:0:
14,231,312186,1,4,0:3:0:0:
14,231,312260,6,4,L|3:290,5,48.9999985046387,4|4|4|4|4|4,0:1|0:3|0:3|0:3|0:3|0:3,0:3:0:0:
94,255,312699,2,4,L|105:314,5,48.9999985046387,4|4|4|4|4|4,0:3|0:3|0:3|0:3|0:3|0:3,0:3:0:0:
158,206,313138,6,4,L|147:147,1,48.9999985046387,4|4,0:3|0:3,0:3:0:0:
244,166,313284,2,4,L|255:107,1,48.9999985046387,4|4,0:3|0:3,0:3:0:0:
349,154,313430,5,4,0:1:0:0:
349,154,313504,1,4,0:3:0:0:
349,154,313577,2,4,L|409:160,2,48.9999985046387,4|4|4,0:3|0:3|0:3,0:3:0:0:
304,30,313869,5,4,0:3:0:0:
304,30,313943,1,4,0:3:0:0:
304,30,314016,2,4,P|362:41|419:43,1,97.9999970092774,4|4,0:3|0:3,0:3:0:0:
481,12,314235,2,4,P|470:70|468:127,1,97.9999970092774,4|4,0:3|0:3,0:3:0:0:
479,113,314455,2,4,L|485:177,1,48.9999985046387,4|4,0:3|0:3,0:3:0:0:
456,250,314601,6,4,L|400:261,5,48.9999985046387,4|4|4|4|4|4,0:1|0:3|0:3|0:3|0:3|0:3,0:3:0:0:
377,172,315040,2,4,L|321:161,3,48.9999985046387,4|4|4|4,0:3|0:3|0:3|0:3,0:3:0:0:
359,69,315333,2,4,L|316:31,1,48.9999985046387,4|4,0:3|0:3,0:3:0:0:
237,86,315479,5,4,0:3:0:0:
237,86,315552,1,4,0:3:0:0:
237,86,315625,1,4,0:3:0:0:
237,86,315699,1,4,0:3:0:0:
237,86,315772,2,4,L|224:154,5,48.9999985046387,4|4|4|4|4|4,0:1|0:3|0:3|0:3|0:3|0:3,0:3:0:0:
153,107,316211,2,8,L|162:58,1,48.9999985046387,8|8,0:3|0:3,0:3:0:0:
60,123,316357,5,8,0:3:0:0:
60,123,316430,1,8,0:3:0:0:
60,123,316504,1,4,0:3:0:0:
165,190,316650,2,4,P|169:250|167:292,1,97.9999970092774,4|4,0:3|0:3,0:3:0:0:
249,240,316943,6,4,L|302:244,5,48.9999985046387,4|4|4|4|4|4,0:1|0:3|0:3|0:3|0:3|0:3,0:3:0:0:
263,365,317382,2,4,L|214:361,1,48.9999985046387,4|4,0:3|0:3,0:3:0:0:
167,287,317528,6,4,P|101:278|55:291,1,97.9999970092774,4|4,0:3|0:3,0:3:0:0:
4,233,317747,2,4,P|13:167|0:121,1,97.9999970092774,4|4,0:3|0:3,0:3:0:0:
21,133,317967,2,4,L|14:72,1,48.9999985046387,4|4,0:3|0:3,0:3:0:0:
86,38,318113,6,4,L|143:49,5,48.9999985046387,4|4|4|4|4|4,0:1|0:3|0:3|0:3|0:3|0:3,0:3:0:0:
103,119,318552,2,4,L|160:130,1,48.9999985046387,4|4,0:3|0:3,0:3:0:0:
258,11,318699,5,4,0:3:0:0:
250,34,318772,1,4,0:3:0:0:
246,58,318845,1,4,0:3:0:0:
244,82,318918,1,4,0:3:0:0:
245,107,318991,1,4,0:3:0:0:
354,44,319138,2,4,L|369:92,1,48.9999985046387,4|4,0:3|0:3,0:3:0:0:
448,75,319284,6,4,L|445:125,3,48.9999985046387,4|4|4|4,0:3|0:3|0:3|0:3,0:3:0:0:
398,183,319577,2,4,L|327:170,1,48.9999985046387,4|4,0:3|0:3,0:3:0:0:
275,191,319723,5,4,0:3:0:0:
275,191,319796,1,4,0:3:0:0:
275,191,319869,2,0,P|254:260|254:308,1,97.9999970092774,2|0,0:0|0:0,0:0:0:0:
311,341,320089,2,0,P|380:325|417:321,1,97.9999970092774,2|0,0:0|0:0,0:0:0:0:
417,336,320308,2,0,L|487:347,1,48.9999985046387,2|0,0:0|0:0,0:0:0:0:
512,259,320455,6,8,L|463:251,5,48.9999985046387,8|8|8|8|8|8,0:3|0:3|0:3|0:3|0:3|0:3,0:3:0:0:
443,174,320894,2,4,L|513:185,1,48.9999985046387,4|4,0:3|0:3,0:3:0:0:
401,97,321040,5,8,0:3:0:0:
376,99,321113,1,8,0:3:0:0:
355,111,321186,1,4,0:3:0:0:
339,129,321259,1,4,0:3:0:0:
331,152,321332,1,4,0:3:0:0:
236,189,321479,2,4,L|189:176,1,48.9999985046387,4|4,0:3|0:3,0:3:0:0:
178,159,321625,6,0,P|185:244|177:289,1,105.000004005432,4|8,0:0|0:0,0:0:0:0:
235,97,321918,2,0,L|243:38,2,52.5000020027161,4|0|8,0:3|0:0|0:0,0:0:0:0:
121,214,322211,1,4,0:3:0:0:
49,113,322357,1,8,0:0:0:0:
49,113,322430,1,0,0:0:0:0:
49,113,322504,2,0,L|54:182,2,52.5000020027161,4|0|8,0:3|0:0|0:0,0:0:0:0:
106,295,322796,6,0,P|50:279|-18:277,1,105.000004005432,4|8,0:3|0:0,0:0:0:0:
267,265,323089,2,0,P|323:281|391:283,1,105.000004005432,4|8,0:3|0:0,0:0:0:0:
190,312,323382,1,4,0:3:0:0:
190,312,323455,1,4,0:3:0:0:
190,312,323528,1,8,0:0:0:0:
152,166,323674,5,4,0:3:0:0:
196,231,323821,1,8,0:0:0:0:
160,155,323967,2,0,P|167:100|176:47,1,105.000004005432,4|8,0:0|0:0,0:0:0:0:
74,191,324260,1,4,0:3:0:0:
74,191,324333,1,4,0:3:0:0:
74,191,324406,2,0,P|65:228|59:257,1,52.5000020027161,8|0,0:0|0:0,0:0:0:0:
23,119,324552,5,4,0:3:0:0:
244,160,324699,1,8,0:0:0:0:
97,62,324845,1,4,0:3:0:0:
97,62,324918,1,4,0:3:0:0:
97,62,324991,2,0,P|102:36|109:10,1,52.5000020027161,8|0,0:0|0:0,0:0:0:0:
182,47,325138,6,0,L|297:33,1,105.000004005432,4|8,0:0|0:0,0:0:0:0:
321,183,325430,1,4,0:3:0:0:
421,114,325577,2,0,L|306:100,1,105.000004005432,8|4,0:0|0:3,0:0:0:0:
316,101,325796,1,4,0:3:0:0:
316,101,325869,1,8,0:0:0:0:
358,260,326016,1,4,0:3:0:0:
358,260,326162,1,8,0:0:0:0:
441,231,326308,6,0,P|441:298|447:337,1,105.000004005432,4|8,0:0|0:0,0:0:0:0:
287,211,326601,2,0,P|278:243|257:285,2,52.5000020027161,4|4|8,0:3|0:3|0:0,0:0:0:0:
313,328,326894,1,4,0:3:0:0:
210,203,327040,2,0,P|216:150|215:98,1,105.000004005432,8|4,0:0|0:3,0:0:0:0:
215,98,327260,1,4,0:3:0:0:
215,98,327333,1,8,0:0:0:0:
27,149,327479,6,0,L|153:128,1,105.000004005432,4|8,0:0|0:0,0:0:0:0:
127,289,327772,2,0,L|23:306,1,105.000004005432,4|8,0:3|0:0,0:0:0:0:
184,197,328065,2,0,L|196:266,2,52.5000020027161,4|4|8,0:3|0:3|0:0,0:0:0:0:
230,127,328357,1,4,0:3:0:0:
106,212,328504,1,8,0:0:0:0:
271,260,328650,6,8,L|269:324,5,52.5000020027161,4|8|8|8|8|8,0:0|0:3|0:3|0:3|0:3|0:3,0:3:0:0:
346,331,329089,2,4,L|348:279,1,52.5000020027161,4|4,0:3|0:3,0:3:0:0:
435,302,329235,6,0,P|417:232|419:178,1,105.000004005432,4|8,0:0|0:3,0:0:0:0:
416,199,329455,1,8,0:3:0:0:
416,199,329528,1,8,0:3:0:0:
491,160,329674,1,4,0:3:0:0:
337,167,329821,6,0,L|261:138,3,52.5000020027161,2|2|2|2,0:3|0:3|0:3|0:3,0:0:0:0:
232,95,330113,2,4,L|182:113,3,52.5000020027161,4|4|4|4,0:3|0:3|0:3|0:3,0:3:0:0:
111,89,330406,5,8,0:3:0:0:
111,89,330479,1,8,0:3:0:0:
111,89,330552,1,8,0:3:0:0:
45,143,330699,1,4,0:3:0:0:
53,153,330772,1,4,0:3:0:0:
60,164,330845,1,4,0:3:0:0:
65,176,330918,1,4,0:3:0:0:
68,188,330991,1,4,0:2:0:0:
165,213,350191,6,0,B|184:347|100:448|-83:428|-117:252|109:87|187:267|106:384|225:382|368:310|376:214|376:214|349:257|289:264,1,840,2|0,0:0|0:0,0:0:0:0:
362,19,354991,6,0,B|300:26|255:105|324:156|317:84,1,168,2|0,0:0|0:0,0:0:0:0:
512,122,356191,2,0,B|474:71|384:72|374:157|433:115,1,168,2|0,0:0|0:0,0:0:0:0:
166,136,357391,6,0,B|223:111|301:156|267:235|237:169,1,168,2|0,0:0|0:0,0:0:0:0:
88,300,358591,2,0,B|95:238|174:192|225:262|152:255,1,168,2|0,0:0|0:0,0:0:0:0:
23,122,359791,6,0,B|91:121|122:186|109:237|109:237|72:203|99:56|208:21|208:21|164:128|205:251|276:278|276:278|228:228|242:164,1,840,2|0,0:0|0:0,0:0:0:0:
324,30,364591,6,0,B|357:20|320:-26|282:26|280:90|336:122,1,168,2|0,0:0|0:0,0:0:0:0:
500,156,365791,2,0,B|492:189|550:180|524:121|470:87|414:120,1,168,2|0,0:0|0:0,0:0:0:0:
302,245,366991,2,0,B|276:221|255:276|319:283|375:253|375:188,1,168,2|0,0:0|0:0,0:0:0:0:
256,192,368191,12,0,369215,0:0:0:0:
193,95,369361,6,0,P|246:113|261:230,1,178.500003404617,6|4,0:3|0:3,0:0:0:0:
203,268,369947,2,0,B|203:336|229:307|224:383,1,119.000002269745,8|0,0:1|0:0,0:0:0:0:
440,331,370532,5,0,0:0:0:0:
440,331,370825,2,0,P|438:297|435:266,1,59.5000011348725,4|0,0:3|0:0,0:0:0:0:
359,244,371117,2,0,P|359:305|367:376,1,119.000002269745,8|4,0:1|0:3,0:0:0:0:
497,223,371703,6,4,P|489:150|392:109,1,178.500003404617,4|4,0:3|0:3,0:3:0:0:
349,51,372288,2,0,B|275:46|307:78|233:72,1,119.000002269745,8|4,0:1|0:3,0:0:0:0:
53,28,372873,6,0,P|49:65|43:152,1,119.000002269745,0|0,0:1|0:1,0:1:0:0:
88,209,373312,1,4,0:3:0:0:
153,320,373459,2,0,P|145:265|145:239,1,59.5000011348725,8|4,0:1|0:3,0:1:0:0:
68,309,373751,2,0,P|76:364|76:390,1,59.5000011348725,0|0,0:1|0:1,0:1:0:0:
212,378,374044,5,4,0:3:0:0:
248,309,374191,2,0,P|285:272|357:273,1,119.000002269745,0|4,0:1|0:3,0:1:0:0:
512,235,374630,5,8,0:1:0:0:
476,304,374777,2,0,P|439:341|367:340,1,119.000002269745,0|0,0:1|0:1,0:1:0:0:
272,250,375215,2,0,L|251:185,1,59.5000011348725,0|0,0:1|0:1,0:1:0:0:
346,192,375508,2,0,L|340:120,1,59.5000011348725,4|0,0:3|0:1,0:1:0:0:
432,197,375800,2,0,L|448:120,2,59.5000011348725,8|0|4,0:1|0:1|0:3,0:1:0:0:
506,239,376239,1,0,0:0:0:0:
500,56,376386,5,4,0:3:0:0:
500,56,376532,2,0,P|447:47|363:41,1,119.000002269745,0|4,0:3|0:3,0:3:0:0:
224,91,376971,2,0,L|230:161,1,59.5000011348725,8|0,0:1|0:1,0:1:0:0:
301,45,377264,1,0,0:1:0:0:
301,45,377556,6,0,B|298:121|327:86|324:170,1,119.000002269745,0|4,0:1|0:3,0:1:0:0:
291,230,377995,1,4,0:3:0:0:
166,193,378142,5,8,0:1:0:0:
228,151,378288,2,4,P|182:118|107:148,1,119.000002269745,4|4,0:3|0:3,0:3:0:0:
100,157,378654,1,4,0:3:0:0:
81,187,378727,6,0,L|89:246,1,59.5000011348725,6|0,0:3|0:1,0:1:0:0:
6,222,379020,2,0,L|14:281,1,59.5000011348725,0|4,0:1|0:3,0:1:0:0:
241,254,379312,6,0,P|235:211|227:181,1,59.5000011348725,8|0,0:1|0:1,0:1:0:0:
166,245,379605,2,0,P|172:288|180:318,1,59.5000011348725,0|0,0:1|0:1,0:1:0:0:
296,361,379898,5,0,0:1:0:0:
296,361,380191,2,0,L|356:349,1,59.5000011348725,4|0,0:3|0:1,0:1:0:0:
501,293,380483,2,0,P|455:277|383:279,1,119.000002269745,8|4,0:1|0:3,0:1:0:0:
492,122,381069,6,0,L|500:63,1,59.5000011348725,4|0,0:3|0:1,0:1:0:0:
417,87,381362,2,0,L|425:28,1,59.5000011348725,0|4,0:1|0:3,0:1:0:0:
271,130,381654,6,0,P|277:173|285:203,1,59.5000011348725,8|0,0:1|0:1,0:1:0:0:
346,139,381947,2,0,P|340:96|332:66,1,59.5000011348725,4|0,0:3|0:1,0:1:0:0:
151,26,382239,5,0,0:1:0:0:
151,26,382532,2,0,L|131:94,1,59.5000011348725,0|4,0:1|0:3,0:1:0:0:
106,209,382825,2,0,L|96:134,1,59.5000011348725,8|0,0:1|0:1,0:1:0:0:
127,343,383117,2,0,L|140:276,1,59.5000011348725,0|0,0:1|0:1,0:1:0:0:
231,181,383410,6,0,L|314:172,1,59.5000011348725,4|0,0:3|0:1,0:1:0:0:
283,252,383703,2,0,L|366:243,1,59.5000011348725,0|4,0:1|0:3,0:1:0:0:
387,46,383995,6,0,L|458:63,1,59.5000011348725,8|0,0:1|0:1,0:1:0:0:
473,161,384288,2,0,L|402:144,1,59.5000011348725,0|0,0:1|0:1,0:1:0:0:
283,4,384581,6,0,P|287:37|277:79,1,59.5000011348725,0|0,0:1|0:1,0:1:0:0:
159,147,384873,2,0,P|154:113|164:71,1,59.5000011348725,4|0,0:3|0:1,0:1:0:0:
302,174,385166,2,0,B|272:239|313:228|281:288,1,119.000002269745,8|4,0:1|0:3,0:1:0:0:
491,366,385751,6,0,B|462:327|407:325|407:325|391:364|338:379,1,178.500003404617,4|4,0:3|0:3,0:1:0:0:
258,311,386337,2,0,B|217:319|217:319|191:340|191:340|148:349,1,119.000002269745,8|4,0:1|0:3,0:1:0:0:
8,205,386922,5,4,0:2:0:0:
8,205,387069,2,4,P|64:217|129:229,1,119.000002269745,4|4,0:3|0:3,0:3:0:0:
193,101,387508,2,0,P|149:90|125:86,1,59.5000011348725,8|0,0:1|0:1,0:1:0:0:
21,31,387800,1,4,0:3:0:0:
21,31,387873,1,4,0:3:0:0:
21,31,387947,1,4,0:3:0:0:
21,31,388020,1,4,0:3:0:0:
21,31,388093,6,0,P|82:54|115:160,1,167.999994873047,4|8,0:0|0:0,0:0:0:0:
192,312,388532,2,4,P|135:323|5:338,1,167.999994873047,4|4,0:3|0:3,0:3:0:0:
161,223,388971,2,0,P|215:216|259:214,1,83.9999974365235,8|0,0:0|0:0,0:0:0:0:
488,352,389264,6,0,P|434:359|390:361,1,83.9999974365235,4|4,0:3|0:3,0:0:0:0:
289,294,389556,2,0,P|343:287|387:285,1,83.9999974365235,8|0,0:0|0:0,0:0:0:0:
493,200,389849,5,4,0:3:0:0:
493,200,389995,1,4,0:3:0:0:
404,116,390142,2,0,P|381:172|374:212,1,83.9999974365235,8|0,0:0|0:0,0:0:0:0:
241,345,390434,6,0,B|254:295|256:262|256:262|240:223|199:174,1,167.999994873047,4|8,0:2|0:0,0:0:0:0:
266,4,390873,2,4,B|252:53|251:87|251:87|266:125|308:175,1,167.999994873047,4|4,0:3|0:3,0:3:0:0:
367,330,391312,2,0,L|477:307,1,83.9999974365235,8|4,0:0|0:3,0:0:0:0:
254,241,391605,6,0,B|364:217|311:268|417:242,2,167.999994873047,4|8|4,0:2|0:0|0:3,0:0:0:0:
64,309,392337,1,4,0:3:0:0:
64,309,392483,2,0,P|138:298|160:292,1,83.9999974365235,8|0,0:0|0:0,0:0:0:0:
68,80,392776,6,0,P|131:111|163:219,1,167.999994873047,4|8,0:0|0:0,0:0:0:0:
349,361,393215,2,4,P|286:330|254:222,1,167.999994873047,4|4,0:3|0:3,0:3:0:0:
295,29,393654,1,8,0:0:0:0:
295,29,393947,6,0,P|283:88|275:172,1,125.999996154785,4|0,0:0|0:0,0:0:0:0:
296,179,394239,1,8,0:0:0:0:
495,264,394386,2,4,B|464:165|531:207|489:97,1,167.999994873047,4|4,0:3|0:3,0:3:0:0:
349,240,394825,2,8,P|310:256|271:272,1,83.9999974365235,8|12,0:0|0:3,0:0:0:0:
59,37,395117,6,0,P|116:36|211:111,1,167.999994873047,4|8,0:2|0:0,0:0:0:0:
322,351,395556,2,0,P|265:352|170:277,1,167.999994873047,4|4,0:2|0:3,0:0:0:0:
344,95,395995,2,0,P|390:65|446:58,1,83.9999974365235,8|0,0:0|0:0,0:0:0:0:
502,183,396288,5,4,0:3:0:0:
502,183,396434,1,4,0:3:0:0:
485,280,396581,2,0,P|436:255|409:170,1,125.999996154785,8|0,0:0|0:0,0:0:0:0:
329,179,396873,5,4,0:3:0:0:
308,185,396946,1,4,0:3:0:0:
288,191,397019,1,4,0:3:0:0:
268,197,397092,1,4,0:3:0:0:
248,203,397166,2,4,P|175:188|146:184,1,83.9999974365235,4|4,0:3|0:3,0:3:0:0:
294,372,397459,6,0,P|271:320|162:272,1,167.999994873047,4|8,0:0|0:0,0:0:0:0:
0,163,397898,2,4,P|6:233|23:343,1,167.999994873047,4|4,0:3|0:3,0:3:0:0:
166,175,398337,2,0,P|109:182|75:187,1,83.9999974365235,8|0,0:0|0:0,0:0:0:0:
322,376,398630,6,4,P|327:334|332:292,1,83.9999974365235,4|0,0:2|0:3,0:3:0:0:
238,229,398922,2,0,P|232:270|227:312,1,83.9999974365235,8|0,0:0|0:0,0:0:0:0:
462,226,399215,5,4,0:3:0:0:
462,226,399361,1,4,0:3:0:0:
506,134,399508,2,0,P|501:92|494:50,1,83.9999974365235,8|0,0:0|0:0,0:0:0:0:
329,15,399800,6,0,B|272:42|249:85|249:85|273:157,1,167.999994873047,4|8,0:2|0:0,0:0:0:0:
131,286,400239,2,4,B|188:259|211:216|211:216|187:144,1,167.999994873047,4|4,0:3|0:3,0:3:0:0:
86,68,400678,2,0,P|98:128|114:160,1,83.9999974365235,8|4,0:0|0:3,0:0:0:0:
212,309,400971,6,0,B|102:285|155:336|49:310,2,167.999994873047,4|8|4,0:2|0:0|0:3,0:0:0:0:
371,360,401703,1,4,0:3:0:0:
371,360,401849,2,0,P|423:365|459:371,1,83.9999974365235,8|0,0:0|0:0,0:0:0:0:
258,253,402142,6,0,P|266:200|282:112,1,125.999996154785,4|0,0:1|0:0,0:0:0:0:
261,100,402434,1,8,0:0:0:0:
471,51,402581,2,4,P|464:113|356:169,1,167.999994873047,4|4,0:3|0:3,0:3:0:0:
258,15,403020,2,0,P|309:32|333:58,1,83.9999974365235,8|0,0:0|0:0,0:0:0:0:
457,230,403312,6,0,P|427:268|327:277,1,125.999996154785,4|0,0:1|0:0,0:0:0:0:
327,265,403605,1,8,0:0:0:0:
154,276,403751,2,4,P|214:300|295:371,1,167.999994873047,4|4,0:3|0:3,0:3:0:0:
94,343,404190,2,0,P|41:356|0:362,1,83.9999974365235,8|4,0:0|0:3,0:0:0:0:
327,265,404483,6,0,B|389:275|389:275|420:298|420:298|501:310,1,167.999994873047,4|0,0:2|0:0,0:0:0:0:
181,151,404922,2,0,P|147:97|171:-7,1,167.999994873047,4|0,0:2|0:0,0:0:0:0:
249,279,405361,2,0,P|242:327|236:363,1,83.9999974365235,8|0,0:0|0:0,0:0:0:0:
65,188,405654,5,4,0:3:0:0:
65,188,405800,1,4,0:3:0:0:
69,316,405947,2,0,P|121:304|145:229,1,125.999996154785,8|0,0:0|0:0,0:0:0:0:
139,165,406239,5,4,0:3:0:0:
158,154,406312,1,4,0:3:0:0:
176,144,406385,1,4,0:3:0:0:
194,134,406458,1,4,0:3:0:0:
213,124,406532,2,4,P|223:78|233:30,1,83.9999974365235,4|4,0:3|0:3,0:3:0:0:
320,300,406825,6,0,P|315:227|309:167,2,125.999996154785,4|8|8,0:3|0:3|0:3,0:0:0:0:
396,28,407483,2,0,P|401:101|407:161,2,125.999996154785,8|4|4,0:3|0:3|0:3,0:0:0:0:
512,310,408142,2,0,P|507:237|501:177,2,125.999996154785,4|8|8,0:3|0:3|0:3,0:0:0:0:
196,53,408800,2,0,P|201:126|207:186,1,125.999996154785,4|4,0:3|0:3,0:0:0:0:
72,190,409166,6,0,B|91:143|157:128|157:128|238:180|235:260|187:322,1,336,4|0,0:1|0:0,0:0:0:0:
26,352,410337,6,0,B|56:337|82:336|82:336|112:349|131:380,2,125.999996154785,2|2|2,0:0|0:0|0:0,0:0:0:0:
246,367,411508,6,0,P|303:376|347:391,1,83.9999974365235,4|0,0:0|0:0,0:0:0:0:
420,312,411800,2,0,P|363:303|319:288,1,83.9999974365235,8|0,0:0|0:0,0:0:0:0:
144,196,412093,5,2,0:0:0:0:
243,186,412239,1,4,0:3:0:0:
253,285,412385,1,8,0:0:0:0:
154,295,412532,1,0,0:0:0:0:
275,206,412678,6,0,L|369:219,2,83.9999974365235,2|0|8,0:0|0:0|0:0,0:0:0:0:
132,84,413117,2,2,B|164:90|198:91|198:91|230:75|230:75|263:75|299:85,1,167.999994873047,2|4,0:0|0:3,0:0:0:0:
429,32,413556,1,8,0:0:0:0:
317,75,413703,1,0,0:0:0:0:
458,24,413849,6,0,P|474:78|482:118,1,83.9999974365235
429,265,414142,1,10,0:0:0:0:
429,265,414288,1,0,0:0:0:0:
487,215,414434,5,0,0:0:0:0:
378,204,414580,1,4,0:3:0:0:
367,312,414726,1,10,0:0:0:0:
476,323,414873,1,0,0:0:0:0:
290,263,415020,6,0,L|281:359,1,83.9999974365235,2|0,0:0|0:0,0:0:0:0:
282,346,415239,1,0,0:0:0:0:
282,346,415312,1,8,0:0:0:0:
427,264,415459,2,2,B|420:204|420:204|368:168|307:169,1,167.999994873047,2|4,0:0|0:3,0:0:0:0:
134,260,415898,2,0,L|216:244,1,83.9999974365235,8|0,0:0|0:0,0:0:0:0:
322,83,416190,6,0,B|220:99|290:138|177:156,1,167.999994873047,0|8,0:0|0:0,0:0:0:0:
35,16,416630,1,0,0:0:0:0:
35,16,416776,2,0,P|80:23|124:31,1,83.9999974365235,0|4,0:0|0:3,0:0:0:0:
111,115,417069,2,0,P|66:108|22:100,1,83.9999974365235,8|0,0:0|0:0,0:0:0:0:
224,64,417361,6,0,P|269:71|313:79,1,83.9999974365235,2|2,0:0|0:0,0:0:0:0:
132,248,417654,2,0,P|87:241|43:233,1,83.9999974365235,8|0,0:0|0:0,0:0:0:0:
204,137,417947,5,0,0:0:0:0:
297,175,418093,1,4,0:3:0:0:
362,251,418239,1,8,0:0:0:0:
389,348,418386,1,0,0:0:0:0:
495,253,418532,6,0,P|501:189|501:147,1,83.9999974365235,2|2,0:0|0:0,0:0:0:0:
424,109,418825,2,0,P|418:173|418:215,1,83.9999974365235,8|0,0:0|0:0,0:0:0:0:
273,300,419117,6,0,P|279:236|279:194,1,83.9999974365235,0|4,0:0|0:3,0:0:0:0:
202,156,419410,2,0,P|196:220|196:262,1,83.9999974365235,8|0,0:0|0:0,0:0:0:0:
10,371,419703,5,0,0:0:0:0:
109,361,419850,1,0,0:0:0:0:
99,262,419996,1,8,0:0:0:0:
0,272,420142,1,0,0:0:0:0:
213,371,420288,5,4,0:3:0:0:
213,371,420361,1,4,0:3:0:0:
213,371,420434,1,4,0:3:0:0:
213,371,420508,1,4,0:3:0:0:
213,371,420581,2,0,P|205:311|198:275,1,83.9999974365235,8|0,0:0|0:0,0:0:0:0:
436,95,420873,6,0,P|442:151|459:262,1,167.999994873047,0|10,0:0|0:0,0:0:0:0:
466,346,421312,1,0,0:0:0:0:
377,240,421458,1,2,0:0:0:0:
387,376,421605,1,4,0:3:0:0:
458,261,421751,1,8,0:0:0:0:
333,312,421898,1,0,0:0:0:0:
240,215,422044,6,0,L|132:199,1,83.9999974365235,2|2,0:0|0:0,0:0:0:0:
186,281,422337,1,8,0:0:0:0:
32,343,422483,6,0,L|140:359,1,83.9999974365235,2|0,0:0|0:0,0:0:0:0:
86,277,422776,1,4,0:3:0:0:
90,149,422922,6,0,L|-18:133,1,83.9999974365235,10|0,0:0|0:0,0:0:0:0:
198,367,423215,5,0,0:0:0:0:
198,367,423361,1,0,0:0:0:0:
214,284,423508,2,0,L|226:200,1,83.9999974365235,10|0,0:0|0:0,0:0:0:0:
139,22,423800,5,2,0:0:0:0:
216,178,423947,1,4,0:3:0:0:
275,13,424093,5,8,0:0:0:0:
214,89,424239,1,0,0:0:0:0:
329,164,424386,6,0,L|415:154,1,83.9999974365235,2|0,0:0|0:0,0:0:0:0:
488,40,424678,1,8,0:0:0:0:
512,246,424825,2,2,B|404:245|471:290|346:293,1,167.999994873047,4|6,0:3|0:3,0:0:0:0:
180,344,425264,2,2,P|117:348|42:357,1,125.999996154785,10|0,0:0|0:0,0:0:0:0:
34,328,425556,6,0,P|27:274|27:235,1,83.9999974365235
208,179,425849,2,0,P|215:233|215:272,1,83.9999974365235,8|0,0:0|0:0,0:0:0:0:
124,251,426142,5,4,0:3:0:0:
124,251,426288,1,4,0:3:0:0:
301,291,426434,2,0,P|308:345|308:384,1,83.9999974365235,8|0,0:0|0:0,0:0:0:0:
148,112,426727,2,0,B|191:88|230:91|230:91|266:111|283:151,1,167.999994873047,4|8,0:3|0:0,0:0:0:0:
430,384,427166,2,4,P|419:308|410:216,1,167.999994873047,4|4,0:3|0:3,0:3:0:0:
492,35,427605,1,8,0:0:0:0:
492,35,427898,6,4,P|429:40|400:44,1,83.9999974365235,4|4,0:3|0:3,0:3:0:0:
508,119,428190,1,8,0:0:0:0:
339,0,428337,2,4,P|280:13|254:117,1,167.999994873047,4|4,0:3|0:3,0:3:0:0:
166,274,428776,1,8,0:0:0:0:
94,123,428922,1,0,0:0:0:0:
219,206,429069,6,4,L|123:186,1,83.9999974365235,4|4,0:3|0:3,0:3:0:0:
70,339,429361,2,0,P|136:350|238:373,1,167.999994873047,8|0,0:3|0:0,0:0:0:0:
378,328,429800,5,4,0:3:0:0:
250,366,429947,1,2,0:3:0:0:
359,334,430093,1,4,0:3:0:0:
166,274,430239,5,4,0:0:0:0:
256,192,430312,12,0,432581,2:0:0:0:
252,315,448386,6,0,P|249:297|247:280,1,35,0|2,0:0|0:0,0:0:0:0:
344,203,448686,2,0,P|342:227|338:251,1,48.9999985046387,2|2,0:0|0:0,0:0:0:0:
245,167,448986,6,0,P|366:160|441:255,1,251.999992309571,4|0,0:2|0:0,0:0:0:0:
254,250,449864,2,0,L|250:282,2,32.6666656697591
180,220,450156,6,0,P|145:241|33:240,1,146.999995513916,2|2,0:0|0:0,0:0:0:0:
6,173,450742,2,0,L|0:71,1,97.9999970092774
155,51,451327,6,0,B|235:51|187:83|220:22|303:45,2,146.999995513916,2|2|0,0:0|0:0|0:0,0:0:0:0:
267,145,452498,1,2,0:0:0:0:
267,145,453083,2,0,P|284:144|300:141,2,32.6666656697591,2|0|0,0:0|0:0|0:0,0:0:0:0:
208,223,453376,2,0,P|193:219|176:216,2,32.6666656697591,2|0|0,0:0|0:0|0:0,0:0:0:0:
122,295,453668,6,0,L|117:148,1,146.999995513916,2|2,0:0|0:0,0:0:0:0:
51,105,454254,2,0,P|42:153|43:202,1,97.9999970092774
209,223,454839,6,0,P|280:208|352:222,1,146.999995513916,2|2,0:0|0:0,0:0:0:0:
417,264,455425,2,0,P|434:263|449:258,2,32.6666656697591
421,186,455717,2,0,P|411:172|399:161,2,32.6666656697591
347,300,456010,6,0,P|276:315|204:301,1,146.999995513916,2|2,0:0|0:0,0:0:0:0:
162,234,456595,2,0,L|158:126,1,97.9999970092774
158,136,457181,5,2,0:0:0:0:
264,248,457766,2,0,P|261:264|257:280,2,32.6666656697591,2|0|0,0:0|0:0|0:0,0:0:0:0:
342,172,458059,2,0,P|339:156|335:141,2,32.6666656697591,2|0|0,0:0|0:0|0:0,0:0:0:0:
330,331,458351,6,0,B|243:301|262:346|169:315,1,146.999995513916,2|2,0:0|0:0,0:0:0:0:
121,274,458937,2,0,P|72:271|23:284,1,97.9999970092774
162,140,459522,5,2,0:0:0:0:
162,140,460107,2,0,L|129:141,2,32.6666656697591,2|0|0,0:0|0:0|0:0,0:0:0:0:
233,230,460400,2,0,L|266:232,2,32.6666656697591,2|0|0,0:0|0:0|0:0,0:0:0:0:
100,328,460693,2,0,B|125:307|162:296|162:296|194:314|237:312,2,146.999995513916,2|2|0,0:0|0:0|0:0,0:0:0:0:
217,229,461864,5,2,0:0:0:0:
217,229,462449,2,0,P|215:245|213:261,2,32.6666656697591,2|0|0,0:0|0:0|0:0,0:0:0:0:
213,102,462742,1,2,0:0:0:0:
115,200,462888,6,8,B|139:198,1,24.4999992523194,8|8,0:3|0:3,0:3:0:0:
328,189,463034,2,0,B|387:192|387:192|408:205|430:210|430:210|491:210,2,167.999994873047,4|4|4,0:2|0:3|0:3,0:0:0:0:
313,189,463693,1,4,0:3:0:0:
299,188,463766,2,0,P|293:223|304:281,1,83.9999974365235,4|0,0:3|0:0,0:0:0:0:
372,384,464059,1,8,0:3:0:0:
171,301,464205,6,0,B|56:273|119:319|-12:289,1,167.999994873047,4|0,0:2|0:0,0:0:0:0:
60,152,464717,1,4,0:3:0:0:
60,152,464790,2,0,P|108:143|162:141,1,83.9999974365235,8|8,0:3|0:3,0:0:0:0:
224,221,465083,1,4,0:3:0:0:
224,221,465156,1,4,0:3:0:0:
224,221,465229,1,8,0:0:0:0:
291,84,465376,6,0,P|294:145|335:192,1,125.999996154785,4|0,0:2|0:0,0:0:0:0:
417,190,465668,2,4,B|445:190|445:190|472:196,2,55.9999982910157,4|4|4,0:3|0:3|0:3,0:3:0:0:
326,274,465961,2,0,B|279:296|279:296|219:300,2,111.999996582031,4|4|4,0:2|0:2|0:2,0:0:0:0:
224,221,466546,6,0,B|112:232,1,111.999996582031,8|0,0:0|0:0,0:0:0:0:
35,183,466839,2,0,P|30:156|32:128,1,55.9999982910157
140,84,467034,1,8,0:0:0:0:
140,84,467132,2,8,B|195:79,2,55.9999982910157
66,32,467425,2,8,B|10:36,2,55.9999982910157
261,17,467717,5,4,0:0:0:0:
261,17,468888,5,4,0:2:0:0:
353,148,469473,5,4,0:2:0:0:
439,44,469668,1,4,0:2:0:0:
485,170,469864,1,4,0:2:0:0:
353,148,470059,6,0,B|340:129|324:113|324:113|282:102|220:139,1,111.999996582031,4|0,0:0|0:0,0:0:0:0:
274,209,470351,2,4,P|280:236|281:263,2,55.9999982910157,4|4|4,0:3|0:3|0:3,0:3:0:0:
169,125,470644,2,0,B|94:105|94:105|51:112,2,111.999996582031,8|0|0,0:0|0:3|0:0,0:0:0:0:
177,322,471229,6,0,P|193:269|185:215,1,111.999996582031
90,186,471522,2,8,P|63:192|30:196,2,55.9999982910157,8|8|8,0:3|0:3|0:3,0:3:0:0:
169,125,471815,2,4,P|196:128|224:134,2,55.9999982910157,4|4|4,0:3|0:3|0:3,0:3:0:0:
91,65,472107,2,0,P|134:32|194:27,1,111.999996582031,8|0,0:0|0:0,0:0:0:0:
314,161,472400,6,0,P|392:185|466:151,1,167.999994873047,4|0,0:0|0:0,0:0:0:0:
386,77,472839,1,4,0:3:0:0:
243,246,472986,2,0,L|247:371,2,125.999996154785,8|0|0,0:0|0:0|0:0,0:0:0:0:
91,65,473571,6,0,P|56:139|80:217,1,167.999994873047,0|4,0:0|0:3,0:0:0:0:
243,246,474010,1,0,0:0:0:0:
322,122,474156,2,0,B|258:125|258:125|211:144|211:144|158:147,1,167.999994873047,8|4,0:0|0:3,0:0:0:0:
194,41,474595,1,0,0:0:0:0:
344,223,474742,6,0,P|394:242|503:187,1,167.999994873047,4|0,0:2|0:0,0:0:0:0:
475,98,475181,1,4,0:3:0:0:
322,122,475327,2,0,B|196:128,2,125.999996154785,8|0|0,0:0|0:0|0:0,0:0:0:0:
202,25,475912,6,0,B|98:29|152:82|33:70,1,167.999994873047,4|0,0:2|0:0,0:0:0:0:
107,225,476351,1,4,0:3:0:0:
45,176,476498,5,8,0:0:0:0:
60,287,476644,1,8,0:3:0:0:
168,272,476790,1,4,0:3:0:0:
155,162,476937,1,4,0:3:0:0:
127,373,477083,6,0,P|208:345|301:343,1,167.999994873047,4|0,0:2|0:0,0:0:0:0:
422,363,477522,1,4,0:3:0:0:
472,287,477668,2,0,L|479:152,2,125.999996154785,8|0|0,0:0|0:0|0:0,0:0:0:0:
368,137,478254,6,0,B|253:129|309:182|197:168,1,167.999994873047,0|4,0:0|0:3,0:0:0:0:
341,240,478693,1,0,0:0:0:0:
341,240,478839,1,8,0:0:0:0:
228,67,479132,1,2,0:3:0:0:
228,67,479278,1,2,0:2:0:0:
156,114,479425,6,0,L|161:289,1,167.999994873047,4|0,0:2|0:0,0:0:0:0:
284,153,479864,1,4,0:3:0:0:
341,240,480010,2,0,P|394:247|469:246,2,125.999996154785,8|0|0,0:0|0:0|0:0,0:0:0:0:
228,67,480595,6,0,P|311:56|395:58,1,167.999994873047,4|4,0:2|0:3,0:0:0:0:
457,143,481034,1,0,0:0:0:0:
356,286,481181,2,0,L|273:292,2,83.9999974365235,8|4|0,0:0|0:3|0:2,0:0:0:0:
370,195,481620,1,4,0:3:0:0:
370,195,481766,6,0,B|350:171|314:161|314:161|258:179|221:216,1,167.999994873047,4|0,0:2|0:0,0:0:0:0:
184,306,482205,1,4,0:3:0:0:
124,221,482351,2,0,L|122:137,2,83.9999974365235,8|0|0,0:0|0:0|0:0,0:0:0:0:
211,129,482790,1,0,0:0:0:0:
211,129,482937,6,0,P|233:91|242:43,1,83.9999974365235,4|0,0:2|0:0,0:0:0:0:
370,195,483229,2,0,P|348:157|339:109,1,83.9999974365235,4|0,0:3|0:0,0:0:0:0:
442,306,483522,2,0,P|463:267|500:236,1,83.9999974365235,8|0,0:0|0:0,0:0:0:0:
312,310,483815,1,4,0:3:0:0:
312,310,483961,1,0,0:0:0:0:
269,186,484107,6,0,B|239:184|211:189|211:189|188:210|130:211,2,130.666662679037,4|4|4,0:2|0:2|0:3,0:0:0:0:
366,100,484595,1,4,0:3:0:0:
366,100,484693,2,0,B|418:103|418:103|437:124|437:124|490:128,2,130.666662679037,4|4|4,0:2|0:2|0:3,0:0:0:0:
180,90,485278,6,0,B|110:88|110:88|46:118,1,130.666662679037,4|0,0:2|0:0,0:0:0:0:
10,220,485571,2,4,P|15:254|31:301,2,65.3333313395183,4|4|4,0:3|0:3|0:3,0:3:0:0:
132,203,485864,6,8,B|197:204,1,65.3333313395183,8|8,0:3|0:3,0:3:0:0:
266,332,486059,2,8,B|234:274,1,65.3333313395183,8|8,0:3|0:3,0:3:0:0:
311,151,486254,2,4,B|276:206,1,65.3333313395183,4|4,0:3|0:3,0:3:0:0:
286,59,486449,6,0,B|352:59|352:59|385:103|439:103,1,167.999994873047,4|0,0:0|0:0,0:0:0:0:
476,207,486888,1,4,0:3:0:0:
475,223,486961,1,4,0:3:0:0:
474,239,487034,2,4,L|378:243,1,83.9999974365235,4|4,0:3|0:3,0:3:0:0:
336,347,487327,1,4,0:3:0:0:
290,185,487473,1,4,0:3:0:0:
201,295,487620,6,4,B|101:312|153:265|35:285,1,167.999994873047,4|0,0:0|0:3,0:3:0:0:
78,382,488059,1,4,0:3:0:0:
170,195,488205,2,4,P|178:141|174:98,1,83.9999974365235,4|0,0:3|2:3,0:3:0:0:
86,58,488425,2,4,P|84:99|92:141,1,83.9999974365235,4|0,0:3|2:3,0:3:0:0:
173,280,488644,1,4,0:3:0:0:
187,288,488717,1,4,0:3:0:0:
201,295,488790,6,4,L|374:305,1,167.999994873047,4|0,0:0|0:3,0:3:0:0:
475,160,489229,2,4,P|413:171|356:148,1,125.999996154785,4|0,0:3|2:3,0:3:0:0:
311,70,489522,2,4,L|227:73,1,83.9999974365235,4|0,0:3|0:3,0:3:0:0:
95,107,489815,1,4,0:3:0:0:
84,119,489888,1,4,0:3:0:0:
78,134,489961,6,4,P|61:209|83:304,1,167.999994873047,4|0,0:0|0:3,0:3:0:0:
191,335,490400,1,4,0:3:0:0:
291,274,490546,1,4,0:3:0:0:
291,274,490620,1,4,0:3:0:0:
291,274,490693,1,4,0:3:0:0:
391,334,490839,2,4,L|499:327,1,83.9999974365235,4|4,0:3|0:3,0:3:0:0:
338,163,491132,6,4,B|286:191|244:160|244:160|226:221|176:208,1,167.999994873047,4|0,0:0|0:3,0:3:0:0:
291,274,491571,1,4,0:3:0:0:
429,216,491717,2,4,P|440:175|437:134,2,83.9999974365235,4|4|4,0:3|0:3|0:3,0:3:0:0:
291,274,492156,1,4,0:3:0:0:
276,281,492229,1,4,0:3:0:0:
257,289,492303,6,4,P|175:294|100:257,1,167.999994873047,4|0,0:0|0:3,0:3:0:0:
80,141,492742,1,4,0:3:0:0:
204,143,492888,1,4,0:3:0:0:
204,143,492961,1,4,0:3:0:0:
204,143,493034,1,4,0:3:0:0:
144,35,493181,1,4,0:3:0:0:
20,33,493327,1,4,0:3:0:0:
80,141,493473,6,4,L|71:314,1,167.999994873047,4|0,0:0|0:3,0:3:0:0:
175,365,493912,1,4,0:3:0:0:
275,305,494059,2,4,P|283:263|282:221,1,83.9999974365235,4|4,0:3|0:3,0:3:0:0:
210,59,494351,2,4,P|202:100|203:142,1,83.9999974365235,4|4,0:3|0:3,0:3:0:0:
330,137,494644,5,8,0:3:0:0:
346,136,494717,1,8,0:3:0:0:
362,140,494790,1,8,0:3:0:0:
376,148,494864,1,8,0:3:0:0:
391,155,494937,2,4,L|440:148,3,41.9999987182618,4|4|4|4,0:3|0:3|0:3|0:3,0:3:0:0:
376,234,495229,2,8,L|335:229,3,41.9999987182618,8|8|8|8,0:3|0:3|0:3|0:3,0:3:0:0:
390,313,495522,1,4,0:3:0:0:
373,315,495595,1,4,0:3:0:0:
356,317,495668,1,4,0:3:0:0:
339,319,495742,1,4,0:3:0:0:
322,321,495815,6,0,B|288:292|258:277|258:277|212:283|163:316,1,167.999994873047,4|4,0:0|0:3,0:0:0:0:
162,320,496181,1,4,0:3:0:0:
150,332,496254,1,8,0:0:0:0:
306,187,496400,2,0,P|342:209|376:234,1,83.9999974365235,4|8,0:3|0:0,0:0:0:0:
202,200,496693,1,4,0:3:0:0:
187,193,496766,1,4,0:3:0:0:
172,185,496839,1,8,0:0:0:0:
246,79,496985,6,0,P|329:80|410:57,1,167.999994873047,4|4,0:0|0:3,0:0:0:0:
481,162,497425,1,8,0:0:0:0:
376,234,497571,1,4,0:3:0:0:
376,234,497644,1,4,0:3:0:0:
376,234,497717,1,8,0:0:0:0:
305,128,497864,1,4,0:3:0:0:
411,57,498010,1,8,0:0:0:0:
293,6,498156,6,0,B|273:11|250:9|250:9|229:27|229:27|186:11|129:18,1,167.999994873047,4|4,0:0|0:3,0:0:0:0:
118,26,498522,1,4,0:3:0:0:
105,37,498595,1,8,0:0:0:0:
39,135,498742,1,4,0:3:0:0:
110,228,498888,2,0,L|204:225,1,83.9999974365235,8|4,0:0|0:3,0:0:0:0:
210,225,499107,1,4,0:3:0:0:
226,225,499181,1,8,0:0:0:0:
339,259,499327,6,0,P|274:253|192:325,1,167.999994873047,4|4,0:0|0:3,0:0:0:0:
299,368,499766,1,8,0:0:0:0:
415,354,499912,1,4,0:3:0:0:
415,354,499985,1,4,0:3:0:0:
415,354,500059,1,8,0:0:0:0:
454,243,500205,1,4,0:3:0:0:
339,259,500351,1,8,0:0:0:0:
429,147,500498,6,0,B|380:177|321:148|321:148|291:178|249:170,1,167.999994873047,4|4,0:0|0:3,0:0:0:0:
256,168,500864,1,4,0:3:0:0:
240,162,500937,2,0,P|229:114|243:39,1,125.999996154785,8|0,0:0|2:0,0:0:0:0:
143,98,501229,2,0,P|143:139|132:180,1,83.9999974365235,8|4,0:0|0:3,0:0:0:0:
125,195,501449,1,4,0:3:0:0:
117,209,501522,1,8,0:0:0:0:
46,311,501668,6,0,P|87:302|129:304,1,83.9999974365235,4|8,0:0|0:0,0:0:0:0:
343,368,501961,2,0,P|302:376|260:374,1,83.9999974365235,4|8,0:3|0:0,0:0:0:0:
218,239,502254,1,4,0:3:0:0:
233,242,502327,1,4,0:3:0:0:
248,251,502400,1,8,0:0:0:0:
195,340,502546,1,4,0:3:0:0:
117,209,502693,1,8,0:0:0:0:
201,136,502839,5,2,0:2:0:0:
217,138,502912,1,2,0:2:0:0:
233,140,502985,1,2,0:2:0:0:
249,142,503059,1,2,0:2:0:0:
265,144,503132,2,4,L|322:138,3,41.9999987182618,4|4|4|4,0:3|0:3|0:3|0:3,0:3:0:0:
379,45,503425,6,0,L|295:53,1,83.9999974365235,4|0,0:2|2:0,0:0:0:0:
389,130,503644,2,0,L|472:121,1,83.9999974365235,4|0,0:2|2:0,0:0:0:0:
375,215,503864,2,0,L|333:219,1,41.9999987182618,4|0,0:2|0:0,0:0:0:0:
208,177,504010,6,8,P|202:156|200:135,3,41.9999987182618,8|8|8|8,0:3|0:3|0:3|0:3,0:3:0:0:
235,304,504303,2,4,P|233:324|227:345,3,41.9999987182618,4|4|4|4,0:3|0:3|0:3|0:3,0:3:0:0:
293,139,504595,1,4,0:2:0:0:
293,139,505181,6,0,L|297:241,1,83.9999974365235,4|8,0:0|0:0,0:0:0:0:
299,340,505473,1,4,0:3:0:0:
412,202,505620,1,8,0:0:0:0:
415,320,505766,1,4,0:3:0:0:
415,320,505839,1,4,0:3:0:0:
415,320,505912,1,8,0:0:0:0:
296,222,506059,2,0,P|254:225|217:245,1,83.9999974365235,4|8,0:3|0:0,0:0:0:0:
183,357,506351,5,4,0:3:0:0:
124,179,506498,2,0,L|122:91,1,83.9999974365235,8|4,0:0|0:3,0:0:0:0:
231,28,506790,2,0,L|233:116,1,83.9999974365235,8|4,0:0|0:3,0:0:0:0:
234,128,507010,1,4,0:3:0:0:
235,144,507083,1,8,0:0:0:0:
262,258,507229,1,4,0:3:0:0:
340,140,507376,1,8,0:0:0:0:
374,237,507522,6,0,P|371:278|360:319,1,83.9999974365235,4|8,0:3|0:0,0:0:0:0:
340,140,507815,2,0,P|343:99|354:58,1,83.9999974365235,4|8,0:3|0:0,0:0:0:0:
471,60,508107,1,4,0:3:0:0:
471,60,508181,1,4,0:3:0:0:
471,60,508254,1,8,0:0:0:0:
504,174,508400,1,4,0:3:0:0:
354,57,508546,1,8,0:0:0:0:
234,128,508693,6,0,L|141:134,2,83.9999974365235,4|8|4,0:3|0:0|0:3,0:0:0:0:
125,27,509132,2,0,P|84:38|52:64,1,83.9999974365235,8|4,0:0|0:3,0:0:0:0:
41,77,509351,1,4,0:3:0:0:
33,92,509425,1,8,0:0:0:0:
138,143,509571,1,4,0:3:0:0:
18,195,509717,1,8,0:0:0:0:
231,73,509864,6,2,B|375:60|312:133|471:125,1,251.999992309571,6|10,0:0|0:0,0:0:0:0:
406,269,510449,1,4,0:3:0:0:
391,278,510522,1,4,0:3:0:0:
375,283,510595,1,8,0:0:0:0:
237,186,510742,2,0,P|287:191|327:206,1,83.9999974365235,4|8,0:3|0:0,0:0:0:0:
248,326,511034,6,6,B|177:313|177:313|161:323|161:323|115:314|84:322,1,167.999994873047,6|4,0:0|0:3,0:0:0:0:
91,103,511473,2,0,P|114:137|128:177,1,83.9999974365235,8|4,0:0|0:3,0:0:0:0:
128,193,511693,1,4,0:3:0:0:
127,209,511766,1,8,0:0:0:0:
11,189,511912,1,4,0:3:0:0:
208,108,512059,1,8,0:0:0:0:
318,201,512205,6,0,P|319:242|319:284,1,83.9999974365235,4|8,0:3|0:0,0:0:0:0:
206,191,512498,2,0,P|205:149|207:107,1,83.9999974365235,4|8,0:3|0:0,0:0:0:0:
394,152,512790,5,4,0:3:0:0:
320,114,512936,1,8,0:0:0:0:
362,38,513082,1,4,0:3:0:0:
435,80,513229,1,8,0:0:0:0:
318,201,513376,6,8,L|276:200,3,41.9999987182618,8|8|8|8,0:3|0:3|0:3|0:3,0:3:0:0:
207,107,513668,2,4,L|165:108,3,41.9999987182618,4|4|4|4,0:3|0:3|0:3|0:3,0:3:0:0:
287,27,513961,2,8,L|329:28,3,41.9999987182618,8|8|8|8,0:3|0:3|0:3|0:3,0:3:0:0:
435,80,514254,1,4,0:3:0:0:
436,96,514327,1,4,0:3:0:0:
437,112,514400,1,4,0:3:0:0:
438,128,514473,1,4,0:3:0:0:
439,144,514546,6,0,L|428:231,1,83.9999974365235,4|8,0:0|0:0,0:0:0:0:
363,326,514839,1,4,0:3:0:0:
318,201,514985,1,8,0:0:0:0:
252,299,515132,1,4,0:3:0:0:
252,299,515205,1,4,0:3:0:0:
252,299,515278,1,8,0:0:0:0:
207,174,515425,2,0,P|225:137|259:104,1,83.9999974365235,4|8,0:3|0:0,0:0:0:0:
351,39,515717,5,4,0:0:0:0:
351,39,515790,1,4,0:3:0:0:
351,39,515864,1,8,0:0:0:0:
393,166,516010,2,0,P|358:189|312:200,1,83.9999974365235,4|8,0:3|0:0,0:0:0:0:
254,106,516303,1,4,0:3:0:0:
237,102,516376,1,4,0:3:0:0:
220,97,516450,1,8,0:0:0:0:
114,75,516595,1,4,0:3:0:0:
114,75,516668,1,4,0:3:0:0:
114,75,516742,1,4,0:3:0:0:
114,75,516815,1,4,0:3:0:0:
114,75,516888,6,0,L|117:166,1,83.9999974365235,4|8,0:0|0:0,0:0:0:0:
83,305,517181,1,4,0:3:0:0:
197,205,517327,1,8,0:0:0:0:
48,219,517473,1,4,0:3:0:0:
48,219,517546,1,4,0:3:0:0:
48,219,517620,1,8,0:0:0:0:
177,297,517766,2,0,L|265:299,1,83.9999974365235,4|8,0:3|0:0,0:0:0:0:
334,206,518059,5,8,0:3:0:0:
336,189,518132,1,8,0:3:0:0:
338,172,518205,1,8,0:3:0:0:
340,155,518278,1,8,0:3:0:0:
342,138,518351,2,8,P|314:106|277:87,1,83.9999974365235,8|8,0:3|0:3,0:3:0:0:
206,136,518571,1,8,0:3:0:0:
189,139,518644,2,4,L|139:140,3,41.9999987182618,4|4|4|4,0:3|0:3|0:3|0:3,0:3:0:0:
120,46,518937,2,8,L|70:45,3,41.9999987182618,8|8|8|8,0:3|0:3|0:3|0:3,0:3:0:0:
28,129,519229,5,8,0:3:0:0:
24,145,519303,1,8,0:3:0:0:
21,161,519376,1,8,0:3:0:0:
22,177,519449,1,8,0:3:0:0:
23,193,519522,2,4,L|26:240,3,41.9999987182618,4|4|4|4,0:3|0:3|0:3|0:3,0:3:0:0:
109,175,519815,2,8,L|112:128,3,41.9999987182618,8|8|8|8,0:3|0:3|0:3|0:3,0:3:0:0:
194,195,520107,2,4,L|197:242,3,41.9999987182618,4|4|4|4,0:3|0:3|0:3|0:3,0:3:0:0:
280,177,520400,5,8,0:3:0:0:
292,188,520473,1,8,0:3:0:0:
301,201,520546,1,8,0:3:0:0:
308,216,520620,1,8,0:3:0:0:
314,231,520693,2,4,L|306:272,3,41.9999987182618,4|4|4|4,0:3|0:3|0:3|0:3,0:3:0:0:
236,364,520985,2,8,L|229:323,3,41.9999987182618,8|8|8|8,0:3|0:3|0:3|0:3,0:3:0:0:
376,364,521278,2,4,L|394:262,1,83.9999974365235,4|4,0:3|0:3,0:3:0:0:
136,288,521571,6,0,B|132:202|72:208|27:178|24:89|84:45|168:48|201:92|202:153|163:182,1,391.99998803711,4|4,0:2|0:2,0:2:0:0:
376,96,522742,6,0,B|380:182|440:176|485:206|488:295|428:339|344:336|311:292|310:231|349:202,1,391.99998803711,4|4,0:2|0:2,0:2:0:0:
185,203,523912,5,8,0:3:0:0:
199,177,523985,1,8,0:3:0:0:
219,154,524059,1,8,0:3:0:0:
246,140,524132,1,8,0:3:0:0:
275,134,524205,2,4,L|325:139,3,48.9999985046387,4|4|4|4,0:3|0:3|0:3|0:3,0:3:0:0:
375,44,524498,6,0,L|325:39,3,48.9999985046387,2|2|2|2,0:2|0:2|0:2|0:2,0:0:0:0:
224,39,524790,1,8,0:3:0:0:
224,39,524864,1,8,0:3:0:0:
224,39,524937,2,0,P|193:47|171:60,1,48.9999985046387,8|8,0:3|0:3,0:0:0:0:
107,117,525083,5,2,0:2:0:0:
107,146,525156,1,2,0:2:0:0:
107,175,525229,1,2,0:2:0:0:
107,204,525303,1,2,0:2:0:0:
107,233,525376,1,2,0:2:0:0:
107,262,525449,1,2,0:2:0:0:
107,291,525522,2,0,L|106:342,5,48.9999985046387,2|2|2|2|2|2,0:2|0:2|0:2|0:2|0:2|0:2,0:0:0:0:
236,259,525961,5,2,0:0:0:0:
278,238,526034,1,2,0:0:0:0:
324,239,526107,1,2,0:0:0:0:
365,260,526181,1,2,0:0:0:0:
394,295,526254,1,2,0:0:0:0:
404,340,526839,5,4,0:0:0:0:
236,259,527034,1,4,0:0:0:0:
512,193,527229,1,4,0:0:0:0:
196,99,527425,1,4,0:0:0:0:
