osu file format v14

[General]
AudioFilename: audio.mp3
AudioLeadIn: 0
PreviewTime: 387410
Countdown: 0
SampleSet: Drum
StackLeniency: 0.7
Mode: 0
LetterboxInBreaks: 0
EpilepsyWarning: 1
WidescreenStoryboard: 1

[Editor]
Bookmarks: 159849,180629,180776,180849,180995,181142,181215,252263,255922,268142,285410,329312,330629
DistanceSpacing: 1.05
BeatDivisor: 4
GridSize: 32
TimelineZoom: 3

[Metadata]
Title:Uta
TitleUnicode:謳
Artist:Imperial Circus Dead Decadence
ArtistUnicode:Imperial Circus Dead Decadence
Creator:Toumei Dragon
Version:Leftover Soul
Source:
Tags:Seni Kylie Extol
BeatmapID:1570269
BeatmapSetID:479638

[Difficulty]
HPDrainRate:4
CircleSize:4.2
OverallDifficulty:9.8
ApproachRate:9.8
SliderMultiplier:2.02
SliderTickRate:1

[Events]
//Background and Video events
0,0,"bg.jpg",0,0
//Break Periods
2,275073,282589
2,331268,349789
2,430516,447984
//Storyboard Layer 0 (Background)
//Storyboard Layer 1 (Fail)
//Storyboard Layer 2 (Pass)
//Storyboard Layer 3 (Foreground)
//Storyboard Layer 4 (Overlay)
//Storyboard Sound Samples

[TimingPoints]
1641,428.571428571429,4,3,1,80,1,0
23926,458.015267175573,4,3,1,80,1,0
24842,468.75,4,3,1,80,1,8
25777,500,4,3,1,80,1,0
27777,545.454545454546,4,3,1,80,1,0
28867,555.555555555556,4,3,1,80,1,8
29973,310.880829015544,4,3,1,80,1,0
33703,292.682926829268,4,3,1,80,1,0
33703,-66.6666666666667,4,3,1,80,0,0
33922,-66.6666666666667,4,3,1,5,0,0
33995,-133.333333333333,4,3,1,80,0,0
35678,-133.333333333333,4,3,1,5,0,0
35751,-66.6666666666667,4,3,1,80,0,0
35971,-66.6666666666667,4,3,1,5,0,0
36044,-66.6666666666667,4,3,1,80,0,0
36263,-66.6666666666667,4,3,1,5,0,0
36337,-133.333333333333,4,3,1,80,0,0
38056,-133.333333333333,4,3,1,5,0,0
38093,-66.6666666666667,4,3,1,80,0,0
38312,-100,4,3,1,5,0,0
38385,-200,4,3,1,80,0,0
38678,-200,4,3,1,80,0,0
40727,-100,4,3,1,80,0,0
41898,-100,4,3,2,80,0,0
42483,-76.9230769230769,4,3,3,80,0,0
43068,-66.6666666666667,4,3,1,80,0,0
43288,-66.6666666666667,4,3,1,5,0,0
43361,-133.333333333333,4,3,1,80,0,0
45081,-133.333333333333,4,3,1,5,0,0
45117,-66.6666666666667,4,3,1,80,0,0
45337,-66.6666666666667,4,3,1,5,0,0
45410,-66.6666666666667,4,3,1,80,0,0
45629,-66.6666666666667,4,3,1,5,0,0
45702,-133.333333333333,4,3,1,80,0,0
47422,-133.333333333333,4,3,1,5,0,0
47459,-66.6666666666667,4,3,1,80,0,0
47678,-100,4,3,1,5,0,0
47751,-66.6666666666667,4,3,1,80,0,0
47971,-66.6666666666667,4,3,1,5,0,0
48044,-133.333333333333,4,3,1,80,0,0
50056,-133.333333333333,4,3,1,5,0,0
50093,-66.6666666666667,4,3,1,80,0,0
50312,-66.6666666666667,4,3,1,5,0,0
50385,-66.6666666666667,4,3,1,80,0,0
51995,-58.8235294117647,4,3,1,80,0,0
52434,-66.6666666666667,4,3,1,50,0,0
52507,-76.9230769230769,4,3,1,80,0,0
57117,-66.6666666666667,4,3,1,80,0,0
57337,-66.6666666666667,4,3,1,5,0,0
57410,-76.9230769230769,4,3,1,80,0,0
58507,-76.9230769230769,4,3,1,5,0,0
58581,-76.9230769230769,4,3,1,80,0,0
58727,-66.6666666666667,4,3,1,80,0,0
59459,-76.9230769230769,4,3,1,80,0,0
60629,-76.9230769230769,4,3,2,80,0,0
61215,-76.9230769230769,4,3,3,80,0,0
61507,-58.8235294117647,4,3,1,80,0,0
61763,-58.8235294117647,4,3,1,5,0,0
61800,-66.6666666666667,4,3,1,80,0,0
61873,-76.9230769230769,4,3,1,80,0,0
64361,-90.9090909090909,4,3,1,5,0,0
64434,-90.9090909090909,4,3,1,80,0,0
65312,-76.9230769230769,4,3,1,80,0,0
65605,-76.9230769230769,4,3,1,80,0,0
65898,-66.6666666666667,4,3,1,80,0,0
66190,-55.5555555555556,4,3,1,80,0,0
66483,-76.9230769230769,4,3,1,80,0,0
67654,-76.9230769230769,4,3,1,80,0,0
68239,-76.9230769230769,4,3,1,80,0,0
68824,-200,4,3,1,80,0,0
71093,-200,4,3,1,5,0,0
71166,-200,4,3,1,80,0,0
73434,-200,4,3,1,5,0,0
73507,-200,4,3,1,80,0,0
74605,-200,4,3,1,5,0,0
74678,-200,4,3,1,80,0,0
75410,-90.9090909090909,4,3,1,80,0,0
75849,-100,4,3,1,80,0,0
77020,-100,4,3,2,80,0,0
77605,-100,4,3,1,80,0,0
77898,-100,4,3,3,80,0,0
78190,-100,4,3,1,80,0,0
84922,-66.6666666666667,4,3,1,80,0,0
85215,-100,4,3,1,80,0,0
87263,-66.6666666666667,4,3,1,80,0,0
87520,-66.6666666666667,4,3,1,5,0,0
87556,-76.9230769230769,4,3,1,80,0,0
87702,-76.9230769230769,4,3,1,80,0,0
92239,-55.5555555555556,4,3,1,80,0,0
92385,-66.6666666666667,4,3,1,80,0,0
92532,-76.9230769230769,4,3,1,80,0,0
95751,-66.6666666666667,4,3,2,80,0,0
96044,-66.6666666666667,4,3,1,80,0,0
96337,-66.6666666666667,4,3,3,80,0,0
96629,-55.5555555555556,4,3,1,80,0,0
96885,-55.5555555555556,4,3,1,5,0,0
96922,-66.6666666666667,4,3,1,80,0,0
96995,-76.9230769230769,4,3,1,80,0,0
103215,-66.6666666666667,4,3,1,80,0,0
103507,-76.9230769230769,4,3,1,80,0,0
105117,-76.9230769230769,4,3,2,80,0,0
105410,-90.9090909090909,4,3,1,80,0,0
105702,-100,4,3,3,80,0,0
106288,-100,4,3,1,80,0,0
107166,-133.333333333333,4,3,1,80,0,0
107422,-100,4,3,1,5,0,0
107459,-76.9230769230769,4,3,1,80,0,0
107898,-100,4,3,1,80,0,0
108556,-100,4,3,1,5,0,0
108629,-76.9230769230769,4,3,1,80,0,0
108922,-100,4,3,1,80,0,0
110934,-100,4,3,1,5,0,0
110971,-76.9230769230769,4,3,1,80,0,0
111263,-100,4,3,1,80,0,0
114337,-76.9230769230769,4,3,1,80,0,0
115946,-100,4,3,1,80,0,0
116532,-133.333333333333,4,3,1,80,0,0
116788,-133.333333333333,4,3,1,5,0,0
116824,-76.9230769230769,4,3,1,80,0,0
117117,-100,4,3,1,80,0,0
117483,-100,4,3,1,5,0,0
117556,-100,4,3,1,80,0,0
120300,-100,4,3,1,5,0,0
120337,-76.9230769230769,4,3,1,80,0,0
122642,-76.9230769230769,4,3,1,5,0,0
122678,-76.9230769230769,4,3,1,80,0,0
124507,-76.9230769230769,4,3,1,5,0,0
124581,-76.9230769230769,4,3,1,80,0,0
124654,-76.9230769230769,4,3,1,5,0,0
124727,-76.9230769230769,4,3,3,80,0,0
124800,-76.9230769230769,4,3,1,5,0,0
124873,-76.9230769230769,4,3,3,80,0,0
124946,-76.9230769230769,4,3,1,5,0,0
125020,-76.9230769230769,4,3,1,80,0,0
125312,-90.9090909090909,4,3,1,80,0,0
129666,-90.9090909090909,4,3,1,5,0,0
129702,-76.9230769230769,4,3,1,80,0,0
129995,-90.9090909090909,4,3,1,80,0,0
134385,-76.9230769230769,4,3,1,80,0,0
140824,-66.6666666666667,4,3,1,80,0,0
142581,-66.6666666666667,4,3,3,80,0,0
143166,-66.6666666666667,4,3,1,80,0,0
143751,-55.5555555555556,4,3,1,80,0,0
143824,-76.9230769230769,4,3,1,80,0,0
145946,-66.6666666666667,4,3,1,80,0,0
146093,-76.9230769230769,4,3,1,80,0,0
147263,-66.6666666666667,4,3,1,80,0,0
147849,-76.9230769230769,4,3,1,80,0,0
148434,-66.6666666666667,4,3,1,80,0,0
159556,-55.5555555555556,4,3,1,80,0,0
160142,-76.9230769230769,4,3,1,80,0,0
161898,-66.6666666666667,4,3,2,80,0,0
162190,-66.6666666666667,4,3,1,80,0,0
162483,-76.9230769230769,4,3,1,80,0,0
163581,-76.9230769230769,4,3,1,80,0,0
163727,-76.9230769230769,4,3,1,80,0,0
165922,-76.9230769230769,4,3,1,80,0,0
166068,-76.9230769230769,4,3,1,80,0,0
168263,-76.9230769230769,4,3,1,80,0,0
168410,-76.9230769230769,4,3,1,80,0,0
170605,-76.9230769230769,4,3,1,80,0,0
170678,-76.9230769230769,4,3,2,80,0,0
170751,-76.9230769230769,4,3,2,80,0,0
170971,-76.9230769230769,4,3,1,80,0,0
171263,-76.9230769230769,4,3,3,80,0,0
171556,-66.6666666666667,4,3,3,80,0,0
172142,-76.9230769230769,4,3,1,80,0,0
172946,-76.9230769230769,4,3,1,80,0,0
173093,-76.9230769230769,4,3,1,80,0,0
175288,-76.9230769230769,4,3,1,80,0,0
175434,-76.9230769230769,4,3,1,80,0,0
177629,-76.9230769230769,4,3,1,80,0,0
177776,-76.9230769230769,4,3,1,80,0,0
177995,-66.6666666666667,4,3,1,80,0,0
180044,-55.5555555555556,4,3,2,80,0,0
180337,-55.5555555555556,4,3,3,80,0,0
181215,-66.6666666666667,4,3,1,80,0,0
181800,-100,4,3,1,80,0,0
182385,-66.6666666666667,4,3,1,80,0,0
182971,-100,4,3,1,80,0,0
183556,-66.6666666666667,4,3,1,80,0,0
184142,-100,4,3,1,80,0,0
184727,-66.6666666666667,4,3,1,80,0,0
185605,-100,4,3,1,80,0,0
185898,-66.6666666666667,4,3,1,80,0,0
186483,-100,4,3,1,80,0,0
187068,-66.6666666666667,4,3,1,80,0,0
187654,-100,4,3,1,80,0,0
188239,-66.6666666666667,4,3,1,80,0,0
188824,-100,4,3,1,80,0,0
189410,-66.6666666666667,4,3,1,80,0,0
190507,-66.6666666666667,4,3,1,5,0,0
190581,-66.6666666666667,4,3,1,80,0,0
192922,-66.6666666666667,4,3,1,80,0,0
198190,-66.6666666666667,4,3,2,80,0,0
198483,-66.6666666666667,4,3,3,80,0,0
198776,-66.6666666666667,4,3,1,80,0,0
199361,-66.6666666666667,4,3,2,80,0,0
199654,-66.6666666666667,4,3,3,80,0,0
199946,-76.9230769230769,4,3,1,80,0,0
206020,-76.9230769230769,4,3,1,60,0,0
206459,-76.9230769230769,4,3,1,80,0,0
212898,-76.9230769230769,4,3,1,60,0,0
213337,-76.9230769230769,4,3,1,80,0,0
213776,-76.9230769230769,4,3,1,60,0,0
213922,-76.9230769230769,4,3,1,80,0,0
217727,-76.9230769230769,4,3,1,5,0,0
217800,-76.9230769230769,4,3,1,80,0,0
218678,-66.6666666666667,4,3,1,80,0,0
222995,-66.6666666666667,4,3,1,5,0,0
223068,-66.6666666666667,4,3,1,80,0,0
229434,-66.6666666666667,4,3,1,5,0,0
229507,-66.6666666666667,4,3,1,80,0,0
232142,-55.5555555555556,4,3,1,80,0,0
232361,-66.6666666666667,4,3,1,5,0,0
232434,-66.6666666666667,4,3,1,80,0,0
237410,-76.9230769230769,4,3,1,80,0,0
245605,-76.9230769230769,4,3,2,80,0,0
245898,-76.9230769230769,4,3,1,80,0,0
246190,-76.9230769230769,4,3,3,80,0,0
246483,-55.5555555555556,4,3,1,80,0,0
246776,-76.9230769230769,4,3,1,80,0,0
246849,-76.9230769230769,4,3,1,80,0,0
254971,-76.9230769230769,4,3,2,80,0,0
255263,-76.9230769230769,4,3,3,80,0,0
255556,-76.9230769230769,4,3,1,80,0,0
256142,-90.9090909090909,4,3,1,80,0,0
258702,-90.9090909090909,4,3,1,5,0,0
258776,-90.9090909090909,4,3,1,80,0,0
264190,-66.6666666666667,4,3,1,80,0,0
264629,-76.9230769230769,4,3,1,80,0,0
265507,-90.9090909090909,4,3,1,80,0,0
268068,-90.9090909090909,4,3,1,5,0,0
268142,-90.9090909090909,4,3,1,80,0,0
272751,-90.9090909090909,4,3,1,5,0,0
272824,-90.9090909090909,4,3,1,80,0,0
273556,-66.6666666666667,4,3,1,80,0,0
274288,-66.6666666666667,4,3,2,80,0,0
274581,-66.6666666666667,4,3,3,80,0,0
274873,-76.9230769230769,4,3,1,90,0,0
282995,-111.111111111111,4,3,1,80,0,0
283654,-111.111111111111,4,3,2,80,0,0
283946,-111.111111111111,4,3,3,80,0,0
284824,-90.9090909090909,4,3,1,80,0,0
285410,-111.111111111111,4,3,1,80,0,0
285995,-90.9090909090909,4,3,1,80,0,0
286581,-111.111111111111,4,3,1,80,0,0
287166,-90.9090909090908,4,3,1,80,0,0
287751,-90.9090909090908,4,3,1,80,0,0
288142,-76.9230769230769,4,3,1,80,0,0
293020,-76.9230769230769,4,3,2,80,0,0
293312,-76.9230769230769,4,3,3,80,0,0
293605,-76.9230769230769,4,3,1,80,0,0
293751,-76.9230769230769,4,3,1,80,0,0
295873,-76.9230769230769,4,3,1,80,0,0
296020,-76.9230769230769,4,3,1,80,0,0
298215,-76.9230769230769,4,3,1,80,0,0
298361,-76.9230769230769,4,3,1,80,0,0
300556,-76.9230769230769,4,3,1,80,0,0
300702,-76.9230769230769,4,3,1,80,0,0
302898,-76.9230769230769,4,3,1,80,0,0
303044,-76.9230769230769,4,3,1,80,0,0
305239,-76.9230769230769,4,3,1,80,0,0
305385,-76.9230769230769,4,3,1,80,0,0
307581,-76.9230769230769,4,3,1,80,0,0
307727,-76.9230769230769,4,3,1,80,0,0
309410,-66.6666666666667,4,3,1,80,0,0
309995,-76.9230769230769,4,3,1,80,0,0
313215,-66.6666666666667,4,3,1,80,0,0
313434,-66.6666666666667,4,3,1,80,0,0
313581,-66.6666666666667,4,3,1,80,0,0
315776,-76.9230769230769,4,3,1,80,0,0
315922,-76.9230769230769,4,3,1,80,0,0
318117,-76.9230769230769,4,3,1,80,0,0
318263,-76.9230769230769,4,3,1,80,0,0
320459,-76.9230769230769,4,3,1,80,0,0
320605,-76.9230769230769,4,3,1,80,0,0
322800,-76.9230769230769,4,3,1,80,0,0
322946,-76.9230769230769,4,3,1,80,0,0
325142,-76.9230769230769,4,3,1,80,0,0
325288,-76.9230769230769,4,3,1,80,0,0
327483,-76.9230769230769,4,3,1,80,0,0
327629,-76.9230769230769,4,3,1,80,0,0
331068,300,4,3,1,80,1,0
350268,-200,4,3,1,70,0,0
358668,-333.333333333333,4,3,1,70,0,0
359868,-200,4,3,1,70,0,0
367068,-333.333333333333,4,3,1,70,0,0
368268,292.682926829268,4,3,1,70,1,0
368268,-100,4,3,1,70,0,0
368999,-200,4,3,2,80,0,0
369402,-200,4,3,1,5,0,0
369438,-66.6666666666667,4,3,1,80,0,0
369658,-66.6666666666667,4,3,1,60,0,0
369731,-100,4,3,1,60,0,0
369804,-100,4,3,1,80,0,0
373536,-76.9230769230769,4,3,1,80,0,0
374121,-100,4,3,1,80,0,0
377633,-66.6666666666667,4,3,1,80,0,0
378146,-76.9230769230769,4,3,1,5,0,0
378219,-76.9230769230769,4,3,1,80,0,0
378365,-100,4,3,1,80,0,0
380560,-76.9230769230769,4,3,1,80,0,0
380780,-76.9230769230769,4,3,1,5,0,0
380853,-76.9230769230769,4,3,1,80,0,0
381146,-100,4,3,1,80,0,0
382316,-76.9230769230769,4,3,1,80,0,0
382902,-66.6666666666667,4,3,1,80,0,0
383121,-66.6666666666667,4,3,1,5,0,0
383194,-76.9230769230769,4,3,1,80,0,0
383487,-100,4,3,1,80,0,0
386707,-76.9230769230769,4,3,1,80,0,0
386999,-66.6666666666667,4,3,1,80,0,0
387585,-66.6666666666667,4,3,1,80,0,0
387658,-66.6666666666667,4,3,1,5,0,0
387731,-66.6666666666667,4,3,2,80,0,0
387804,-66.6666666666667,4,3,1,5,0,0
387877,-55.5555555555556,4,3,3,80,0,0
387950,-55.5555555555556,4,3,1,5,0,0
388024,-55.5555555555556,4,3,3,80,0,0
388097,-55.5555555555556,4,3,1,5,0,0
388170,-55.5555555555556,4,3,1,80,0,0
388609,-76.9230769230769,4,3,1,80,0,0
390438,-76.9230769230769,4,3,1,5,0,0
390511,-76.9230769230769,4,3,1,80,0,0
392780,-76.9230769230769,4,3,1,5,0,0
392853,-76.9230769230769,4,3,1,80,0,0
394243,-76.9230769230769,4,3,1,5,0,0
394316,-76.9230769230769,4,3,1,80,0,0
395121,-76.9230769230769,4,3,1,5,0,0
395194,-66.6666666666667,4,3,1,80,0,0
396072,-76.9230769230769,4,3,1,80,0,0
396950,-76.9230769230769,4,3,2,80,0,0
397243,-76.9230769230769,4,3,3,80,0,0
397536,-76.9230769230769,4,3,1,80,0,0
399804,-76.9230769230769,4,3,1,5,0,0
399877,-76.9230769230769,4,3,1,80,0,0
402146,-76.9230769230769,4,3,1,5,0,0
402219,-76.9230769230769,4,3,1,80,0,0
404487,-76.9230769230769,4,3,1,5,0,0
404560,-66.6666666666667,4,3,1,80,0,0
405219,-66.6666666666667,4,3,1,5,0,0
405292,-66.6666666666667,4,3,1,80,0,0
405731,-76.9230769230769,4,3,1,80,0,0
406316,-76.9230769230769,4,3,2,80,0,0
406609,-76.9230769230769,4,3,3,80,0,0
406828,-76.9230769230769,4,3,3,80,0,0
406902,-90.9090909090909,4,3,1,80,0,0
408877,-90.9090909090909,4,3,1,80,0,0
409463,-90.9090909090909,4,3,1,40,0,0
409609,-90.9090909090909,4,3,1,80,0,0
410414,-200,4,3,1,80,0,0
410633,-200,4,3,1,40,0,0
410780,-200,4,3,1,80,0,0
410926,-200,4,3,1,40,0,0
411072,-200,4,3,1,80,0,0
411585,-76.9230769230769,4,3,1,80,0,0
415536,-55.5555555555556,4,3,1,80,0,0
415975,-76.9230769230769,4,3,1,80,0,0
420365,-66.6666666666667,4,3,2,80,0,0
420658,-55.5555555555556,4,3,3,80,0,0
420950,-76.9230769230769,4,3,1,80,0,0
424463,-66.6666666666667,4,3,1,80,0,0
424902,-55.5555555555556,4,3,1,80,0,0
425341,-76.9230769230769,4,3,1,80,0,0
425560,-76.9230769230769,4,3,1,5,0,0
425633,-76.9230769230769,4,3,1,80,0,0
426731,-76.9230769230769,4,3,1,5,0,0
426804,-76.9230769230769,4,3,1,80,0,0
427463,-76.9230769230769,4,3,1,5,0,0
427536,-76.9230769230769,4,3,1,80,0,0
427902,-76.9230769230769,4,3,1,5,0,0
427975,-55.5555555555556,4,3,1,80,0,0
428853,-76.9230769230769,4,3,1,80,0,0
429072,-76.9230769230769,4,3,1,5,0,0
429146,-76.9230769230769,4,3,1,80,0,0
429731,-76.9230769230769,4,3,2,80,0,0
430024,-76.9230769230769,4,3,3,80,0,0
430389,-76.9230769230769,4,3,1,5,0,0
446414,-76.9230769230769,4,3,1,40,0,0
446926,-76.9230769230769,4,3,1,10,0,0
447072,-76.9230769230769,4,3,1,40,0,0
447219,-76.9230769230769,4,3,1,10,0,0
447365,-76.9230769230769,4,3,1,40,0,0
447804,-76.9230769230769,4,3,1,50,0,0
448463,300,4,3,1,60,1,8
448463,-133.333333333333,4,3,4,10,0,8
448538,-133.333333333333,4,3,4,20,0,8
448613,-133.333333333333,4,3,4,30,0,8
448688,-133.333333333333,4,3,4,40,0,8
448763,-133.333333333333,4,3,4,50,0,8
448838,-133.333333333333,4,3,4,60,0,8
448913,-133.333333333333,4,3,4,70,0,8
448988,-133.333333333333,4,3,4,80,0,8
449063,292.682926829268,4,3,1,70,1,0
449063,-133.333333333333,4,3,1,70,0,0
456867,-133.333333333333,4,3,1,5,0,0
456965,-133.333333333333,4,3,1,70,0,0
462950,292.682926829268,4,3,1,80,1,8
462950,-100,4,3,3,80,0,8
463096,292.682926829268,4,3,1,80,1,0
463096,-100,4,3,1,80,0,0
463827,-100,4,3,2,80,0,0
464266,-100,4,3,1,80,0,0
464413,-100,4,3,3,80,0,0
464778,-100,4,3,1,80,0,0
464852,-100,4,3,2,80,0,0
465071,-100,4,3,3,80,0,0
465437,-100,4,3,1,80,0,0
466022,-100,4,3,1,80,0,0
466510,-100,4,3,1,5,0,0
466608,-100,4,3,1,80,0,0
466705,-100,4,3,1,5,0,0
466803,-100,4,3,1,80,0,0
466900,-100,4,3,1,80,0,0
467583,-100,4,3,3,80,0,0
467778,-66.6666666666667,4,3,1,80,0,0
468071,-66.6666666666667,4,3,1,5,0,0
468949,-66.6666666666667,4,3,1,80,0,0
469242,-66.6666666666667,4,3,1,5,0,0
469535,-66.6666666666667,4,3,1,80,0,0
469681,-66.6666666666667,4,3,1,5,0,0
469730,-66.6666666666667,4,3,1,80,0,0
469876,-66.6666666666667,4,3,1,5,0,0
469925,-66.6666666666667,4,3,1,80,0,0
470120,-100,4,3,1,80,0,0
471876,-100,4,3,2,80,0,0
471974,-100,4,3,3,80,0,0
472169,-200,4,3,1,80,0,0
472425,-200,4,3,1,5,0,0
472461,-76.9230769230769,4,3,1,80,0,0
473047,-133.333333333333,4,3,1,80,0,0
473632,-100,4,3,1,80,0,0
474803,-76.9230769230769,4,3,1,80,0,0
475388,-100,4,3,1,80,0,0
475608,-100,4,3,1,5,0,0
475681,-100,4,3,1,80,0,0
476559,-100,4,3,1,80,0,0
476596,-100,4,3,1,5,0,0
476705,-100,4,3,1,80,0,0
476742,-100,4,3,1,5,0,0
476852,-100,4,3,1,80,0,0
476888,-100,4,3,1,5,0,0
476998,-100,4,3,1,80,0,0
477035,-100,4,3,1,5,0,0
477144,-100,4,3,1,80,0,0
477730,-76.9230769230769,4,3,1,80,0,0
478315,-100,4,3,1,80,0,0
478900,-133.333333333333,4,3,1,80,0,0
479120,-133.333333333333,4,3,1,5,0,0
479193,-133.333333333333,4,3,1,80,0,0
479486,-100,4,3,1,80,0,0
480071,-76.9230769230769,4,3,1,80,0,0
480656,-100,4,3,1,80,0,0
482047,-100,4,3,1,5,0,0
482120,-100,4,3,1,80,0,0
483254,-100,4,3,1,5,0,0
483291,-76.9230769230769,4,3,1,80,0,0
483583,-66.6666666666667,4,3,1,80,0,0
486120,-66.6666666666667,4,3,2,80,0,0
486315,-66.6666666666667,4,3,3,80,0,0
486510,-76.9230769230769,4,3,1,80,0,0
487608,-76.9230769230769,4,3,1,80,0,0
487754,-76.9230769230769,4,3,1,80,0,0
489949,-76.9230769230769,4,3,1,80,0,0
490096,-76.9230769230769,4,3,1,80,0,0
492291,-76.9230769230769,4,3,1,80,0,0
492437,-76.9230769230769,4,3,1,80,0,0
494632,-76.9230769230769,4,3,1,80,0,0
494778,-76.9230769230769,4,3,1,80,0,0
495876,-55.5555555555556,4,3,1,80,0,0
496169,-76.9230769230769,4,3,1,80,0,0
496974,-76.9230769230769,4,3,1,80,0,0
497120,-76.9230769230769,4,3,1,80,0,0
499315,-76.9230769230769,4,3,1,80,0,0
499461,-76.9230769230769,4,3,1,80,0,0
501656,-76.9230769230769,4,3,1,80,0,0
501730,-66.6666666666667,4,3,1,80,0,0
501803,-66.6666666666667,4,3,1,80,0,0
502022,-55.5555555555556,4,3,1,80,0,0
502900,-76.9230769230769,4,3,1,80,0,0
504144,-76.9230769230769,4,3,2,80,0,0
504364,-76.9230769230769,4,3,1,80,0,0
504437,-76.9230769230769,4,3,3,80,0,0
504656,-76.9230769230769,4,3,1,80,0,0
505242,-55.5555555555556,4,3,1,80,0,0
505535,-76.9230769230769,4,3,1,80,0,0
509925,-55.5555555555556,4,3,1,80,0,0
510217,-76.9230769230769,4,3,1,80,0,0
512852,-66.6666666666667,4,3,1,80,0,0
513437,-76.9230769230769,4,3,2,80,0,0
513730,-76.9230769230769,4,3,1,80,0,0
513803,-76.9230769230769,4,3,2,80,0,0
514022,-76.9230769230769,4,3,3,80,0,0
514315,-76.9230769230769,4,3,1,80,0,0
514388,-76.9230769230769,4,3,3,80,0,0
514608,-55.5555555555556,4,3,1,80,0,0
514900,-76.9230769230769,4,3,1,80,0,0
521339,-55.5555555555556,4,3,1,80,0,0
521595,-55.5555555555556,4,3,1,5,0,0
521632,-133.333333333333,4,3,1,80,0,0
521852,-133.333333333333,4,3,1,40,0,0
521998,-133.333333333333,4,3,1,80,0,0
522144,-133.333333333333,4,3,1,5,0,0
522217,-111.111111111111,4,3,1,80,0,0
522730,-111.111111111111,4,3,1,5,0,0
522803,-83.3333333333333,4,3,1,80,0,0
523022,-83.3333333333333,4,3,1,40,0,0
523169,-83.3333333333333,4,3,1,80,0,0
523315,-83.3333333333333,4,3,1,5,0,0
523388,-66.6666666666667,4,3,1,80,0,0
523900,-66.6666666666667,4,3,1,5,0,0
523974,-76.9230769230769,4,3,1,80,0,0
525437,-76.9230769230769,4,3,1,90,0,0
526315,-76.9230769230769,4,3,1,80,0,0
527486,-76.9230769230769,4,3,99,90,0,0

[Colours]
Combo1 : 5,0,196
Combo2 : 222,55,14
Combo3 : 231,225,211
Combo4 : 45,136,236
Combo5 : 133,218,233
Combo6 : 249,208,215
Combo7 : 111,111,111
Combo8 : 170,0,4
SliderTrackOverride : 35,35,35
SliderBorder : 255,255,255

[HitObjects]
288,85,33703,102,4,P|394:102|422:206,1,227.2500086689,4|0,0:0|0:0,0:0:0:0:
407,218,33995,38,0,L|327:207,1,75.7500028896333,2|0,0:0|0:0,0:0:0:0:
318,286,34288,2,0,L|394:297,1,75.7500028896333
257,161,34581,2,0,L|177:150,1,75.7500028896333,2|0,0:0|0:0,0:0:0:0:
21,273,34873,38,4,P|59:272|90:250,1,75.7500028896333,0|0,0:0|0:0,0:0:0:0:
168,220,35166,2,4,P|186:187|183:150,1,75.7500028896333,2|0,0:0|0:0,0:0:0:0:
161,68,35459,54,4,P|108:104|101:168,1,132.562505056858,0|0,0:0|0:0,0:0:0:0:
168,220,35751,86,4,B|227:192|227:192|286:207|286:207|287:211|287:211|386:241,1,227.2500086689,6|0,0:0|0:0,0:0:0:0:
456,301,36044,38,4,P|409:247|476:108,1,227.2500086689,4|0,0:0|0:0,0:0:0:0:
463,96,36337,38,4,P|414:117|380:112,1,75.7500028896333,2|0,0:0|0:0,0:0:0:0:
315,163,36629,2,4,P|278:161|245:143,1,75.7500028896333,0|0,0:0|0:0,0:0:0:0:
176,19,36922,2,4,P|144:0|106:0,1,75.7500028896333,2|0,0:0|0:0,0:0:0:0:
15,176,37215,54,4,L|92:163,1,75.7500028896333,0|0,0:0|0:0,0:0:0:0:
251,31,37507,2,4,L|175:18,1,75.7500028896333,2|0,0:0|0:0,0:0:0:0:
62,252,37800,2,4,B|129:241|129:241|131:239|131:239|205:227,1,132.562505056858,0|0,0:0|0:0,0:0:0:0:
212,146,38093,86,4,B|269:184|317:136|319:134|321:132|370:84|456:138,1,227.2500086689,6|0,0:0|0:0,0:0:0:0:
500,166,38385,37,6,0:0:0:0:
256,192,38459,12,2,40434,0:0:0:0:
167,114,40727,37,2,0:0:0:0:
204,145,40800,1,0,0:0:0:0:
214,195,40873,1,0,0:0:0:0:
194,238,40946,1,0,0:0:0:0:
151,262,41020,1,8,0:0:0:0:
101,257,41093,1,0,0:0:0:0:
65,222,41166,1,0,0:0:0:0:
56,174,41239,1,0,0:0:0:0:
77,129,41312,1,8,0:0:0:0:
120,105,41385,1,0,0:0:0:0:
167,114,41459,1,0,0:0:0:0:
204,145,41532,1,0,0:0:0:0:
214,195,41605,1,8,0:0:0:0:
251,227,41678,1,0,0:0:0:0:
299,235,41751,1,0,0:0:0:0:
344,210,41824,1,0,0:0:0:0:
364,166,41898,53,10,0:0:0:0:
329,171,41971,1,8,0:0:0:0:
303,200,42044,1,8,0:0:0:0:
298,236,42117,1,8,0:0:0:0:
314,271,42190,1,10,0:0:0:0:
350,285,42263,1,8,0:0:0:0:
389,278,42337,1,8,0:0:0:0:
414,251,42410,1,8,0:0:0:0:
418,213,42483,86,4,L|413:138,1,65.6499969947816,10|8,0:0|0:0,0:0:0:0:
364,15,42629,2,4,L|360:80,1,65.6499969947816,8|8,0:0|0:0,0:0:0:0:
499,252,42776,2,4,L|504:177,1,65.6499969947816,10|8,0:0|0:0,0:0:0:0:
275,49,42922,2,4,L|280:114,1,65.6499969947816,8|8,0:0|0:0,0:0:0:0:
389,278,43068,38,4,B|273:267|273:267|267:271|267:271|155:263,1,227.2500086689,6|0,0:0|0:0,0:0:0:0:
148,252,43361,38,4,B|133:216|133:216|148:182,1,75.7500028896333,2|0,0:0|0:0,0:0:0:0:
216,132,43654,2,4,L|293:139,1,75.7500028896333,0|0,0:0|0:0,0:0:0:0:
152,68,43946,2,4,L|75:75,1,75.7500028896333,2|0,0:0|0:0,0:0:0:0:
249,227,44239,54,4,L|325:220,1,75.7500028896333,0|0,0:0|0:0,0:0:0:0:
378,147,44532,2,4,L|422:208,1,75.7500028896333,2|0,0:0|0:0,0:0:0:0:
512,218,44824,2,4,B|504:284|504:284|506:290|506:290|496:366,1,132.562505056858,0|0,0:0|0:0,0:0:0:0:
414,365,45117,86,4,P|316:325|326:219,1,227.2500086689,6|0,0:0|0:0,0:0:0:0:
378,147,45410,38,4,B|319:189|319:189|168:151,1,227.2500086689,4|0,0:0|0:0,0:0:0:0:
151,147,45702,38,4,L|164:60,1,75.7500028896333,2|0,0:0|0:0,0:0:0:0:
89,15,45995,2,4,L|78:89,1,75.7500028896333,0|0,0:0|0:0,0:0:0:0:
237,118,46288,2,4,L|249:43,1,75.7500028896333,2|0,0:0|0:0,0:0:0:0:
0,169,46581,54,4,L|75:180,1,75.7500028896333,0|0,0:0|0:0,0:0:0:0:
312,106,46873,2,4,L|238:117,1,75.7500028896333,2|0,0:0|0:0,0:0:0:0:
162,361,47166,2,4,B|159:293|159:293|156:290|156:290|153:217,1,132.562505056858,0|0,0:0|0:0,0:0:0:0:
151,147,47459,86,4,L|397:176,1,227.2500086689,6|0,0:0|0:0,0:0:0:0:
423,243,47751,38,4,L|198:269,1,227.2500086689,4|0,0:0|0:0,0:0:0:0:
185,284,48044,38,4,P|146:303|112:297,1,75.7500028896333,2|0,0:0|0:0,0:0:0:0:
9,181,48337,2,4,P|45:205|57:237,1,75.7500028896333,0|0,0:0|0:0,0:0:0:0:
8,384,48629,2,4,P|12:340|34:314,1,75.7500028896333,2|0,0:0|0:0,0:0:0:0:
142,215,48922,54,4,L|154:139,1,75.7500028896333,0|0,0:0|0:0,0:0:0:0:
60,27,49215,2,4,L|71:103,1,75.7500028896333,2|0,0:0|0:0,0:0:0:0:
225,84,49507,2,4,L|301:72,1,75.7500028896333,2|0,0:0|0:0,0:0:0:0:
480,21,49800,2,4,B|410:12|410:12|406:15|406:15|335:6,1,132.562505056858,2|0,0:0|0:0,0:0:0:0:
331,4,50093,86,4,B|327:86|327:86|319:93|319:93|324:121|324:121|317:232,1,227.2500086689,6|0,0:0|0:0,0:0:0:0:
318,226,50385,37,2,0:0:0:0:
281,222,50459,1,0,0:0:0:0:
244,218,50532,1,0,0:0:0:0:
207,214,50605,1,0,0:0:0:0:
169,209,50678,1,8,0:0:0:0:
128,343,50971,37,2,0:0:0:0:
165,339,51044,1,0,0:0:0:0:
202,334,51117,1,0,0:0:0:0:
239,331,51190,1,0,0:0:0:0:
277,326,51263,54,4,L|364:314,1,75.7500028896333,2|0,0:0|0:0,0:0:0:0:
475,246,51410,1,0,0:0:0:0:
482,210,51483,1,0,0:0:0:0:
487,172,51556,2,4,L|400:160,1,75.7500028896333,8|0,0:0|0:0,0:0:0:0:
318,226,51702,2,4,L|394:236,1,75.7500028896333,0|0,0:0|0:0,0:0:0:0:
441,75,51849,2,4,L|354:87,1,75.7500028896333,2|0,0:0|0:0,0:0:0:0:
64,227,51995,86,4,B|57:238|36:247|36:247|120:256|120:256|165:208|165:208|205:212|205:212|230:221|230:221|252:216|252:216|322:225,1,343.400006549835,4|0,0:0|0:0,0:0:0:0:
176,21,52361,37,0,0:0:0:0:
164,23,52434,2,4,B|174:95|174:95|170:107|170:107|176:118|176:118|184:180,1,151.500005779267,4|0,0:0|0:0,0:0:0:0:
202,326,52727,1,8,0:0:0:0:
288,130,52873,1,0,0:0:0:0:
131,265,53020,1,2,0:0:0:0:
119,267,53093,1,0,0:0:0:0:
107,271,53166,1,0,0:0:0:0:
300,292,53312,1,8,0:0:0:0:
81,166,53459,1,0,0:0:0:0:
277,0,53605,38,4,L|287:130,1,131.299993989563,2|0,0:0|0:0,0:0:0:0:
300,292,53898,1,8,0:0:0:0:
363,49,54044,1,2,0:0:0:0:
422,252,54190,1,0,0:0:0:0:
410,254,54263,1,0,0:0:0:0:
398,258,54337,1,2,0:0:0:0:
255,104,54483,1,8,0:0:0:0:
492,189,54629,1,8,0:0:0:0:
207,297,54776,54,4,L|192:164,1,131.299993989563,4|0,0:0|0:0,0:0:0:0:
294,353,55068,1,8,0:0:0:0:
339,128,55215,1,0,0:0:0:0:
207,297,55361,1,2,0:0:0:0:
195,299,55434,1,0,0:0:0:0:
183,303,55507,1,0,0:0:0:0:
398,258,55654,1,8,0:0:0:0:
160,113,55800,1,0,0:0:0:0:
295,352,55946,6,4,L|303:219,1,131.299993989563,2|0,0:0|0:0,0:0:0:0:
367,41,56239,1,8,0:0:0:0:
207,297,56385,2,4,L|199:164,1,131.299993989563,2|0,0:0|0:0,0:0:0:0:
195,84,56605,1,0,0:0:0:0:
194,73,56678,1,2,0:0:0:0:
409,175,56824,1,8,0:0:0:0:
146,227,56971,1,0,0:0:0:0:
429,319,57117,38,4,B|341:310|341:310|332:317|332:317|312:307|312:307|208:297,1,227.2500086689,4|0,0:0|0:0,0:0:0:0:
193,297,57410,2,4,B|171:231|171:231|197:176,1,131.299993989563,8|0,0:0|0:0,0:0:0:0:
367,41,57702,1,2,0:0:0:0:
366,54,57776,1,0,0:0:0:0:
365,67,57849,1,0,0:0:0:0:
134,101,57995,1,8,0:0:0:0:
327,157,58142,1,0,0:0:0:0:
69,171,58288,54,4,P|42:82|108:8,1,196.949990984345,4|0,0:0|0:0,0:0:0:0:
117,10,58581,1,8,0:0:0:0:
239,233,58727,2,4,B|182:195|134:243|132:245|130:247|81:295|-5:241,1,227.2500086689,2|0,0:0|0:0,0:0:0:0:
1,226,59020,1,2,0:0:0:0:
268,79,59166,1,8,0:0:0:0:
194,316,59312,1,8,0:0:0:0:
197,38,59459,6,4,L|352:27,1,131.299993989563,4|0,0:0|0:0,0:0:0:0:
484,200,59751,2,4,L|354:190,1,131.299993989563,8|0,0:0|0:0,0:0:0:0:
194,316,60044,38,12,P|165:289|167:240,1,65.6499969947816,8|0,0:0|0:0,0:0:0:0:
81,259,60190,2,12,P|90:221|134:198,1,65.6499969947816,8|0,0:0|0:0,0:0:0:0:
240,247,60337,54,12,P|270:220|268:171,1,65.6499969947816,8|0,0:0|0:0,0:0:0:0:
354,190,60483,2,12,P|345:152|301:128,1,65.6499969947816,8|0,0:0|0:0,0:0:0:0:
100,85,60629,5,12,0:0:0:0:
119,132,60702,1,8,0:0:0:0:
162,156,60776,1,8,0:0:0:0:
211,155,60849,1,8,0:0:0:0:
250,121,60922,1,10,0:0:0:0:
261,73,60995,1,8,0:0:0:0:
245,28,61068,1,8,0:0:0:0:
202,0,61142,1,8,0:0:0:0:
152,5,61215,69,10,0:0:0:0:
156,66,61288,1,8,0:0:0:0:
161,128,61361,1,8,0:0:0:0:
166,191,61434,1,8,0:0:0:0:
171,252,61507,2,4,B|166:273|143:282|143:282|247:273|247:273|254:266|254:266|301:261|301:261|302:256|302:256|306:261|306:261|362:256|362:256|415:251,1,300.475005731106,10|0,0:0|0:0,0:0:0:0:
402,252,61800,38,4,B|393:175|393:175|395:171|395:171|386:101,1,151.500005779267,4|0,0:0|0:0,0:0:0:0:
202,0,62093,1,8,0:0:0:0:
387,102,62239,1,0,0:0:0:0:
161,128,62385,1,2,0:0:0:0:
148,130,62459,1,0,0:0:0:0:
135,132,62532,1,0,0:0:0:0:
342,12,62678,1,8,0:0:0:0:
287,280,62824,1,8,0:0:0:0:
128,48,62971,37,2,0:0:0:0:
115,46,63044,1,0,0:0:0:0:
102,44,63117,1,0,0:0:0:0:
348,208,63263,2,4,L|485:196,1,131.299993989563,8|0,0:0|0:0,0:0:0:0:
167,330,63556,1,2,0:0:0:0:
165,301,63629,1,0,0:0:0:0:
162,273,63702,1,2,0:0:0:0:
358,94,63849,53,8,0:0:0:0:
356,123,63922,1,0,0:0:0:0:
353,151,63995,1,2,0:0:0:0:
351,180,64068,1,0,0:0:0:0:
348,208,64142,6,4,B|298:237|298:237|164:185,1,196.949990984345,4|0,0:0|0:0,0:0:0:0:
158,182,64434,2,4,P|135:128|160:83,1,111.100003390503,8|0,0:0|0:0,0:0:0:0:
339,11,64727,37,2,0:0:0:0:
352,8,64800,1,0,0:0:0:0:
365,7,64873,1,0,0:0:0:0:
129,19,65020,1,8,0:0:0:0:
317,102,65166,1,0,0:0:0:0:
125,125,65312,53,2,0:0:0:0:
112,127,65385,1,0,0:0:0:0:
99,129,65459,1,0,0:0:0:0:
86,131,65532,1,0,0:0:0:0:
73,133,65605,6,4,L|93:300,1,131.299993989563,8|0,0:0|0:0,0:0:0:0:
158,328,65824,1,0,0:0:0:0:
172,322,65898,2,4,L|190:163,1,151.500005779267,10|0,0:0|0:0,0:0:0:0:
303,78,66117,1,0,0:0:0:0:
327,61,66190,2,4,L|345:244,1,181.799994451904,10|0,0:0|0:0,0:0:0:0:
412,291,66483,37,4,0:0:0:0:
377,323,66556,1,0,0:0:0:0:
328,328,66629,1,0,0:0:0:0:
287,302,66702,1,0,0:0:0:0:
265,258,66776,1,8,0:0:0:0:
244,215,66849,1,0,0:0:0:0:
203,189,66922,1,0,0:0:0:0:
152,194,66995,1,0,0:0:0:0:
117,228,67068,1,8,0:0:0:0:
107,275,67142,1,0,0:0:0:0:
127,319,67215,1,0,0:0:0:0:
170,345,67288,1,0,0:0:0:0:
219,343,67361,2,4,L|223:258,3,65.6499969947816,8|0|0|0,0:0|0:0|0:0|0:0,0:0:0:0:
193,89,67654,53,4,0:0:0:0:
148,60,67727,1,0,0:0:0:0:
96,65,67800,1,0,0:0:0:0:
55,101,67873,1,0,0:0:0:0:
43,152,67946,1,8,0:0:0:0:
63,202,68020,1,0,0:0:0:0:
110,228,68093,1,0,0:0:0:0:
163,223,68166,1,0,0:0:0:0:
203,189,68239,85,4,0:0:0:0:
250,148,68312,1,0,0:0:0:0:
312,143,68385,1,0,0:0:0:0:
366,175,68459,1,0,0:0:0:0:
390,233,68532,1,8,0:0:0:0:
377,295,68605,1,0,0:0:0:0:
329,335,68678,1,0,0:0:0:0:
267,340,68751,1,0,0:0:0:0:
212,309,68824,38,4,B|237:249|297:240|297:240|346:266|365:336|365:336|414:332|455:357|455:357|441:259|385:199|385:199|443:206|490:158|480:97|480:97|460:55|398:58|393:134,1,782.75,4|0,0:0|0:0,0:0:0:0:
313,143,71166,2,12,B|255:121|204:174|204:174|193:119|236:73|236:73|199:-5|199:-5|127:46|81:166|152:255|152:255|91:180|2:219,1,782.75,4|0,0:0|0:0,0:0:0:0:
59,295,73507,38,0,B|26:334|39:382|39:382|111:370|111:370|113:365|113:365|121:368|121:368|126:365|126:365|220:348|220:348|223:350|223:350|313:333,1,378.75,4|0,0:0|0:0,0:0:0:0:
396,314,74678,1,4,0:0:0:0:
396,314,75410,54,0,L|405:251,3,37.033334463501,8|0|0|8,0:0|0:0|0:0|0:0,0:0:0:0:
321,159,75849,5,2,0:0:0:0:
293,131,75922,1,0,0:0:0:0:
256,116,75995,1,0,0:0:0:0:
217,115,76068,1,0,0:0:0:0:
181,131,76142,1,8,0:0:0:0:
153,159,76215,1,0,0:0:0:0:
121,182,76288,1,0,0:0:0:0:
82,183,76361,1,0,0:0:0:0:
44,168,76434,37,2,0:0:0:0:
70,128,76507,1,0,0:0:0:0:
107,109,76581,1,0,0:0:0:0:
147,110,76654,1,0,0:0:0:0:
181,131,76727,1,8,0:0:0:0:
199,168,76800,1,0,0:0:0:0:
198,206,76873,1,0,0:0:0:0:
179,239,76946,1,0,0:0:0:0:
145,261,77020,53,10,0:0:0:0:
130,308,77093,1,8,0:0:0:0:
148,354,77166,1,8,0:0:0:0:
194,374,77239,1,8,0:0:0:0:
243,362,77312,1,8,0:0:0:0:
270,319,77385,1,8,0:0:0:0:
313,291,77459,1,8,0:0:0:0:
363,295,77532,1,8,0:0:0:0:
398,331,77605,5,8,0:0:0:0:
354,372,77678,1,8,0:0:0:0:
298,381,77751,1,8,0:0:0:0:
243,362,77824,1,0,0:0:0:0:
215,310,77898,1,8,0:0:0:0:
212,255,77971,1,8,0:0:0:0:
241,205,78044,1,8,0:0:0:0:
292,182,78117,1,8,0:0:0:0:
352,187,78190,37,4,0:0:0:0:
347,205,78263,1,0,0:0:0:0:
337,220,78337,1,0,0:0:0:0:
322,232,78410,1,0,0:0:0:0:
304,238,78483,1,0,0:0:0:0:
285,238,78556,1,0,0:0:0:0:
267,232,78629,1,0,0:0:0:0:
252,220,78702,1,0,0:0:0:0:
241,205,78776,1,0,0:0:0:0:
232,188,78849,1,0,0:0:0:0:
217,176,78922,1,0,0:0:0:0:
199,170,78995,1,0,0:0:0:0:
180,170,79068,1,0,0:0:0:0:
162,176,79142,1,0,0:0:0:0:
147,188,79215,1,0,0:0:0:0:
137,203,79288,1,0,0:0:0:0:
132,221,79361,54,0,L|68:213,3,50.5
81,298,79654,2,0,L|17:306,3,50.5
14,130,79946,2,0,L|78:138,3,50.5
65,53,80239,2,0,L|129:45,3,50.5
177,110,80532,5,4,0:0:0:0:
189,125,80605,1,0,0:0:0:0:
203,137,80678,1,0,0:0:0:0:
220,145,80751,1,0,0:0:0:0:
239,149,80824,1,0,0:0:0:0:
257,148,80898,1,0,0:0:0:0:
275,142,80971,1,0,0:0:0:0:
291,132,81044,1,0,0:0:0:0:
304,118,81117,1,0,0:0:0:0:
313,101,81190,1,0,0:0:0:0:
318,83,81263,1,0,0:0:0:0:
318,64,81337,1,0,0:0:0:0:
313,46,81410,1,0,0:0:0:0:
303,29,81483,1,0,0:0:0:0:
290,16,81556,1,0,0:0:0:0:
274,6,81629,1,0,0:0:0:0:
256,0,81702,38,0,L|250:64,3,50.5
306,117,81995,2,0,L|312:181,3,50.5
173,59,82288,2,0,L|179:123,3,50.5
123,176,82581,2,0,L|117:240,3,50.5
168,296,82873,53,4,0:0:0:0:
187,299,82946,1,0,0:0:0:0:
206,301,83020,1,0,0:0:0:0:
225,303,83093,1,0,0:0:0:0:
244,305,83166,1,0,0:0:0:0:
263,307,83239,1,0,0:0:0:0:
281,309,83312,1,0,0:0:0:0:
300,311,83385,1,0,0:0:0:0:
319,314,83459,1,0,0:0:0:0:
338,316,83532,1,0,0:0:0:0:
357,318,83605,1,0,0:0:0:0:
375,320,83678,1,0,0:0:0:0:
394,322,83751,1,0,0:0:0:0:
413,324,83824,1,0,0:0:0:0:
432,326,83898,1,0,0:0:0:0:
451,328,83971,1,0,0:0:0:0:
470,330,84044,5,4,0:0:0:0:
446,333,84117,1,0,0:0:0:0:
421,337,84190,1,0,0:0:0:0:
396,341,84263,1,0,0:0:0:0:
371,345,84337,1,0,0:0:0:0:
346,348,84410,1,0,0:0:0:0:
321,352,84483,1,0,0:0:0:0:
296,356,84556,1,0,0:0:0:0:
271,360,84629,69,10,0:0:0:0:
275,299,84702,1,10,0:0:0:0:
280,237,84776,1,10,0:0:0:0:
285,174,84849,1,10,0:0:0:0:
290,113,84922,2,0,P|366:88|440:200,1,227.2500086689,10|0,0:0|0:0,0:0:0:0:
380,255,85215,38,0,L|260:233,1,101,6|0,0:0|0:0,0:0:0:0:
198,221,85507,1,2,0:0:0:0:
136,47,85654,2,0,L|177:161,1,101,2|0,0:0|0:0,0:0:0:0:
198,221,85946,1,2,0:0:0:0:
78,362,86093,2,0,L|158:269,1,101,2|0,0:0|0:0,0:0:0:0:
198,221,86385,1,2,0:0:0:0:
318,80,86532,38,0,L|253:156,1,101,2|0,0:0|0:0,0:0:0:0:
198,221,86824,1,2,0:0:0:0:
16,187,86971,2,0,L|136:209,1,101,2|0,0:0|0:0,0:0:0:0:
394,350,87263,22,0,B|428:343|428:343|432:348|437:342|437:342|464:335|464:335|455:269|455:269|456:265|456:265|450:228|450:228|452:225|452:225|440:139,1,265.125010113717,10|0,0:0|0:0,0:0:0:0:
431,67,87556,37,4,0:0:0:0:
356,271,87702,1,0,0:0:0:0:
220,113,87849,1,8,0:0:0:0:
218,101,87922,1,0,0:0:0:0:
216,89,87995,2,0,L|360:106,1,131.299993989563,0|2,0:0|0:0,0:0:0:0:
266,265,88288,1,0,0:0:0:0:
289,12,88434,1,8,0:0:0:0:
356,271,88581,1,0,0:0:0:0:
90,128,88727,38,0,L|234:111,1,131.299993989563,2|0,0:0|0:0,0:0:0:0:
414,168,89020,1,8,0:0:0:0:
216,89,89166,2,0,L|360:106,1,131.299993989563,2|0,0:0|0:0,0:0:0:0:
176,259,89459,1,0,0:0:0:0:
437,368,89605,2,0,B|464:305|464:305|430:232,1,131.299993989563,8|0,0:0|0:0,0:0:0:0:
289,11,89898,54,0,B|294:73|294:73|292:75|292:75|298:150,1,131.299993989563,6|0,0:0|0:0,0:0:0:0:
236,333,90190,1,8,0:0:0:0:
238,345,90263,1,0,0:0:0:0:
240,357,90337,1,0,0:0:0:0:
153,130,90483,1,2,0:0:0:0:
56,346,90629,1,0,0:0:0:0:
303,222,90776,2,0,L|446:212,1,131.299993989563,8|0,0:0|0:0,0:0:0:0:
153,130,91068,5,2,0:0:0:0:
433,212,91215,1,0,0:0:0:0:
124,211,91361,37,8,0:0:0:0:
460,134,91507,1,0,0:0:0:0:
164,286,91654,53,2,0:0:0:0:
422,62,91800,1,0,0:0:0:0:
238,324,91946,5,8,0:0:0:0:
240,336,92020,1,0,0:0:0:0:
242,348,92093,1,0,0:0:0:0:
244,360,92166,1,0,0:0:0:0:
246,372,92239,38,0,B|296:366|296:366|298:368|298:368|345:363,1,90.8999972259522,6|0,0:0|0:0,0:0:0:0:
503,265,92385,2,0,B|432:274|432:274|421:270|421:270|410:276|410:276|349:284,1,151.500005779267,0|8,0:0|0:0,0:0:0:0:
175,133,92605,1,0,0:0:0:0:
184,123,92678,2,0,P|248:106|306:140,1,131.299993989563,0|2,0:0|0:0,0:0:0:0:
432,318,92971,1,0,0:0:0:0:
98,257,93117,54,0,L|175:247,1,65.6499969947816,8|0,0:0|0:0,0:0:0:0:
302,135,93263,2,0,L|379:145,1,65.6499969947816
504,273,93410,6,0,P|444:298|377:264,1,131.299993989563,2|0,0:0|0:0,0:0:0:0:
254,65,93702,1,8,0:0:0:0:
357,358,93849,2,0,P|306:318|302:243,1,131.299993989563,2|0,0:0|0:0,0:0:0:0:
420,83,94142,1,0,0:0:0:0:
225,192,94288,1,8,0:0:0:0:
504,273,94434,1,0,0:0:0:0:
163,121,94581,38,0,B|101:126|101:126|99:124|99:124|24:130,1,131.299993989563,6|0,0:0|0:0,0:0:0:0:
273,257,94873,1,8,0:0:0:0:
284,256,94946,1,0,0:0:0:0:
299,255,95020,54,0,B|361:250|361:250|363:252|363:252|438:246,1,131.299993989563,0|4,0:0|0:0,0:0:0:0:
349,131,95312,1,0,0:0:0:0:
368,372,95459,1,8,0:0:0:0:
437,68,95605,1,0,0:0:0:0:
502,325,95751,5,8,0:0:0:0:
503,312,95824,1,8,0:0:0:0:
503,299,95898,1,8,0:0:0:0:
504,286,95971,1,8,0:0:0:0:
504,274,96044,38,0,B|431:268|431:268|428:272|428:272|351:267,1,151.500005779267,4|0,0:0|0:0,0:0:0:0:
275,250,96263,1,0,0:0:0:0:
274,264,96337,2,0,B|271:342,1,75.7500028896333,12|8,0:0|0:0,0:0:0:0:
352,342,96483,2,0,B|355:266,1,75.7500028896333,8|8,0:0|0:0,0:0:0:0:
153,48,96629,22,0,B|124:101|169:159|169:159|143:144|143:144|200:211|195:271|177:299,1,318.149990290833,8|0,0:0|0:0,0:0:0:0:
163,308,96922,38,0,B|90:302|90:302|87:306|87:306|10:301,1,151.500005779267,4|0,0:0|0:0,0:0:0:0:
255,152,97215,1,8,0:0:0:0:
268,148,97288,1,0,0:0:0:0:
280,145,97361,1,0,0:0:0:0:
25,91,97507,1,2,0:0:0:0:
221,227,97654,1,0,0:0:0:0:
130,28,97800,1,8,0:0:0:0:
46,281,97946,1,0,0:0:0:0:
280,144,98093,38,0,P|349:132|407:170,1,131.299993989563,2|0,0:0|0:0,0:0:0:0:
163,308,98385,1,8,0:0:0:0:
399,161,98532,2,0,B|393:292,1,131.299993989563,2|0,0:0|0:0,0:0:0:0:
221,227,98824,1,0,0:0:0:0:
472,229,98971,1,8,0:0:0:0:
163,308,99117,1,0,0:0:0:0:
479,360,99263,54,0,B|473:228,1,131.299993989563,4|0,0:0|0:0,0:0:0:0:
280,145,99556,1,8,0:0:0:0:
267,141,99629,1,0,0:0:0:0:
255,138,99702,1,0,0:0:0:0:
461,53,99849,1,2,0:0:0:0:
371,275,99995,1,0,0:0:0:0:
230,45,100142,1,8,0:0:0:0:
512,163,100288,1,0,0:0:0:0:
280,231,100434,5,4,0:0:0:0:
255,138,100581,1,0,0:0:0:0:
512,163,100727,2,0,L|502:297,1,131.299993989563,8|0,0:0|0:0,0:0:0:0:
282,359,101020,37,2,0:0:0:0:
160,120,101166,1,0,0:0:0:0:
345,282,101312,1,8,0:0:0:0:
358,278,101385,1,0,0:0:0:0:
370,275,101459,1,8,0:0:0:0:
224,54,101605,54,0,P|162:29|94:59,1,131.299993989563,4|0,0:0|0:0,0:0:0:0:
31,247,101898,1,8,0:0:0:0:
28,259,101971,1,0,0:0:0:0:
24,272,102044,1,0,0:0:0:0:
270,201,102190,1,2,0:0:0:0:
37,115,102337,1,0,0:0:0:0:
186,337,102483,5,8,0:0:0:0:
118,59,102629,1,0,0:0:0:0:
24,272,102776,2,0,B|86:267|86:267|88:269|88:269|163:263,1,131.299993989563,4|0,0:0|0:0,0:0:0:0:
270,201,103068,1,8,0:0:0:0:
37,115,103215,2,0,B|132:104|132:104|141:97|141:97|168:101|168:101|262:92,1,227.2500086689,4|0,0:0|0:0,0:0:0:0:
337,46,103507,38,0,L|346:119,1,65.6499969947816,2|0,0:0|0:0,0:0:0:0:
439,113,103654,2,0,L|411:180,1,65.6499969947816,8|0,0:0|0:0,0:0:0:0:
494,222,103800,2,0,L|436:266,1,65.6499969947816,2|0,0:0|0:0,0:0:0:0:
351,356,103946,53,4,0:0:0:0:
308,378,104020,1,0,0:0:0:0:
260,372,104093,1,0,0:0:0:0:
223,341,104166,1,0,0:0:0:0:
209,294,104239,1,8,0:0:0:0:
196,247,104312,1,0,0:0:0:0:
159,216,104385,1,0,0:0:0:0:
110,210,104459,1,0,0:0:0:0:
67,232,104532,5,4,0:0:0:0:
33,197,104605,1,0,0:0:0:0:
16,152,104678,1,0,0:0:0:0:
23,102,104751,1,0,0:0:0:0:
49,61,104824,1,8,0:0:0:0:
91,36,104898,1,0,0:0:0:0:
139,31,104971,1,0,0:0:0:0:
185,47,105044,1,0,0:0:0:0:
219,83,105117,38,0,L|211:148,3,65.6499969947816,12|8|8|8,0:0|0:0|0:0|0:0,0:0:0:0:
302,134,105410,2,0,L|310:198,3,55.5500016952515,8|8|8|8,0:0|0:0|0:0|0:0,0:0:0:0:
392,155,105702,2,0,L|414:216,3,50.5,12|8|8|8,0:0|0:0|0:0|0:0,0:0:0:0:
435,315,105995,53,4,0:0:0:0:
394,287,106068,1,8,0:0:0:0:
345,287,106142,1,8,0:0:0:0:
303,314,106215,1,8,0:0:0:0:
285,360,106288,6,0,L|271:140,1,202,4|8,0:0|0:0,0:0:0:0:
198,314,106727,2,0,L|191:214,1,101,0|2,0:0|0:0,0:0:0:0:
363,247,107020,1,0,0:0:0:0:
97,230,107166,38,0,L|106:85,1,132.562505056858,8|0,0:0|0:0,0:0:0:0:
106,80,107459,54,0,P|186:22|178:135,1,262.599987979127,4|8,0:0|0:0,0:0:0:0:
3,242,107898,6,0,P|49:221|98:229,1,101,0|2,0:0|0:0,0:0:0:0:
216,355,108190,1,0,0:0:0:0:
183,133,108337,38,0,B|180:92|180:92|319:82,1,176.75,8|0,0:0|0:0,0:0:0:0:
405,44,108629,54,0,B|362:108|421:167|423:170|426:172|485:232|442:286,1,262.599987979127,4|8,0:0|0:0,0:0:0:0:
221,210,109068,1,0,0:0:0:0:
442,285,109215,1,2,0:0:0:0:
257,282,109361,1,0,0:0:0:0:
395,216,109507,1,8,0:0:0:0:
176,278,109654,1,0,0:0:0:0:
483,209,109800,6,0,L|472:101,1,101,4|0,0:0|0:0,0:0:0:0:
421,32,110093,1,8,0:0:0:0:
442,285,110239,2,0,L|453:177,1,101,4|2,0:0|0:0,0:0:0:0:
280,36,110532,1,0,0:0:0:0:
208,219,110678,38,0,P|293:226|337:139,1,176.75,8|0,0:0|0:0,0:0:0:0:
252,147,110971,54,0,B|377:132|377:132|383:134|383:134|513:118,1,262.599987979127,4|8,0:0|0:0,0:0:0:0:
411,251,111410,1,0,0:0:0:0:
357,41,111556,1,2,0:0:0:0:
332,290,111702,1,0,0:0:0:0:
373,54,111849,1,8,0:0:0:0:
158,176,111995,1,0,0:0:0:0:
406,338,112142,6,0,P|464:343|515:306,1,101,4|0,0:0|0:0,0:0:0:0:
248,147,112434,1,8,0:0:0:0:
327,379,112581,1,0,0:0:0:0:
331,203,112727,1,2,0:0:0:0:
205,375,112873,1,0,0:0:0:0:
158,176,113020,1,8,0:0:0:0:
327,379,113166,1,0,0:0:0:0:
426,136,113312,38,0,L|406:344,1,202,4|8,0:0|0:0,0:0:0:0:
248,147,113751,1,0,0:0:0:0:
449,50,113898,2,0,P|491:71|512:119,1,101,2|0,0:0|0:0,0:0:0:0:
260,9,114190,1,8,0:0:0:0:
505,200,114337,54,0,B|383:210|383:210|363:228|363:228|242:240,1,262.599987979127,4|0,0:0|0:0,0:0:0:0:
21,177,114776,2,0,L|87:171,1,65.6499969947816,8|0,0:0|0:0,0:0:0:0:
239,156,114922,1,0,0:0:0:0:
169,270,115068,2,0,L|163:186,1,65.6499969947816,4|0,0:0|0:0,0:0:0:0:
151,59,115215,2,0,L|157:124,1,65.6499969947816
31,306,115361,5,0,0:0:0:0:
33,293,115434,1,0,0:0:0:0:
35,280,115507,1,0,0:0:0:0:
37,267,115581,1,0,0:0:0:0:
39,254,115654,38,0,L|206:274,1,131.299993989563,4|0,0:0|0:0,0:0:0:0:
341,363,115946,1,8,0:0:0:0:
473,172,116093,2,0,L|351:185,1,101,0|2,0:0|0:0,0:0:0:0:
170,269,116385,1,0,0:0:0:0:
398,90,116532,54,0,L|257:77,1,132.562505056858,8|0,0:0|0:0,0:0:0:0:
251,75,116824,6,0,B|259:174|259:174|268:179|268:179|263:207|263:207|273:338,1,262.599987979127,4|8,0:0|0:0,0:0:0:0:
39,172,117263,2,0,B|70:198|70:198|95:202|131:197|165:147,1,151.5,4|0,0:0|0:0,0:0:0:0:
169,142,117556,1,0,0:0:0:0:
348,296,117702,2,0,L|459:287,1,101,8|0,0:0|0:0,0:0:0:0:
270,150,117995,38,0,L|159:141,1,101,4|0,0:0|0:0,0:0:0:0:
227,36,118288,1,8,0:0:0:0:
208,257,118434,1,0,0:0:0:0:
142,65,118581,1,2,0:0:0:0:
307,235,118727,1,0,0:0:0:0:
170,141,118873,1,8,0:0:0:0:
401,94,119020,1,0,0:0:0:0:
208,257,119166,53,4,0:0:0:0:
227,36,119312,1,0,0:0:0:0:
94,294,119459,1,8,0:0:0:0:
142,65,119605,1,4,0:0:0:0:
278,322,119751,2,0,L|392:309,1,101,2|0,0:0|0:0,0:0:0:0:
447,166,120044,2,0,P|359:168|318:97,1,176.75,8|0,0:0|0:0,0:0:0:0:
401,93,120337,6,0,B|276:78|276:78|272:73|272:73|247:75|247:75|140:63,1,262.599987979127,4|8,0:0|0:0,0:0:0:0:
195,270,120776,1,0,0:0:0:0:
143,64,120922,1,2,0:0:0:0:
117,312,121068,1,0,0:0:0:0:
227,44,121215,1,8,0:0:0:0:
46,256,121361,1,0,0:0:0:0:
303,98,121507,38,0,B|364:78|364:78|430:104,1,131.299993989563,4|0,0:0|0:0,0:0:0:0:
382,366,121800,1,8,0:0:0:0:
427,102,121946,1,0,0:0:0:0:
295,336,122093,1,2,0:0:0:0:
231,144,122239,1,0,0:0:0:0:
496,218,122385,2,0,B|440:216|417:196|417:196|364:224|364:224|326:200|277:216,1,229.774989481736,8|0,0:0|0:0,0:0:0:0:
267,223,122678,53,4,0:0:0:0:
467,316,122824,1,0,0:0:0:0:
205,294,122971,1,8,0:0:0:0:
431,102,123117,1,0,0:0:0:0:
222,303,123263,1,2,0:0:0:0:
496,218,123410,1,0,0:0:0:0:
212,105,123556,1,8,0:0:0:0:
467,316,123702,6,0,L|192:292,1,262.599987979127,4|0,0:0|0:0,0:0:0:0:
126,284,124068,1,0,0:0:0:0:
113,283,124142,1,8,0:0:0:0:
341,214,124288,1,2,0:0:0:0:
114,23,124434,38,0,P|127:64|115:96,1,65.6499969947816,2|0,0:0|0:0,0:0:0:0:
73,214,124581,2,0,P|114:201|146:213,1,65.6499969947816
264,255,124727,2,0,P|251:214|263:182,1,65.6499969947816,8|0,0:0|0:0,0:0:0:0:
305,64,124873,2,0,P|264:77|232:65,1,65.6499969947816,10|0,0:0|0:0,0:0:0:0:
161,343,125020,54,0,P|275:283|400:310,1,262.599987979127,4|8,0:0|0:0,0:0:0:0:
504,140,125459,1,0,0:0:0:0:
478,350,125605,1,2,0:0:0:0:
418,122,125751,1,2,0:0:0:0:
289,318,125898,2,0,L|420:309,1,111.100003390503,8|2,0:0|0:0,0:0:0:0:
182,134,126190,5,0,0:0:0:0:
211,366,126337,1,0,0:0:0:0:
24,230,126483,2,0,L|155:221,1,111.100003390503,8|0,0:0|0:0,0:0:0:0:
289,42,126776,1,2,0:0:0:0:
68,145,126922,1,2,0:0:0:0:
70,132,126995,1,0,0:0:0:0:
72,119,127068,2,0,L|194:135,1,111.100003390503,8|2,0:0|0:0,0:0:0:0:
441,235,127361,38,0,L|221:206,1,222.200006781006,4|8,0:0|0:0,0:0:0:0:
117,47,127800,1,0,0:0:0:0:
160,264,127946,1,2,0:0:0:0:
290,43,128093,1,2,0:0:0:0:
170,246,128239,1,8,0:0:0:0:
22,8,128385,1,2,0:0:0:0:
50,274,128532,54,0,B|163:263,1,111.100003390503,4|0,0:0|0:0,0:0:0:0:
201,32,128824,1,8,0:0:0:0:
4,182,128971,1,0,0:0:0:0:
303,327,129117,5,2,0:0:0:0:
315,325,129190,1,0,0:0:0:0:
327,323,129263,1,2,0:0:0:0:
339,321,129337,1,0,0:0:0:0:
351,319,129410,38,0,B|340:221|340:221|341:217|341:217|329:110,1,194.42500593338,8|0,0:0|0:0,0:0:0:0:
318,50,129702,54,0,P|261:17|196:35,1,131.299993989563,4|0,0:0|0:0,0:0:0:0:
303,238,129995,1,8,0:0:0:0:
132,81,130142,1,0,0:0:0:0:
163,325,130288,1,2,0:0:0:0:
250,105,130434,1,0,0:0:0:0:
269,364,130581,1,8,0:0:0:0:
102,165,130727,1,0,0:0:0:0:
343,315,130873,6,0,B|381:337|413:324|413:324|427:310|449:305,1,111.100003390503,4|0,0:0|0:0,0:0:0:0:
209,205,131166,1,8,0:0:0:0:
446,306,131312,1,0,0:0:0:0:
241,286,131459,1,2,0:0:0:0:
393,189,131605,1,0,0:0:0:0:
395,177,131678,1,0,0:0:0:0:
397,165,131751,1,8,0:0:0:0:
163,81,131898,1,0,0:0:0:0:
269,364,132044,38,0,L|289:116,1,222.200006781006,4|8,0:0|0:0,0:0:0:0:
163,344,132483,1,2,0:0:0:0:
92,124,132629,1,2,0:0:0:0:
241,286,132776,1,0,0:0:0:0:
299,61,132922,1,8,0:0:0:0:
30,276,133068,54,0,B|26:234|26:234|207:206,1,222.200006781006,4|0,0:0|0:0,0:0:0:0:
371,349,133507,1,8,0:0:0:0:
416,120,133654,1,0,0:0:0:0:
241,286,133800,5,2,0:0:0:0:
243,298,133873,1,0,0:0:0:0:
245,310,133946,2,0,L|320:302,1,55.5500016952515
452,234,134093,1,2,0:0:0:0:
412,227,134166,1,0,0:0:0:0:
371,221,134239,1,0,0:0:0:0:
330,215,134312,1,0,0:0:0:0:
288,210,134385,37,4,0:0:0:0:
498,137,134532,1,0,0:0:0:0:
241,286,134678,1,8,0:0:0:0:
462,359,134824,1,2,0:0:0:0:
187,223,134971,53,0,0:0:0:0:
188,209,135044,1,0,0:0:0:0:
189,195,135117,1,2,0:0:0:0:
387,70,135263,1,8,0:0:0:0:
351,323,135410,1,0,0:0:0:0:
193,111,135556,1,2,0:0:0:0:
418,252,135702,1,0,0:0:0:0:
258,47,135849,6,0,P|198:21|130:44,1,131.299993989563,8|2,0:0|0:0,0:0:0:0:
41,147,136142,1,0,0:0:0:0:
44,180,136215,1,0,0:0:0:0:
47,212,136288,1,2,0:0:0:0:
229,329,136434,1,8,0:0:0:0:
205,74,136581,1,0,0:0:0:0:
149,248,136727,38,0,B|216:242|216:242|219:244|219:244|294:239,1,131.299993989563,4|0,0:0|0:0,0:0:0:0:
475,137,137020,1,8,0:0:0:0:
279,239,137166,1,0,0:0:0:0:
401,56,137312,1,2,0:0:0:0:
399,69,137385,1,0,0:0:0:0:
398,81,137459,1,0,0:0:0:0:
359,337,137605,2,0,B|291:331|291:331|289:333|289:333|214:328,1,131.299993989563,8|0,0:0|0:0,0:0:0:0:
49,180,137898,53,4,0:0:0:0:
47,167,137971,1,0,0:0:0:0:
46,155,138044,1,0,0:0:0:0:
153,373,138190,1,8,0:0:0:0:
220,100,138337,1,0,0:0:0:0:
85,308,138483,5,2,0:0:0:0:
49,312,138556,1,0,0:0:0:0:
13,317,138629,1,2,0:0:0:0:
274,179,138776,1,8,0:0:0:0:
310,174,138849,1,0,0:0:0:0:
346,170,138922,1,2,0:0:0:0:
382,165,138995,1,0,0:0:0:0:
418,161,139068,37,4,0:0:0:0:
200,261,139215,1,0,0:0:0:0:
454,322,139361,1,10,0:0:0:0:
254,337,139507,1,0,0:0:0:0:
504,224,139654,1,10,0:0:0:0:
221,104,139800,1,0,0:0:0:0:
354,376,139946,1,10,0:0:0:0:
447,80,140093,1,0,0:0:0:0:
200,261,140239,54,0,B|129:253|129:253|127:255|127:255|52:246,1,131.299993989563,10|0,0:0|0:0,0:0:0:0:
28,51,140532,2,0,B|99:43|99:43|101:45|101:45|176:36,1,131.299993989563,10|0,0:0|0:0,0:0:0:0:
319,222,140824,6,12,P|343:184|327:133,1,75.7500028896333,10|0,0:0|0:0,0:0:0:0:
186,177,140971,2,12,P|228:178|266:138,1,75.7500028896333,10|0,0:0|0:0,0:0:0:0:
423,128,141117,2,12,P|402:90|349:77,1,75.7500028896333,10|0,0:0|0:0,0:0:0:0:
158,40,141263,2,12,P|178:79|230:91,1,75.7500028896333,10|0,0:0|0:0,0:0:0:0:
297,19,141410,37,6,0:0:0:0:
294,56,141483,1,0,0:0:0:0:
292,94,141556,1,0,0:0:0:0:
290,132,141629,1,0,0:0:0:0:
288,170,141702,1,10,0:0:0:0:
285,208,141776,1,0,0:0:0:0:
283,245,141849,1,0,0:0:0:0:
281,283,141922,1,0,0:0:0:0:
279,321,141995,53,10,0:0:0:0:
236,358,142068,1,0,0:0:0:0:
182,371,142142,1,0,0:0:0:0:
127,357,142215,1,0,0:0:0:0:
85,319,142288,1,10,0:0:0:0:
66,266,142361,1,0,0:0:0:0:
73,211,142434,1,0,0:0:0:0:
106,165,142507,1,0,0:0:0:0:
156,139,142581,5,14,0:0:0:0:
137,136,142654,1,8,0:0:0:0:
119,133,142727,1,8,0:0:0:0:
100,129,142800,1,8,0:0:0:0:
81,126,142873,1,10,0:0:0:0:
63,122,142946,1,8,0:0:0:0:
44,119,143020,1,8,0:0:0:0:
26,116,143093,1,8,0:0:0:0:
7,112,143166,69,10,0:0:0:0:
50,178,143239,1,8,0:0:0:0:
119,214,143312,1,10,0:0:0:0:
193,202,143385,1,8,0:0:0:0:
251,153,143459,1,10,0:0:0:0:
309,103,143532,1,8,0:0:0:0:
384,91,143605,1,10,0:0:0:0:
452,127,143678,1,8,0:0:0:0:
496,194,143751,38,0,B|411:202|411:202|411:206|411:206|304:217,1,181.799994451904,4|2,0:0|0:0,0:0:0:0:
85,303,144044,1,8,0:0:0:0:
309,103,144190,1,2,0:0:0:0:
253,342,144337,1,4,0:0:0:0:
217,346,144410,1,0,0:0:0:0:
181,351,144483,1,2,0:0:0:0:
368,197,144629,2,0,B|307:190|307:190|302:192|302:192|230:184,1,131.299993989563,8|2,0:0|0:0,0:0:0:0:
85,303,144922,38,0,B|100:155,1,131.299993989563,4|2,0:0|0:0,0:0:0:0:
110,165,145142,2,0,B|125:17,1,131.299993989563
129,22,145361,1,2,0:0:0:0:
432,262,145507,53,6,0:0:0:0:
430,274,145581,1,0,0:0:0:0:
429,287,145654,1,2,0:0:0:0:
177,250,145800,1,8,0:0:0:0:
375,120,145946,2,0,L|367:195,1,75.7500028896333,2|0,0:0|0:0,0:0:0:0:
355,355,146093,6,0,B|294:348|294:348|289:350|289:350|217:342,1,131.299993989563,4|2,0:0|0:0,0:0:0:0:
156,121,146385,1,8,0:0:0:0:
137,377,146532,1,2,0:0:0:0:
249,259,146678,1,6,0:0:0:0:
213,255,146751,1,0,0:0:0:0:
177,250,146824,1,2,0:0:0:0:
32,140,146971,2,0,B|79:149|114:116|114:116|135:111|168:126,1,131.299993989563,8|2,0:0|0:0,0:0:0:0:
319,312,147263,38,0,P|362:316|389:300,1,75.7500028896333,4|0,0:0|0:0,0:0:0:0:
450,239,147410,2,0,P|474:203|474:172,1,75.7500028896333,2|0,0:0|0:0,0:0:0:0:
452,89,147556,2,0,P|433:49|406:34,1,75.7500028896333,8|0,0:0|0:0,0:0:0:0:
323,13,147702,2,0,P|280:8|253:24,1,75.7500028896333,2|0,0:0|0:0,0:0:0:0:
192,86,147849,53,2,0:0:0:0:
201,133,147922,1,0,0:0:0:0:
235,168,147995,1,2,0:0:0:0:
283,178,148068,1,0,0:0:0:0:
328,161,148142,1,8,0:0:0:0:
376,160,148215,1,0,0:0:0:0:
412,192,148288,1,2,0:0:0:0:
417,239,148361,1,0,0:0:0:0:
389,278,148434,5,4,0:0:0:0:
452,89,148581,1,2,0:0:0:0:
466,353,148727,37,10,0:0:0:0:
338,128,148873,1,2,0:0:0:0:
276,359,149020,53,4,0:0:0:0:
452,89,149166,1,2,0:0:0:0:
181,157,149312,5,8,0:0:0:0:
485,264,149459,1,2,0:0:0:0:
400,3,149605,37,4,0:0:0:0:
229,259,149751,1,2,0:0:0:0:
504,175,149898,53,8,0:0:0:0:
211,16,150044,1,2,0:0:0:0:
135,337,150190,5,6,0:0:0:0:
131,351,150263,1,0,0:0:0:0:
127,365,150337,1,2,0:0:0:0:
323,181,150483,37,8,0:0:0:0:
14,245,150629,1,2,0:0:0:0:
211,16,150776,53,4,0:0:0:0:
135,337,150922,1,2,0:0:0:0:
284,59,151068,5,10,0:0:0:0:
293,354,151215,1,2,0:0:0:0:
362,57,151361,37,4,0:0:0:0:
431,283,151507,1,2,0:0:0:0:
177,128,151654,53,8,0:0:0:0:
481,197,151800,1,2,0:0:0:0:
203,277,151946,5,4,0:0:0:0:
318,5,152093,2,0,P|356:28|361:62,1,75.7500028896333,2|0,0:0|0:0,0:0:0:0:
503,133,152239,2,0,P|502:177|475:198,1,75.7500028896333,8|0,0:0|0:0,0:0:0:0:
484,357,152385,2,0,P|445:378|413:365,1,75.7500028896333,2|0,0:0|0:0,0:0:0:0:
246,200,152532,37,2,0:0:0:0:
208,204,152605,1,0,0:0:0:0:
170,208,152678,1,2,0:0:0:0:
59,46,152824,1,8,0:0:0:0:
113,54,152898,1,0,0:0:0:0:
167,60,152971,1,10,0:0:0:0:
221,67,153044,1,0,0:0:0:0:
275,73,153117,53,4,0:0:0:0:
205,306,153263,1,2,0:0:0:0:
362,104,153410,5,8,0:0:0:0:
417,350,153556,1,2,0:0:0:0:
182,158,153702,37,4,0:0:0:0:
459,199,153849,1,2,0:0:0:0:
176,321,153995,53,8,0:0:0:0:
261,41,154142,1,2,0:0:0:0:
437,274,154288,5,4,0:0:0:0:
114,236,154434,1,2,0:0:0:0:
496,185,154581,37,8,0:0:0:0:
101,222,154727,1,2,0:0:0:0:
415,47,154873,53,4,0:0:0:0:
234,372,155020,1,2,0:0:0:0:
33,72,155166,2,0,B|186:88,1,151.500005779267,8|2,0:0|0:0,0:0:0:0:
310,266,155459,5,4,0:0:0:0:
261,41,155605,1,2,0:0:0:0:
443,196,155751,1,8,0:0:0:0:
405,192,155824,1,0,0:0:0:0:
367,188,155898,1,2,0:0:0:0:
512,47,156044,37,4,0:0:0:0:
310,266,156190,1,2,0:0:0:0:
336,0,156337,1,8,0:0:0:0:
484,273,156483,1,2,0:0:0:0:
237,145,156629,54,8,L|231:219,1,75.7500028896333,4|0,0:0|0:0,0:0:0:0:
222,382,156776,2,8,L|226:306,1,75.7500028896333,0|0,0:0|0:0,0:0:0:0:
323,108,156922,2,8,L|327:182,1,75.7500028896333,10|0,0:0|0:0,0:0:0:0:
135,340,157068,2,8,L|129:264,1,75.7500028896333,0|0,0:0|0:0,0:0:0:0:
125,98,157215,5,10,0:0:0:0:
153,59,157288,1,0,0:0:0:0:
198,41,157361,1,0,0:0:0:0:
246,53,157434,1,0,0:0:0:0:
279,87,157507,1,10,0:0:0:0:
323,108,157581,1,0,0:0:0:0:
369,94,157654,1,0,0:0:0:0:
393,54,157727,1,0,0:0:0:0:
384,7,157800,38,0,L|378:173,1,151.500005779267,4|0,0:0|0:0,0:0:0:0:
141,262,158093,53,10,0:0:0:0:
279,87,158239,1,0,0:0:0:0:
316,298,158385,5,10,0:0:0:0:
80,104,158532,1,0,0:0:0:0:
218,354,158678,37,10,0:0:0:0:
355,30,158824,1,0,0:0:0:0:
46,206,158971,53,14,0:0:0:0:
401,251,159117,1,0,0:0:0:0:
30,223,159263,5,10,0:0:0:0:
428,127,159410,1,0,0:0:0:0:
167,316,159556,38,0,L|165:225,1,90.8999972259522,10|0,0:0|0:0,0:0:0:0:
158,51,159702,2,0,L|160:142,1,90.8999972259522,10|0,0:0|0:0,0:0:0:0:
260,337,159849,2,0,L|262:246,1,90.8999972259522,10|0,0:0|0:0,0:0:0:0:
268,22,159995,2,0,L|266:113,1,90.8999972259522,10|0,0:0|0:0,0:0:0:0:
160,142,160142,53,4,0:0:0:0:
187,125,160215,1,0,0:0:0:0:
219,120,160288,1,0,0:0:0:0:
250,129,160361,1,0,0:0:0:0:
276,149,160434,1,8,0:0:0:0:
292,178,160507,1,0,0:0:0:0:
293,211,160581,2,0,L|216:213,1,65.6499969947816
127,290,160727,5,8,0:0:0:0:
113,289,160800,1,0,0:0:0:0:
99,288,160873,2,0,L|101:211,1,65.6499969947816
134,75,161020,1,8,0:0:0:0:
148,76,161093,1,0,0:0:0:0:
162,77,161166,2,0,L|160:154,1,65.6499969947816
202,323,161312,37,4,0:0:0:0:
243,343,161385,1,0,0:0:0:0:
289,347,161459,1,0,0:0:0:0:
335,334,161532,1,0,0:0:0:0:
369,302,161605,1,8,0:0:0:0:
392,259,161678,1,0,0:0:0:0:
418,221,161751,1,0,0:0:0:0:
464,205,161824,1,0,0:0:0:0:
511,207,161898,54,0,L|505:120,1,75.7500028896333,8|8,0:0|0:0,0:0:0:0:
346,156,162044,2,0,L|351:80,1,75.7500028896333,8|8,0:0|0:0,0:0:0:0:
445,1,162190,85,8,0:0:0:0:
411,56,162263,1,8,0:0:0:0:
352,81,162337,1,8,0:0:0:0:
289,66,162410,1,8,0:0:0:0:
247,16,162483,37,4,0:0:0:0:
211,50,162556,1,0,0:0:0:0:
197,96,162629,1,10,0:0:0:0:
209,143,162702,1,0,0:0:0:0:
244,178,162776,1,2,0:0:0:0:
279,212,162849,1,0,0:0:0:0:
291,260,162922,1,10,0:0:0:0:
279,308,162995,1,0,0:0:0:0:
244,342,163068,1,2,0:0:0:0:
196,355,163142,1,0,0:0:0:0:
149,342,163215,1,10,0:0:0:0:
114,308,163288,1,0,0:0:0:0:
101,260,163361,38,0,L|179:267,1,65.6499969947816,2|0,0:0|0:0,0:0:0:0:
309,172,163507,2,0,L|243:177,1,65.6499969947816,10|0,0:0|0:0,0:0:0:0:
179,37,163654,53,6,0:0:0:0:
137,14,163727,1,0,0:0:0:0:
88,9,163800,1,10,0:0:0:0:
43,31,163873,1,0,0:0:0:0:
16,71,163946,1,2,0:0:0:0:
12,121,164020,1,0,0:0:0:0:
33,166,164093,2,0,L|101:159,1,65.6499969947816,10|0,0:0|0:0,0:0:0:0:
243,176,164239,6,0,L|178:181,1,65.6499969947816,2|0,0:0|0:0,0:0:0:0:
115,301,164385,1,10,0:0:0:0:
102,300,164459,1,0,0:0:0:0:
89,300,164532,2,0,L|115:239,1,65.6499969947816,2|0,0:0|0:0,0:0:0:0:
59,105,164678,2,0,L|97:157,1,65.6499969947816,10|0,0:0|0:0,0:0:0:0:
205,280,164824,37,6,0:0:0:0:
250,299,164898,1,0,0:0:0:0:
297,294,164971,1,10,0:0:0:0:
336,265,165044,1,0,0:0:0:0:
355,219,165117,1,2,0:0:0:0:
372,173,165190,1,0,0:0:0:0:
412,143,165263,1,10,0:0:0:0:
460,136,165337,1,0,0:0:0:0:
505,155,165410,54,0,L|499:237,1,65.6499969947816,2|0,0:0|0:0,0:0:0:0:
425,343,165556,2,0,L|420:277,1,65.6499969947816,10|0,0:0|0:0,0:0:0:0:
416,77,165702,2,0,L|410:159,1,65.6499969947816,2|0,0:0|0:0,0:0:0:0:
336,265,165849,2,0,L|331:199,1,65.6499969947816,10|0,0:0|0:0,0:0:0:0:
271,30,165995,5,6,0:0:0:0:
241,15,166068,1,0,0:0:0:0:
209,16,166142,1,10,0:0:0:0:
179,30,166215,1,0,0:0:0:0:
159,55,166288,1,2,0:0:0:0:
139,80,166361,1,0,0:0:0:0:
109,94,166434,1,10,0:0:0:0:
77,95,166507,1,0,0:0:0:0:
48,81,166581,2,0,L|54:152,3,65.6499969947816,2|0|10|0,0:0|0:0|0:0|0:0,0:0:0:0:
109,279,166873,37,2,0:0:0:0:
107,265,166946,1,0,0:0:0:0:
106,252,167020,1,10,0:0:0:0:
105,239,167093,1,0,0:0:0:0:
104,226,167166,53,6,0:0:0:0:
138,190,167239,1,0,0:0:0:0:
184,176,167312,1,10,0:0:0:0:
231,188,167385,1,0,0:0:0:0:
266,223,167459,1,2,0:0:0:0:
302,257,167532,1,0,0:0:0:0:
349,269,167605,1,10,0:0:0:0:
395,256,167678,1,0,0:0:0:0:
428,220,167751,6,0,L|421:150,1,65.6499969947816,2|0,0:0|0:0,0:0:0:0:
368,29,167898,1,10,0:0:0:0:
355,30,167971,1,0,0:0:0:0:
342,31,168044,2,0,L|348:96,1,65.6499969947816,2|0,0:0|0:0,0:0:0:0:
506,168,168190,2,0,L|512:102,1,65.6499969947816,10|0,0:0|0:0,0:0:0:0:
300,175,168337,37,6,0:0:0:0:
251,169,168410,1,0,0:0:0:0:
202,164,168483,1,10,0:0:0:0:
153,159,168556,1,0,0:0:0:0:
104,153,168629,1,2,0:0:0:0:
55,148,168702,1,0,0:0:0:0:
6,143,168776,2,0,L|-1:77,1,65.6499969947816,10|0,0:0|0:0,0:0:0:0:
75,0,168922,53,2,0:0:0:0:
128,6,168995,1,0,0:0:0:0:
182,12,169068,1,10,0:0:0:0:
236,17,169142,1,0,0:0:0:0:
290,24,169215,1,2,0:0:0:0:
344,29,169288,1,0,0:0:0:0:
398,35,169361,2,0,L|405:107,1,65.6499969947816,10|0,0:0|0:0,0:0:0:0:
512,208,169507,5,6,0:0:0:0:
465,183,169581,1,0,0:0:0:0:
416,184,169654,1,10,0:0:0:0:
373,206,169727,1,0,0:0:0:0:
343,243,169800,1,2,0:0:0:0:
312,282,169873,1,0,0:0:0:0:
269,302,169946,1,10,0:0:0:0:
219,302,170020,1,0,0:0:0:0:
174,281,170093,1,2,0:0:0:0:
149,240,170166,1,0,0:0:0:0:
155,192,170239,1,10,0:0:0:0:
190,158,170312,1,0,0:0:0:0:
239,155,170385,1,2,0:0:0:0:
279,129,170459,1,0,0:0:0:0:
295,83,170532,1,10,0:0:0:0:
277,38,170605,1,0,0:0:0:0:
236,14,170678,37,12,0:0:0:0:
222,15,170751,1,8,0:0:0:0:
209,17,170824,1,8,0:0:0:0:
196,18,170898,1,8,0:0:0:0:
183,20,170971,1,8,0:0:0:0:
170,23,171044,1,8,0:0:0:0:
157,24,171117,1,8,0:0:0:0:
144,26,171190,1,8,0:0:0:0:
131,27,171263,54,0,P|112:59|110:93,1,65.6499969947816,8|8,0:0|0:0,0:0:0:0:
30,117,171410,2,0,P|48:149|76:168,1,65.6499969947816,8|8,0:0|0:0,0:0:0:0:
299,182,171556,2,0,P|262:182|230:204,1,75.7500028896333,8|8,0:0|0:0,0:0:0:0:
167,155,171702,2,0,P|148:187|151:225,1,75.7500028896333,8|8,0:0|0:0,0:0:0:0:
355,384,171849,6,0,B|344:255|344:255|354:225|354:225|339:199|339:199|329:67,1,303.000011558533,4|8,0:0|0:0,0:0:0:0:
321,12,172215,1,0,0:0:0:0:
320,0,172288,1,0,0:0:0:0:
440,216,172434,1,2,0:0:0:0:
247,60,172581,1,0,0:0:0:0:
486,118,172727,1,8,0:0:0:0:
487,130,172800,1,0,0:0:0:0:
489,142,172873,1,2,0:0:0:0:
262,236,173020,38,0,B|198:193|139:252|136:254|134:257|74:316|20:273,1,262.599987979127,4|8,0:0|0:0,0:0:0:0:
127,106,173459,1,0,0:0:0:0:
213,309,173605,1,2,0:0:0:0:
211,321,173678,1,0,0:0:0:0:
210,333,173751,1,0,0:0:0:0:
41,150,173898,1,8,0:0:0:0:
262,236,174044,1,0,0:0:0:0:
55,43,174190,54,0,P|179:31|212:151,1,262.599987979127,4|8,0:0|0:0,0:0:0:0:
160,198,174556,1,0,0:0:0:0:
147,201,174629,1,0,0:0:0:0:
350,84,174776,1,2,0:0:0:0:
127,106,174922,1,0,0:0:0:0:
285,1,175068,1,8,0:0:0:0:
283,13,175142,1,0,0:0:0:0:
282,25,175215,1,2,0:0:0:0:
455,246,175361,6,0,B|424:234|411:197|411:197|361:155|290:165|233:227,1,262.599987979127,4|8,0:0|0:0,0:0:0:0:
202,293,175727,1,0,0:0:0:0:
203,305,175800,1,0,0:0:0:0:
409,369,175946,1,2,0:0:0:0:
404,337,176020,1,0,0:0:0:0:
398,305,176093,1,0,0:0:0:0:
191,384,176239,1,8,0:0:0:0:
383,220,176385,1,0,0:0:0:0:
123,333,176532,102,0,L|-13:319,1,131.299993989563,4|0,0:0|0:0,0:0:0:0:
178,114,176824,1,8,0:0:0:0:
209,117,176898,1,0,0:0:0:0:
240,121,176971,2,0,L|225:256,1,131.299993989563,2|0,0:0|0:0,0:0:0:0:
122,332,177263,2,0,L|108:202,1,131.299993989563,2|8,0:0|0:0,0:0:0:0:
96,127,177483,1,0,0:0:0:0:
94,113,177556,1,0,0:0:0:0:
238,364,177702,6,0,P|312:324|380:327,1,131.299993989563,4|0,0:0|0:0,0:0:0:0:
494,218,177995,2,0,B|442:227|415:202|415:202|381:186|345:202,1,151.500005779267,8|0,0:0|0:0,0:0:0:0:
229,57,178288,1,2,0:0:0:0:
235,89,178361,1,0,0:0:0:0:
240,121,178434,1,0,0:0:0:0:
491,127,178581,1,8,0:0:0:0:
260,210,178727,1,8,0:0:0:0:
464,48,178873,37,4,0:0:0:0:
401,27,178946,1,0,0:0:0:0:
340,45,179020,1,0,0:0:0:0:
303,96,179093,1,0,0:0:0:0:
300,161,179166,1,8,0:0:0:0:
260,210,179239,1,0,0:0:0:0:
196,225,179312,1,0,0:0:0:0:
135,204,179385,1,0,0:0:0:0:
104,147,179459,1,4,0:0:0:0:
106,82,179532,1,0,0:0:0:0:
149,33,179605,1,0,0:0:0:0:
212,17,179678,1,0,0:0:0:0:
272,40,179751,1,8,0:0:0:0:
303,96,179824,1,0,0:0:0:0:
363,120,179898,1,0,0:0:0:0:
425,101,179971,1,0,0:0:0:0:
464,48,180044,21,12,0:0:0:0:
461,34,180117,1,8,0:0:0:0:
458,20,180190,2,0,L|364:33,1,90.8999972259522,8|8,0:0|0:0,0:0:0:0:
129,232,180337,1,12,0:0:0:0:
132,218,180410,1,8,0:0:0:0:
135,204,180483,2,0,L|229:217,1,90.8999972259522,8|8,0:0|0:0,0:0:0:0:
457,312,180629,101,4,0:0:0:0:
457,312,181215,53,4,0:0:0:0:
491,282,181288,1,0,0:0:0:0:
508,240,181361,1,0,0:0:0:0:
503,195,181434,1,0,0:0:0:0:
478,157,181507,1,10,0:0:0:0:
439,135,181581,1,0,0:0:0:0:
394,134,181654,2,0,L|378:233,1,75.7500028896333
333,329,181800,21,10,0:0:0:0:
325,322,181873,1,0,0:0:0:0:
321,312,181946,1,0,0:0:0:0:
323,302,182020,1,0,0:0:0:0:
329,294,182093,2,0,P|356:298|338:334,3,50.5,10|0|0|0,0:0|0:0|0:0|0:0,0:0:0:0:
108,334,182385,101,4,0:0:0:0:
100,289,182459,1,0,0:0:0:0:
93,244,182532,1,0,0:0:0:0:
86,199,182605,1,0,0:0:0:0:
78,154,182678,1,10,0:0:0:0:
71,109,182751,1,0,0:0:0:0:
64,64,182824,2,0,L|167:83,1,75.7500028896333
217,184,182971,101,10,0:0:0:0:
208,189,183044,1,0,0:0:0:0:
199,194,183117,1,0,0:0:0:0:
190,199,183190,1,0,0:0:0:0:
181,203,183263,2,0,L|194:128,3,50.5,10|0|0|0,0:0|0:0|0:0|0:0,0:0:0:0:
341,34,183556,21,4,0:0:0:0:
381,14,183629,1,0,0:0:0:0:
426,14,183702,1,0,0:0:0:0:
467,33,183776,1,0,0:0:0:0:
495,68,183849,1,10,0:0:0:0:
506,111,183922,1,0,0:0:0:0:
497,156,183995,2,0,L|407:175,1,75.7500028896333
310,157,184142,101,10,0:0:0:0:
302,150,184215,1,0,0:0:0:0:
298,140,184288,1,0,0:0:0:0:
300,130,184361,1,0,0:0:0:0:
306,122,184434,2,0,P|333:126|315:162,3,50.5,10|0|0|0,0:0|0:0|0:0|0:0,0:0:0:0:
163,23,184727,101,4,0:0:0:0:
108,35,184800,1,0,0:0:0:0:
75,80,184873,1,0,0:0:0:0:
78,135,184946,1,0,0:0:0:0:
117,175,185020,1,10,0:0:0:0:
156,215,185093,1,0,0:0:0:0:
159,270,185166,1,0,0:0:0:0:
126,315,185239,1,0,0:0:0:0:
71,327,185312,21,10,0:0:0:0:
57,320,185385,1,0,0:0:0:0:
43,313,185459,1,0,0:0:0:0:
29,306,185532,1,0,0:0:0:0:
16,299,185605,2,0,L|27:228,3,50.5,10|0|0|0,0:0|0:0|0:0|0:0,0:0:0:0:
58,76,185898,101,4,0:0:0:0:
81,37,185971,1,0,0:0:0:0:
118,12,186044,1,0,0:0:0:0:
163,3,186117,1,0,0:0:0:0:
207,13,186190,1,10,0:0:0:0:
243,39,186263,1,0,0:0:0:0:
266,78,186337,2,0,L|244:198,1,75.7500028896333
379,183,186483,101,10,0:0:0:0:
383,173,186556,1,0,0:0:0:0:
387,163,186629,1,0,0:0:0:0:
391,153,186702,1,0,0:0:0:0:
395,143,186776,2,0,L|301:125,3,50.5,10|0|0|0,0:0|0:0|0:0|0:0,0:0:0:0:
162,155,187068,21,4,0:0:0:0:
125,182,187142,1,0,0:0:0:0:
103,221,187215,1,0,0:0:0:0:
98,266,187288,1,0,0:0:0:0:
112,309,187361,1,10,0:0:0:0:
142,343,187434,1,0,0:0:0:0:
183,362,187507,2,0,L|276:347,1,75.7500028896333
255,244,187654,101,10,0:0:0:0:
251,234,187727,1,0,0:0:0:0:
243,227,187800,1,0,0:0:0:0:
233,224,187873,1,0,0:0:0:0:
223,225,187946,2,0,P|218:253|252:256,3,50.5,10|0|0|0,0:0|0:0|0:0|0:0,0:0:0:0:
447,351,188239,101,4,0:0:0:0:
453,306,188312,1,0,0:0:0:0:
460,261,188385,1,0,0:0:0:0:
467,216,188459,1,0,0:0:0:0:
474,171,188532,1,10,0:0:0:0:
481,126,188605,1,0,0:0:0:0:
488,81,188678,2,0,L|401:103,1,75.7500028896333
338,223,188824,21,10,0:0:0:0:
347,224,188898,1,0,0:0:0:0:
357,226,188971,1,0,0:0:0:0:
367,227,189044,1,0,0:0:0:0:
377,228,189117,2,0,L|390:153,3,50.5,10|0|0|0,0:0|0:0|0:0|0:0,0:0:0:0:
264,40,189410,101,4,0:0:0:0:
264,58,189483,1,0,0:0:0:0:
253,69,189556,1,0,0:0:0:0:
259,88,189629,1,0,0:0:0:0:
235,100,189702,1,10,0:0:0:0:
253,122,189776,1,0,0:0:0:0:
228,133,189849,2,0,L|241:207,1,75.7500028896333
204,364,189995,69,2,0:0:0:0:
213,349,190068,1,0,0:0:0:0:
238,355,190142,1,0,0:0:0:0:
242,331,190215,1,0,0:0:0:0:
263,350,190288,2,0,P|358:273|453:197,1,227.2500086689,10|0,0:0|0:0,0:0:0:0:
452,312,190581,22,0,B|377:356|322:288|322:288|251:203|152:287,1,303.000011558533,4|8,0:0|0:0,0:0:0:0:
116,145,191020,1,0,0:0:0:0:
293,44,191166,21,10,0:0:0:0:
343,54,191239,1,0,0:0:0:0:
395,65,191312,1,0,0:0:0:0:
447,76,191385,1,0,0:0:0:0:
499,87,191459,2,0,L|480:174,3,75.7500028896333,10|0|0|0,0:0|0:0|0:0|0:0,0:0:0:0:
455,351,191751,101,4,0:0:0:0:
440,354,191824,1,0,0:0:0:0:
425,357,191898,2,0,P|395:332|385:281,1,75.7500028896333
302,283,192044,2,0,P|315:246|359:220,1,75.7500028896333,10|0,0:0|0:0,0:0:0:0:
329,142,192190,2,0,P|367:141|407:174,1,75.7500028896333
313,373,192337,102,0,L|138:348,1,151.500005779267,10|0,0:0|0:0,0:0:0:0:
148,360,192556,2,0,B|100:293|100:293|142:223,1,151.500005779267
145,217,192776,2,0,L|128:109,1,75.7500028896333,2|0,0:0|0:0,0:0:0:0:
385,87,192922,22,0,L|362:237,1,151.500005779267,10|0,0:0|0:0,0:0:0:0:
359,256,193142,2,0,P|291:284|225:239,1,151.500005779267
233,228,193361,1,2,0:0:0:0:
72,85,193507,102,0,P|139:56|205:94,1,151.500005779267,10|0,0:0|0:0,0:0:0:0:
216,104,193727,2,0,L|411:84,1,151.500005779267
385,87,193946,1,2,0:0:0:0:
366,263,194093,101,4,0:0:0:0:
366,263,194166,1,0,0:0:0:0:
366,263,194239,2,0,P|324:291|264:274,1,75.7500028896333
270,368,194385,2,0,P|229:338|224:275,1,75.7500028896333,8|0,0:0|0:0,0:0:0:0:
138,313,194532,2,0,P|152:264|209:239,1,75.7500028896333
69,86,194678,85,2,0:0:0:0:
69,86,194751,1,0,0:0:0:0:
69,86,194824,2,0,B|179:64|179:64|187:57|187:57|225:56|225:56|383:27,1,303.000011558533,8|0,0:0|0:0,0:0:0:0:
377,23,195190,1,0,0:0:0:0:
388,13,195263,22,0,L|370:114,1,75.7500028896333,4|0,0:0|0:0,0:0:0:0:
463,109,195410,2,0,L|481:210,1,75.7500028896333
486,274,195556,21,10,0:0:0:0:
484,284,195629,1,0,0:0:0:0:
481,294,195702,1,0,0:0:0:0:
479,304,195776,1,0,0:0:0:0:
476,314,195849,101,4,0:0:0:0:
442,269,195922,1,0,0:0:0:0:
389,249,195995,1,0,0:0:0:0:
334,260,196068,1,0,0:0:0:0:
294,299,196142,1,10,0:0:0:0:
253,337,196215,1,0,0:0:0:0:
198,349,196288,1,0,0:0:0:0:
146,329,196361,1,0,0:0:0:0:
112,284,196434,102,0,B|129:209|129:209|131:213|131:213|155:117,1,151.500005779267,4|0,0:0|0:0,0:0:0:0:
34,86,196727,1,10,0:0:0:0:
34,86,196800,1,0,0:0:0:0:
34,86,196873,2,0,L|55:170,1,75.7500028896333
208,259,197020,22,0,P|254:237|271:201,1,75.7500028896333,10|0,0:0|0:0,0:0:0:0:
352,229,197166,2,0,P|347:178|319:149,1,75.7500028896333
373,83,197312,2,0,P|323:70|287:86,1,75.7500028896333,8|0,0:0|0:0,0:0:0:0:
242,13,197459,2,0,P|213:55|216:94,1,75.7500028896333
32,251,197605,101,12,0:0:0:0:
61,285,197678,1,8,0:0:0:0:
104,299,197751,1,8,0:0:0:0:
148,288,197824,1,8,0:0:0:0:
176,251,197898,1,0,0:0:0:0:
204,214,197971,1,0,0:0:0:0:
248,203,198044,1,0,0:0:0:0:
291,217,198117,1,0,0:0:0:0:
320,251,198190,2,0,L|300:335,3,75.7500028896333,10|8|8|8,0:0|0:0|0:0|0:0,0:0:0:0:
465,207,198483,101,8,0:0:0:0:
467,195,198556,1,8,0:0:0:0:
470,184,198629,1,10,0:0:0:0:
473,173,198702,1,8,0:0:0:0:
476,162,198776,21,12,0:0:0:0:
460,103,198849,1,8,0:0:0:0:
414,62,198922,1,8,0:0:0:0:
353,59,198995,1,8,0:0:0:0:
297,82,199068,1,8,0:0:0:0:
269,136,199142,1,8,0:0:0:0:
273,196,199215,1,8,0:0:0:0:
275,256,199288,1,8,0:0:0:0:
247,310,199361,1,14,0:0:0:0:
191,333,199434,1,8,0:0:0:0:
130,330,199507,1,8,0:0:0:0:
84,289,199581,1,8,0:0:0:0:
68,230,199654,102,0,L|83:149,1,75.7500028896333,8|8,0:0|0:0,0:0:0:0:
161,88,199800,2,0,L|174:162,1,75.7500028896333,10|8,0:0|0:0,0:0:0:0:
351,356,199946,101,4,0:0:0:0:
339,359,200020,1,0,0:0:0:0:
326,363,200093,1,0,0:0:0:0:
155,244,200239,1,8,0:0:0:0:
167,247,200312,1,0,0:0:0:0:
180,251,200385,1,0,0:0:0:0:
390,117,200532,22,0,L|370:265,1,131.299993989563,2|0,0:0|0:0,0:0:0:0:
360,250,200751,1,0,0:0:0:0:
347,254,200824,2,0,L|242:271,1,65.6499969947816,8|0,0:0|0:0,0:0:0:0:
202,69,200971,101,0,0:0:0:0:
199,57,201044,1,0,0:0:0:0:
195,44,201117,1,0,0:0:0:0:
289,166,201263,1,0,0:0:0:0:
142,224,201410,1,8,0:0:0:0:
145,212,201483,1,0,0:0:0:0:
149,199,201556,1,0,0:0:0:0:
60,100,201702,1,2,0:0:0:0:
18,316,201849,102,0,B|84:273|147:331|147:331|206:394|278:350,1,262.599987979127,4|0,0:0|0:0,0:0:0:0:
455,192,202288,21,4,0:0:0:0:
452,180,202361,1,0,0:0:0:0:
448,167,202434,1,0,0:0:0:0:
223,281,202581,1,8,0:0:0:0:
488,359,202727,1,0,0:0:0:0:
320,66,202873,101,2,0:0:0:0:
363,304,203020,1,0,0:0:0:0:
505,101,203166,1,8,0:0:0:0:
253,170,203312,1,0,0:0:0:0:
474,278,203459,101,4,0:0:0:0:
396,3,203605,1,0,0:0:0:0:
349,262,203751,2,0,L|335:175,1,65.6499969947816,8|0,0:0|0:0,0:0:0:0:
426,84,203898,2,0,L|409:169,1,65.6499969947816
166,254,204044,21,2,0:0:0:0:
163,242,204117,1,0,0:0:0:0:
159,229,204190,2,0,L|171:164,1,65.6499969947816
220,101,204337,2,0,P|318:99|348:153,1,131.299993989563,8|0,0:0|0:0,0:0:0:0:
77,70,204629,101,4,0:0:0:0:
74,58,204702,1,0,0:0:0:0:
70,45,204776,1,0,0:0:0:0:
261,192,204922,1,8,0:0:0:0:
264,180,204995,1,0,0:0:0:0:
268,167,205068,1,0,0:0:0:0:
71,336,205215,101,0,0:0:0:0:
27,172,205361,1,0,0:0:0:0:
24,160,205434,1,0,0:0:0:0:
20,147,205507,2,0,L|96:158,1,65.6499969947816,8|0,0:0|0:0,0:0:0:0:
115,237,205654,2,0,L|191:226,1,65.6499969947816
407,30,205800,22,0,B|275:57|275:57|280:54|280:54|138:81,1,262.599987979127,4|8,0:0|0:0,0:0:0:0:
156,89,206166,1,0,0:0:0:0:
153,101,206239,1,0,0:0:0:0:
275,293,206385,1,0,0:0:0:0:
274,142,206532,2,0,L|262:232,1,65.6499969947816
188,292,206678,2,0,L|179:226,1,65.6499969947816,8|0,0:0|0:0,0:0:0:0:
346,14,206824,102,0,L|383:278,1,262.599987979127,6|0,0:0|0:0,0:0:0:0:
190,151,207263,1,8,0:0:0:0:
177,147,207337,1,0,0:0:0:0:
165,144,207410,1,0,0:0:0:0:
443,72,207556,1,2,0:0:0:0:
311,323,207702,1,0,0:0:0:0:
262,30,207849,1,8,0:0:0:0:
469,239,207995,1,0,0:0:0:0:
220,306,208142,101,6,0:0:0:0:
223,294,208215,1,0,0:0:0:0:
227,281,208288,1,0,0:0:0:0:
440,49,208434,1,8,0:0:0:0:
444,62,208507,1,0,0:0:0:0:
447,74,208581,1,0,0:0:0:0:
232,131,208727,22,0,L|331:141,1,65.6499969947816,4|0,0:0|0:0,0:0:0:0:
385,214,208873,2,0,L|286:224,1,65.6499969947816
227,281,209020,1,8,0:0:0:0:
231,294,209093,1,0,0:0:0:0:
234,306,209166,2,0,L|299:299,1,65.6499969947816
7,196,209312,101,4,0:0:0:0:
3,209,209385,1,0,0:0:0:0:
0,221,209459,1,0,0:0:0:0:
159,371,209605,1,8,0:0:0:0:
156,359,209678,1,0,0:0:0:0:
152,346,209751,1,0,0:0:0:0:
196,151,209898,101,2,0:0:0:0:
10,332,210044,1,0,0:0:0:0:
7,320,210117,1,0,0:0:0:0:
3,307,210190,1,8,0:0:0:0:
88,130,210337,1,0,0:0:0:0:
91,142,210410,1,0,0:0:0:0:
95,155,210483,1,2,0:0:0:0:
261,245,210629,1,0,0:0:0:0:
336,66,210776,1,8,0:0:0:0:
340,79,210849,1,0,0:0:0:0:
343,91,210922,1,0,0:0:0:0:
432,329,211068,22,0,B|329:311|329:311|281:337|281:337|166:318,1,262.599987979127,4|8,0:0|0:0,0:0:0:0:
167,313,211434,1,0,0:0:0:0:
155,307,211507,2,0,B|142:273|142:273|165:250,1,65.6499969947816
80,29,211654,101,4,0:0:0:0:
92,32,211727,1,0,0:0:0:0:
105,36,211800,1,0,0:0:0:0:
330,182,211946,1,8,0:0:0:0:
53,256,212093,1,0,0:0:0:0:
285,55,212239,101,2,0:0:0:0:
222,292,212385,1,0,0:0:0:0:
26,128,212532,1,8,0:0:0:0:
247,205,212678,2,0,L|166:216,1,65.6499969947816,2|0,0:0|0:0,0:0:0:0:
35,349,212824,22,0,L|350:391,1,262.599987979127,4|8,0:0|0:0,0:0:0:0:
299,371,213190,1,0,0:0:0:0:
302,359,213263,1,0,0:0:0:0:
409,132,213410,102,0,P|450:132|493:165,1,65.6499969947816,2|0,0:0|0:0,0:0:0:0:
360,292,213556,2,0,B|334:177|334:177|332:182|332:182|296:19,1,262.599987979127,8|8,0:0|0:0,0:0:0:0:
458,228,213995,101,4,0:0:0:0:
446,231,214068,1,0,0:0:0:0:
433,235,214142,1,0,0:0:0:0:
277,352,214288,1,8,0:0:0:0:
289,355,214361,1,0,0:0:0:0:
302,359,214434,1,0,0:0:0:0:
486,147,214581,21,2,0:0:0:0:
397,344,214727,1,0,0:0:0:0:
394,332,214800,1,0,0:0:0:0:
390,319,214873,1,8,0:0:0:0:
243,183,215020,1,0,0:0:0:0:
239,196,215093,1,0,0:0:0:0:
236,208,215166,1,4,0:0:0:0:
341,22,215312,1,0,0:0:0:0:
359,224,215459,101,8,0:0:0:0:
347,227,215532,1,0,0:0:0:0:
334,231,215605,1,0,0:0:0:0:
126,114,215751,1,4,0:0:0:0:
348,8,215898,1,0,0:0:0:0:
232,220,216044,1,8,0:0:0:0:
155,0,216190,1,0,0:0:0:0:
474,126,216337,102,0,B|407:137|407:137|410:134|410:134|323:150,1,131.299993989563,4|0,0:0|0:0,0:0:0:0:
343,155,216556,1,0,0:0:0:0:
336,166,216629,2,0,L|324:230,1,65.6499969947816,8|0,0:0|0:0,0:0:0:0:
402,289,216776,2,0,L|413:224,1,65.6499969947816
224,45,216922,21,2,0:0:0:0:
168,292,217068,1,0,0:0:0:0:
352,50,217215,101,10,0:0:0:0:
283,353,217361,1,0,0:0:0:0:
51,113,217507,102,0,B|103:93|142:141|142:141|180:187|245:161,1,196.949990984345,4|0,0:0|0:0,0:0:0:0:
297,212,217800,1,10,0:0:0:0:
308,208,217873,1,0,0:0:0:0:
319,204,217946,2,0,L|300:107,1,65.6499969947816
276,14,218093,1,10,0:0:0:0:
265,18,218166,1,0,0:0:0:0:
254,22,218239,2,0,L|235:119,1,65.6499969947816
366,277,218385,22,0,P|396:248|405:212,1,65.6499969947816,10|0,0:0|0:0,0:0:0:0:
485,208,218532,2,0,P|468:169|437:149,1,65.6499969947816
161,38,218678,101,4,0:0:0:0:
113,60,218751,1,0,0:0:0:0:
89,106,218824,1,0,0:0:0:0:
99,157,218898,1,0,0:0:0:0:
136,193,218971,1,8,0:0:0:0:
173,229,219044,1,0,0:0:0:0:
183,280,219117,1,0,0:0:0:0:
159,326,219190,1,0,0:0:0:0:
111,348,219263,2,0,L|22:334,3,75.7500028896333,2|0|0|0,0:0|0:0|0:0|0:0,0:0:0:0:
58,198,219556,101,8,0:0:0:0:
69,190,219629,1,0,0:0:0:0:
80,182,219702,2,0,L|89:279,1,75.7500028896333
195,104,219849,1,2,0:0:0:0:
184,96,219922,1,0,0:0:0:0:
173,88,219995,2,0,L|164:185,1,75.7500028896333
292,366,220142,21,8,0:0:0:0:
352,371,220215,1,0,0:0:0:0:
407,346,220288,1,0,0:0:0:0:
444,298,220361,1,0,0:0:0:0:
445,237,220434,1,2,0:0:0:0:
414,184,220507,1,0,0:0:0:0:
360,154,220581,1,0,0:0:0:0:
299,153,220654,1,0,0:0:0:0:
249,188,220727,101,8,0:0:0:0:
260,196,220800,1,0,0:0:0:0:
271,204,220873,2,0,L|277:279,1,75.7500028896333
449,75,221020,102,0,B|336:63|336:63|337:66|337:66|196:50,1,227.2500086689,4|0,0:0|0:0,0:0:0:0:
218,43,221312,2,0,P|163:85|174:174,1,151.500005779267,8|0,0:0|0:0,0:0:0:0:
128,338,221605,21,2,0:0:0:0:
77,342,221678,1,0,0:0:0:0:
33,319,221751,1,0,0:0:0:0:
8,276,221824,1,0,0:0:0:0:
9,226,221898,1,8,0:0:0:0:
38,186,221971,1,0,0:0:0:0:
84,166,222044,1,0,0:0:0:0:
133,174,222117,1,0,0:0:0:0:
170,208,222190,102,0,B|184:256|184:256|185:253|185:253|201:310,2,101.000003852844,2|0|0,0:0|0:0|0:0,0:0:0:0:
278,279,222483,1,8,0:0:0:0:
278,279,222581,2,0,P|271:347|224:375,1,101.000003852844
259,198,222776,70,0,B|319:179|354:240|354:240|392:327|495:274,1,227.2500086689
455,305,223068,2,0,B|475:233|475:233|471:236|471:236|488:166,1,151.500005779267,8|0,0:0|0:0,0:0:0:0:
263,57,223361,21,4,0:0:0:0:
336,350,223507,1,0,0:0:0:0:
263,57,223654,1,8,0:0:0:0:
336,350,223800,1,0,0:0:0:0:
182,123,223946,21,2,0:0:0:0:
238,336,224093,1,0,0:0:0:0:
182,123,224239,1,8,0:0:0:0:
238,336,224385,1,0,0:0:0:0:
358,115,224532,101,4,0:0:0:0:
396,264,224678,1,0,0:0:0:0:
358,115,224824,1,8,0:0:0:0:
396,264,224971,1,0,0:0:0:0:
298,242,225117,101,2,0:0:0:0:
265,226,225263,1,0,0:0:0:0:
279,195,225410,1,8,0:0:0:0:
311,209,225556,1,0,0:0:0:0:
17,290,225702,21,4,0:0:0:0:
152,113,225849,1,0,0:0:0:0:
227,326,225995,1,8,0:0:0:0:
156,98,226142,1,0,0:0:0:0:
104,374,226288,101,4,0:0:0:0:
311,185,226434,1,0,0:0:0:0:
40,103,226581,1,8,0:0:0:0:
327,180,226727,1,0,0:0:0:0:
18,306,226873,69,4,0:0:0:0:
252,25,227020,1,0,0:0:0:0:
362,359,227166,1,8,0:0:0:0:
255,11,227312,1,0,0:0:0:0:
180,295,227459,21,4,0:0:0:0:
180,295,227532,1,0,0:0:0:0:
180,295,227605,2,0,L|157:199,1,75.7500028896333
230,139,227751,2,0,L|247:212,1,75.7500028896333,8|0,0:0|0:0,0:0:0:0:
344,253,227898,2,0,L|321:157,1,75.7500028896333
55,92,228044,22,0,B|37:166|37:166|29:174|29:174|28:206|28:206|16:250|16:250|19:246|19:246|-1:325,1,227.2500086689,4|0,0:0|0:0,0:0:0:0:
0,322,228337,2,0,B|53:380|53:380|141:342,1,151.500005779267,8|0,0:0|0:0,0:0:0:0:
180,113,228629,101,2,0:0:0:0:
284,331,228776,1,0,0:0:0:0:
423,155,228922,1,8,0:0:0:0:
229,255,229068,2,0,L|316:241,1,75.7500028896333
439,75,229215,102,0,B|376:66|344:122|344:122|306:186|225:157,1,227.2500086689,2|0,0:0|0:0,0:0:0:0:
243,151,229507,1,8,0:0:0:0:
460,242,229654,1,2,0:0:0:0:
251,47,229800,21,0,0:0:0:0:
335,288,229946,1,2,0:0:0:0:
450,64,230093,1,8,0:0:0:0:
334,301,230239,1,0,0:0:0:0:
356,11,230385,101,4,0:0:0:0:
481,240,230532,1,0,0:0:0:0:
204,219,230678,1,8,0:0:0:0:
491,250,230824,1,0,0:0:0:0:
287,120,230971,101,2,0:0:0:0:
312,189,231117,1,0,0:0:0:0:
381,163,231263,1,8,0:0:0:0:
356,94,231410,1,0,0:0:0:0:
146,121,231556,22,0,P|126:150|152:220,1,75.7500028896333,10|0,0:0|0:0,0:0:0:0:
58,230,231702,2,0,P|78:258|153:258,1,75.7500028896333
211,175,231849,1,8,0:0:0:0:
211,175,231995,1,0,0:0:0:0:
449,374,232142,54,0,B|454:339|488:321|488:321|411:335|411:335|412:333|412:333|356:346|356:346|357:344|357:344|290:359,1,272.699991677857,10|0,0:0|0:0,0:0:0:0:
289,376,232434,2,0,B|231:324|231:324|262:224,1,151.500005779267,10|0,0:0|0:0,0:0:0:0:
440,64,232727,21,4,0:0:0:0:
477,85,232800,1,0,0:0:0:0:
502,121,232873,1,0,0:0:0:0:
508,164,232946,1,0,0:0:0:0:
494,206,233020,1,8,0:0:0:0:
464,238,233093,1,0,0:0:0:0:
422,252,233166,1,0,0:0:0:0:
379,247,233239,1,0,0:0:0:0:
342,224,233312,1,2,0:0:0:0:
319,186,233385,1,0,0:0:0:0:
315,143,233459,1,0,0:0:0:0:
331,101,233532,1,0,0:0:0:0:
364,72,233605,2,0,L|438:63,3,75.7500028896333,8|0|0|0,0:0|0:0|0:0|0:0,0:0:0:0:
489,179,233898,21,4,0:0:0:0:
475,230,233971,1,0,0:0:0:0:
437,267,234044,1,0,0:0:0:0:
386,281,234117,1,0,0:0:0:0:
334,270,234190,1,8,0:0:0:0:
294,235,234263,1,0,0:0:0:0:
274,185,234337,1,0,0:0:0:0:
254,135,234410,1,0,0:0:0:0:
214,100,234484,1,2,0:0:0:0:
162,89,234556,1,0,0:0:0:0:
111,103,234629,1,0,0:0:0:0:
73,140,234702,1,0,0:0:0:0:
58,191,234776,2,0,L|72:277,3,75.7500028896333,8|0|0|0,0:0|0:0|0:0|0:0,0:0:0:0:
197,331,235068,101,4,0:0:0:0:
242,373,235142,1,0,0:0:0:0:
302,374,235215,1,0,0:0:0:0:
355,345,235288,1,0,0:0:0:0:
370,288,235361,1,8,0:0:0:0:
355,230,235434,1,0,0:0:0:0:
305,195,235507,1,0,0:0:0:0:
254,162,235581,1,0,0:0:0:0:
239,102,235654,1,2,0:0:0:0:
255,45,235726,1,0,0:0:0:0:
308,16,235800,1,0,0:0:0:0:
368,18,235873,1,0,0:0:0:0:
414,59,235946,2,0,L|401:133,3,75.7500028896333,8|0|0|0,0:0|0:0|0:0|0:0,0:0:0:0:
472,300,236239,69,4,0:0:0:0:
426,350,236312,1,0,0:0:0:0:
357,359,236385,1,0,0:0:0:0:
303,317,236459,1,0,0:0:0:0:
298,250,236532,1,8,0:0:0:0:
340,198,236605,1,0,0:0:0:0:
382,145,236678,1,8,0:0:0:0:
377,78,236751,1,0,0:0:0:0:
324,37,236824,1,2,0:0:0:0:
255,45,236898,1,0,0:0:0:0:
210,96,236971,1,0,0:0:0:0:
218,164,237044,1,0,0:0:0:0:
222,231,237117,1,8,0:0:0:0:
175,280,237190,1,0,0:0:0:0:
106,282,237264,1,8,0:0:0:0:
57,234,237337,1,0,0:0:0:0:
54,166,237410,22,0,B|186:184,1,131.299993989563,4|0,0:0|0:0,0:0:0:0:
359,41,237702,1,8,0:0:0:0:
353,28,237776,1,0,0:0:0:0:
347,15,237849,2,0,B|215:33,1,131.299993989563,0|2,0:0|0:0,0:0:0:0:
196,271,238142,21,0,0:0:0:0:
404,129,238288,1,8,0:0:0:0:
152,88,238434,1,0,0:0:0:0:
309,306,238581,102,0,B|319:241|319:241|322:242|322:242|332:171,1,131.299993989563,4|0,0:0|0:0,0:0:0:0:
509,252,238873,1,8,0:0:0:0:
447,53,239020,2,0,P|384:41|331:78,1,131.299993989563,2|0,0:0|0:0,0:0:0:0:
110,229,239312,101,2,0:0:0:0:
240,33,239459,1,8,0:0:0:0:
307,245,239605,1,2,0:0:0:0:
35,172,239751,22,0,P|94:136|171:156,1,131.299993989563,4|0,0:0|0:0,0:0:0:0:
292,254,240044,1,8,0:0:0:0:
80,356,240190,2,0,L|112:216,1,131.299993989563,2|0,0:0|0:0,0:0:0:0:
153,55,240483,1,2,0:0:0:0:
325,157,240629,101,8,0:0:0:0:
109,228,240776,1,0,0:0:0:0:
327,254,240922,101,2,0:0:0:0:
100,132,241068,1,0,0:0:0:0:
258,317,241215,21,8,0:0:0:0:
153,55,241361,1,0,0:0:0:0:
165,310,241507,101,2,0:0:0:0:
252,28,241654,1,0,0:0:0:0:
447,237,241800,1,8,0:0:0:0:
445,249,241873,1,0,0:0:0:0:
442,261,241946,1,0,0:0:0:0:
280,178,242093,102,0,L|265:114,1,65.6499969947816,4|0,0:0|0:0,0:0:0:0:
336,53,242239,2,0,B|352:119|352:119|354:117|354:117|369:175,1,131.299993989563,0|8,0:0|0:0,0:0:0:0:
367,188,242459,1,0,0:0:0:0:
365,201,242532,2,0,L|350:264,1,65.6499969947816
78,353,242678,2,0,L|107:225,1,131.299993989563,2|0,0:0|0:0,0:0:0:0:
265,114,242971,1,8,0:0:0:0:
177,327,243117,1,0,0:0:0:0:
33,170,243263,22,0,B|86:130|86:130|174:154,1,131.299993989563,2|0,0:0|0:0,0:0:0:0:
342,279,243556,1,8,0:0:0:0:
107,225,243702,1,0,0:0:0:0:
291,41,243849,102,0,L|320:168,1,131.299993989563,2|0,0:0|0:0,0:0:0:0:
512,292,244142,2,0,L|406:275,1,65.6499969947816,10|0,0:0|0:0,0:0:0:0:
320,168,244288,2,0,L|255:178,1,65.6499969947816
126,318,244434,102,0,L|307:347,1,131.299993989563,4|0,0:0|0:0,0:0:0:0:
407,205,244727,1,8,0:0:0:0:
211,108,244873,2,0,P|171:178|190:230,1,131.299993989563,0|2,0:0|0:0,0:0:0:0:
193,233,245093,1,0,0:0:0:0:
201,242,245166,2,0,L|330:262,1,131.299993989563,0|8,0:0|0:0,0:0:0:0:
415,85,245459,1,0,0:0:0:0:
211,21,245605,21,8,0:0:0:0:
204,32,245678,1,8,0:0:0:0:
197,43,245751,2,0,L|212:116,1,65.6499969947816,8|8,0:0|0:0,0:0:0:0:
512,196,245898,102,0,B|452:206|452:206|454:204|454:204|376:216,1,131.299993989563,4|0,0:0|0:0,0:0:0:0:
374,217,246117,1,0,0:0:0:0:
361,219,246190,2,0,L|374:154,1,65.6499969947816,12|8,0:0|0:0,0:0:0:0:
282,77,246337,2,0,L|295:141,1,65.6499969947816,8|8,0:0|0:0,0:0:0:0:
244,384,246483,70,0,B|208:343|213:295|213:295|215:301|215:301|224:248|273:221|273:221|275:267|310:289,1,272.699991677857,8|0,0:0|0:0,0:0:0:0:
314,299,246776,22,0,L|449:311,1,131.299993989563,4|0,0:0|0:0,0:0:0:0:
282,77,247068,1,8,0:0:0:0:
475,169,247215,1,0,0:0:0:0:
194,200,247361,21,2,0:0:0:0:
348,1,247507,1,0,0:0:0:0:
231,275,247654,1,8,0:0:0:0:
403,73,247800,1,0,0:0:0:0:
131,0,247946,102,0,B|146:71|146:71|143:70|143:70|156:129,1,131.299993989563,2|0,0:0|0:0,0:0:0:0:
37,282,248239,1,8,0:0:0:0:
270,201,248385,2,0,P|206:194|152:244,1,131.299993989563,2|0,0:0|0:0,0:0:0:0:
57,120,248678,101,0,0:0:0:0:
231,275,248824,1,8,0:0:0:0:
221,48,248971,1,0,0:0:0:0:
25,296,249117,22,0,L|185:323,1,131.299993989563,2|0,0:0|0:0,0:0:0:0:
343,250,249410,1,8,0:0:0:0:
162,340,249556,2,0,L|291:318,1,131.299993989563,2|0,0:0|0:0,0:0:0:0:
470,238,249849,1,0,0:0:0:0:
279,114,249995,2,0,B|265:181|265:181|268:178|268:178|253:250,1,131.299993989563,8|0,0:0|0:0,0:0:0:0:
499,155,250288,102,0,P|426:158|384:206,1,131.299993989563,2|0,0:0|0:0,0:0:0:0:
278,354,250581,1,8,0:0:0:0:
470,238,250727,1,0,0:0:0:0:
264,104,250873,101,2,0:0:0:0:
402,318,251020,1,0,0:0:0:0:
441,68,251166,1,8,0:0:0:0:
405,334,251312,1,8,0:0:0:0:
166,178,251459,22,0,B|229:185|229:185|226:187|226:187|307:196,1,131.299993989563,4|0,0:0|0:0,0:0:0:0:
73,356,251751,1,8,0:0:0:0:
66,344,251824,1,0,0:0:0:0:
58,332,251898,2,0,P|57:248|101:212,1,131.299993989563,0|2,0:0|0:0,0:0:0:0:
264,104,252190,1,0,0:0:0:0:
255,307,252337,2,0,B|192:300|192:300|195:298|195:298|132:290,1,131.299993989563,8|0,0:0|0:0,0:0:0:0:
17,78,252629,101,4,0:0:0:0:
260,204,252776,1,0,0:0:0:0:
0,277,252922,1,8,0:0:0:0:
139,59,253068,1,2,0:0:0:0:
172,355,253215,101,0,0:0:0:0:
172,355,253288,1,0,0:0:0:0:
172,355,253361,2,0,P|148:313|165:266,1,65.6499969947816,2|0,0:0|0:0,0:0:0:0:
78,260,253507,2,0,P|109:223|159:222,1,65.6499969947816,8|0,0:0|0:0,0:0:0:0:
135,139,253654,2,0,P|180:155|197:202,1,65.6499969947816,2|0,0:0|0:0,0:0:0:0:
332,344,253800,21,4,0:0:0:0:
397,341,253873,1,0,0:0:0:0:
437,289,253946,1,0,0:0:0:0:
429,223,254020,1,0,0:0:0:0:
375,185,254093,1,8,0:0:0:0:
321,147,254165,1,0,0:0:0:0:
313,81,254239,1,0,0:0:0:0:
353,29,254312,1,0,0:0:0:0:
418,26,254385,101,4,0:0:0:0:
444,94,254459,1,0,0:0:0:0:
415,160,254532,1,0,0:0:0:0:
350,191,254605,1,0,0:0:0:0:
280,171,254678,2,0,L|268:96,3,65.6499969947816,8|0|0|0,0:0|0:0|0:0|0:0,0:0:0:0:
199,18,254971,101,12,0:0:0:0:
199,18,255044,1,8,0:0:0:0:
199,18,255117,2,0,L|188:82,1,65.6499969947816,8|8,0:0|0:0,0:0:0:0:
119,172,255263,1,8,0:0:0:0:
119,172,255337,1,8,0:0:0:0:
119,172,255410,2,0,L|108:107,1,65.6499969947816,8|8,0:0|0:0,0:0:0:0:
19,283,255556,21,4,0:0:0:0:
44,312,255629,1,0,0:0:0:0:
82,320,255702,1,0,0:0:0:0:
118,304,255776,1,0,0:0:0:0:
141,272,255849,1,4,0:0:0:0:
166,243,255922,1,0,0:0:0:0:
204,235,255995,1,0,0:0:0:0:
240,251,256068,1,0,0:0:0:0:
263,283,256142,102,0,B|321:314|368:270|368:270|416:216|495:259,1,222.200006781006,4|8,0:0|0:0,0:0:0:0:
325,0,256581,2,0,L|305:139,1,111.100003390503,0|2,0:0|0:0,0:0:0:0:
466,246,256873,1,0,0:0:0:0:
291,102,257020,2,0,L|311:241,1,111.100003390503,8|0,0:0|0:0,0:0:0:0:
87,339,257312,102,0,B|102:233|102:233|105:237|105:237|124:105,1,222.200006781006,4|8,0:0|0:0,0:0:0:0:
291,102,257751,2,0,B|235:127|189:80|189:80|140:22|63:62,1,222.200006781006,6|2,0:0|0:0,0:0:0:0:
349,168,258190,2,0,P|374:133|363:53,1,111.100003390503,8|2,0:0|0:0,0:0:0:0:
482,305,258483,22,0,B|402:316|402:316|404:318|404:318|310:331,1,166.650005085755,4|0,0:0|0:0,0:0:0:0:
309,343,258776,2,0,L|198:328,1,111.100003390503,8|0,0:0|0:0,0:0:0:0:
90,144,259068,1,2,0:0:0:0:
274,222,259215,1,0,0:0:0:0:
132,376,259361,2,0,P|116:321|147:263,1,111.100003390503,8|0,0:0|0:0,0:0:0:0:
362,153,259654,101,4,0:0:0:0:
198,328,259800,1,0,0:0:0:0:
172,89,259946,1,8,0:0:0:0:
292,319,260093,101,4,0:0:0:0:
92,195,260239,2,0,B|148:185|148:185|147:188|147:188|214:178,1,111.100003390503,2|0,0:0|0:0,0:0:0:0:
359,69,260532,2,0,B|303:59|303:59|304:62|304:62|253:54,1,111.100003390503,10|0,0:0|0:0,0:0:0:0:
455,355,260824,22,0,B|469:275|469:275|465:265|465:265|474:239|474:239|499:102,1,222.200006781006,4|8,0:0|0:0,0:0:0:0:
259,291,261263,2,0,L|404:275,1,111.100003390503,0|2,0:0|0:0,0:0:0:0:
261,137,261556,1,0,0:0:0:0:
138,296,261702,2,0,L|248:308,1,111.100003390503,8|0,0:0|0:0,0:0:0:0:
308,42,261995,102,0,B|218:52|218:52|184:85|184:85|93:95,1,222.200006781006,4|8,0:0|0:0,0:0:0:0:
23,236,262434,1,0,0:0:0:0:
249,150,262581,1,2,0:0:0:0:
35,46,262727,1,0,0:0:0:0:
151,282,262873,2,0,L|167:169,1,111.100003390503,8|0,0:0|0:0,0:0:0:0:
429,69,263166,101,4,0:0:0:0:
341,270,263312,1,0,0:0:0:0:
238,40,263459,2,0,P|303:31|363:75,1,111.100003390503,8|0,0:0|0:0,0:0:0:0:
469,155,263751,1,2,0:0:0:0:
271,221,263898,2,0,L|283:110,1,111.100003390503,0|8,0:0|0:0,0:0:0:0:
22,314,264190,22,0,B|52:292|89:293|89:293|86:296|86:296|123:297|144:331|144:331|140:331|140:331|158:363|204:376|204:376|201:371|201:371|241:376|276:343,1,303.000011558533,4|0,0:0|0:0,0:0:0:0:
315,176,264629,102,0,P|288:192|268:243,1,65.6499969947816,8|0,0:0|0:0,0:0:0:0:
191,228,264776,2,0,P|196:258|237:295,1,65.6499969947816
479,312,264922,101,4,0:0:0:0:
476,324,264995,1,0,0:0:0:0:
473,336,265068,2,0,L|402:345,1,65.6499969947816
347,250,265215,2,0,L|418:259,1,65.6499969947816,4|0,0:0|0:0,0:0:0:0:
481,165,265361,2,0,L|410:174,1,65.6499969947816
303,9,265507,22,0,B|285:116|285:116|290:114|290:114|265:251,1,222.200006781006,4|8,0:0|0:0,0:0:0:0:
109,55,265946,2,0,P|158:27|245:50,1,111.100003390503,0|2,0:0|0:0,0:0:0:0:
372,150,266239,1,0,0:0:0:0:
157,222,266385,2,0,L|181:90,1,111.100003390503,8|0,0:0|0:0,0:0:0:0:
12,310,266678,102,0,B|77:293|115:334|115:334|164:388|248:355,1,222.200006781006,4|8,0:0|0:0,0:0:0:0:
369,245,267117,2,0,B|321:206|246:231|224:283|224:283|262:284|300:330,1,222.200006781006,4|0,0:0|0:0,0:0:0:0:
452,276,267556,2,0,P|448:203|399:164,1,111.100003390503,8|0,0:0|0:0,0:0:0:0:
227,21,267849,102,0,B|211:105|211:105|209:100|209:100|186:222,1,166.650005085755,4|0,0:0|0:0,0:0:0:0:
184,188,268142,2,0,L|204:297,1,111.100003390503,8|0,0:0|0:0,0:0:0:0:
57,155,268434,1,2,0:0:0:0:
155,372,268581,1,0,0:0:0:0:
287,180,268727,2,0,P|222:168|159:224,1,111.100003390503,8|2,0:0|0:0,0:0:0:0:
444,99,269020,21,0,0:0:0:0:
300,290,269166,1,0,0:0:0:0:
249,64,269312,1,8,0:0:0:0:
431,258,269459,101,0,0:0:0:0:
360,5,269605,2,0,L|339:133,1,111.100003390503,2|0,0:0|0:0,0:0:0:0:
215,249,269898,2,0,L|197:139,1,111.100003390503,10|0,0:0|0:0,0:0:0:0:
441,271,270190,102,0,B|383:262|351:313|351:313|312:386|229:355,1,222.200006781006,4|8,0:0|0:0,0:0:0:0:
197,139,270629,2,0,L|335:167,1,111.100003390503,0|2,0:0|0:0,0:0:0:0:
163,334,270922,1,0,0:0:0:0:
104,149,271068,2,0,P|117:88|159:53,1,111.100003390503,8|0,0:0|0:0,0:0:0:0:
464,43,271361,22,0,B|475:139|475:139|470:143|470:143|480:170|480:170|495:296,1,222.200006781006,4|8,0:0|0:0,0:0:0:0:
197,139,271800,2,0,B|262:116|306:168|306:168|347:216|418:190,1,222.200006781006,2|2,0:0|0:0,0:0:0:0:
248,331,272239,2,0,L|234:204,1,111.100003390503,8|0,0:0|0:0,0:0:0:0:
67,51,272532,102,0,B|53:140|53:140|49:136|49:136|37:231,1,166.650005085755,4|0,0:0|0:0,0:0:0:0:
39,227,272824,2,0,B|166:211,1,111.100003390503,8|0,0:0|0:0,0:0:0:0:
287,105,273117,1,2,0:0:0:0:
154,302,273263,2,0,B|264:315,1,111.100003390503
493,160,273556,102,0,B|458:142|428:143|428:143|431:146|431:146|395:150|369:180|369:180|374:180|374:180|356:221|316:235|316:235|320:230|320:230|278:239|238:209,1,303.000011558533,4|0,0:0|0:0,0:0:0:0:
250,207,273922,1,0,0:0:0:0:
244,192,273995,1,8,0:0:0:0:
458,44,274142,1,2,0:0:0:0:
437,340,274288,1,10,0:0:0:0:
214,92,274434,1,8,0:0:0:0:
473,247,274581,1,8,0:0:0:0:
189,332,274727,1,10,0:0:0:0:
118,257,274873,53,4,0:0:0:0:
458,138,283068,53,2,0:0:0:0:
454,125,283142,1,0,0:0:0:0:
450,112,283215,1,0,0:0:0:0:
416,262,283361,1,2,0:0:0:0:
347,144,283507,1,0,0:0:0:0:
300,255,283654,1,10,0:0:0:0:
246,190,283800,1,8,0:0:0:0:
187,252,283946,1,8,0:0:0:0:
125,215,284093,1,8,0:0:0:0:
11,296,284239,22,0,B|79:256|136:319|136:319|198:383|280:326,1,272.699991677857,4|0,0:0|0:0,0:0:0:0:
425,290,284824,102,0,B|451:290|473:245|456:194|395:187|362:209|335:265|341:330|341:330|341:293|306:271,1,333.300010171509,4|0,0:0|0:0,0:0:0:0:
214,91,285410,102,0,B|160:130|149:221|227:250|227:250|239:207|289:190,1,272.699991677857,4|0,0:0|0:0,0:0:0:0:
412,90,285995,22,0,B|414:81|429:69|445:73|445:73|465:72|483:63|492:47|492:47|485:65|470:79|452:85|452:85|434:92|413:90|396:80|396:80|373:69|346:70|325:83|325:83|303:97|291:123,1,333.300010171509,4|0,0:0|0:0,0:0:0:0:
457,265,286581,102,0,B|448:283|443:313|443:313|425:234|366:157|366:157|372:186|365:213,1,272.699991677857,4|0,0:0|0:0,0:0:0:0:
188,279,287166,102,0,B|226:258|262:284|262:284|303:304|342:282|342:282|311:337|237:341|194:291,1,333.300010171509,4|0,0:0|0:0,0:0:0:0:
174,100,287751,21,4,0:0:0:0:
184,95,287824,1,0,0:0:0:0:
194,90,287898,2,0,L|180:0,1,55.5500016952515
88,101,288044,102,0,B|78:162|78:162|76:161|76:161|70:210,1,111.100003390503,2|0,0:0|0:0,0:0:0:0:
71,220,288263,1,0,0:0:0:0:
70,233,288337,2,0,P|108:267|160:257,1,65.6499969947816,2|0,0:0|0:0,0:0:0:0:
137,346,288483,2,0,P|182:321|191:269,1,65.6499969947816
267,322,288629,2,0,P|259:270|213:244,1,65.6499969947816,8|0,0:0|0:0,0:0:0:0:
471,89,288776,101,0,0:0:0:0:
477,100,288849,1,0,0:0:0:0:
483,111,288922,2,0,L|448:271,1,131.299993989563,4|0,0:0|0:0,0:0:0:0:
460,250,289142,1,0,0:0:0:0:
466,261,289215,1,8,0:0:0:0:
236,158,289361,1,0,0:0:0:0:
380,39,289507,1,8,0:0:0:0:
340,250,289654,1,0,0:0:0:0:
353,254,289727,1,0,0:0:0:0:
366,257,289800,2,0,L|394:128,1,131.299993989563,8|0,0:0|0:0,0:0:0:0:
70,61,290093,21,4,0:0:0:0:
146,295,290239,1,0,0:0:0:0:
189,30,290385,1,8,0:0:0:0:
257,274,290532,1,0,0:0:0:0:
244,271,290605,1,0,0:0:0:0:
231,267,290678,1,8,0:0:0:0:
18,191,290824,1,0,0:0:0:0:
281,54,290971,102,0,B|270:120|270:120|273:116|273:116|262:186,1,131.299993989563,8|0,0:0|0:0,0:0:0:0:
0,107,291263,2,0,P|47:108|104:172,1,131.299993989563,4|0,0:0|0:0,0:0:0:0:
104,174,291483,1,0,0:0:0:0:
107,186,291556,2,0,B|118:252|118:252|115:248|115:248|126:318,1,131.299993989563,8|0,0:0|0:0,0:0:0:0:
381,355,291849,101,8,0:0:0:0:
259,154,291995,1,0,0:0:0:0:
209,359,292142,1,8,0:0:0:0:
408,235,292288,1,0,0:0:0:0:
269,70,292434,21,4,0:0:0:0:
269,70,292532,2,0,P|218:71|187:126,1,87.5333293263755
122,57,292727,1,8,0:0:0:0:
122,57,292825,2,0,P|105:105|147:152,1,87.5333293263755
137,265,293020,101,8,0:0:0:0:
199,234,293117,101,8,0:0:0:0:
265,256,293215,21,8,0:0:0:0:
288,321,293312,101,8,0:0:0:0:
349,355,293410,101,8,0:0:0:0:
416,337,293507,21,8,0:0:0:0:
447,274,293605,102,0,B|456:216|456:216|457:220|457:220|471:128,1,131.299993989563,4|0,0:0|0:0,0:0:0:0:
469,138,293824,1,2,0:0:0:0:
469,124,293898,2,0,B|406:100|406:100|332:142,1,131.299993989563,0|2,0:0|0:0,0:0:0:0:
219,357,294190,101,4,0:0:0:0:
215,344,294263,1,0,0:0:0:0:
211,331,294337,1,0,0:0:0:0:
192,159,294483,1,8,0:0:0:0:
368,215,294629,1,0,0:0:0:0:
98,199,294776,22,0,L|123:50,1,131.299993989563,4|0,0:0|0:0,0:0:0:0:
131,63,294995,2,0,B|183:36|226:77|226:77|269:117|337:75,1,196.949990984345,2|2,0:0|0:0,0:0:0:0:
505,263,295361,101,6,0:0:0:0:
502,250,295434,1,0,0:0:0:0:
498,237,295507,1,2,0:0:0:0:
401,57,295654,1,8,0:0:0:0:
291,232,295800,1,10,0:0:0:0:
512,138,295946,102,0,L|381:151,1,131.299993989563,4|0,0:0|0:0,0:0:0:0:
369,145,296166,1,2,0:0:0:0:
357,138,296239,2,0,L|226:151,1,131.299993989563,0|2,0:0|0:0,0:0:0:0:
35,73,296532,21,4,0:0:0:0:
39,86,296605,1,0,0:0:0:0:
43,99,296678,1,0,0:0:0:0:
183,244,296824,1,8,0:0:0:0:
248,46,296971,1,0,0:0:0:0:
39,233,297117,102,0,P|21:288|84:346,1,131.299993989563,4|0,0:0|0:0,0:0:0:0:
74,348,297337,2,0,B|169:331|169:331|168:335|168:335|302:313,1,196.949990984345,2|2,0:0|0:0,0:0:0:0:
508,159,297702,101,6,0:0:0:0:
505,172,297776,1,0,0:0:0:0:
502,185,297849,1,2,0:0:0:0:
412,337,297995,1,8,0:0:0:0:
345,156,298142,1,10,0:0:0:0:
263,319,298288,22,0,L|240:185,1,131.299993989563,4|0,0:0|0:0,0:0:0:0:
231,180,298507,1,2,0:0:0:0:
220,171,298581,2,0,L|197:37,1,131.299993989563,0|2,0:0|0:0,0:0:0:0:
110,210,298873,101,4,0:0:0:0:
113,222,298946,1,0,0:0:0:0:
116,234,299020,1,0,0:0:0:0:
294,89,299166,1,8,0:0:0:0:
83,31,299312,1,0,0:0:0:0:
245,194,299459,102,0,L|413:167,1,131.299993989563,4|0,0:0|0:0,0:0:0:0:
385,165,299678,2,0,B|434:199|434:199|423:268|423:268|425:265|425:265|414:332,1,196.949990984345,2|2,0:0|0:0,0:0:0:0:
132,309,300044,21,6,0:0:0:0:
129,296,300117,1,0,0:0:0:0:
126,283,300190,1,2,0:0:0:0:
205,110,300337,1,8,0:0:0:0:
327,276,300483,1,10,0:0:0:0:
59,225,300629,102,0,P|131:196|195:232,1,131.299993989563,4|0,0:0|0:0,0:0:0:0:
186,203,300849,1,2,0:0:0:0:
196,194,300922,2,0,P|257:212|314:183,1,131.299993989563,0|2,0:0|0:0,0:0:0:0:
469,36,301215,101,4,0:0:0:0:
456,32,301288,1,0,0:0:0:0:
443,28,301361,1,0,0:0:0:0:
247,127,301507,1,8,0:0:0:0:
456,202,301654,1,0,0:0:0:0:
248,37,301800,22,0,P|182:16|147:74,1,131.299993989563,4|0,0:0|0:0,0:0:0:0:
139,68,302020,2,0,P|161:153|188:267,1,196.949990984345,2|2,0:0|0:0,0:0:0:0:
411,363,302385,101,6,0:0:0:0:
413,350,302459,1,0,0:0:0:0:
415,337,302532,1,2,0:0:0:0:
452,172,302678,1,8,0:0:0:0:
293,334,302824,1,10,0:0:0:0:
330,142,302971,102,0,B|314:78|314:78|313:83|313:83|297:22,1,131.299993989563,4|0,0:0|0:0,0:0:0:0:
291,12,303190,1,2,0:0:0:0:
285,0,303263,2,0,B|222:-12|222:-12|154:42,1,131.299993989563,0|2,0:0|0:0,0:0:0:0:
36,208,303556,21,4,0:0:0:0:
48,211,303629,1,0,0:0:0:0:
60,214,303702,1,0,0:0:0:0:
224,98,303849,1,8,0:0:0:0:
30,37,303995,1,0,0:0:0:0:
160,237,304142,102,0,L|307:216,1,131.299993989563,4|0,0:0|0:0,0:0:0:0:
297,207,304361,2,0,B|359:189|395:234|395:234|436:280|487:255,1,196.949990984345,2|2,0:0|0:0,0:0:0:0:
406,73,304727,101,6,0:0:0:0:
409,86,304800,1,0,0:0:0:0:
413,99,304873,1,2,0:0:0:0:
328,285,305020,1,8,0:0:0:0:
235,100,305166,1,10,0:0:0:0:
496,131,305312,22,0,L|471:269,1,131.299993989563,4|0,0:0|0:0,0:0:0:0:
471,273,305532,1,2,0:0:0:0:
470,286,305605,2,0,B|400:298|400:298|403:295|403:295|311:309,1,131.299993989563,0|2,0:0|0:0,0:0:0:0:
105,315,305898,101,4,0:0:0:0:
117,312,305971,1,0,0:0:0:0:
129,309,306044,1,0,0:0:0:0:
313,205,306190,1,8,0:0:0:0:
127,124,306337,1,0,0:0:0:0:
241,365,306483,102,0,L|219:235,1,131.299993989563,4|0,0:0|0:0,0:0:0:0:
206,232,306702,2,0,B|223:137|223:137|220:139|220:139|244:0,1,196.949990984345,2|2,0:0|0:0,0:0:0:0:
13,192,307068,21,6,0:0:0:0:
16,204,307142,1,0,0:0:0:0:
19,216,307215,1,2,0:0:0:0:
135,30,307361,1,8,0:0:0:0:
206,232,307507,1,2,0:0:0:0:
36,107,307654,102,0,L|192:122,1,131.299993989563,4|0,0:0|0:0,0:0:0:0:
177,112,307873,1,2,0:0:0:0:
186,102,307946,2,0,L|342:117,1,131.299993989563,0|2,0:0|0:0,0:0:0:0:
502,38,308239,101,4,0:0:0:0:
499,50,308312,1,0,0:0:0:0:
496,62,308385,1,0,0:0:0:0:
371,199,308532,1,8,0:0:0:0:
303,21,308678,1,0,0:0:0:0:
498,200,308824,22,0,B|490:269|490:269|495:267|495:267|483:348,1,131.299993989563,4|0,0:0|0:0,0:0:0:0:
478,332,309044,2,0,B|427:351|390:309|390:309|347:264|287:289,1,196.949990984345,2|2,0:0|0:0,0:0:0:0:
50,101,309410,102,0,L|68:218,1,75.7500028896333,6|0,0:0|0:0,0:0:0:0:
81,333,309556,2,0,L|92:258,1,75.7500028896333,2|0,0:0|0:0,0:0:0:0:
133,67,309702,2,0,L|151:184,1,75.7500028896333,8|0,0:0|0:0,0:0:0:0:
163,377,309849,2,0,L|174:302,1,75.7500028896333,10|0,0:0|0:0,0:0:0:0:
256,144,309995,101,4,0:0:0:0:
292,97,310068,1,0,0:0:0:0:
350,86,310142,1,0,0:0:0:0:
404,109,310215,1,0,0:0:0:0:
433,160,310288,1,10,0:0:0:0:
429,218,310361,1,0,0:0:0:0:
387,260,310434,1,0,0:0:0:0:
329,274,310507,1,0,0:0:0:0:
275,246,310581,1,10,0:0:0:0:
247,193,310654,1,0,0:0:0:0:
194,165,310727,1,0,0:0:0:0:
135,170,310800,1,0,0:0:0:0:
87,204,310873,1,10,0:0:0:0:
72,261,310946,1,0,0:0:0:0:
92,317,311020,1,0,0:0:0:0:
140,350,311093,1,0,0:0:0:0:
198,353,311166,85,10,0:0:0:0:
233,298,311239,1,0,0:0:0:0:
225,232,311312,1,0,0:0:0:0:
171,193,311385,1,0,0:0:0:0:
107,173,311459,1,10,0:0:0:0:
66,121,311532,1,0,0:0:0:0:
67,55,311605,1,0,0:0:0:0:
112,7,311678,1,0,0:0:0:0:
177,0,311751,1,10,0:0:0:0:
236,26,311824,1,0,0:0:0:0:
262,86,311898,1,0,0:0:0:0:
253,150,311971,1,0,0:0:0:0:
278,211,312044,1,10,0:0:0:0:
336,241,312118,1,8,0:0:0:0:
401,237,312190,1,8,0:0:0:0:
446,189,312264,1,8,0:0:0:0:
447,123,312337,21,4,0:0:0:0:
405,102,312410,1,0,0:0:0:0:
359,105,312483,1,10,0:0:0:0:
319,127,312556,1,0,0:0:0:0:
298,168,312629,1,2,0:0:0:0:
298,213,312702,1,0,0:0:0:0:
298,258,312776,1,10,0:0:0:0:
277,299,312849,1,0,0:0:0:0:
237,321,312922,1,2,0:0:0:0:
191,324,312995,1,0,0:0:0:0:
149,303,313068,1,10,0:0:0:0:
120,266,313142,1,0,0:0:0:0:
120,220,313215,22,0,L|141:126,1,75.7500028896333,2|0,0:0|0:0,0:0:0:0:
89,0,313361,2,0,L|72:73,1,75.7500028896333,10|0,0:0|0:0,0:0:0:0:
303,11,313507,101,6,0:0:0:0:
348,3,313581,1,0,0:0:0:0:
391,15,313654,1,10,0:0:0:0:
420,50,313727,1,0,0:0:0:0:
429,94,313800,1,2,0:0:0:0:
415,137,313873,1,0,0:0:0:0:
381,167,313946,2,0,L|273:182,1,75.7500028896333,10|0,0:0|0:0,0:0:0:0:
179,76,314093,101,2,0:0:0:0:
164,80,314166,2,0,P|140:106|151:176,1,75.7500028896333,0|10,0:0|0:0,0:0:0:0:
58,162,314312,1,0,0:0:0:0:
57,177,314385,2,0,P|73:207|143:221,1,75.7500028896333,2|0,0:0|0:0,0:0:0:0:
112,310,314532,2,0,P|146:304|183:244,1,75.7500028896333,10|0,0:0|0:0,0:0:0:0:
380,338,314678,21,6,0:0:0:0:
432,331,314751,1,0,0:0:0:0:
468,292,314824,1,10,0:0:0:0:
482,240,314898,1,0,0:0:0:0:
465,189,314971,1,2,0:0:0:0:
425,153,315044,1,0,0:0:0:0:
372,148,315117,2,0,L|271:163,1,75.7500028896333,10|0,0:0|0:0,0:0:0:0:
50,48,315263,101,2,0:0:0:0:
50,48,315337,1,0,0:0:0:0:
50,48,315410,2,0,L|97:107,1,75.7500028896333,10|0,0:0|0:0,0:0:0:0:
236,33,315556,2,0,L|161:44,1,75.7500028896333,2|0,0:0|0:0,0:0:0:0:
155,201,315702,2,0,L|182:130,1,75.7500028896333,10|0,0:0|0:0,0:0:0:0:
47,282,315849,101,6,0:0:0:0:
76,316,315922,1,0,0:0:0:0:
119,329,315995,1,10,0:0:0:0:
164,322,316068,1,0,0:0:0:0:
197,289,316142,1,2,0:0:0:0:
226,255,316215,1,0,0:0:0:0:
269,242,316288,1,10,0:0:0:0:
314,249,316361,1,0,0:0:0:0:
347,282,316434,21,2,0:0:0:0:
342,295,316507,1,0,0:0:0:0:
337,308,316581,1,10,0:0:0:0:
332,321,316654,1,0,0:0:0:0:
327,334,316727,2,0,L|234:349,3,65.6499969947816,2|0|10|0,0:0|0:0|0:0|0:0,0:0:0:0:
462,334,317020,101,6,0:0:0:0:
493,300,317093,1,0,0:0:0:0:
495,253,317166,1,10,0:0:0:0:
467,216,317239,1,0,0:0:0:0:
424,199,317312,1,2,0:0:0:0:
381,183,317385,1,0,0:0:0:0:
354,146,317459,1,10,0:0:0:0:
356,99,317532,1,0,0:0:0:0:
387,65,317605,102,0,L|466:78,1,65.6499969947816,2|0,0:0|0:0,0:0:0:0:
276,145,317751,1,10,0:0:0:0:
289,156,317824,2,0,L|353:145,1,65.6499969947816,0|2,0:0|0:0,0:0:0:0:
212,49,317971,1,0,0:0:0:0:
225,38,318044,2,0,L|289:48,1,65.6499969947816,10|0,0:0|0:0,0:0:0:0:
112,53,318190,21,6,0:0:0:0:
71,74,318263,1,0,0:0:0:0:
54,117,318337,1,10,0:0:0:0:
64,161,318410,1,0,0:0:0:0:
100,189,318483,1,2,0:0:0:0:
141,210,318556,1,0,0:0:0:0:
158,253,318629,1,10,0:0:0:0:
148,297,318702,1,0,0:0:0:0:
112,325,318776,101,2,0:0:0:0:
99,330,318849,1,0,0:0:0:0:
87,335,318922,1,10,0:0:0:0:
75,340,318995,1,0,0:0:0:0:
63,345,319068,2,0,L|41:260,3,65.6499969947816,2|0|10|0,0:0|0:0|0:0|0:0,0:0:0:0:
120,200,319361,101,6,0:0:0:0:
86,159,319434,1,0,0:0:0:0:
75,107,319507,1,10,0:0:0:0:
100,61,319581,1,0,0:0:0:0:
145,32,319654,1,2,0:0:0:0:
197,34,319727,1,0,0:0:0:0:
242,58,319800,1,10,0:0:0:0:
269,102,319873,1,0,0:0:0:0:
263,153,319946,1,2,0:0:0:0:
236,197,320019,1,0,0:0:0:0:
220,247,320093,1,10,0:0:0:0:
226,298,320166,1,0,0:0:0:0:
262,335,320239,1,2,0:0:0:0:
311,348,320312,1,0,0:0:0:0:
362,338,320385,1,10,0:0:0:0:
400,301,320459,1,0,0:0:0:0:
414,249,320532,85,6,0:0:0:0:
357,216,320605,1,0,0:0:0:0:
291,219,320678,1,10,0:0:0:0:
238,257,320751,1,0,0:0:0:0:
209,315,320824,1,2,0:0:0:0:
153,351,320898,1,0,0:0:0:0:
87,349,320971,1,10,0:0:0:0:
33,311,321044,1,0,0:0:0:0:
14,248,321117,1,2,0:0:0:0:
40,188,321190,1,0,0:0:0:0:
98,158,321263,1,10,0:0:0:0:
164,160,321337,1,0,0:0:0:0:
217,197,321410,1,8,0:0:0:0:
280,211,321483,1,8,0:0:0:0:
342,192,321556,1,8,0:0:0:0:
380,138,321629,1,8,0:0:0:0:
385,72,321702,22,0,B|284:58|284:58|276:50|276:50|243:53|243:53|94:35,1,262.599987979127,4|8,0:0|0:0,0:0:0:0:
51,57,322068,1,0,0:0:0:0:
39,59,322141,1,0,0:0:0:0:
79,296,322288,1,2,0:0:0:0:
256,136,322434,1,0,0:0:0:0:
2,198,322581,1,8,0:0:0:0:
160,384,322727,1,2,0:0:0:0:
309,228,322873,22,0,B|245:202|196:264|196:264|139:336|59:285,1,262.599987979127,4|8,0:0|0:0,0:0:0:0:
437,356,323312,1,0,0:0:0:0:
256,136,323459,1,2,0:0:0:0:
240,131,323532,1,0,0:0:0:0:
224,126,323605,1,0,0:0:0:0:
310,372,323751,1,8,0:0:0:0:
498,227,323898,1,0,0:0:0:0:
342,45,324044,102,0,B|363:160|363:160|347:191|347:191|367:309,1,262.599987979127,4|8,0:0|0:0,0:0:0:0:
423,356,324410,1,0,0:0:0:0:
442,358,324483,1,0,0:0:0:0:
180,263,324629,1,2,0:0:0:0:
504,201,324776,1,0,0:0:0:0:
225,103,324922,1,8,0:0:0:0:
312,339,325068,1,2,0:0:0:0:
487,113,325215,102,0,B|419:92|374:154|374:154|323:225|240:180,1,262.599987979127,4|8,0:0|0:0,0:0:0:0:
73,113,325654,1,0,0:0:0:0:
189,336,325800,1,2,0:0:0:0:
208,339,325873,1,0,0:0:0:0:
227,342,325946,1,0,0:0:0:0:
300,108,326093,1,8,0:0:0:0:
92,232,326239,1,0,0:0:0:0:
354,368,326385,22,0,B|369:271|369:271|387:244|387:244|377:216|377:216|395:91,1,262.599987979127,4|8,0:0|0:0,0:0:0:0:
355,46,326751,1,0,0:0:0:0:
351,30,326824,1,2,0:0:0:0:
226,245,326971,1,0,0:0:0:0:
209,23,327117,2,0,L|52:52,1,131.299993989563,2|8,0:0|0:0,0:0:0:0:
71,65,327337,1,0,0:0:0:0:
62,82,327410,1,0,0:0:0:0:
59,364,327556,101,4,0:0:0:0:
281,216,327702,1,0,0:0:0:0:
15,159,327849,1,8,0:0:0:0:
178,360,327995,1,0,0:0:0:0:
248,142,328142,1,2,0:0:0:0:
245,127,328215,1,0,0:0:0:0:
242,112,328288,1,0,0:0:0:0:
21,254,328434,2,0,B|85:263|85:263|80:266|80:266|148:274,1,131.299993989563,8|8,0:0|0:0,0:0:0:0:
353,307,328727,101,4,0:0:0:0:
411,299,328800,1,0,0:0:0:0:
448,253,328873,1,0,0:0:0:0:
450,194,328946,1,0,0:0:0:0:
411,148,329020,1,8,0:0:0:0:
353,135,329093,1,0,0:0:0:0:
300,161,329166,1,0,0:0:0:0:
247,187,329239,1,0,0:0:0:0:
189,174,329312,1,4,0:0:0:0:
150,128,329385,1,0,0:0:0:0:
152,69,329459,1,0,0:0:0:0:
189,23,329532,1,0,0:0:0:0:
247,15,329605,1,8,0:0:0:0:
301,37,329678,1,0,0:0:0:0:
328,88,329751,1,0,0:0:0:0:
318,146,329824,1,0,0:0:0:0:
275,188,329898,85,4,0:0:0:0:
220,145,329971,1,0,0:0:0:0:
216,76,330044,1,0,0:0:0:0:
259,22,330117,1,0,0:0:0:0:
326,11,330190,1,10,0:0:0:0:
386,43,330263,1,0,0:0:0:0:
410,108,330337,1,0,0:0:0:0:
385,172,330410,1,0,0:0:0:0:
322,201,330483,1,10,0:0:0:0:
256,181,330556,1,0,0:0:0:0:
187,176,330629,1,0,0:0:0:0:
124,205,330702,1,0,0:0:0:0:
99,269,330776,1,10,0:0:0:0:
123,334,330849,1,0,0:0:0:0:
183,366,330922,1,0,0:0:0:0:
250,355,330995,1,0,0:0:0:0:
290,299,331068,1,4,0:0:0:0:
483,275,350268,86,0,B|374:316|314:240|311:236|309:231|246:143|124:197|124:197|196:264|176:336|103:373|32:359|7:275,1,707,2|0,0:0|0:0,0:0:0:0:
25,126,352668,2,0,B|182:102|182:102|187:105|187:105|359:75|359:75|332:141|364:201|430:227|494:207|532:148|518:81|458:48,1,707,2|0,0:0|0:0,0:0:0:0:
129,276,355068,54,0,B|350:304|350:304|299:281|289:233,1,303,2|0,0:0|0:0,0:0:0:0:
462,252,356268,54,0,P|458:134|380:222,1,303,2|0,0:0|0:0,0:0:0:0:
245,4,357468,54,0,B|262:132|262:132|236:154|236:154|256:299,1,303,2|0,0:0|0:0,0:0:0:0:
78,101,358668,54,0,P|80:174|146:133,1,181.799994451904,2|0,0:0|0:0,0:0:0:0:
366,76,359868,54,0,B|320:50|289:-6|289:-6|252:192|252:192|286:230|351:244|332:350|280:398|201:388|145:353|132:294|167:233,1,707,2|0,0:0|0:0,0:0:0:0:
50,129,362268,2,0,B|-4:163|14:260|61:286|137:286|181:238|189:172|145:127|145:127|198:149|198:149|289:109|337:174|338:178|340:181|385:238|467:207,1,707,2|0,0:0|0:0,0:0:0:0:
501,28,364668,54,0,B|442:100|442:100|223:49,1,303,2|0,0:0|0:0,0:0:0:0:
125,17,365868,54,0,L|163:336,1,303,2|0,0:0|0:0,0:0:0:0:
241,352,367068,54,0,B|372:328|372:328|326:318,1,181.799994451904,2|0,0:0|0:0,0:0:0:0:
141,202,368268,54,0,L|318:228,1,151.5,2|0,0:0|0:0,0:0:0:0:
356,183,368560,1,0,0:0:0:0:
357,170,368633,1,0,0:0:0:0:
359,157,368707,1,0,0:0:0:0:
360,145,368780,1,0,0:0:0:0:
367,70,368853,53,8,0:0:0:0:
454,336,368999,2,0,P|407:295|324:305,1,138.875,8|0,0:0|0:0,0:0:0:0:
324,317,369438,54,0,B|249:323|249:323|244:320|244:320|169:327,1,151.5,4|0,0:0|0:0,0:0:0:0:
59,156,369731,38,0,P|111:166|141:203,1,101
74,357,370024,2,0,L|56:120,1,202,8|0,0:0|0:0,0:0:0:0:
412,125,370609,54,0,P|343:60|256:99,1,202,2|0,0:0|0:0,0:0:0:0:
204,167,371048,1,0,0:0:0:0:
341,333,371194,2,0,B|380:272|341:233|339:231|337:229|298:190|329:145,1,202,8|0,0:0|0:0,0:0:0:0:
512,112,371780,6,0,L|412:125,1,101,2|0,0:0|0:0,0:0:0:0:
343,16,372072,2,0,L|443:29,1,101
477,210,372365,38,0,L|276:234,1,202,8|0,0:0|0:0,0:0:0:0:
276,233,372950,53,2,0:0:0:0:
140,77,373097,1,0,0:0:0:0:
120,304,373243,2,0,P|168:281|211:295,1,101
406,244,373536,6,0,B|343:238|343:238|339:240|339:240|265:232,1,131.299993989563,8|0,0:0|0:0,0:0:0:0:
339,368,373828,1,0,0:0:0:0:
348,119,373975,1,0,0:0:0:0:
504,330,374121,37,2,0:0:0:0:
275,233,374268,1,0,0:0:0:0:
421,349,374414,1,0,0:0:0:0:
261,317,374560,1,0,0:0:0:0:
484,241,374707,53,8,0:0:0:0:
235,121,374853,1,0,0:0:0:0:
421,349,374999,1,2,0:0:0:0:
468,153,375146,1,0,0:0:0:0:
156,89,375292,5,2,0:0:0:0:
165,169,375438,1,0,0:0:0:0:
387,183,375585,1,0,0:0:0:0:
396,103,375731,1,0,0:0:0:0:
174,249,375877,37,8,0:0:0:0:
318,327,376024,1,0,0:0:0:0:
378,263,376170,53,2,0:0:0:0:
246,288,376316,1,0,0:0:0:0:
437,328,376463,6,0,P|463:286|460:236,1,101,2|0,0:0|0:0,0:0:0:0:
295,125,376755,37,0,0:0:0:0:
387,183,376902,1,0,0:0:0:0:
288,44,377048,53,8,0:0:0:0:
378,263,377194,1,0,0:0:0:0:
358,5,377341,5,2,0:0:0:0:
318,327,377487,1,0,0:0:0:0:
429,49,377633,70,0,B|367:53|367:53|364:65|357:54|357:54|314:58|314:58|307:66|307:66|225:73|225:73|219:62|217:73|217:73|122:82|122:82|132:192|132:192|134:118|239:89,1,530.250020227433,2|0,0:0|0:0,0:0:0:0:
229,198,378219,1,8,0:0:0:0:
447,309,378365,38,0,B|363:299|363:299|355:294|355:294|330:297|330:297|247:289,1,202
169,329,378731,1,0,0:0:0:0:
158,329,378804,37,4,0:0:0:0:
316,212,378950,1,0,0:0:0:0:
89,263,379097,54,0,L|80:144,1,101,2|0,0:0|0:0,0:0:0:0:
236,97,379389,2,0,L|228:197,1,101,8|0,0:0|0:0,0:0:0:0:
0,215,379682,2,0,L|9:96,1,101,2|0,0:0|0:0,0:0:0:0:
243,8,379975,6,0,P|292:20|319:59,1,101,2|0,0:0|0:0,0:0:0:0:
391,114,380268,2,0,P|412:69|397:21,1,101,2|0,0:0|0:0,0:0:0:0:
246,182,380560,2,0,P|294:105|391:113,1,196.949990984345,8|0,0:0|0:0,0:0:0:0:
442,186,380853,37,2,0:0:0:0:
441,199,380926,1,0,0:0:0:0:
439,212,380999,1,0,0:0:0:0:
438,224,381072,1,0,0:0:0:0:
431,299,381146,53,2,0:0:0:0:
246,182,381292,1,0,0:0:0:0:
402,102,381438,6,0,P|368:140|321:142,1,101,2|0,0:0|0:0,0:0:0:0:
254,6,381731,2,0,P|303:16|329:56,1,101,8|0,0:0|0:0,0:0:0:0:
246,182,382024,2,0,P|230:133|251:91,1,101,2|0,0:0|0:0,0:0:0:0:
450,251,382316,38,0,B|386:245|386:245|382:248|382:248|318:242,1,131.299993989563,2|0,0:0|0:0,0:0:0:0:
115,190,382609,2,0,B|178:184|178:184|182:187|182:187|246:181,1,131.299993989563,2|0,0:0|0:0,0:0:0:0:
491,336,382902,54,0,B|379:327|379:327|372:331|372:331|261:321,1,227.2500086689,8|0,0:0|0:0,0:0:0:0:
61,272,383194,5,2,0:0:0:0:
50,263,383268,1,0,0:0:0:0:
62,258,383340,1,0,0:0:0:0:
52,248,383414,1,0,0:0:0:0:
115,190,383487,37,2,0:0:0:0:
99,376,383633,1,0,0:0:0:0:
308,141,383780,54,0,L|207:151,1,101,2|0,0:0|0:0,0:0:0:0:
263,279,384072,2,0,L|162:268,1,101,8|0,0:0|0:0,0:0:0:0:
353,48,384365,2,0,L|252:58,1,101,2|0,0:0|0:0,0:0:0:0:
0,204,384658,6,0,P|45:208|81:248,1,101,2|0,0:0|0:0,0:0:0:0:
164,360,384950,2,0,P|181:313|162:268,1,101,2|0,0:0|0:0,0:0:0:0:
326,112,385243,38,0,P|280:116|244:156,1,101,8|0,0:0|0:0,0:0:0:0:
161,268,385536,2,0,P|144:221|164:176,1,101,2|0,0:0|0:0,0:0:0:0:
362,326,385828,53,2,0:0:0:0:
164,176,385975,1,0,0:0:0:0:
396,162,386121,5,2,0:0:0:0:
161,268,386268,1,0,0:0:0:0:
404,76,386414,37,8,0:0:0:0:
233,328,386560,1,0,0:0:0:0:
333,22,386707,54,0,B|283:34|283:34|294:94|294:94|294:101|294:101|310:177|310:177,1,196.949990984345,2|0,0:0|0:0,0:0:0:0:
333,259,386999,1,8,0:0:0:0:
48,326,387146,6,0,B|136:371|136:371|268:318|268:318|296:347|322:343,1,303.000011558533,4|0,0:0|0:0,0:0:0:0:
248,130,387585,70,0,B|238:172|238:172|255:199,1,75.7500028896333,8|0,0:0|0:0,0:0:0:0:
407,271,387731,2,0,B|367:266|367:266|363:263|363:263|333:259,1,75.7500028896333,8|0,0:0|0:0,0:0:0:0:
162,269,387877,2,0,B|210:276|210:276|215:279|215:279|251:284,1,90.8999972259522,8|0,0:0|0:0,0:0:0:0:
345,69,388024,2,0,B|338:117|338:117|335:122|335:122|330:158,1,90.8999972259522,8|0,0:0|0:0,0:0:0:0:
322,343,388170,38,0,B|374:320|393:272|393:272|327:215|232:229|156:312,1,363.599988903809,4|8,0:0|0:0,0:0:0:0:
52,16,388609,2,0,B|63:136|63:136|60:139|60:139|80:324,1,262.599987979127,2|0,0:0|0:0,0:0:0:0:
312,190,389048,1,8,0:0:0:0:
89,94,389194,1,0,0:0:0:0:
370,21,389341,38,0,B|331:78|380:127|382:129|384:131|432:180|378:267,1,262.599987979127,2|8,0:0|0:0,0:0:0:0:
283,97,389926,53,2,0:0:0:0:
378,266,390072,1,0,0:0:0:0:
89,115,390219,2,0,B|188:105|188:105|191:108|191:108|344:91,1,196.949990984345,8|0,0:0|0:0,0:0:0:0:
358,52,390511,6,4,P|432:153|378:266,1,262.599987979127,4|8,0:0|0:0,0:0:0:0:
179,339,390950,2,0,B|223:321|274:350|274:350|308:323|308:323|367:370|418:341,1,262.599987979127,2|0,0:0|0:0,0:0:0:0:
172,161,391389,1,8,0:0:0:0:
377,266,391536,1,0,0:0:0:0:
105,233,391682,2,0,P|226:235|252:117,1,262.599987979127,2|8,0:0|0:0,0:0:0:0:
0,94,392268,37,2,0:0:0:0:
251,116,392414,1,0,0:0:0:0:
130,0,392560,2,0,B|71:13|71:13|89:150,1,196.949990984345,8|0,0:0|0:0,0:0:0:0:
102,234,392853,54,0,B|159:195|208:244|210:246|212:248|261:296|348:242,1,262.599987979127,4|8,0:0|0:0,0:0:0:0:
449,15,393292,2,0,L|430:282,1,262.599987979127,2|0,0:0|0:0,0:0:0:0:
266,90,393731,1,8,0:0:0:0:
430,276,393877,1,0,0:0:0:0:
350,28,394024,6,0,P|269:-3|160:53,1,196.949990984345,2|0,0:0|0:0,0:0:0:0:
164,59,394316,1,8,0:0:0:0:
416,122,394463,38,0,B|308:132|308:132|276:128|276:128|265:135|265:135|152:147,1,262.599987979127,2|0,0:0|0:0,0:0:0:0:
78,369,394902,2,0,P|7:332|20:220,1,196.949990984345,8|0,0:0|0:0,0:0:0:0:
76,168,395194,54,0,P|171:180|162:363,1,303.000011558533,4|8,0:0|0:0,0:0:0:0:
427,285,395633,2,0,B|282:271|282:271|279:275|279:275|56:251,1,303.000011558533,2|0,0:0|0:0,0:0:0:0:
342,179,396072,1,8,0:0:0:0:
112,57,396219,1,0,0:0:0:0:
234,219,396365,5,2,0:0:0:0:
228,170,396438,1,0,0:0:0:0:
223,121,396511,1,0,0:0:0:0:
217,72,396585,1,0,0:0:0:0:
212,23,396658,1,8,0:0:0:0:
212,23,396950,69,8,0:0:0:0:
270,8,397024,1,8,0:0:0:0:
323,32,397097,1,8,0:0:0:0:
348,86,397170,1,8,0:0:0:0:
332,144,397243,1,8,0:0:0:0:
284,177,397316,1,8,0:0:0:0:
226,172,397389,1,8,0:0:0:0:
183,130,397463,1,8,0:0:0:0:
178,71,397536,38,0,B|247:34|247:34|329:54|329:54|333:59|333:59|424:82,1,262.599987979127,4|8,0:0|0:0,0:0:0:0:
468,275,397975,2,0,P|487:172|397:225,1,262.599987979127,2|0,0:0|0:0,0:0:0:0:
245,311,398414,1,8,0:0:0:0:
447,360,398560,1,0,0:0:0:0:
171,372,398707,2,0,B|147:187|147:187|159:229|213:251,1,262.599987979127,2|8,0:0|0:0,0:0:0:0:
226,163,399292,37,2,0:0:0:0:
245,311,399438,1,0,0:0:0:0:
456,113,399585,2,0,B|418:140|418:140|275:93,1,196.949990984345,8|0,0:0|0:0,0:0:0:0:
219,29,399877,54,0,P|131:4|34:123,1,262.599987979127,4|8,0:0|0:0,0:0:0:0:
353,212,400316,2,0,B|251:202|251:202|224:192|224:192|199:196|199:196|93:187,1,262.599987979127,2|0,0:0|0:0,0:0:0:0:
39,339,400755,5,8,0:0:0:0:
33,122,400902,1,0,0:0:0:0:
311,362,401048,2,0,P|258:250|134:251,1,262.599987979127,2|8,0:0|0:0,0:0:0:0:
216,52,401633,37,2,0:0:0:0:
134,251,401779,1,0,0:0:0:0:
363,149,401926,2,0,B|286:142|286:142|265:134|265:134|244:137|244:137|159:130,1,196.949990984345,8|0,0:0|0:0,0:0:0:0:
145,121,402219,54,0,B|138:183|138:183|141:188|141:188|133:257,1,131.299993989563,4|0,0:0|0:0,0:0:0:0:
287,341,402511,1,8,0:0:0:0:
473,42,402658,2,0,B|360:55|360:55|328:40|328:40|216:52,1,262.599987979127,2|0,0:0|0:0,0:0:0:0:
13,256,403097,2,0,B|77:226|77:226|149:256,1,131.299993989563,8|0,0:0|0:0,0:0:0:0:
344,205,403389,6,0,B|285:197|285:197|280:199|280:199|207:188,1,131.299993989563,2|0,0:0|0:0,0:0:0:0:
80,318,403682,1,8,0:0:0:0:
186,82,403828,2,0,B|174:190|174:190|167:201|167:201|171:233|171:233|161:341,1,262.599987979127,2|0,0:0|0:0,0:0:0:0:
468,119,404267,38,0,P|375:117|343:204,1,196.949990984345,8|0,0:0|0:0,0:0:0:0:
428,186,404560,54,0,B|296:174|296:174|294:177|294:177|123:158,1,303.000011558533,4|8,0:0|0:0,0:0:0:0:
60,374,404999,2,0,B|18:318|18:318|68:220|68:220|46:199|47:156,1,227.2500086689,2|0,0:0|0:0,0:0:0:0:
39,155,405292,1,0,0:0:0:0:
151,365,405438,1,8,0:0:0:0:
268,95,405585,1,0,0:0:0:0:
315,339,405731,6,0,L|308:273,1,65.6499969947816,2|0,0:0|0:0,0:0:0:0:
96,225,405877,2,0,L|89:290,1,65.6499969947816
396,290,406024,37,8,0:0:0:0:
220,19,406316,53,8,0:0:0:0:
187,67,406389,1,8,0:0:0:0:
190,125,406463,1,8,0:0:0:0:
226,170,406536,1,8,0:0:0:0:
282,185,406609,1,8,0:0:0:0:
322,227,406682,1,8,0:0:0:0:
334,284,406755,1,8,0:0:0:0:
315,339,406828,1,8,0:0:0:0:
271,376,406902,6,0,P|240:350|232:282,1,111.100003390503,10|0,0:0|0:0,0:0:0:0:
170,379,407121,2,0,P|162:334|204:272,1,111.100003390503,8|0,0:0|0:0,0:0:0:0:
90,319,407341,2,0,P|112:282|185:261,1,111.100003390503,8|0,0:0|0:0,0:0:0:0:
72,221,407560,2,0,P|113:207|182:239,1,111.100003390503,8|0,0:0|0:0,0:0:0:0:
150,131,407780,38,0,P|189:150|261:127,1,111.100003390503,8|0,0:0|0:0,0:0:0:0:
201,223,407999,2,0,P|240:205|269:134,1,111.100003390503,10|0,0:0|0:0,0:0:0:0:
303,245,408219,2,0,P|312:203|278:135,1,111.100003390503,8|0,0:0|0:0,0:0:0:0:
383,179,408438,2,0,P|356:144|282:128,1,111.100003390503,10|0,0:0|0:0,0:0:0:0:
205,68,408658,54,0,L|436:35,1,222.200006781006,8|0,0:0|0:0,0:0:0:0:
509,22,409097,1,2,0:0:0:0:
426,279,409243,6,0,B|464:250|515:284|515:284|419:354|345:297|342:295|338:292|275:244|164:306,1,444.400013562012,4|0,0:0|0:0,0:0:0:0:
46,56,410121,37,2,0:0:0:0:
46,56,410414,2,0,B|17:53|17:53|33:195,2,151.5,2|2|2,0:0|0:0|0:0,0:0:0:0:
95,257,411438,1,0,0:0:0:0:
98,238,411511,1,0,0:0:0:0:
101,220,411585,53,4,0:0:0:0:
323,328,411731,1,0,0:0:0:0:
169,127,411877,1,8,0:0:0:0:
141,368,412024,1,0,0:0:0:0:
353,162,412170,5,2,0:0:0:0:
93,263,412316,1,0,0:0:0:0:
348,340,412463,1,8,0:0:0:0:
155,104,412609,1,0,0:0:0:0:
117,380,412755,37,2,0:0:0:0:
412,252,412902,1,0,0:0:0:0:
75,163,413048,1,8,0:0:0:0:
488,339,413194,54,0,B|437:332|437:332|430:335|430:335|386:330|386:330|359:320|359:320|334:324|334:324|281:319|281:319|276:321|276:321|230:315,1,262.599987979127,2|0,0:0|0:0,0:0:0:0:
155,104,413633,1,8,0:0:0:0:
229,314,413780,1,0,0:0:0:0:
359,59,413926,6,8,P|388:86|386:135,1,65.6499969947816,4|0,0:0|0:0,0:0:0:0:
472,116,414072,2,8,P|463:154|419:177,1,65.6499969947816,0|0,0:0|0:0,0:0:0:0:
312,119,414219,38,8,P|282:146|284:195,1,65.6499969947816,8|0,0:0|0:0,0:0:0:0:
198,176,414365,2,8,P|207:214|251:238,1,65.6499969947816,0|0,0:0|0:0,0:0:0:0:
303,246,414511,53,2,0:0:0:0:
86,73,414658,1,0,0:0:0:0:
150,345,414804,1,8,0:0:0:0:
15,201,414950,6,0,B|162:152|162:152|203:179,1,196.949990984345,2|0,0:0|0:0,0:0:0:0:
220,257,415243,37,0,0:0:0:0:
238,301,415316,1,0,0:0:0:0:
277,329,415389,1,8,0:0:0:0:
326,331,415463,1,0,0:0:0:0:
369,308,415536,22,0,B|319:315|319:315|272:315|272:315|253:320|253:320|216:323|181:332|170:328|170:328|135:334|135:334|102:334|64:337|64:337|42:347|42:347|7:345|-41:354,1,363.599988903809,2|2,0:0|0:0,0:0:0:0:
58,138,415975,2,0,B|50:200|50:200|52:205|52:205|43:281,1,131.299993989563,8|2,0:0|0:0,0:0:0:0:
300,195,416267,37,4,0:0:0:0:
45,267,416414,1,0,0:0:0:0:
287,283,416560,1,8,0:0:0:0:
58,138,416707,1,0,0:0:0:0:
274,371,416853,37,2,0:0:0:0:
19,258,416999,1,0,0:0:0:0:
316,108,417146,1,8,0:0:0:0:
115,377,417292,1,0,0:0:0:0:
198,50,417438,53,4,0:0:0:0:
274,371,417585,1,0,0:0:0:0:
356,33,417731,5,8,0:0:0:0:
347,328,417877,1,0,0:0:0:0:
494,104,418024,37,2,0:0:0:0:
425,330,418170,1,0,0:0:0:0:
250,105,418316,53,8,0:0:0:0:
512,189,418463,1,0,0:0:0:0:
228,298,418609,6,0,B|194:234|194:234|216:178,1,131.299993989563,4|0,0:0|0:0,0:0:0:0:
440,46,418902,1,8,0:0:0:0:
235,180,419048,1,0,0:0:0:0:
459,314,419194,38,0,B|493:250|493:250|471:194,1,131.299993989563,2|0,0:0|0:0,0:0:0:0:
248,60,419487,1,8,0:0:0:0:
452,196,419633,1,0,0:0:0:0:
134,305,419780,53,4,0:0:0:0:
127,303,419853,1,0,0:0:0:0:
120,301,419926,1,0,0:0:0:0:
235,180,420072,1,8,0:0:0:0:
13,84,420219,1,0,0:0:0:0:
229,279,420365,6,0,P|269:284|304:252,1,75.7500028896333,10|0,0:0|0:0,0:0:0:0:
430,261,420511,2,0,P|454:228|444:182,1,75.7500028896333,10|0,0:0|0:0,0:0:0:0:
466,15,420658,38,0,P|423:9|386:43,1,90.8999972259522,8|0,0:0|0:0,0:0:0:0:
253,35,420804,2,0,P|227:68|238:117,1,90.8999972259522,10|0,0:0|0:0,0:0:0:0:
451,195,420950,54,0,P|344:153|297:267,1,262.599987979127,4|8,0:0|0:0,0:0:0:0:
166,166,421389,1,0,0:0:0:0:
374,226,421536,1,2,0:0:0:0:
124,238,421683,1,0,0:0:0:0:
395,303,421828,5,8,0:0:0:0:
329,44,421975,1,0,0:0:0:0:
178,309,422121,37,2,0:0:0:0:
451,195,422267,1,2,0:0:0:0:
218,234,422414,1,8,0:0:0:0:
422,115,422560,53,2,0:0:0:0:
175,32,422707,1,2,0:0:0:0:
370,177,422853,1,2,0:0:0:0:
103,126,422999,5,8,0:0:0:0:
393,35,423146,1,2,0:0:0:0:
124,238,423292,37,4,0:0:0:0:
112,244,423438,1,0,0:0:0:0:
337,338,423585,1,8,0:0:0:0:
349,344,423731,1,2,0:0:0:0:
103,126,423877,53,4,0:0:0:0:
389,266,424024,1,0,0:0:0:0:
112,351,424170,1,8,0:0:0:0:
370,177,424316,1,2,0:0:0:0:
88,39,424463,86,0,B|50:46|50:46|45:41|40:48|40:48|9:55|9:55|19:131|19:131|18:135|18:135|25:177|25:177|23:181|23:181|36:279,1,303.000011558533,4|8,0:0|0:0,0:0:0:0:
418,133,424902,2,0,B|347:172|284:123|284:123|286:139|286:139|223:80|158:78|97:130,1,363.599988903809,4|0,0:0|0:0,0:0:0:0:
230,355,425341,38,0,B|273:370|273:370|277:293|277:293|279:290|279:290|283:212,1,196.949990984345,8|0,0:0|0:0,0:0:0:0:
286,139,425633,38,0,B|178:149|178:149|151:146|151:146|146:152|146:152|5:167,1,262.599987979127,4|8,0:0|0:0,0:0:0:0:
27,164,426219,1,2,0:0:0:0:
128,361,426365,1,0,0:0:0:0:
219,112,426511,2,0,P|150:50|68:94,1,196.949990984345,8|0,0:0|0:0,0:0:0:0:
138,136,426804,54,0,B|270:142|270:142|274:141|274:141|411:148,1,262.599987979127,4|8,0:0|0:0,0:0:0:0:
262,368,427243,6,0,B|227:318|270:275|272:273|274:271|310:234|281:182,1,196.949990984345,4|0,0:0|0:0,0:0:0:0:
276,172,427536,1,0,0:0:0:0:
60,281,427682,2,0,P|152:294|202:216,1,196.949990984345,8|0,0:0|0:0,0:0:0:0:
116,209,427975,70,0,B|162:209|184:224|184:224|243:191|243:191|282:220|282:220|286:214|286:214|343:224|343:224|400:191|400:191|421:205|453:206,1,363.599988903809,4|8,0:0|0:0,0:0:0:0:
262,368,428414,1,0,0:0:0:0:
317,141,428560,1,2,0:0:0:0:
454,356,428707,1,0,0:0:0:0:
390,92,428853,38,0,P|236:103|226:169,1,196.949990984345,8|0,0:0|0:0,0:0:0:0:
202,190,429146,37,4,0:0:0:0:
25,94,429292,1,0,0:0:0:0:
28,62,429365,1,0,0:0:0:0:
31,30,429438,1,8,0:0:0:0:
229,116,429585,1,0,0:0:0:0:
78,332,429731,53,10,0:0:0:0:
75,300,429804,1,8,0:0:0:0:
72,268,429877,2,0,L|62:169,1,65.6499969947816,8|8,0:0|0:0,0:0:0:0:
291,384,430024,1,10,0:0:0:0:
294,352,430097,1,8,0:0:0:0:
297,320,430170,2,0,L|307:221,1,65.6499969947816,8|8,0:0|0:0,0:0:0:0:
229,116,430316,69,4,0:0:0:0:
483,150,448463,54,0,L|489:92,7,37.8750014448166
419,200,449063,53,2,0:0:0:0:
402,208,449355,2,0,L|346:195,2,50.5000019264222
252,74,449648,53,2,0:0:0:0:
235,66,449941,2,0,L|179:79,2,50.5000019264222
54,161,450233,53,2,0:0:0:0:
46,178,450526,2,0,L|59:234,2,50.5000019264222
147,227,450819,2,0,L|131:281,2,50.5000019264222,2|0|0,0:0|0:0|0:0,0:0:0:0:
210,319,451111,2,0,L|169:358,2,50.5000019264222,2|0|0,0:0|0:0|0:0,0:0:0:0:
431,300,451404,54,0,L|269:261,1,151.500005779267,2|0,0:0|0:0,0:0:0:0:
228,198,451794,1,0,0:0:0:0:
227,180,451892,1,0,0:0:0:0:
224,164,451989,1,2,0:0:0:0:
87,127,452282,53,0,0:0:0:0:
90,110,452380,1,0,0:0:0:0:
92,93,452477,1,0,0:0:0:0:
153,36,452575,54,0,L|307:10,1,151.500005779267,2|0,0:0|0:0,0:0:0:0:
376,51,452965,1,0,0:0:0:0:
378,68,453063,1,0,0:0:0:0:
381,85,453160,2,0,L|329:97,2,50.5000019264222,2|0|0,0:0|0:0|0:0,0:0:0:0:
223,162,453453,2,0,L|275:174,2,50.5000019264222,2|0|0,0:0|0:0|0:0,0:0:0:0:
473,218,453745,54,0,L|317:244,1,151.500005779267,2|0,0:0|0:0,0:0:0:0:
259,303,454136,1,0,0:0:0:0:
245,301,454233,1,0,0:0:0:0:
228,299,454331,1,2,0:0:0:0:
54,239,454623,53,0,0:0:0:0:
52,256,454721,1,0,0:0:0:0:
51,272,454818,1,0,0:0:0:0:
103,338,454916,54,0,P|175:349|229:296,1,151.500005779267,2|0,0:0|0:0,0:0:0:0:
255,221,455306,1,0,0:0:0:0:
257,203,455404,1,0,0:0:0:0:
254,186,455502,1,2,0:0:0:0:
247,171,455599,1,0,0:0:0:0:
235,158,455697,1,0,0:0:0:0:
221,148,455793,1,2,0:0:0:0:
204,143,455891,1,0,0:0:0:0:
187,143,455989,1,0,0:0:0:0:
174,221,456087,54,0,B|248:230|248:230|251:233|251:233|327:241,1,151.500005779267,2|0,0:0|0:0,0:0:0:0:
396,55,456477,1,0,0:0:0:0:
380,52,456575,1,0,0:0:0:0:
364,49,456672,2,0,P|331:76|344:144,1,101.000003852844,2|0,0:0|0:0,0:0:0:0:
398,185,456965,54,0,L|463:172,2,50.5000019264222
467,248,457258,54,0,B|432:271|403:241|401:240|400:239|371:210|318:243,1,151.500005779267,2|0,0:0|0:0,0:0:0:0:
274,311,457648,1,0,0:0:0:0:
257,314,457745,1,0,0:0:0:0:
241,317,457843,2,0,P|211:310|198:297,2,50.5000019264222,2|0|0,0:0|0:0|0:0,0:0:0:0:
116,266,458136,2,0,P|107:236|111:218,2,50.5000019264222,2|0|0,0:0|0:0|0:0,0:0:0:0:
79,98,458428,54,0,P|133:142|204:118,1,151.500005779267,2|0,0:0|0:0,0:0:0:0:
260,179,458819,1,0,0:0:0:0:
258,196,458916,1,0,0:0:0:0:
256,210,459014,1,2,0:0:0:0:
79,98,459306,53,0,0:0:0:0:
82,81,459405,1,0,0:0:0:0:
84,64,459502,1,0,0:0:0:0:
162,20,459599,54,0,B|203:2|203:2|308:35,1,151.500005779267,2|0,0:0|0:0,0:0:0:0:
355,106,459989,1,0,0:0:0:0:
357,123,460087,1,0,0:0:0:0:
358,140,460184,1,2,0:0:0:0:
359,158,460282,1,0,0:0:0:0:
362,175,460380,1,0,0:0:0:0:
362,192,460477,1,2,0:0:0:0:
364,210,460575,1,0,0:0:0:0:
365,225,460672,1,0,0:0:0:0:
312,290,460770,54,0,P|243:316|161:250,1,151.500005779267,2|0,0:0|0:0,0:0:0:0:
67,352,461160,1,0,0:0:0:0:
84,353,461258,1,0,0:0:0:0:
101,354,461355,2,0,B|93:274|93:274|94:272|94:272|87:203,1,151.500005779267,2|0,0:0|0:0,0:0:0:0:
19,71,461745,1,0,0:0:0:0:
11,87,461843,1,0,0:0:0:0:
4,104,461941,54,0,B|79:131|79:131|154:88,1,151.500005779267,2|0,0:0|0:0,0:0:0:0:
221,58,462331,1,0,0:0:0:0:
224,74,462428,1,0,0:0:0:0:
228,89,462526,2,0,L|221:143,2,50.5000019264222,2|0|0,0:0|0:0|0:0,0:0:0:0:
326,280,462819,53,2,0:0:0:0:
467,222,462950,53,8,0:0:0:0:
473,214,463023,1,8,0:0:0:0:
479,207,463096,2,0,L|486:-7,1,202,4|0,0:0|0:0,0:0:0:0:
326,358,463681,1,0,0:0:0:0:
315,361,463754,1,0,0:0:0:0:
306,363,463827,2,0,P|249:326|310:197,1,202,8|8,0:0|0:0,0:0:0:0:
430,359,464266,53,4,0:0:0:0:
367,158,464413,2,0,B|275:167|275:167|272:165|272:165|166:176,1,202,8|8,0:0|0:0,0:0:0:0:
86,185,464778,1,0,0:0:0:0:
87,197,464852,1,8,0:0:0:0:
271,79,464998,1,8,0:0:0:0:
168,274,465144,2,0,L|220:268,2,50.5,8|8|8,0:0|0:0|0:0,0:0:0:0:
0,147,465437,53,4,0:0:0:0:
73,339,465730,54,0,B|103:339|103:339|121:359,3,50.5
207,353,466022,53,8,0:0:0:0:
0,279,466217,1,8,0:0:0:0:
134,141,466413,2,0,L|211:132,1,67.3333333333333,8|0,0:0|0:0,0:0:0:0:
319,326,466608,54,0,L|310:256,1,67.3333333333333,8|0,0:0|0:0,0:0:0:0:
221,277,466803,2,0,L|230:207,1,67.3333333333333,8|0,0:0|0:0,0:0:0:0:
417,295,466998,1,8,0:0:0:0:
406,286,467096,1,0,0:0:0:0:
396,280,467193,2,0,L|385:198,2,67.3333333333333,8|8|8,0:0|0:0|0:0,0:0:0:0:
462,159,467486,2,0,L|451:77,2,67.3333333333333,8|8|8,0:0|0:0|0:0,0:0:0:0:
504,0,467778,54,0,B|441:64|441:64|223:16,1,303,4|0,0:0|0:0,0:0:0:0:
36,187,468949,102,0,B|107:236|169:174|172:171|174:169|236:108|345:176,1,303.000011558533,2|0,0:0|0:0,0:0:0:0:
496,309,469535,22,0,B|424:299|424:299|419:302|419:302|334:290,1,151.500005779267,2|0,0:0|0:0,0:0:0:0:
323,301,469730,2,0,B|291:225|291:225|320:162,1,151.500005779267,2|0,0:0|0:0,0:0:0:0:
375,86,469925,37,2,0:0:0:0:
377,102,470022,1,0,0:0:0:0:
450,5,470120,38,0,P|373:55|278:14,1,202,4|0,0:0|0:0,0:0:0:0:
209,71,470510,53,0,0:0:0:0:
193,60,470608,1,0,0:0:0:0:
174,56,470705,2,0,P|136:61|115:98,2,67.3333333333333,8|0|0,0:0|0:0|0:0,0:0:0:0:
42,127,470998,2,0,P|27:162|48:199,2,67.3333333333333,2|0|0,0:0|0:0|0:0,0:0:0:0:
91,319,471291,6,0,B|142:354|186:309|189:307|190:306|235:262|313:311,1,202,4|2,0:0|0:0,0:0:0:0:
289,306,471681,1,0,0:0:0:0:
280,295,471778,1,0,0:0:0:0:
355,262,471876,37,8,0:0:0:0:
430,229,471974,1,8,0:0:0:0:
363,180,472071,1,8,0:0:0:0:
422,311,472169,54,0,P|469:310|500:279,1,88.375,4|0,0:0|0:0,0:0:0:0:
506,271,472461,6,0,B|492:140|492:140|488:138|488:138|473:11,1,262.599987979127,4|0,0:0|0:0,0:0:0:0:
391,0,472900,1,0,0:0:0:0:
296,129,473047,2,0,P|241:141|179:106,2,113.62500433445,8|0|2,0:0|0:0|0:0,0:0:0:0:
374,283,473632,38,0,L|390:53,1,202,4|0,0:0|0:0,0:0:0:0:
391,3,474071,1,0,0:0:0:0:
149,210,474217,2,0,P|245:209|298:128,1,202,8|0,0:0|0:0,0:0:0:0:
264,56,474656,1,2,0:0:0:0:
114,308,474803,54,0,B|222:296|222:296|233:289|233:289|265:293|265:293|373:283,1,262.599987979127,4|0,0:0|0:0,0:0:0:0:
456,273,475242,1,0,0:0:0:0:
430,72,475388,2,0,B|365:65|365:65|363:62|363:62|280:55,1,151.5,8|0,0:0|0:0,0:0:0:0:
264,56,475681,2,0,L|250:159,1,101,0|2,0:0|0:0,0:0:0:0:
456,273,475974,6,0,L|430:72,1,202,4|0,0:0|0:0,0:0:0:0:
241,230,476413,1,0,0:0:0:0:
244,205,476486,1,0,0:0:0:0:
248,181,476559,38,0,L|251:137,1,25.25,8|0,0:0|0:0,0:0:0:0:
69,294,476705,2,0,L|72:250,1,25.25,8|0,0:0|0:0,0:0:0:0:
347,253,476852,54,0,L|338:210,1,25.25,2|0,0:0|0:0,0:0:0:0:
160,212,476998,2,0,L|151:169,1,25.25,2|0,0:0|0:0,0:0:0:0:
365,338,477144,6,0,B|402:329|402:329|407:333|412:326|412:326|443:317|443:317|429:242|429:242|429:238|429:238|420:196|420:196|422:192|422:192|404:95,1,303.000011558533,4|0,0:0|0:0,0:0:0:0:
142,60,477730,2,0,B|237:48|237:48|241:46|241:46|353:32,2,196.949990984345,8|0|0,0:0|0:0|0:0,0:0:0:0:
24,185,478315,38,0,B|83:152|83:152|219:193,1,202,4|2,0:0|0:0,0:0:0:0:
295,213,478754,1,0,0:0:0:0:
83,353,478900,2,0,P|60:303|80:252,1,113.62500433445,8|0,0:0|0:0,0:0:0:0:
94,243,479193,1,2,0:0:0:0:
163,384,479339,1,0,0:0:0:0:
355,282,479486,54,0,B|154:301,1,202,4|2,0:0|0:0,0:0:0:0:
83,353,479925,1,0,0:0:0:0:
230,75,480071,2,0,B|197:122|239:162|241:165|242:166|282:208|237:280,2,196.949990984345,8|0|0,0:0|0:0|0:0,0:0:0:0:
340,55,480656,6,0,B|139:36,1,202,4|2,0:0|0:0,0:0:0:0:
320,134,481096,1,0,0:0:0:0:
118,33,481242,2,0,B|88:71|88:71|100:122,1,101,8|0,0:0|0:0,0:0:0:0:
223,248,481535,1,2,0:0:0:0:
35,178,481681,1,0,0:0:0:0:
304,303,481827,38,0,L|317:152,1,151.5,4|0,0:0|0:0,0:0:0:0:
320,134,482120,1,0,0:0:0:0:
403,339,482266,2,0,L|392:223,1,101,0|8,0:0|0:0,0:0:0:0:
415,46,482559,2,0,B|361:26|332:77|330:80|329:81|300:131|218:106,1,202,2|2,0:0|0:0,0:0:0:0:
157,84,482998,54,0,B|104:108|104:108|140:244,1,176.75,4|0,0:0|0:0,0:0:0:0:
145,236,483291,6,0,B|214:230|214:230|216:227|216:227|278:222,1,131.299993989563
469,149,483583,2,0,B|391:142|391:142|389:138|389:138|319:133,1,151.500005779267,8|0,0:0|0:0,0:0:0:0:
217,310,483876,1,2,0:0:0:0:
260,74,484022,1,0,0:0:0:0:
403,339,484169,37,4,0:0:0:0:
145,236,484364,1,0,0:0:0:0:
319,133,484559,1,2,0:0:0:0:
321,161,484656,1,2,0:0:0:0:
325,189,484754,53,8,0:0:0:0:
103,334,484949,1,0,0:0:0:0:
225,168,485144,1,2,0:0:0:0:
231,126,485242,1,2,0:0:0:0:
235,84,485339,5,4,0:0:0:0:
475,270,485535,1,0,0:0:0:0:
133,124,485730,1,2,0:0:0:0:
137,180,485827,1,2,0:0:0:0:
145,236,485925,69,8,0:0:0:0:
390,0,486120,1,8,0:0:0:0:
347,382,486315,1,10,0:0:0:0:
49,92,486510,37,4,0:0:0:0:
78,53,486583,1,0,0:0:0:0:
123,35,486656,1,10,0:0:0:0:
171,43,486730,1,0,0:0:0:0:
209,74,486803,1,2,0:0:0:0:
247,105,486876,1,0,0:0:0:0:
295,113,486949,1,10,0:0:0:0:
340,95,487022,1,0,0:0:0:0:
369,56,487096,1,2,0:0:0:0:
415,43,487169,1,0,0:0:0:0:
462,56,487242,1,10,0:0:0:0:
496,91,487315,1,0,0:0:0:0:
507,138,487388,38,0,L|501:217,1,65.6499969947816,2|0,0:0|0:0,0:0:0:0:
410,298,487535,2,0,L|405:232,1,65.6499969947816,10|0,0:0|0:0,0:0:0:0:
340,95,487681,53,6,0:0:0:0:
297,72,487754,1,0,0:0:0:0:
248,68,487827,1,10,0:0:0:0:
203,91,487900,1,0,0:0:0:0:
177,132,487974,1,2,0:0:0:0:
174,182,488047,1,0,0:0:0:0:
196,226,488120,2,0,L|264:218,1,65.6499969947816,10|0,0:0|0:0,0:0:0:0:
406,233,488266,6,0,L|340:240,1,65.6499969947816,2|0,0:0|0:0,0:0:0:0:
280,360,488413,1,10,0:0:0:0:
267,359,488486,1,0,0:0:0:0:
254,359,488559,2,0,L|279:298,1,65.6499969947816,2|0,0:0|0:0,0:0:0:0:
221,165,488705,2,0,L|260:217,1,65.6499969947816,10|0,0:0|0:0,0:0:0:0:
451,330,488852,37,6,0:0:0:0:
487,300,488925,1,0,0:0:0:0:
507,256,488998,1,10,0:0:0:0:
503,209,489071,1,0,0:0:0:0:
478,167,489144,1,2,0:0:0:0:
436,145,489217,1,0,0:0:0:0:
389,142,489291,2,0,L|323:149,1,65.6499969947816,10|0,0:0|0:0,0:0:0:0:
271,64,489437,53,2,0:0:0:0:
258,62,489510,1,0,0:0:0:0:
244,61,489583,2,0,L|178:53,1,65.6499969947816,10|0,0:0|0:0,0:0:0:0:
103,121,489730,1,2,0:0:0:0:
90,123,489803,1,0,0:0:0:0:
76,124,489876,2,0,L|11:131,1,65.6499969947816,10|0,0:0|0:0,0:0:0:0:
122,296,490022,5,6,0:0:0:0:
141,321,490096,1,0,0:0:0:0:
170,336,490169,1,10,0:0:0:0:
202,340,490242,1,0,0:0:0:0:
233,330,490315,1,2,0:0:0:0:
258,309,490388,1,0,0:0:0:0:
272,279,490462,1,10,0:0:0:0:
274,246,490535,1,0,0:0:0:0:
263,216,490608,1,2,0:0:0:0:
266,183,490681,1,0,0:0:0:0:
284,156,490754,1,10,0:0:0:0:
310,136,490827,1,0,0:0:0:0:
342,130,490900,1,2,0:0:0:0:
374,136,490974,1,0,0:0:0:0:
401,154,491047,1,10,0:0:0:0:
419,182,491120,1,0,0:0:0:0:
425,213,491193,37,6,0:0:0:0:
391,249,491266,1,0,0:0:0:0:
345,263,491339,1,10,0:0:0:0:
298,251,491413,1,0,0:0:0:0:
263,216,491486,1,2,0:0:0:0:
227,182,491559,1,0,0:0:0:0:
180,170,491632,1,10,0:0:0:0:
134,183,491705,1,0,0:0:0:0:
101,219,491778,54,0,L|108:289,1,65.6499969947816,2|0,0:0|0:0,0:0:0:0:
206,368,491925,1,10,0:0:0:0:
204,354,491998,1,0,0:0:0:0:
202,340,492071,2,0,L|195:274,1,65.6499969947816,2|0,0:0|0:0,0:0:0:0:
6,194,492217,2,0,L|12:259,1,65.6499969947816,10|0,0:0|0:0,0:0:0:0:
263,216,492364,5,6,0:0:0:0:
299,186,492437,1,0,0:0:0:0:
319,142,492510,1,10,0:0:0:0:
314,95,492583,1,0,0:0:0:0:
290,53,492656,1,2,0:0:0:0:
248,31,492729,1,0,0:0:0:0:
201,28,492803,2,0,L|206:113,1,65.6499969947816,10|0,0:0|0:0,0:0:0:0:
263,216,492949,37,2,0:0:0:0:
296,255,493022,1,0,0:0:0:0:
344,277,493095,1,10,0:0:0:0:
396,273,493168,1,0,0:0:0:0:
442,245,493242,1,2,0:0:0:0:
466,199,493314,1,0,0:0:0:0:
469,147,493388,2,0,L|375:152,1,65.6499969947816,10|0,0:0|0:0,0:0:0:0:
263,216,493535,53,6,0:0:0:0:
220,239,493608,1,0,0:0:0:0:
170,234,493681,1,10,0:0:0:0:
134,202,493754,1,0,0:0:0:0:
123,156,493827,1,2,0:0:0:0:
141,110,493900,1,0,0:0:0:0:
183,85,493974,1,10,0:0:0:0:
232,90,494047,1,0,0:0:0:0:
270,121,494120,1,2,0:0:0:0:
308,152,494193,1,0,0:0:0:0:
357,157,494266,1,10,0:0:0:0:
399,132,494339,1,0,0:0:0:0:
417,86,494413,1,2,0:0:0:0:
406,40,494486,1,0,0:0:0:0:
370,8,494559,1,10,0:0:0:0:
320,3,494632,1,0,0:0:0:0:
277,26,494705,5,6,0:0:0:0:
244,83,494778,1,0,0:0:0:0:
231,146,494852,1,10,0:0:0:0:
236,212,494925,1,0,0:0:0:0:
261,272,494998,1,2,0:0:0:0:
303,323,495071,1,0,0:0:0:0:
357,359,495144,1,10,0:0:0:0:
420,377,495217,1,0,0:0:0:0:
487,374,495291,69,8,0:0:0:0:
462,299,495364,1,8,0:0:0:0:
405,247,495437,1,8,0:0:0:0:
330,239,495510,1,8,0:0:0:0:
261,272,495583,1,8,0:0:0:0:
192,305,495656,1,8,0:0:0:0:
117,297,495730,1,8,0:0:0:0:
60,245,495802,1,8,0:0:0:0:
35,169,495876,38,0,B|121:180|121:180|129:177|129:177|144:183|144:183|230:195,1,181.799994451904,4|0,0:0|0:0,0:0:0:0:
343,38,496169,1,8,0:0:0:0:
345,50,496242,1,0,0:0:0:0:
346,62,496315,1,0,0:0:0:0:
261,272,496461,1,2,0:0:0:0:
484,86,496608,1,0,0:0:0:0:
213,192,496754,1,8,0:0:0:0:
214,180,496827,1,0,0:0:0:0:
216,168,496900,1,2,0:0:0:0:
505,247,497047,38,0,B|436:208|388:256|385:258|383:261|326:317|261:271,1,262.599987979127,4|8,0:0|0:0,0:0:0:0:
122,93,497486,1,0,0:0:0:0:
175,272,497632,1,2,0:0:0:0:
173,284,497705,1,0,0:0:0:0:
172,296,497778,1,0,0:0:0:0:
18,195,497925,1,8,0:0:0:0:
313,199,498071,1,0,0:0:0:0:
81,351,498217,54,0,B|99:220|99:220|103:218|103:218|122:93,1,262.599987979127,4|8,0:0|0:0,0:0:0:0:
135,13,498583,1,0,0:0:0:0:
137,0,498656,1,0,0:0:0:0:
242,236,498803,1,2,0:0:0:0:
32,109,498949,1,0,0:0:0:0:
265,15,499095,1,8,0:0:0:0:
263,27,499168,1,0,0:0:0:0:
262,39,499242,1,2,0:0:0:0:
17,196,499388,5,4,0:0:0:0:
252,138,499535,1,0,0:0:0:0:
81,351,499681,1,8,0:0:0:0:
79,339,499754,1,0,0:0:0:0:
78,327,499827,1,0,0:0:0:0:
332,187,499974,1,2,0:0:0:0:
326,219,500047,1,0,0:0:0:0:
321,251,500120,1,0,0:0:0:0:
154,214,500266,1,8,0:0:0:0:
425,101,500413,1,0,0:0:0:0:
302,332,500559,38,0,L|167:310,1,131.299993989563,4|0,0:0|0:0,0:0:0:0:
115,54,500852,1,8,0:0:0:0:
118,85,500925,1,0,0:0:0:0:
122,116,500998,2,0,L|251:137,1,131.299993989563,2|0,0:0|0:0,0:0:0:0:
499,183,501291,2,0,L|369:204,1,131.299993989563,2|8,0:0|0:0,0:0:0:0:
290,221,501510,1,0,0:0:0:0:
277,224,501583,1,0,0:0:0:0:
429,384,501730,54,0,P|375:333|289:337,1,151.500005779267,4|0,0:0|0:0,0:0:0:0:
98,200,502022,2,0,B|184:211|184:211|192:208|192:208|207:214|207:214|293:226,1,181.799994451904,8|0,0:0|0:0,0:0:0:0:
427,87,502315,5,2,0:0:0:0:
421,119,502388,1,0,0:0:0:0:
416,151,502461,1,0,0:0:0:0:
212,53,502608,1,8,0:0:0:0:
492,0,502754,1,0,0:0:0:0:
451,298,502900,37,4,0:0:0:0:
388,319,502974,1,0,0:0:0:0:
327,301,503047,1,0,0:0:0:0:
290,250,503120,1,0,0:0:0:0:
287,185,503193,1,8,0:0:0:0:
247,136,503266,1,0,0:0:0:0:
183,121,503339,1,0,0:0:0:0:
122,142,503413,1,0,0:0:0:0:
91,199,503486,1,4,0:0:0:0:
93,264,503559,1,0,0:0:0:0:
136,313,503632,1,0,0:0:0:0:
199,329,503705,1,0,0:0:0:0:
259,306,503778,1,8,0:0:0:0:
290,250,503852,1,0,0:0:0:0:
350,226,503925,1,0,0:0:0:0:
412,245,503998,1,0,0:0:0:0:
451,298,504071,21,10,0:0:0:0:
379,329,504144,1,8,0:0:0:0:
300,324,504217,1,8,0:0:0:0:
233,283,504291,1,8,0:0:0:0:
193,215,504364,1,10,0:0:0:0:
189,137,504437,1,8,0:0:0:0:
222,65,504510,1,8,0:0:0:0:
284,17,504584,1,8,0:0:0:0:
362,5,504656,1,6,0:0:0:0:
362,5,505242,38,0,B|369:89|369:89|372:92|372:92|381:190,1,181.799994451904,4|0,0:0|0:0,0:0:0:0:
262,369,505535,1,8,0:0:0:0:
380,184,505681,1,0,0:0:0:0:
186,277,505827,1,2,0:0:0:0:
186,283,505900,1,0,0:0:0:0:
186,289,505974,1,2,0:0:0:0:
333,111,506120,1,8,0:0:0:0:
108,196,506266,1,2,0:0:0:0:
365,313,506413,38,0,B|374:248|374:248|371:243|371:243|382:166,1,131.299993989563,4|0,0:0|0:0,0:0:0:0:
402,13,506705,1,8,0:0:0:0:
284,228,506852,1,0,0:0:0:0:
473,81,506998,1,2,0:0:0:0:
472,74,507071,1,0,0:0:0:0:
471,67,507144,1,2,0:0:0:0:
262,147,507291,1,8,0:0:0:0:
512,233,507437,1,2,0:0:0:0:
213,64,507583,54,0,P|173:111|173:182,1,131.299993989563,4|0,0:0|0:0,0:0:0:0:
426,208,507876,1,8,0:0:0:0:
194,270,508022,1,0,0:0:0:0:
384,354,508169,1,2,0:0:0:0:
384,347,508243,1,0,0:0:0:0:
384,340,508315,1,2,0:0:0:0:
262,147,508461,1,8,0:0:0:0:
474,293,508608,1,2,0:0:0:0:
344,50,508754,6,0,B|213:65,1,131.299993989563,4|0,0:0|0:0,0:0:0:0:
71,228,509047,1,8,0:0:0:0:
151,3,509193,1,2,0:0:0:0:
262,147,509339,1,0,0:0:0:0:
255,148,509413,1,0,0:0:0:0:
248,148,509486,1,2,0:0:0:0:
341,281,509632,1,8,0:0:0:0:
374,283,509705,1,0,0:0:0:0:
407,285,509778,1,0,0:0:0:0:
440,287,509852,1,0,0:0:0:0:
479,271,509925,38,0,P|508:192|460:105,1,181.799994451904,4|0,0:0|0:0,0:0:0:0:
269,229,510217,1,8,0:0:0:0:
466,109,510364,1,2,0:0:0:0:
196,151,510510,1,0,0:0:0:0:
189,152,510583,1,0,0:0:0:0:
182,154,510656,1,2,0:0:0:0:
341,281,510803,1,8,0:0:0:0:
253,46,510949,1,0,0:0:0:0:
188,311,511095,53,4,0:0:0:0:
374,129,511242,1,0,0:0:0:0:
276,362,511388,1,8,0:0:0:0:
269,361,511461,1,0,0:0:0:0:
262,359,511535,1,2,0:0:0:0:
101,241,511681,1,0,0:0:0:0:
108,240,511754,1,0,0:0:0:0:
115,238,511827,1,2,0:0:0:0:
341,281,511974,1,8,0:0:0:0:
50,331,512120,1,0,0:0:0:0:
331,195,512266,6,0,B|265:187|265:187|262:189|262:189|184:178,1,131.299993989563,4|0,0:0|0:0,0:0:0:0:
17,161,512559,1,10,0:0:0:0:
257,274,512705,1,0,0:0:0:0:
123,74,512852,38,8,L|117:148,1,75.7500028896333,10|0,0:0|0:0,0:0:0:0:
108,311,512998,2,8,L|112:235,1,75.7500028896333,0|0,0:0|0:0,0:0:0:0:
209,37,513144,54,8,L|213:111,1,75.7500028896333,10|0,0:0|0:0,0:0:0:0:
21,269,513291,2,8,L|15:193,1,75.7500028896333,0|0,0:0|0:0,0:0:0:0:
294,64,513437,5,12,0:0:0:0:
347,25,513510,1,8,0:0:0:0:
412,25,513583,1,8,0:0:0:0:
466,64,513656,1,8,0:0:0:0:
486,126,513730,1,10,0:0:0:0:
466,189,513803,1,8,0:0:0:0:
412,227,513876,1,8,0:0:0:0:
347,227,513949,1,8,0:0:0:0:
294,189,514022,69,12,0:0:0:0:
231,144,514095,1,8,0:0:0:0:
154,144,514169,1,8,0:0:0:0:
91,189,514242,1,8,0:0:0:0:
67,263,514315,1,10,0:0:0:0:
91,337,514388,1,8,0:0:0:0:
154,382,514461,1,8,0:0:0:0:
231,382,514535,1,8,0:0:0:0:
294,337,514608,38,0,L|311:140,1,181.799994451904,4|0,0:0|0:0,0:0:0:0:
256,0,514900,1,8,0:0:0:0:
138,185,515046,1,0,0:0:0:0:
339,78,515193,1,2,0:0:0:0:
339,72,515266,1,0,0:0:0:0:
339,66,515339,1,0,0:0:0:0:
185,258,515486,1,8,0:0:0:0:
399,142,515632,1,0,0:0:0:0:
152,55,515778,38,0,B|143:120|143:120|146:125|146:125|135:202,1,131.299993989563,4|0,0:0|0:0,0:0:0:0:
116,356,516071,1,8,0:0:0:0:
233,140,516217,1,0,0:0:0:0:
45,288,516364,1,2,0:0:0:0:
46,295,516436,1,0,0:0:0:0:
47,302,516510,1,0,0:0:0:0:
255,221,516656,1,8,0:0:0:0:
6,136,516803,1,0,0:0:0:0:
277,302,516949,54,0,L|426:290,1,131.299993989563,4|0,0:0|0:0,0:0:0:0:
473,80,517242,1,8,0:0:0:0:
407,291,517388,1,0,0:0:0:0:
233,140,517535,1,2,0:0:0:0:
233,133,517608,1,0,0:0:0:0:
233,126,517681,1,0,0:0:0:0:
401,15,517827,1,8,0:0:0:0:
401,8,517900,1,0,0:0:0:0:
401,1,517974,1,0,0:0:0:0:
255,221,518120,5,4,0:0:0:0:
206,222,518193,1,0,0:0:0:0:
164,198,518266,1,0,0:0:0:0:
142,155,518339,1,0,0:0:0:0:
146,107,518413,38,0,P|183:92|215:100,3,65.6499969947816,8|0|0|0,0:0|0:0|0:0|0:0,0:0:0:0:
251,24,518705,2,0,P|282:48|291:80,3,65.6499969947816,8|0|0|0,0:0|0:0|0:0|0:0,0:0:0:0:
375,73,518998,2,0,P|369:112|346:136,3,65.6499969947816,8|0|0|0,0:0|0:0|0:0|0:0,0:0:0:0:
273,154,519291,53,4,0:0:0:0:
322,160,519364,1,0,0:0:0:0:
359,192,519437,1,0,0:0:0:0:
372,239,519510,1,0,0:0:0:0:
359,287,519583,1,8,0:0:0:0:
322,319,519656,1,0,0:0:0:0:
273,326,519730,1,0,0:0:0:0:
228,305,519803,1,0,0:0:0:0:
202,264,519876,1,8,0:0:0:0:
191,216,519949,1,0,0:0:0:0:
158,179,520022,1,0,0:0:0:0:
112,162,520095,1,0,0:0:0:0:
63,167,520169,1,8,0:0:0:0:
23,195,520242,1,0,0:0:0:0:
0,239,520315,1,0,0:0:0:0:
0,288,520388,1,0,0:0:0:0:
20,332,520461,5,4,0:0:0:0:
60,364,520535,1,0,0:0:0:0:
111,373,520608,1,0,0:0:0:0:
159,355,520681,1,0,0:0:0:0:
192,315,520754,1,8,0:0:0:0:
202,264,520827,1,0,0:0:0:0:
210,210,520900,1,0,0:0:0:0:
243,171,520974,1,0,0:0:0:0:
291,153,521047,1,8,0:0:0:0:
342,162,521120,1,0,0:0:0:0:
383,195,521193,1,0,0:0:0:0:
402,243,521266,1,0,0:0:0:0:
395,294,521339,70,0,B|336:291|336:291|333:288|333:288|279:285|279:285|260:305|260:305|207:301|207:301|203:310|199:300|199:300|73:290,1,318.149990290833,8|0,0:0|0:0,0:0:0:0:
74,278,521632,38,0,L|58:14,1,265.125010113717,4|0,0:0|0:0,0:0:0:0:
58,14,522217,38,0,B|-19:93|76:139|81:141|85:144|181:191|74:276,1,318.149990290833,4|0,0:0|0:0,0:0:0:0:
74,276,522803,54,0,B|2:243|2:243|75:143|75:143|83:145|79:137|79:137|147:44|147:44|58:13,1,424.199987054444,4|0,0:0|0:0,0:0:0:0:
6,84,523388,6,0,B|102:113|102:113|106:122|114:117|114:117|202:143|202:143|303:131|303:131|308:134|308:134|431:114|431:114|395:96|395:96|397:87|388:93|388:93|346:73,1,530.250020227433,4|0,0:0|0:0,0:0:0:0:
353,76,523974,37,4,0:0:0:0:
304,118,524047,1,0,0:0:0:0:
291,184,524120,1,0,0:0:0:0:
317,242,524193,1,0,0:0:0:0:
375,274,524266,1,10,0:0:0:0:
441,267,524339,1,0,0:0:0:0:
489,221,524413,1,0,0:0:0:0:
501,156,524486,1,0,0:0:0:0:
474,97,524559,1,10,0:0:0:0:
416,64,524632,1,0,0:0:0:0:
353,76,524705,1,0,0:0:0:0:
304,118,524778,1,0,0:0:0:0:
291,184,524852,1,10,0:0:0:0:
242,227,524925,1,0,0:0:0:0:
177,238,524998,1,0,0:0:0:0:
118,205,525071,1,0,0:0:0:0:
91,146,525144,53,4,0:0:0:0:
99,73,525217,1,0,0:0:0:0:
147,17,525291,1,0,0:0:0:0:
219,3,525364,1,0,0:0:0:0:
287,30,525437,1,10,0:0:0:0:
323,95,525510,1,0,0:0:0:0:
316,168,525583,1,0,0:0:0:0:
351,234,525656,1,0,0:0:0:0:
424,268,525730,85,14,0:0:0:0:
456,187,525803,1,0,0:0:0:0:
438,100,525876,1,0,0:0:0:0:
373,42,525949,1,0,0:0:0:0:
287,30,526022,1,14,0:0:0:0:
209,71,526096,1,0,0:0:0:0:
170,150,526169,1,0,0:0:0:0:
177,238,526242,1,0,0:0:0:0:
239,300,526315,1,4,0:0:0:0:
239,300,526900,37,4,0:0:0:0:
512,132,527095,37,4,0:0:0:0:
159,6,527291,53,4,0:0:0:0:
265,384,527486,85,6,0:0:0:0:
