osu file format v14

[General]
AudioFilename: audio.mp3
AudioLeadIn: 0
PreviewTime: 385507
Countdown: 0
SampleSet: Soft
StackLeniency: 0.7
Mode: 0
LetterboxInBreaks: 1
WidescreenStoryboard: 1

[Editor]
Bookmarks: 2093,50093,61215,78483,87556,103946,115654,143751,148434,153117,157800,162483,180629,181215,184727,190581,199946,218678,237410,256142,274873,283068,284239,288922,293605,309995,312337,331068,347459,368532,388142,411556,430288,449020,467751,484142,486483,495849,502873,505215,533605
DistanceSpacing: 1.2
BeatDivisor: 4
GridSize: 4
TimelineZoom: 2.2

[Metadata]
Title:Uta
TitleUnicode:謳
Artist:Imperial Circus Dead Decadence
ArtistUnicode:Imperial Circus Dead Decadence
Creator:Peruro
Version:Poetry
Source:
Tags:
BeatmapID:1963447
BeatmapSetID:599645

[Difficulty]
HPDrainRate:6
CircleSize:4.4
OverallDifficulty:7.7
ApproachRate:8.7
SliderMultiplier:1.9
SliderTickRate:1

[Events]
//Background and Video events
0,0,"hostile_serenity_by_nanomortis-d650emf.jpg",0,0
//Break Periods
2,30460,32803
2,331268,347459
2,409452,410948
2,434037,448120
//Storyboard Layer 0 (Background)
//Storyboard Layer 1 (Fail)
//Storyboard Layer 2 (Pass)
//Storyboard Layer 3 (Foreground)
//Storyboard Layer 4 (Overlay)
//Storyboard Sound Samples

[TimingPoints]
1665,428.571428571429,4,2,0,10,1,0
1665,-200,4,2,2,10,0,0
22879,-200,4,2,2,5,0,0
23093,-200,4,2,2,10,0,0
24807,500,4,2,0,10,1,0
24807,-200,4,2,2,10,0,0
27807,545.454545454546,4,2,0,10,1,0
27807,-200,4,2,2,10,0,0
29988,-200,4,2,2,5,0,0
33703,292.682926829268,4,2,3,70,1,0
35751,-200,4,2,3,70,0,0
35898,-200,4,2,3,10,0,0
36044,-200,4,2,3,70,0,0
38385,-200,4,2,3,100,0,0
40727,-200,4,3,1,50,0,0
43068,-200,4,2,3,50,0,0
50385,-200,4,3,1,50,0,0
52434,-133.333333333333,4,3,1,50,0,0
56532,-200,4,3,1,50,0,0
57117,-133.333333333333,4,3,1,50,0,0
68824,-133.333333333333,4,2,0,40,0,0
71166,-200,4,2,3,50,0,0
74678,-200,4,3,1,50,0,0
75849,-133.333333333333,4,3,1,40,0,0
76434,-133.333333333333,4,3,1,30,0,0
76727,-133.333333333333,4,3,1,40,0,0
77605,-133.333333333333,4,3,1,30,0,0
78483,-200,4,2,0,60,0,0
87556,-133.333333333333,4,3,1,65,0,0
106142,-133.333333333333,4,2,0,50,0,0
108629,-133.333333333333,4,2,2,50,0,0
108702,-133.333333333333,4,2,0,50,0,0
113312,-133.333333333333,4,2,2,60,0,0
113385,-133.333333333333,4,2,0,60,0,0
114044,-133.333333333333,4,2,0,50,0,0
118142,-133.333333333333,4,2,0,50,0,0
123849,-133.333333333333,4,2,0,40,0,0
123995,-133.333333333333,4,2,0,50,0,0
128020,-133.333333333333,4,2,0,65,0,0
143751,-133.333333333333,4,2,0,70,0,0
162483,-133.333333333333,4,3,1,40,0,1
171849,-133.333333333333,4,3,1,30,0,1
181215,-133.333333333333,4,2,0,50,0,1
199946,-133.333333333333,4,3,0,70,0,0
207263,-133.333333333333,4,3,0,50,0,0
209312,-133.333333333333,4,3,0,70,0,0
209898,-133.333333333333,4,3,0,50,0,0
218678,-133.333333333333,4,2,0,50,0,0
237410,-100,4,3,1,55,0,0
256142,-133.333333333333,4,2,0,40,0,0
275166,-200,4,2,2,100,0,0
284239,-133.333333333333,4,2,3,50,0,0
285410,-133.333333333333,4,3,1,50,0,0
286581,-133.333333333333,4,2,3,50,0,0
287751,-133.333333333333,4,3,1,50,0,0
307654,-166.666666666667,4,3,1,40,0,0
309995,-117.647058823529,4,3,1,40,0,0
312337,-100,4,2,0,70,0,1
331068,-100,4,2,3,70,0,0
350093,-133.333333333333,4,2,2,50,0,0
350276,300,4,2,0,10,1,0
351476,-133.333333333333,4,2,0,10,0,0
357410,-200,4,2,2,50,0,0
359093,-133.333333333333,4,2,2,50,0,0
368276,292.682926829268,4,2,0,70,1,0
368532,-200,4,2,0,25,0,0
372410,-200,4,2,0,5,0,0
372483,-200,4,2,0,25,0,0
378776,-133.333333333333,4,2,1,40,0,0
408337,-200,4,2,0,25,0,0
411556,-100,4,2,0,70,0,1
427946,-133.333333333333,4,2,0,70,0,1
428678,-100,4,2,0,70,0,1
430288,-100,4,2,0,70,0,0
433800,-100,4,2,0,10,0,0
449020,-133.333333333333,4,2,2,55,0,0
463068,-133.333333333333,4,2,0,55,0,0
467751,-133.333333333333,4,2,3,55,0,0
470093,-100,4,3,1,40,0,0
505215,-100,4,2,0,40,0,0
519263,-133.333333333333,4,2,0,30,0,0
521605,-133.333333333333,4,2,3,30,0,0
523946,-133.333333333333,4,3,1,30,0,0
526288,-133.333333333333,4,3,1,30,0,0
527459,-133.333333333333,4,2,1,20,0,0
527898,-133.333333333333,4,2,3,5,0,0
533605,-133.333333333333,4,2,2,30,0,0

[Colours]
Combo1 : 232,211,208
Combo2 : 196,141,123
Combo3 : 124,15,3

[HitObjects]
244,260,1665,5,0,0:0:0:0:
244,260,2093,1,0,0:0:0:0:
244,260,2522,6,0,L|228:152,1,95
96,268,3379,1,0,0:0:0:0:
96,268,3807,2,0,L|88:212,1,47.5
172,176,4236,6,0,P|112:144|72:144,1,95
168,72,5093,5,0,0:0:0:0:
336,116,5522,1,0,0:0:0:0:
336,116,5950,6,0,L|340:224,1,95
244,288,6807,2,0,L|260:192,1,95
204,64,7664,1,0,0:0:0:0:
380,104,8093,1,0,0:0:0:0:
380,104,8522,6,0,P|357:164|324:184,1,95
280,100,9379,2,0,P|304:56|348:32,1,95
140,112,10236,6,0,L|136:208,1,95
92,304,10879,1,0,0:0:0:0:
92,304,11093,2,0,P|136:288|192:288,1,95
344,208,11950,1,0,0:0:0:0:
344,208,12379,6,0,L|352:264,1,47.5
248,228,12807,2,0,P|236:176|248:128,1,95
392,100,13665,6,0,L|380:68,2,23.75
380,204,14093,1,0,0:0:0:0:
380,204,14522,2,0,P|336:220|288:212,1,95
232,60,15379,5,0,0:0:0:0:
232,320,15807,1,0,0:0:0:0:
232,320,16236,2,0,L|216:220,1,95
104,132,17093,5,0,0:0:0:0:
212,208,17522,1,0,0:0:0:0:
104,132,17950,2,0,P|168:136|208:120,1,95
252,100,18807,5,0,0:0:0:0:
408,312,19236,2,0,L|400:256,1,47.5
292,208,19665,2,0,P|256:204|192:216,1,95
240,116,20522,6,0,L|232:56,1,47.5
120,104,20950,2,0,L|136:208,1,95
136,192,21807,1,0,0:0:0:0:
200,248,22129,5,0,0:0:0:0:
200,248,22236,2,0,P|184:304|180:312,1,47.5
131,220,22665,2,0,P|119:188|114:171,2,47.5
264,115,23307,1,0,0:0:0:0:
264,115,23522,6,0,L|299:170,1,47.5
392,200,23950,2,0,P|396:268|388:304,1,95
240,332,24807,1,0,0:0:0:0:
124,68,25307,2,0,L|120:176,1,95
120,162,26307,6,0,L|132:218,1,47.5
212,120,26807,2,0,P|256:84|312:72,1,95
396,256,27807,6,0,P|332:276|288:272,1,95
160,136,28897,2,0,L|160:232,1,95
400,160,29988,2,0,L|384:132,2,23.75
184,264,33703,5,0,0:0:0:0:
200,192,35751,6,0,P|212:232|228:252,2,47.5
184,160,38093,5,0,0:0:0:0:
184,160,38385,6,0,B|224:104|216:28|216:28|280:72|372:64|372:64|124:260|148:320|296:364|324:304|308:232|280:244|280:244|280:244|280:244,1,736.25
248,236,40727,6,0,L|264:208,7,23.75
240,184,41312,2,0,L|232:144,7,23.75
272,168,41898,6,0,L|284:128,3,23.75
304,176,42190,2,0,L|308:220,3,23.75
344,196,42483,2,0,L|348:236,3,23.75
364,184,42776,2,0,L|364:148,3,23.75
372,196,43068,5,4,0:0:0:0:
164,264,45117,5,0,0:0:0:0:
132,164,45410,1,0,0:0:0:0:
320,160,47459,5,0,0:0:0:0:
304,264,47751,1,0,0:0:0:0:
308,140,50093,5,0,0:0:0:0:
308,140,50385,5,0,0:0:0:0:
308,140,50459,1,0,0:0:0:0:
308,140,50532,2,0,L|316:196,1,47.5
144,304,50971,2,0,L|160:252,1,47.5
256,268,51263,2,0,L|268:208,1,47.5
348,140,51556,6,0,L|340:72,2,47.5
276,224,51995,1,0,0:0:0:0:
276,224,52142,2,0,P|280:264|276:288,1,47.5
135,141,52434,6,0,P|105:191|117:276,1,142.500005435944
225,322,52873,1,0,0:0:0:0:
140,288,53020,2,0,P|92:292|58:280,1,71.2500027179719
133,191,53312,2,0,P|179:188|206:202,1,71.2500027179719
313,220,53605,2,0,P|322:166|309:136,1,71.2500027179719
222,87,53898,2,0,P|169:69|86:105,1,142.500005435944
104,196,54337,5,0,0:0:0:0:
124,280,54483,1,0,0:0:0:0:
217,280,54629,1,0,0:0:0:0:
217,280,54776,6,0,P|223:223|194:139,1,142.500005435944
288,116,55215,1,0,0:0:0:0:
288,116,55288,1,0,0:0:0:0:
288,116,55361,2,0,P|328:89|359:59,1,71.2500027179719
396,175,55654,2,0,P|343:187|309:208,1,71.2500027179719
288,116,55946,5,0,0:0:0:0:
204,260,56239,1,0,0:0:0:0:
204,260,56385,1,0,0:0:0:0:
124,208,56532,6,0,P|145:159|105:50,1,142.500005435944
196,232,57117,1,0,0:0:0:0:
196,232,57263,1,0,0:0:0:0:
120,260,57410,2,0,P|120:296|147:348,1,71.2500027179719
221,257,57702,2,0,P|210:214|189:187,1,71.2500027179719
190,78,57995,2,0,P|246:72|288:79,1,71.2500027179719
276,172,58288,6,0,P|269:219|271:269,1,71.2500027179719,2|0,0:0|0:0,0:0:0:0:
376,220,58581,2,0,P|363:274|338:310,1,71.2500027179719
243,267,58873,2,0,P|191:286|102:263,1,142.500005435944
232,128,59459,5,0,0:0:0:0:
249,145,59532,1,0,0:0:0:0:
271,156,59605,1,0,0:0:0:0:
294,163,59678,1,0,0:0:0:0:
318,163,59751,6,0,L|343:204,11,35.625001358986
349,215,60629,6,0,P|306:238|287:266,1,71.2500027179719
212,285,60922,2,0,P|136:287|125:278,1,71.2500027179719
83,230,61215,1,0,0:0:0:0:
69,208,61288,1,0,0:0:0:0:
60,184,61361,1,0,0:0:0:0:
56,159,61434,1,0,0:0:0:0:
56,134,61507,2,0,L|43:79,4,35.625001358986
176,108,61946,5,0,0:0:0:0:
176,108,62093,6,0,P|123:105|94:91,1,71.2500027179719
84,176,62385,2,0,P|92:231|87:268,1,71.2500027179719
180,248,62678,2,0,P|202:285|230:303,1,71.2500027179719
104,296,62971,5,0,0:0:0:0:
256,244,63263,1,0,0:0:0:0:
256,244,63556,6,0,P|244:294|226:320,1,71.2500027179719
347,319,63849,2,0,P|402:294|420:293,1,71.2500027179719
372,192,64142,2,0,P|378:134|419:59,1,142.500005435944
288,76,64581,6,0,P|280:92|228:132,1,71.2500027179719
157,203,64873,2,0,P|209:219|230:248,1,71.2500027179719
188,316,65166,1,0,0:0:0:0:
280,340,65312,1,0,0:0:0:0:
280,340,65385,1,0,0:0:0:0:
280,340,65459,2,0,L|271:295,10,35.625001358986
256,192,66483,12,0,68824,0:0:0:0:
180,120,71166,5,0,0:0:0:0:
168,128,73507,5,0,0:0:0:0:
164,304,74678,6,0,L|176:104,1,190
211,270,75556,1,0,0:0:0:0:
211,270,75849,6,0,B|228:216|228:216|216:108,2,142.500005435944
72,156,76727,1,0,0:0:0:0:
72,156,77020,2,0,B|84:240|84:240|52:324,2,142.500005435944
72,156,77897,1,0,0:0:0:0:
220,92,78190,1,0,0:0:0:0:
220,92,78483,5,0,0:0:0:0:
220,92,78629,2,0,P|216:52|208:32,1,47.5
144,84,78922,2,0,P|144:120|152:144,1,47.5
204,184,79215,2,0,P|200:228|160:268,1,95
208,336,79654,1,0,0:0:0:0:
208,336,79800,6,0,P|140:348|80:312,1,142.5
48,72,80532,1,2,0:0:0:0:
48,72,80971,6,0,P|72:136|72:224,1,142.5
152,224,81556,1,0,0:0:0:0:
196,156,81702,2,0,P|208:128|204:92,1,47.5
260,48,81995,2,0,P|280:72|300:84,1,47.5
344,144,82288,2,0,P|368:200|312:308,1,190,0|4,0:0|0:0,0:0:0:0:
168,308,84044,6,0,L|168:196,2,95
304,272,84922,1,0,0:0:0:0:
304,272,85215,5,0,0:0:0:0:
276,132,85507,1,0,0:0:0:0:
276,132,85654,1,0,0:0:0:0:
188,244,85946,1,0,0:0:0:0:
188,244,86093,1,0,0:0:0:0:
152,116,86385,5,0,0:0:0:0:
152,116,86532,1,0,0:0:0:0:
56,232,86824,1,0,0:0:0:0:
56,232,86971,1,0,0:0:0:0:
240,316,87190,2,0,P|276:312|320:288,1,71.25
388,204,87556,6,0,L|392:56,1,142.500005435944
292,104,87995,1,0,0:0:0:0:
196,140,88142,2,0,P|144:152|112:144,1,71.2500027179719
160,48,88434,2,0,P|204:48|232:56,1,71.2500027179719
272,152,88727,2,0,P|280:224|268:296,2,142.500005435944
148,172,89458,1,0,0:0:0:0:
148,172,89605,1,0,0:0:0:0:
72,80,89751,1,0,0:0:0:0:
72,80,89898,6,0,P|128:72|212:100,1,142.500005435944
168,208,90337,1,0,0:0:0:0:
168,208,90410,1,0,0:0:0:0:
168,208,90483,2,0,P|127:218|108:244,1,71.2500027179719
112,344,90776,2,0,P|156:324|168:276,1,71.2500027179719
244,252,91068,6,0,B|292:168|336:148|348:128,2,142.500005435944
160,84,91946,1,0,0:0:0:0:
160,84,92239,6,0,L|148:160,1,71.2500027179719
144,184,92459,1,0,0:0:0:0:
144,184,92532,1,0,0:0:0:0:
68,256,92678,1,0,0:0:0:0:
68,256,92824,1,0,0:0:0:0:
68,256,92971,1,0,0:0:0:0:
68,256,93117,2,0,P|112:280|136:304,1,71.2500027179719
216,312,93410,6,0,P|272:324|360:288,2,142.500005435944
196,216,94142,2,0,L|192:136,1,71.2500027179719
256,76,94434,2,0,P|284:56|392:72,1,142.500005435944
420,156,94873,1,0,0:0:0:0:
420,156,94946,1,0,0:0:0:0:
420,156,95020,2,0,P|376:144|332:152,1,71.2500027179719
272,96,95312,1,0,0:0:0:0:
272,96,95459,2,0,P|216:92|188:72,1,71.2500027179719
128,152,95751,6,0,P|120:208|160:296,3,142.500005435944
336,308,96922,1,0,0:0:0:0:
336,308,97068,6,0,L|168:284,1,142.500005435944
288,232,97507,1,0,0:0:0:0:
356,192,97654,1,0,0:0:0:0:
304,116,97800,2,0,P|280:72|276:32,1,71.2500027179719
200,108,98093,2,0,P|224:152|224:252,1,142.500005435944
92,324,98532,1,0,0:0:0:0:
92,324,98678,2,0,P|144:292|244:304,2,142.500005435944
392,76,99556,1,0,0:0:0:0:
392,76,99702,6,0,P|368:136|348:156,1,71.2500027179719
280,104,99995,1,0,0:0:0:0:
280,104,100142,2,0,P|236:72|204:68,1,71.2500027179719
136,100,100434,2,0,P|144:152|120:248,1,142.500005435944
328,304,101020,1,0,0:0:0:0:
328,304,101166,2,0,L|324:220,2,71.2500027179719
246,343,101532,1,0,0:0:0:0:
232,336,101605,6,0,L|256:192,2,142.500005435944,2|0|0,0:0|0:0|0:0,0:0:0:0:
292,244,102337,1,0,0:0:0:0:
292,244,102483,1,0,0:0:0:0:
292,244,102629,1,0,0:0:0:0:
292,244,102776,2,0,P|252:276|212:280,1,71.2500027179719
228,184,103068,2,0,P|268:156|296:152,1,71.2500027179719
376,144,103361,2,0,L|384:72,2,71.2500027179719
376,144,103946,6,0,P|324:137|217:84,1,142.500005435944
57,130,104532,2,0,P|45:195|119:233,1,142.500005435944
284,259,105117,6,0,P|313:297|350:313,1,71.2500027179719
403,247,105410,2,0,P|388:197|366:182,1,71.2500027179719
296,136,105702,2,0,P|249:123|157:169,1,142.500005435944,0|4,0:0|0:0,0:0:0:0:
112,248,106288,6,0,P|192:280|244:256,1,142.500005435944,2|0,0:0|0:0,0:0:0:0:
260,168,106727,1,0,0:0:0:0:
212,96,106873,2,0,P|170:100|136:132,1,71.2500027179719
200,196,107166,2,0,P|240:192|268:144,1,71.2500027179719
308,96,107459,6,0,P|356:72|448:100,1,142.500005435944,2|0,0:0|0:0,0:0:0:0:
452,184,107898,1,0,0:0:0:0:
400,260,108044,2,0,P|352:284|260:264,1,142.500005435944
148,96,108629,2,0,L|144:256,2,142.500005435944
252,128,109507,5,0,0:0:0:0:
252,128,109654,2,0,P|252:168|260:208,1,71.2500027179719
184,256,109946,2,0,P|172:296|140:320,2,71.2500027179719
108,228,110385,5,0,0:0:0:0:
108,228,110532,1,0,0:0:0:0:
168,152,110678,1,0,0:0:0:0:
168,152,110824,1,0,0:0:0:0:
232,84,110971,6,0,P|272:56|384:64,1,142.500005435944
412,132,111410,1,0,0:0:0:0:
332,180,111556,2,0,P|348:224|348:256,1,71.2500027179719
416,312,111849,2,0,P|376:320|344:344,1,71.2500027179719
264,288,112142,6,0,P|252:200|260:144,1,142.500005435944,2|0,0:0|0:0,0:0:0:0:
164,148,112581,1,0,0:0:0:0:
128,248,112727,2,0,P|136:291|120:340,1,71.2500027179719
52,264,113020,2,0,P|44:204|52:176,1,71.2500027179719
112,120,113312,6,0,B|188:144|188:144|272:108,2,142.500005435944
188,52,114044,1,0,0:0:0:0:
188,52,114190,2,0,P|218:156|250:213,1,142.500005435944
284,272,114629,1,0,0:0:0:0:
216,324,114776,2,0,P|160:336|140:328,1,71.2500027179719
80,300,115068,2,0,L|96:340,3,35.625001358986
100,296,115361,1,0,0:0:0:0:
156,200,115507,1,0,0:0:0:0:
156,200,115654,6,0,L|160:52,1,142.500005435944,2|0,0:0|0:0,0:0:0:0:
72,88,116093,1,0,0:0:0:0:
148,140,116239,2,0,P|195:135|222:150,1,71.2500027179719
248,232,116532,2,0,P|246:271|226:303,1,71.2500027179719
164,312,116824,2,0,P|260:296|312:312,2,142.500005435944
144,128,117702,5,0,0:0:0:0:
144,128,117995,6,0,P|164:184|168:280,2,142.500005435944
268,184,118727,1,0,0:0:0:0:
268,184,118873,2,0,P|284:144|280:96,1,71.2500027179719
364,76,119166,2,0,P|408:96|432:96,1,71.2500027179719
440,188,119459,2,0,P|400:188|368:200,1,71.2500027179719
284,168,119751,2,0,P|296:236|280:316,1,142.500005435944
100,268,120337,6,0,P|116:216|104:120,1,142.500005435944,2|0,0:0|0:0,0:0:0:0:
20,96,120776,1,0,0:0:0:0:
88,160,120922,2,0,P|124:196|152:204,1,71.2500027179719
224,260,121215,2,0,P|250:292|256:340,1,71.2500027179719
156,308,121507,2,0,P|136:252|172:156,1,142.500005435944
192,88,121946,5,0,0:0:0:0:
192,88,122020,1,0,0:0:0:0:
192,88,122093,2,0,P|244:104|280:88,1,71.2500027179719
352,128,122385,2,0,P|400:132|432:152,1,71.2500027179719
416,216,122678,2,0,P|336:252|264:232,1,142.500005435944
284,242,123263,6,0,P|276:300|252:328,1,71.2500027179719
196,244,123556,2,0,P|180:196|236:116,1,142.500005435944
352,140,123995,5,0,0:0:0:0:
352,140,124068,1,0,0:0:0:0:
352,140,124142,2,0,P|340:80|344:56,1,71.2500027179719
260,100,124434,2,0,P|268:148|260:188,1,71.2500027179719
240,252,124727,2,0,P|220:308|228:340,1,71.2500027179719
140,248,125020,6,0,P|168:208|160:92,1,142.500005435944,2|0,0:0|0:0,0:0:0:0:
296,184,125459,1,0,0:0:0:0:
296,184,125605,2,0,P|272:276|240:312,2,142.500005435944
204,176,126337,5,0,0:0:0:0:
204,176,126483,2,0,P|184:128|184:96,1,71.2500027179719
92,116,126776,2,0,P|96:168|80:216,1,71.2500027179719
160,248,127068,2,0,P|144:288|148:332,1,71.2500027179719
240,284,127361,6,0,P|284:276|380:308,1,142.500005435944
360,168,127946,2,0,P|304:164|216:188,1,142.500005435944
108,116,128532,1,0,0:0:0:0:
108,116,128824,1,0,0:0:0:0:
156,296,129117,2,0,L|156:336,3,35.625001358986
168,288,129410,6,0,P|200:268|308:288,1,142.500005435944
384,316,129849,1,0,0:0:0:0:
420,232,129995,2,0,P|432:184|412:140,1,71.2500027179719
320,212,130288,2,0,P|280:252|268:296,2,71.2500027179719
360,296,130727,1,0,0:0:0:0:
360,296,130873,6,0,P|320:324|220:320,1,142.500005435944,2|0,0:0|0:0,0:0:0:0:
152,288,131312,1,0,0:0:0:0:
152,288,131459,1,0,0:0:0:0:
120,212,131605,1,0,0:0:0:0:
120,212,131678,1,0,0:0:0:0:
120,212,131751,2,0,P|112:152|120:128,1,71.2500027179719
224,224,132044,6,0,P|212:280|128:308,1,142.500005435944
68,248,132483,1,0,0:0:0:0:
104,164,132629,2,0,L|104:88,2,71.2500027179719
192,132,133068,6,0,P|244:108|344:136,1,142.500005435944
364,152,133434,1,0,0:0:0:0:
364,152,133507,1,0,0:0:0:0:
311,237,133654,1,0,0:0:0:0:
242,320,133800,2,0,L|230:276,3,35.625001358986
182,281,134093,2,0,L|182:325,3,35.625001358986
152,244,134385,6,0,P|132:200|140:164,1,71.2500027179719
144,84,134678,1,0,0:0:0:0:
200,192,134824,1,0,0:0:0:0:
200,192,134898,1,0,0:0:0:0:
200,192,134971,2,0,P|260:224|340:212,2,142.500005435944
384,220,135849,6,0,P|384:272|372:304,1,71.2500027179719
288,264,136142,2,0,P|272:304|272:336,1,71.2500027179719
364,320,136434,1,0,0:0:0:0:
400,236,136581,1,0,0:0:0:0:
400,236,136727,6,0,L|400:84,2,142.500005435944
228,164,137605,2,0,P|172:156|144:168,1,71.2500027179719
88,200,137898,2,0,P|104:248|100:288,1,71.2500027179719
172,316,138190,2,0,P|180:268|200:236,1,71.2500027179719
228,164,138483,1,0,0:0:0:0:
132,116,138629,5,0,0:0:0:0:
132,116,138702,1,0,0:0:0:0:
132,116,138776,2,0,L|136:160,3,35.625001358986
136,192,139068,6,0,B|244:232|328:304|328:304|280:236|312:132|312:132|368:184|384:292,1,570.000021743775
200,144,140532,5,0,0:0:0:0:
200,144,140605,1,0,0:0:0:0:
200,144,140678,2,0,L|188:68,1,71.2500027179719
116,124,140971,1,0,0:0:0:0:
116,124,141117,2,0,P|167:134|206:158,1,71.2500027179719
269,178,141410,6,0,P|290:259|326:315,1,142.500005435944
449,175,141995,2,0,P|408:218|342:260,2,106.875004076958
364,135,142581,2,0,P|323:154|214:148,1,142.500005435944
164,221,143020,1,0,0:0:0:0:
164,221,143166,2,0,P|136:261|111:273,1,71.2500027179719
32,232,143459,2,0,P|61:198|96:186,1,71.2500027179719
175,168,143751,6,0,P|230:173|314:144,1,142.500005435944
306,241,144190,1,0,0:0:0:0:
306,241,144337,2,0,P|357:265|409:274,2,106.875004076958
223,199,144922,2,0,P|231:147|215:107,1,71.2500027179719
134,139,145215,2,0,P|122:179|130:207,1,71.2500027179719
171,288,145507,2,0,P|247:284|319:300,2,142.500005435944
260,164,146385,6,0,L|264:80,1,71.2500027179719
188,112,146678,1,0,0:0:0:0:
176,188,146824,2,0,P|196:228|224:244,1,71.2500027179719
280,200,147117,1,0,0:0:0:0:
360,180,147263,2,0,P|380:264|412:320,1,142.500005435944
312,296,147702,1,0,0:0:0:0:
312,296,147776,1,0,0:0:0:0:
312,296,147849,2,0,P|256:272|240:272,1,71.2500027179719
236,196,148142,2,0,P|288:192|312:184,1,71.2500027179719
292,112,148434,5,0,0:0:0:0:
292,112,148581,1,0,0:0:0:0:
292,112,148727,2,0,P|304:192|300:272,1,142.500005435944
236,244,149166,1,0,0:0:0:0:
236,244,149312,2,0,P|328:244|448:300,1,213.750008153916
288,292,149898,2,0,P|232:324|196:328,1,71.2500027179719
152,296,150190,2,0,P|164:228|152:152,1,142.500005435944
288,72,150776,5,0,0:0:0:0:
356,108,150922,2,0,P|408:120|436:112,1,71.2500027179719
440,192,151215,1,0,0:0:0:0:
440,192,151361,2,0,P|400:212|380:232,1,71.2500027179719
324,176,151654,2,0,P|356:132|364:100,1,71.2500027179719
308,48,151946,2,0,P|252:40|224:52,1,71.2500027179719
164,84,152239,1,0,0:0:0:0:
152,176,152385,1,0,0:0:0:0:
236,216,152532,1,0,0:0:0:0:
240,112,152678,6,0,P|184:120|100:76,1,142.500005435944
152,176,153117,2,0,P|163:221|156:260,1,71.2500027179719,2|0,0:0|0:0,0:0:0:0:
80,240,153410,2,0,P|64:284|68:324,1,71.2500027179719
140,328,153702,2,0,P|192:348|212:344,2,71.2500027179719
156,236,154142,1,0,0:0:0:0:
168,152,154288,1,0,0:0:0:0:
176,68,154434,5,0,0:0:0:0:
176,68,154507,1,0,0:0:0:0:
176,68,154581,2,0,P|228:84|252:80,1,71.2500027179719
324,88,154873,2,0,P|372:92|404:112,1,71.2500027179719
440,164,155166,2,0,P|396:204|376:288,1,142.500005435944
288,316,155605,6,0,P|280:272|292:232,1,71.2500027179719
292,152,155898,1,0,0:0:0:0:
220,180,156044,1,0,0:0:0:0:
144,204,156190,1,0,0:0:0:0:
144,204,156337,6,0,P|128:272|136:296,1,71.2500027179719
48,264,156629,2,0,P|64:324|60:344,1,71.2500027179719
140,316,156922,2,0,P|176:316|216:284,1,71.2500027179719
248,232,157215,2,0,P|232:184|244:144,1,71.2500027179719
176,116,157507,2,0,P|144:88|100:80,1,71.2500027179719
92,156,157800,6,0,P|121:195|219:194,2,142.500005435944
196,52,158532,1,0,0:0:0:0:
120,72,158678,2,0,P|112:124|80:156,1,71.2500027179719
132,204,158971,2,0,P|166:191|208:196,1,71.2500027179719
264,232,159263,2,0,P|314:247|348:232,1,71.2500027179719
372,176,159556,5,0,0:0:0:0:
372,176,159702,1,0,0:0:0:0:
372,176,159849,1,0,0:0:0:0:
256,192,160142,12,0,162190,0:0:0:0:
380,232,162483,6,0,L|396:80,2,142.500005435944
304,284,163215,1,0,0:0:0:0:
276,196,163361,2,0,P|264:136|280:104,1,71.2500027179719
356,144,163654,2,0,P|376:204|356:288,1,142.500005435944
268,276,164093,1,0,0:0:0:0:
268,276,164166,1,0,0:0:0:0:
268,276,164239,6,0,P|228:272|184:284,1,71.2500027179719
228,192,164532,2,0,P|232:152|216:112,1,71.2500027179719
160,56,164824,2,0,P|100:80|80:168,1,142.500005435944
168,160,165263,5,0,0:0:0:0:
168,160,165410,2,0,P|208:176|240:180,1,71.2500027179719
176,248,165702,2,0,P|128:240|92:244,1,71.2500027179719
128,332,165995,1,0,0:0:0:0:
144,336,166068,1,0,0:0:0:0:
160,340,166142,2,0,P|196:344|244:336,1,71.2500027179719
256,256,166434,1,0,0:0:0:0:
172,216,166581,2,0,L|172:64,1,142.500005435944
312,192,167166,6,0,P|356:264|360:336,1,142.500005435944
432,260,167605,1,0,0:0:0:0:
368,176,167751,2,0,P|324:172|284:144,1,71.2500027179719
368,80,168044,2,0,P|416:92|448:88,1,71.2500027179719
368,176,168337,2,0,P|312:168|240:112,1,142.500005435944
168,60,168776,1,0,0:0:0:0:
79,100,168922,2,0,P|59:163|70:240,1,142.500005435944
156,300,169361,5,0,0:0:0:0:
156,300,169434,1,0,0:0:0:0:
156,300,169507,2,0,P|168:236|148:156,1,142.500005435944
124,72,169946,1,0,0:0:0:0:
216,64,170093,2,0,P|284:56|304:64,1,71.2500027179719
340,132,170385,2,0,P|312:160|276:168,1,71.2500027179719
240,116,170678,5,0,0:0:0:0:
240,116,170751,2,0,L|236:164,14,35.625001358986
180,96,171849,6,0,L|160:248,1,142.500005435944,2|0,0:0|0:0,0:0:0:0:
224,308,172288,1,0,0:0:0:0:
232,216,172434,2,0,P|240:172|264:144,1,71.2500027179719
328,208,172727,2,0,P|324:260|304:296,1,71.2500027179719
356,192,173020,6,0,P|284:160|248:100,1,142.500005435944
316,44,173459,1,0,0:0:0:0:
408,60,173605,2,0,P|420:116|404:152,1,71.2500027179719
356,192,173898,1,0,0:0:0:0:
356,192,174044,1,0,0:0:0:0:
356,192,174190,6,0,P|324:236|228:260,1,142.500005435944
136,260,174629,1,0,0:0:0:0:
136,260,174702,1,0,0:0:0:0:
136,260,174776,2,0,P|196:228|224:228,1,71.2500027179719
272,280,175068,2,0,P|328:288|356:280,1,71.2500027179719
428,256,175361,6,0,L|424:104,1,142.500005435944
296,104,175800,1,0,0:0:0:0:
296,104,175946,2,0,L|304:260,1,142.500005435944
248,320,176385,1,0,0:0:0:0:
156,316,176532,5,0,0:0:0:0:
156,316,176605,1,0,0:0:0:0:
156,316,176678,2,0,L|144:232,1,71.2500027179719
188,160,176971,6,0,L|192:48,2,106.875004076958
140,240,177556,1,0,0:0:0:0:
172,328,177702,2,0,P|256:336|312:312,1,142.500005435944
360,196,178142,1,0,0:0:0:0:
360,196,178288,2,0,P|272:176|220:124,1,142.500005435944
120,292,178727,1,0,0:0:0:0:
120,292,178873,6,0,L|120:248,7,35.625001358986
160,280,179459,2,0,L|164:320,7,35.625001358986
188,268,180044,2,0,L|200:212,3,35.625001358986
144,212,180337,2,0,L|132:164,3,35.625001358986
180,148,180629,2,0,L|196:184,3,35.625001358986
180,148,180922,1,4,0:0:0:0:
216,64,181215,6,0,P|176:72|152:104,1,71.2500027179719
212,172,181507,2,0,P|260:180|288:164,1,71.2500027179719
340,108,181800,1,0,0:0:0:0:
376,192,181946,1,0,0:0:0:0:
376,192,182020,1,0,0:0:0:0:
376,192,182093,2,0,P|388:248|380:276,1,71.2500027179719
308,312,182385,6,0,L|304:360,2,35.625001358986
240,248,182678,2,0,L|220:196,2,35.625001358986
248,156,182971,2,0,P|280:128|320:120,1,71.2500027179719
384,172,183263,2,0,L|376:328,1,142.500005435944
284,328,183702,1,0,0:0:0:0:
232,252,183849,6,0,P|180:236|156:240,1,71.2500027179719
204,140,184142,2,0,P|216:96|208:60,1,71.2500027179719
104,80,184434,2,0,P|96:128|104:160,1,71.2500027179719
196,216,184727,1,0,0:0:0:0:
284,160,184873,1,0,0:0:0:0:
284,160,184946,1,0,0:0:0:0:
284,160,185020,6,0,P|308:112|308:88,1,71.2500027179719
420,68,185312,2,0,P|400:124|400:148,1,71.2500027179719
448,220,185605,2,0,L|456:264,4,35.625001358986
420,132,186044,1,0,0:0:0:0:
420,132,186190,6,0,P|388:88|360:72,1,71.2500027179719
280,84,186483,2,0,P|292:128|316:160,1,71.2500027179719
356,228,186776,2,0,P|376:280|364:324,1,71.2500027179719
284,296,187068,6,0,P|236:308|200:296,1,71.2500027179719
124,284,187361,2,0,P|160:240|176:232,1,71.2500027179719
212,212,187581,1,0,0:0:0:0:
212,212,187654,1,0,0:0:0:0:
164,132,187800,1,0,0:0:0:0:
164,132,187873,1,0,0:0:0:0:
164,132,187946,6,0,P|152:84|168:56,1,71.2500027179719
252,92,188239,2,0,P|256:136|244:160,1,71.2500027179719
232,240,188532,2,0,L|228:288,5,35.625001358986
261,247,188971,2,0,P|312:264|356:253,1,71.2500027179719
388,202,189263,1,0,0:0:0:0:
388,202,189337,1,0,0:0:0:0:
388,202,189410,1,0,0:0:0:0:
368,116,189556,6,0,P|368:60|360:40,1,71.2500027179719
296,176,189849,2,0,L|296:224,2,35.625001358986
204,192,190142,1,0,0:0:0:0:
124,236,190288,2,0,P|80:200|72:168,1,71.2500027179719
36,272,190581,6,0,P|96:280|180:312,1,142.500005435944
260,144,191020,1,0,0:0:0:0:
260,144,191166,2,0,L|264:96,7,35.625001358986
240,96,191751,2,0,L|208:48,6,35.625001358986
276,232,192337,6,0,L|268:348,2,106.875004076958
192,192,192922,2,0,P|164:132|168:88,2,106.875004076958
264,132,193507,2,0,P|312:104|364:108,2,106.875004076958
256,176,194020,1,0,0:0:0:0:
256,176,194093,6,0,L|256:304,2,106.875004076958
164,184,194678,2,0,P|128:156|100:152,1,71.2500027179719
92,244,194971,2,0,P|124:280|232:272,1,142.500005435944
240,196,195410,1,0,0:0:0:0:
328,164,195556,6,0,L|332:316,2,142.500005435944
240,196,196288,1,0,0:0:0:0:
148,192,196434,2,0,P|133:151|136:108,1,71.2500027179719
240,196,196727,2,0,P|244:248|236:276,1,71.2500027179719
152,288,197020,2,0,L|152:344,7,35.625001358986
128,284,197605,6,0,L|120:236,4,35.625001358986
52,232,198044,1,0,0:0:0:0:
96,148,198190,2,0,P|156:116|240:128,1,142.500005435944
280,208,198629,1,0,0:0:0:0:
324,288,198776,2,0,L|328:336,7,35.625001358986
348,284,199361,6,0,P|360:216|356:168,2,106.875004076958
264,324,199946,5,0,0:0:0:0:
264,324,200239,1,0,0:0:0:0:
264,324,200532,6,0,L|236:168,1,142.500005435944
164,128,200971,1,0,0:0:0:0:
236,72,201117,2,0,P|280:72|308:88,1,71.2500027179719
352,168,201410,2,0,P|296:180|264:168,1,71.2500027179719
192,216,201702,2,0,P|176:284|224:348,1,142.500005435944
372,80,202288,5,0,0:0:0:0:
372,80,202581,1,0,0:0:0:0:
372,80,202873,2,0,L|360:224,1,142.500005435944
268,168,203312,1,0,0:0:0:0:
268,168,203459,6,0,L|268:120,2,35.625001358986
336,276,203751,2,0,L|364:312,2,35.625001358986
212,276,204044,2,0,L|172:328,2,35.625001358986
112,296,204337,2,0,L|92:200,1,71.2500027179719
72,148,204629,6,0,L|208:96,2,142.500005435944
160,312,205507,2,0,P|204:336|232:360,1,71.2500027179719
284,284,205800,2,0,P|316:196|347:149,3,142.500005435944
428,188,206824,2,0,P|400:236|372:320,1,142.500005435944
252,252,207263,6,0,L|280:228,2,35.625001358986
124,300,207556,2,0,L|108:336,2,35.625001358986
148,168,207849,2,0,L|140:128,2,35.625001358986
204,244,208142,2,0,P|244:252|284:236,1,71.2500027179719
304,152,208434,2,0,P|260:144|232:156,1,71.2500027179719
152,116,208727,2,0,P|180:84|184:48,1,71.2500027179719
268,96,209020,2,0,L|264:52,2,35.625001358986
320,172,209312,5,0,0:0:0:0:
320,172,209605,1,0,0:0:0:0:
320,172,209898,2,0,L|320:316,2,142.500005435944
148,248,210776,5,0,0:0:0:0:
148,248,211068,2,0,L|136:136,2,106.875004076958
208,316,211654,6,0,P|248:300|296:304,1,71.2500027179719
328,224,211946,2,0,P|280:196|268:168,1,71.2500027179719
188,148,212239,2,0,P|180:92|192:64,1,71.2500027179719
272,104,212532,2,0,P|276:168|256:196,1,71.2500027179719
184,200,212824,2,0,L|164:348,2,142.500005435944
276,220,213556,2,0,P|312:204|412:212,1,142.500005435944
396,120,213995,5,0,0:0:0:0:
396,120,214288,1,0,0:0:0:0:
396,120,214581,2,0,L|392:272,1,142.500005435944
320,320,215020,1,0,0:0:0:0:
304,228,215166,2,0,L|296:180,2,35.625001358986
248,300,215459,2,0,L|240:356,2,35.625001358986
196,224,215751,6,0,P|144:208|56:220,1,142.500005435944
228,148,216190,1,0,0:0:0:0:
228,148,216337,2,0,L|216:56,2,71.2500027179719
276,228,216776,1,0,0:0:0:0:
276,228,216849,1,0,0:0:0:0:
276,228,216922,2,0,L|280:320,2,71.2500027179719
308,140,217361,1,0,0:0:0:0:
308,140,217507,6,0,P|248:104|168:76,1,142.500005435944
116,148,217946,2,0,L|112:232,2,71.2500027179719
216,112,218385,2,0,L|212:68,3,35.625001358986
184,120,218678,6,0,L|176:216,1,71.2500027179719
168,292,218971,2,0,P|116:288|100:276,1,71.2500027179719
178,191,219263,2,0,P|226:195|258:211,1,71.2500027179719
288,264,219556,2,0,L|288:312,2,35.625001358986
224,196,219849,2,0,L|216:152,2,35.625001358986
232,288,220142,5,0,0:0:0:0:
416,272,220434,1,0,0:0:0:0:
340,104,220727,1,0,0:0:0:0:
340,104,221020,6,0,P|276:120|204:80,1,142.500005435944
128,120,221459,1,0,0:0:0:0:
68,188,221605,2,0,L|64:280,2,71.2500027179719
128,120,222044,1,0,0:0:0:0:
224,100,222190,2,0,L|224:28,2,71.2500027179719
228,196,222629,1,0,0:0:0:0:
228,196,222776,2,0,P|164:200|108:132,1,142.500005435944
220,300,223361,5,0,0:0:0:0:
220,300,223507,1,0,0:0:0:0:
312,308,223654,1,0,0:0:0:0:
312,308,223800,1,0,0:0:0:0:
364,232,223946,2,0,L|364:160,2,71.2500027179719
292,292,224385,5,0,0:0:0:0:
292,292,224532,2,0,P|248:308|216:308,1,71.2500027179719
184,224,224824,2,0,P|148:188|116:184,1,71.2500027179719
104,96,225117,2,0,P|152:92|192:56,1,71.2500027179719
264,84,225410,6,0,P|300:52|344:48,1,71.2500027179719
348,132,225702,6,0,L|344:224,2,71.2500027179719
256,132,226142,1,0,0:0:0:0:
184,192,226288,2,0,L|200:288,2,71.2500027179719
100,136,226727,1,0,0:0:0:0:
100,136,226873,2,0,L|84:48,2,71.2500027179719
124,224,227312,1,0,0:0:0:0:
96,296,227459,6,0,L|80:240,2,35.625001358986
188,280,227751,1,0,0:0:0:0:
280,264,227898,1,0,0:0:0:0:
376,248,228044,2,0,L|364:96,2,142.500005435944
284,236,228776,1,0,0:0:0:0:
304,328,228922,2,0,P|352:320|384:320,1,71.2500027179719
424,220,229215,6,0,P|432:148|416:76,1,142.500005435944
320,96,229654,1,0,0:0:0:0:
320,96,229800,2,0,L|320:12,2,71.2500027179719
228,116,230239,1,0,0:0:0:0:
228,116,230385,6,0,P|192:92|136:96,1,71.2500027179719
96,164,230678,2,0,P|140:184|168:184,1,71.2500027179719
248,216,230971,2,0,P|240:260|220:288,1,71.2500027179719
140,264,231263,2,0,P|128:216|128:188,1,71.2500027179719
224,176,231556,2,0,P|264:108|252:40,1,142.500005435944
176,92,231995,1,0,0:0:0:0:
224,176,232142,2,0,L|372:232,1,142.500005435944
408,120,232727,6,0,L|392:80,15,35.625001358986
384,144,233898,2,0,L|376:188,15,35.625001358986
344,176,235068,6,0,L|316:228,7,35.625001358986
300,156,235654,2,0,L|256:128,7,35.625001358986
304,160,236239,6,0,P|204:184|168:176,1,142.500005435944
124,100,236678,1,0,0:0:0:0:
60,168,236824,2,0,P|52:224|60:252,1,71.2500027179719
136,192,237117,2,0,P|148:160|144:120,1,71.2500027179719
64,72,237410,6,0,L|64:272,1,190
188,312,237849,1,0,0:0:0:0:
212,212,237995,2,0,P|152:204|112:216,1,95
136,316,238288,2,0,P|192:328|236:316,1,95
332,296,238581,6,0,P|364:232|328:120,1,190
228,136,239020,1,0,0:0:0:0:
152,208,239166,2,0,P|96:216|64:248,1,95
144,316,239459,2,0,P|200:316|236:288,1,95
380,280,239751,2,0,L|368:172,1,95
364,144,239971,1,0,0:0:0:0:
364,144,240044,1,0,0:0:0:0:
304,232,240190,6,0,L|308:292,2,47.5
204,200,240483,2,0,L|188:144,2,47.5
128,248,240776,1,0,0:0:0:0:
128,248,240849,1,0,0:0:0:0:
128,248,240922,6,0,P|168:292|220:296,1,95
292,248,241215,2,0,P|324:200|316:148,1,95
220,144,241507,2,0,P|200:96|164:56,1,95
272,104,241800,2,0,P|348:132|432:64,1,190
344,56,242239,1,0,0:0:0:0:
344,56,242312,1,0,0:0:0:0:
344,56,242385,6,0,L|336:160,1,95
388,240,242678,2,0,L|392:292,2,47.5
288,204,242971,2,0,L|276:148,2,47.5
264,304,243263,2,0,P|228:344|172:356,1,95
160,256,243556,2,0,P|184:208|224:176,1,95
268,92,243849,2,0,P|204:104|164:92,1,95
88,156,244142,2,0,P|80:228|100:252,1,95
172,244,244434,6,0,L|168:352,2,95
112,128,244873,1,0,0:0:0:0:
112,128,245020,2,0,P|220:80|296:84,1,190
368,184,245459,1,0,0:0:0:0:
328,280,245605,6,0,L|328:336,3,47.5
368,296,245898,2,0,L|364:244,3,47.5
312,252,246190,2,0,L|308:200,3,47.5
276,208,246483,2,0,L|272:148,3,47.5
248,208,246776,6,0,P|188:232|84:152,1,190
152,84,247215,1,0,0:0:0:0:
252,116,247361,2,0,P|264:176|288:208,1,95
368,140,247654,2,0,P|368:88|348:36,1,95
252,60,247946,2,0,P|176:56|72:120,1,190
164,176,248385,2,0,L|168:276,1,95
264,228,248678,1,0,0:0:0:0:
264,228,248824,6,0,P|304:288|400:232,1,190
416,144,249263,1,0,0:0:0:0:
324,192,249410,2,0,P|312:136|224:32,1,190
192,160,249849,1,0,0:0:0:0:
192,160,249922,1,0,0:0:0:0:
192,160,249995,2,0,P|124:200|100:196,1,95
116,84,250288,6,0,L|96:288,2,190
324,120,251166,1,0,0:0:0:0:
324,120,251459,2,0,P|380:96|416:52,1,95
452,164,251751,2,0,P|424:232|404:252,1,95
312,312,252044,1,0,0:0:0:0:
208,324,252190,1,0,0:0:0:0:
124,260,252337,1,0,0:0:0:0:
212,204,252483,5,0,0:0:0:0:
212,204,252556,1,0,0:0:0:0:
212,204,252629,2,0,P|272:224|308:212,1,95
400,180,252922,1,0,0:0:0:0:
424,284,253068,1,0,0:0:0:0:
424,284,253142,1,0,0:0:0:0:
424,284,253215,2,0,P|372:304|220:312,1,190
140,280,253654,1,0,0:0:0:0:
140,280,253800,6,0,L|128:232,7,47.5
180,228,254385,2,0,L|204:280,7,47.5
216,228,254971,2,0,L|232:172,7,47.5
205,146,255556,6,0,L|214:60,6,47.5
140,188,256142,6,0,P|80:184|48:104,1,142.500005435944
124,108,256581,1,0,0:0:0:0:
192,148,256727,2,0,P|192:192|176:236,1,71.2500027179719
264,224,257020,2,0,P|264:180|284:140,1,71.2500027179719
304,80,257312,2,0,L|360:16,2,71.2500027179719
292,156,257751,1,0,0:0:0:0:
228,200,257898,6,0,P|172:212|80:184,1,142.500005435944
24,268,258337,1,0,0:0:0:0:
24,268,258410,1,0,0:0:0:0:
24,268,258483,6,0,L|172:300,1,142.500005435944
228,252,258922,1,0,0:0:0:0:
228,252,259068,2,0,P|232:200|252:172,1,71.2500027179719
308,140,259361,2,0,P|340:80|344:56,1,71.2500027179719
248,60,259654,2,0,P|196:88|164:184,1,142.500005435944
216,256,260093,1,0,0:0:0:0:
216,256,260239,6,0,P|160:276|132:268,1,71.2500027179719
96,216,260532,2,0,P|132:200|168:200,1,71.2500027179719
228,144,260824,2,0,P|232:88|176:16,1,142.500005435944
112,56,261263,1,0,0:0:0:0:
92,132,261410,2,0,P|104:192|100:216,1,71.2500027179719
132,272,261702,2,0,P|168:288|200:312,1,71.2500027179719
224,212,261995,6,0,P|212:160|224:68,1,142.500005435944
324,60,262434,1,0,0:0:0:0:
324,60,262581,2,0,P|284:96|244:104,1,71.2500027179719
204,60,262873,2,0,P|156:56|132:72,1,71.2500027179719
176,136,263166,2,0,P|248:172|308:156,1,142.500005435944
376,120,263605,1,0,0:0:0:0:
376,120,263751,6,0,L|376:44,2,71.2500027179719
424,184,264190,1,0,0:0:0:0:
424,184,264337,6,0,L|412:332,1,142.500005435944
340,300,264776,1,0,0:0:0:0:
176,324,264922,1,0,0:0:0:0:
176,324,264995,1,0,0:0:0:0:
176,324,265068,1,0,0:0:0:0:
176,324,265142,1,0,0:0:0:0:
176,324,265215,2,0,P|176:260|164:232,1,71.2500027179719
76,252,265507,6,0,P|136:288|220:276,1,142.500005435944
264,228,265946,1,0,0:0:0:0:
292,156,266093,2,0,L|288:80,2,71.2500027179719
264,228,266532,1,0,0:0:0:0:
340,244,266678,2,0,P|416:256|472:216,1,142.500005435944
444,148,267117,1,0,0:0:0:0:
444,148,267263,6,0,P|416:80|416:60,1,71.2500027179719
348,124,267556,2,0,P|360:176|356:212,1,71.2500027179719
280,180,267849,6,0,P|240:144|152:136,2,142.500005435944
312,272,268581,1,0,0:0:0:0:
324,184,268727,2,0,P|316:136|312:108,2,71.2500027179719
312,272,269166,1,0,0:0:0:0:
236,304,269312,2,0,P|184:328|156:324,1,71.2500027179719
84,288,269605,2,0,P|112:252|144:240,1,71.2500027179719
180,180,269898,5,0,0:0:0:0:
180,180,270044,1,0,0:0:0:0:
180,180,270190,6,0,P|120:156|36:168,1,142.500005435944
40,244,270629,1,0,0:0:0:0:
96,188,270776,2,0,P|100:144|88:108,1,71.2500027179719
148,64,271068,2,0,P|188:64|224:84,1,71.2500027179719
280,124,271361,2,0,P|388:140|420:120,1,142.500005435944
456,52,271800,1,0,0:0:0:0:
396,112,271946,6,0,P|360:80|340:52,1,71.2500027179719
280,124,272239,2,0,P|292:176|292:212,1,71.2500027179719
232,248,272532,2,0,L|208:96,1,142.500005435944
144,152,272971,2,0,L|168:308,1,142.500005435944
88,296,273410,2,0,P|48:292|16:304,1,71.2500027179719
32,224,273702,6,0,P|56:188|52:136,1,71.2500027179719
100,96,273995,1,0,0:0:0:0:
176,76,274142,2,0,P|220:88|264:72,1,71.2500027179719
324,84,274434,2,0,P|360:76|400:88,1,71.2500027179719
408,160,274727,1,0,0:0:0:0:
288,264,274873,5,0,0:0:0:0:
288,264,275166,6,0,P|256:268|224:280,1,47.5
192,260,275459,2,0,P|160:256|144:240,1,47.5
128,200,275751,1,0,0:0:0:0:
128,200,275898,1,0,0:0:0:0:
180,188,276044,2,0,P|216:184|272:216,1,95
368,188,276629,2,0,L|364:72,1,95
260,108,277215,5,0,0:0:0:0:
260,108,277361,1,0,0:0:0:0:
260,108,277507,1,0,0:0:0:0:
260,108,277654,2,0,P|244:64|236:48,1,47.5
192,56,277946,2,0,P|156:64|132:56,1,47.5
108,96,278239,2,0,P|140:152|140:200,1,95
136,284,278824,6,0,L|136:344,1,47.5
88,308,279117,2,0,L|88:256,1,47.5
100,208,279410,1,0,0:0:0:0:
144,180,279556,2,0,P|184:176|240:188,1,95
288,188,279995,1,0,0:0:0:0:
268,140,280142,5,0,0:0:0:0:
270,190,280288,1,0,0:0:0:0:
272,236,280434,1,0,0:0:0:0:
288,288,280581,1,0,0:0:0:0:
312,328,280727,1,0,0:0:0:0:
414,328,281020,6,0,L|391:278,1,47.5
320,220,281312,2,0,P|260:216|220:228,1,95
268,88,281898,1,0,0:0:0:0:
268,88,282044,2,0,L|220:56,1,47.5
192,100,282337,1,0,0:0:0:0:
192,100,282483,2,0,L|184:200,1,95
152,236,282922,1,0,0:0:0:0:
152,236,283068,6,0,L|148:184,2,47.5
200,252,283507,2,0,L|212:304,2,47.5
224,208,283946,1,0,0:0:0:0:
224,208,284093,1,0,0:0:0:0:
240,52,284239,5,0,0:0:0:0:
80,312,284824,1,0,0:0:0:0:
388,260,285410,2,0,P|304:228|264:180,1,142.500005435944
240,312,285995,1,0,0:0:0:0:
240,312,286581,5,0,0:0:0:0:
68,48,287166,1,0,0:0:0:0:
356,176,287751,5,0,0:0:0:0:
356,176,288044,1,0,0:0:0:0:
292,328,288337,1,0,0:0:0:0:
156,264,288629,1,0,0:0:0:0:
156,264,288702,1,0,0:0:0:0:
156,264,288776,1,0,0:0:0:0:
188,184,288922,6,0,P|156:132|136:108,1,71.2500027179719
184,92,289142,1,0,0:0:0:0:
184,92,289215,6,0,P|232:112|268:112,1,71.2500027179719
296,100,289434,1,0,0:0:0:0:
296,100,289507,6,0,P|340:124|360:144,1,71.2500027179719
372,184,289727,1,0,0:0:0:0:
372,184,289800,6,0,P|360:224|344:256,1,71.2500027179719
300,260,290020,1,0,0:0:0:0:
300,260,290093,6,0,P|272:292|248:308,1,71.2500027179719
204,312,290312,1,0,0:0:0:0:
204,312,290385,6,0,P|164:312|136:292,1,71.2500027179719
96,272,290605,1,0,0:0:0:0:
96,272,290678,6,0,P|132:236|160:228,1,71.2500027179719
196,224,290898,1,0,0:0:0:0:
196,224,290971,2,0,P|252:232|280:248,1,71.2500027179719
352,248,291263,6,0,L|344:96,2,142.500005435944
276,300,291995,1,0,0:0:0:0:
276,300,292142,1,0,0:0:0:0:
84,156,292434,1,0,0:0:0:0:
84,156,292727,6,0,P|96:216|92:232,1,71.2500027179719
112,300,293020,1,0,0:0:0:0:
188,280,293166,1,0,0:0:0:0:
188,280,293239,1,0,0:0:0:0:
188,280,293312,2,0,P|192:228|200:208,1,71.2500027179719
248,148,293605,6,0,P|252:104|228:68,1,71.2500027179719
172,44,293898,2,0,P|152:100|156:128,1,71.2500027179719
176,184,294190,2,0,P|120:188|40:236,1,142.500005435944
80,300,294629,1,0,0:0:0:0:
80,300,294776,6,0,P|136:316|168:304,1,71.2500027179719
224,296,295068,2,0,P|280:264|312:260,1,71.2500027179719
344,212,295361,2,0,P|376:252|364:344,1,142.500005435944
452,204,295800,1,0,0:0:0:0:
452,204,295946,6,0,P|408:232|308:192,1,142.500005435944
304,136,296385,1,0,0:0:0:0:
304,136,296532,2,0,P|344:136|376:168,1,71.2500027179719
316,212,296824,2,0,P|256:208|236:184,1,71.2500027179719
212,132,297117,5,0,0:0:0:0:
212,132,297263,1,0,0:0:0:0:
156,76,297410,1,0,0:0:0:0:
156,76,297556,1,0,0:0:0:0:
76,108,297702,2,0,P|56:184|72:252,1,142.500005435944
128,296,298142,5,0,0:0:0:0:
128,296,298215,1,0,0:0:0:0:
128,296,298288,2,0,P|160:340|184:348,1,71.2500027179719
248,320,298581,2,0,P|228:284|200:268,1,71.2500027179719
176,196,298873,6,0,P|116:220|36:200,1,142.500005435944
88,140,299312,1,0,0:0:0:0:
88,140,299459,6,0,P|100:92|136:56,1,71.2500027179719
176,120,299751,2,0,P|184:164|180:216,1,71.2500027179719
264,188,300044,2,0,P|269:124|305:49,1,142.500005435944
368,96,300483,1,0,0:0:0:0:
368,96,300556,1,0,0:0:0:0:
368,96,300629,6,0,P|412:84|452:96,1,71.2500027179719
404,160,300922,2,0,P|356:196|332:196,1,71.2500027179719
284,248,301215,2,0,P|272:284|228:312,1,71.2500027179719
168,308,301507,2,0,P|176:256|212:224,1,71.2500027179719
236,168,301800,6,0,P|236:104|228:72,1,71.2500027179719
172,48,302093,2,0,P|160:104|168:128,1,71.2500027179719
160,196,302385,2,0,P|144:264|92:324,1,142.500005435944
60,252,302824,1,0,0:0:0:0:
60,252,302898,1,0,0:0:0:0:
60,252,302971,6,0,P|88:296|120:312,1,71.2500027179719
180,304,303263,2,0,P|168:264|148:240,1,71.2500027179719
217,188,303556,2,0,P|176:178|147:156,2,71.2500027179719
304,228,303995,1,0,0:0:0:0:
304,228,304142,6,0,P|348:264|376:272,1,71.2500027179719
440,276,304434,2,0,P|424:312|380:344,1,71.2500027179719
276,296,304727,2,0,P|272:240|280:140,1,142.500005435944
356,148,305166,1,0,0:0:0:0:
356,148,305239,1,0,0:0:0:0:
356,148,305312,6,0,P|388:112|400:68,1,71.2500027179719
320,72,305605,2,0,P|280:104|264:136,1,71.2500027179719
276,200,305898,2,0,P|248:236|148:248,1,142.500005435944
152,172,306337,1,0,0:0:0:0:
152,172,306483,2,0,P|108:176|64:168,1,71.2500027179719
68,252,306776,2,0,P|112:276|136:316,1,71.2500027179719
200,312,307068,2,0,P|312:328|340:304,1,142.500005435944
212,224,307654,6,0,P|216:180|204:144,1,56.9999982604981
128,196,307946,2,0,P|116:240|116:264,1,56.9999982604981
176,308,308239,2,0,P|208:324|248:324,1,56.9999982604981
296,288,308532,2,0,P|328:288|364:292,1,56.9999982604981
396,228,308824,5,0,0:0:0:0:
396,228,308971,1,0,0:0:0:0:
320,192,309117,1,0,0:0:0:0:
320,192,309263,1,0,0:0:0:0:
352,116,309410,2,0,L|356:86,6,28.4999991302491
274,191,309995,6,0,B|306:200|260:263|253:275|111:155|250:118|258:110|270:62|242:-6|170:-38|19:-25|-14:87|27:148|28:230|60:394|227:420|357:468|479:253|466:142|345:42,1,1130.50002156258
212,84,312337,6,0,P|224:192|192:280,1,190
64,264,312776,2,0,P|96:328|128:348,1,95
208,356,313068,1,0,0:0:0:0:
304,360,313215,1,0,0:0:0:0:
380,300,313361,1,0,0:0:0:0:
380,300,313507,6,0,L|400:100,1,190
288,52,313946,1,0,0:0:0:0:
212,124,314093,2,0,P|132:136|68:116,2,142.5
312,148,314678,2,0,P|320:228|356:336,1,190
428,260,315117,1,0,0:0:0:0:
428,260,315190,1,0,0:0:0:0:
428,260,315263,6,0,P|372:256|324:272,1,95
328,160,315556,2,0,P|392:140|420:124,1,95
328,68,315849,2,0,P|256:88|240:216,1,190
180,232,316288,1,0,0:0:0:0:
180,232,316434,2,0,L|168:40,1,190
84,104,316873,1,0,0:0:0:0:
84,104,317020,6,0,P|136:124|272:100,1,190
360,60,317459,1,0,0:0:0:0:
312,152,317605,2,0,L|328:252,1,95
260,328,317898,2,0,P|192:344|148:328,1,95
72,296,318190,6,0,P|108:208|100:108,1,190
160,204,318629,1,0,0:0:0:0:
160,204,318776,2,0,P|216:220|360:168,1,190
316,84,319215,1,0,0:0:0:0:
316,84,319361,6,0,L|339:133,15,47.5
316,176,320532,2,0,L|309:123,7,47.5
280,172,321117,2,0,L|314:230,7,47.5
276,256,321702,6,0,P|356:264|460:224,1,190
340,180,322142,1,0,0:0:0:0:
340,180,322215,1,0,0:0:0:0:
340,180,322288,2,0,L|344:280,2,95
296,84,322727,1,0,0:0:0:0:
192,80,322873,6,0,P|148:144|44:200,1,190
60,304,323312,1,0,0:0:0:0:
162,252,323459,2,0,L|158:152,1,95
156,133,323678,1,0,0:0:0:0:
155,133,323751,2,0,P|184:89|180:42,1,95
71,78,324044,6,0,P|34:157|95:250,1,190
188,216,324483,1,0,0:0:0:0:
188,216,324629,2,0,P|248:236|296:232,1,95
368,176,324922,2,0,P|376:116|360:72,1,95
280,144,325215,6,0,P|256:232|300:320,1,190
392,272,325654,1,0,0:0:0:0:
297,317,325800,2,0,P|221:333|101:305,1,190
88,200,326239,1,0,0:0:0:0:
88,200,326385,1,0,0:0:0:0:
400,188,326678,1,0,0:0:0:0:
400,188,326971,6,0,L|384:44,2,142.5
332,268,327556,6,0,P|260:280|196:244,1,142.5
156,220,327849,2,0,L|160:64,1,142.5
184,124,328142,2,0,P|248:132|328:100,1,142.5
268,100,328434,2,0,P|288:184|268:256,1,142.5
244,280,328727,6,0,L|232:224,7,47.5
208,260,329312,2,0,L|188:200,7,47.5
220,284,329898,6,0,L|224:344,3,47.5
184,296,330190,2,0,L|168:240,3,47.5
132,288,330483,2,0,L|132:340,3,47.5
92,300,330776,2,0,L|88:240,3,47.5
92,216,331068,1,4,0:0:0:0:
264,272,350276,5,0,0:0:0:0:
264,272,350576,1,0,0:0:0:0:
124,204,350876,1,0,0:0:0:0:
124,204,351176,1,0,0:0:0:0:
124,204,351476,2,0,L|104:29,1,142.5
244,148,352076,1,0,0:0:0:0:
244,148,352376,6,0,L|251:198,3,47.5
392,200,352976,5,0,0:0:0:0:
392,200,353276,1,0,0:0:0:0:
272,100,353576,1,0,0:0:0:0:
272,100,353876,2,0,L|262:266,1,142.500005435944
128,316,354476,1,0,0:0:0:0:
204,264,354776,6,0,L|212:308,4,35.625001358986
204,264,355376,5,0,0:0:0:0:
360,292,355676,1,0,0:0:0:0:
404,144,355976,1,0,0:0:0:0:
404,144,356276,2,0,P|328:88|254:85,1,142.500005435944
210,164,356876,2,0,L|198:308,1,142.500005435944
88,224,357476,6,0,L|80:168,4,47.5
184,212,358226,2,0,L|172:272,6,47.5
244,280,359276,2,0,L|236:232,11,35.625001358986
260,288,360044,5,0,0:0:0:0:
260,288,360176,1,0,0:0:0:0:
156,304,360476,1,0,0:0:0:0:
156,304,360776,1,0,0:0:0:0:
156,304,361076,2,0,P|192:256|192:172,1,142.500005435944
84,64,361676,2,0,P|84:128|80:152,1,71.2500027179719
124,200,361976,2,0,L|128:240,4,35.625001358986
252,108,362576,5,0,0:0:0:0:
252,108,362876,1,0,0:0:0:0:
404,68,363176,1,0,0:0:0:0:
404,68,363476,1,0,0:0:0:0:
404,68,363776,6,0,P|408:116|392:164,1,71.2500027179719
324,176,364076,2,0,P|324:228|336:256,1,71.2500027179719
392,292,364376,2,0,L|408:248,4,35.625001358986
236,308,364976,5,0,0:0:0:0:
292,184,365276,1,0,0:0:0:0:
160,124,365576,1,0,0:0:0:0:
272,36,365876,1,0,0:0:0:0:
160,124,366176,2,0,L|148:276,1,142.500005435944
276,264,366776,6,0,L|272:212,3,35.625001358986
240,252,367076,2,0,P|184:236|92:244,1,142.500005435944
60,176,367526,1,0,0:0:0:0:
136,160,367676,6,0,L|132:108,6,47.5000018119813
212,132,368568,2,0,L|220:84,2,35.625001358986
220,156,368861,2,0,P|232:212|224:260,1,95
324,208,369446,6,0,L|320:112,1,95
368,128,369885,1,0,0:0:0:0:
368,128,370032,2,0,P|400:152|420:152,1,47.5
396,204,370324,2,0,P|396:244|404:272,1,47.5
356,284,370617,2,0,P|352:228|340:184,1,95
256,248,371202,2,0,P|228:284|176:300,1,95
148,200,371788,6,0,B|188:160|212:96|212:96|148:80|148:80|152:48,2,213.75
136,252,373251,2,0,P|144:288|140:308,1,47.5
196,304,373544,1,0,0:0:0:0:
300,316,373837,1,0,0:0:0:0:
380,248,374129,6,0,L|376:200,2,47.5
328,240,374569,1,0,0:0:0:0:
328,240,374715,2,0,L|320:184,2,47.5
320,292,375154,1,0,0:0:0:0:
320,292,375300,6,0,L|320:352,2,47.5
272,272,375739,1,0,0:0:0:0:
272,272,375886,2,0,L|260:212,2,47.5
232,304,376324,1,0,0:0:0:0:
232,304,376470,6,0,P|168:288|136:288,1,95
104,248,376909,1,0,0:0:0:0:
104,248,377056,6,0,L|92:188,1,47.5
144,184,377348,2,0,L|156:244,1,47.5
204,220,377641,2,0,P|212:176|200:116,2,95
284,152,378519,1,0,0:0:0:0:
348,204,378665,1,0,0:0:0:0:
348,204,378738,1,0,0:0:0:0:
348,204,378812,6,0,L|348:284,2,71.2500027179719
232,96,379397,1,0,0:0:0:0:
248,252,379690,1,0,0:0:0:0:
308,108,379982,2,0,P|216:132|160:112,1,142.500005435944
112,220,380421,1,0,0:0:0:0:
92,144,380568,6,0,P|56:132|16:136,1,71.2500027179719
36,212,380860,2,0,P|64:260|84:276,1,71.2500027179719
156,272,381153,1,0,0:0:0:0:
156,272,381299,1,0,0:0:0:0:
208,208,381446,2,0,P|200:160|200:56,1,142.500005435944
356,56,382031,6,0,P|396:84|412:112,1,71.2500027179719
340,140,382324,2,0,P|360:196|444:236,1,142.500005435944
300,324,382909,2,0,L|132:316,1,142.500005435944
108,256,383348,1,0,0:0:0:0:
108,256,383495,5,0,0:0:0:0:
108,176,383641,1,0,0:0:0:0:
116,100,383787,2,0,P|184:112|204:112,1,71.2500027179719
244,164,384080,2,0,P|296:208|312:236,1,71.2500027179719
340,144,384373,2,0,P|320:104|320:68,1,71.2500027179719
396,84,384665,2,0,P|428:136|420:164,1,71.2500027179719
404,220,384958,6,0,L|408:300,2,71.2500027179719
256,168,385544,1,0,0:0:0:0:
256,168,385837,6,0,L|236:76,1,71.2500027179719
172,136,386130,1,0,0:0:0:0:
168,296,386422,2,0,P|212:288|320:304,1,142.500005435944
364,244,386861,1,0,0:0:0:0:
288,268,387008,6,0,P|268:312|232:332,1,71.2500027179719
172,316,387300,2,0,P|120:308|92:288,1,71.2500027179719
96,220,387593,2,0,L|84:180,7,35.625001358986
120,168,388179,6,0,P|120:96|160:32,1,142.500005435944
232,60,388618,1,0,0:0:0:0:
268,128,388764,2,0,P|320:152|352:144,1,71.2500027179719
400,108,389057,2,0,P|372:72|336:56,1,71.2500027179719
332,150,389349,2,0,L|340:298,1,142.500005435944
184,300,389935,1,0,0:0:0:0:
184,300,390081,1,0,0:0:0:0:
184,300,390227,6,0,L|168:208,1,71.2500027179719
220,168,390520,2,0,P|280:152|388:172,1,142.500005435944
416,216,390959,1,0,0:0:0:0:
359,160,391105,2,0,P|336:108|340:24,1,142.500005435944
248,60,391544,1,0,0:0:0:0:
248,60,391691,6,0,L|248:216,1,142.500005435944
144,320,392276,1,0,0:0:0:0:
120,164,392569,1,0,0:0:0:0:
120,164,392861,6,0,P|160:168|200:188,1,71.2500027179719
240,120,393154,2,0,P|156:92|88:48,1,142.500005435944
72,132,393593,1,0,0:0:0:0:
72,132,393739,2,0,P|84:200|80:224,1,71.2500027179719
140,256,394032,6,0,P|140:304|136:344,2,71.2500027179719
124,180,394471,1,0,0:0:0:0:
168,112,394618,2,0,P|224:88|312:88,1,142.500005435944
420,192,395203,6,0,L|412:344,2,142.500005435944
268,148,396081,2,0,P|232:168|196:180,1,71.2500027179719
132,148,396374,2,0,P|132:80|204:52,1,142.500005435944
136,196,396959,6,0,L|144:248,7,35.625001358986
111,218,397544,2,0,P|108:276|171:331,1,142.500005435944
236,328,397983,1,0,0:0:0:0:
216,252,398130,2,0,P|176:220|132:216,1,71.2500027179719
200,148,398422,2,0,P|240:172|272:180,1,71.2500027179719
340,200,398715,2,0,L|360:352,1,142.500005435944
427,290,399154,5,0,0:0:0:0:
427,290,399300,2,0,P|371:272|357:258,1,71.2500027179719
384,180,399593,2,0,P|368:116|352:96,1,71.2500027179719
288,100,399886,2,0,P|316:52|408:44,1,142.500005435944
365,112,400325,1,0,0:0:0:0:
316,172,400471,2,0,P|272:188|176:152,1,142.500005435944
136,100,400910,1,0,0:0:0:0:
136,100,401057,6,0,L|128:248,1,142.500005435944
295,274,401641,2,0,P|319:308|350:333,2,71.2500027179719
374,242,402080,1,0,0:0:0:0:
374,242,402227,6,0,P|317:261|287:254,1,71.2500027179719
239,207,402519,1,0,0:0:0:0:
324,201,402666,2,0,P|306:283|258:337,1,142.500005435944
186,348,403105,1,0,0:0:0:0:
120,316,403252,1,0,0:0:0:0:
120,316,403398,6,0,L|108:232,2,71.2500027179719
204,219,403836,2,0,P|187:184|104:113,1,142.500005435944
177,61,404275,1,0,0:0:0:0:
280,68,404422,1,0,0:0:0:0:
280,68,404569,6,0,P|364:88|420:80,1,142.500005435944
408,160,405008,2,0,P|448:144|488:136,2,71.2500027179719
360,224,405447,1,0,0:0:0:0:
360,224,405593,1,0,0:0:0:0:
304,280,405739,2,0,P|236:312|156:304,1,142.500005435944
112,164,406325,5,0,0:0:0:0:
112,164,406398,1,0,0:0:0:0:
112,164,406471,1,0,0:0:0:0:
112,164,406544,1,0,0:0:0:0:
112,164,406618,1,0,0:0:0:0:
256,100,406910,6,0,P|312:72|360:72,2,106.875004076958
316,148,407496,2,0,P|280:192|228:208,2,106.875004076958
240,140,408081,1,0,0:0:0:0:
188,200,408227,1,0,0:0:0:0:
192,280,408374,6,0,P|248:264|292:276,1,95
372,324,408959,1,0,0:0:0:0:
372,324,409105,1,0,0:0:0:0:
372,324,409252,5,0,0:0:0:0:
108,136,411593,6,0,L|100:36,2,95
160,228,412032,1,0,0:0:0:0:
260,264,412179,2,0,P|320:288|360:280,1,95
316,184,412471,2,0,P|260:160|216:168,1,95
264,64,412764,5,0,0:0:0:0:
360,108,412910,1,0,0:0:0:0:
396,208,413057,1,0,0:0:0:0:
392,312,413203,1,0,0:0:0:0:
396,208,413349,6,0,P|424:128|416:104,2,95
328,268,413788,1,0,0:0:0:0:
328,268,413935,6,0,P|240:296|132:284,1,190
52,236,414374,1,0,0:0:0:0:
152,260,414520,2,0,P|168:308|168:356,1,95
256,292,414813,2,0,P|232:240|228:192,1,95
132,160,415105,6,0,P|96:112|192:40,1,190
244,108,415544,1,0,0:0:0:0:
244,108,415618,1,0,0:0:0:0:
244,108,415691,2,0,L|240:308,1,190
336,112,416276,2,0,L|432:80,1,95
432,188,416569,5,0,0:0:0:0:
432,188,416715,1,0,0:0:0:0:
420,292,416861,1,0,0:0:0:0:
420,292,417008,1,0,0:0:0:0:
352,212,417154,2,0,P|344:136|348:104,1,95
260,180,417447,6,0,P|272:248|272:288,1,95
168,264,417739,2,0,P|164:320|184:368,2,95
96,188,418179,1,0,0:0:0:0:
120,88,418325,2,0,P|176:72|220:80,1,95
96,188,418618,6,0,P|192:248|236:312,1,190
337,270,419057,1,0,0:0:0:0:
392,180,419203,2,0,P|416:132|412:64,1,95
328,36,419496,2,0,P|316:92|328:144,1,95
260,212,419788,6,0,P|176:232|48:200,1,190
84,108,420227,1,0,0:0:0:0:
84,108,420300,1,0,0:0:0:0:
84,108,420374,6,0,L|92:48,6,47.5
180,148,420959,6,0,P|200:216|184:332,1,190,2|0,0:0|0:0,0:0:0:0:
96,272,421398,2,0,P|64:224|52:184,2,95
200,292,421837,2,0,P|256:332|292:332,1,95
356,260,422130,5,0,0:0:0:0:
356,260,422276,1,0,0:0:0:0:
316,164,422422,1,0,0:0:0:0:
316,164,422569,1,0,0:0:0:0:
288,64,422715,5,0,0:0:0:0:
184,84,422861,1,0,0:0:0:0:
124,168,423008,1,0,0:0:0:0:
68,256,423154,1,0,0:0:0:0:
68,152,423300,6,0,P|72:80|72:40,1,95
164,112,423593,2,0,P|232:144|264:144,1,95
336,84,423886,2,0,P|292:48|236:36,1,95
250,144,424179,2,0,P|310:188|354:192,1,95
448,244,424471,6,0,P|428:136|440:48,1,190
248,144,424910,2,0,L|233:348,1,190
147,258,425349,2,0,P|86:227|74:195,1,95
52,72,425642,1,0,0:0:0:0:
52,72,425935,5,0,0:0:0:0:
228,184,426227,2,0,P|280:200|340:184,1,95
376,104,426520,1,0,0:0:0:0:
376,104,426813,2,0,P|356:192|380:296,1,190
280,248,427252,1,0,0:0:0:0:
280,248,427398,6,0,P|240:284|112:228,1,190
76,184,427983,6,0,L|60:32,2,142.500005435944
160,248,428715,2,0,P|116:284|64:292,1,95
100,188,429008,1,0,0:0:0:0:
100,188,429154,6,0,P|148:168|184:128,1,95
248,60,429447,2,0,P|300:76|336:124,1,95
308,208,429739,2,0,L|320:268,2,47.5
220,268,430032,2,0,L|200:340,2,47.5
256,192,430325,1,4,0:0:0:0:
256,192,430471,12,4,433837,0:0:0:0:
104,232,449057,6,0,L|88:68,2,142.500005435944
248,296,449935,2,0,L|240:252,3,35.625001358986
212,288,450227,6,0,P|152:288|116:296,1,71.2500027179719
136,212,450520,2,0,P|188:204|212:192,1,71.2500027179719
248,136,450813,2,0,L|224:80,7,35.625001358986
268,80,451398,6,0,P|332:60|416:72,1,142.500005435944
416,148,451837,1,0,0:0:0:0:
416,148,451910,1,0,0:0:0:0:
416,148,451983,6,0,L|416:232,1,71.2500027179719
352,268,452276,1,0,0:0:0:0:
352,268,452422,1,0,0:0:0:0:
296,212,452569,6,0,P|216:212|136:232,1,142.500005435944
120,296,453008,2,0,L|124:336,9,35.625001358986
136,296,453739,6,0,P|148:224|136:136,1,142.500005435944
100,88,454179,1,0,0:0:0:0:
100,88,454252,1,0,0:0:0:0:
100,88,454325,6,0,P|152:96|188:96,1,71.2500027179719
216,160,454618,2,0,L|212:212,4,35.625001358986
152,304,455203,1,0,0:0:0:0:
224,280,455349,6,0,L|224:232,9,35.625001358986
200,212,456081,6,0,P|152:192|120:196,1,71.2500027179719
144,272,456374,2,0,P|192:296|212:300,1,71.2500027179719
248,288,456593,1,0,0:0:0:0:
248,288,456666,6,0,P|304:280|384:308,1,142.500005435944
392,228,457105,1,0,0:0:0:0:
392,228,457179,1,0,0:0:0:0:
392,228,457252,2,0,P|336:220|252:164,1,142.500005435944
260,96,457691,6,0,L|260:52,9,35.625001358986
224,76,458422,6,0,P|168:84|80:64,1,142.500005435944
76,144,458861,1,0,0:0:0:0:
76,144,458935,1,0,0:0:0:0:
76,144,459008,2,0,P|120:156|144:176,1,71.2500027179719
164,248,459300,2,0,P|116:248|84:228,1,71.2500027179719
60,228,459520,1,0,0:0:0:0:
60,228,459593,6,0,P|104:276|128:356,1,142.500005435944
188,300,460032,6,0,L|192:256,9,35.625001358986
212,296,460764,6,0,P|280:276|360:296,1,142.500005435944
408,236,461203,1,0,0:0:0:0:
408,236,461276,1,0,0:0:0:0:
408,236,461349,1,0,0:0:0:0:
300,124,461642,2,0,L|304:76,4,35.625001358986
300,124,462374,6,0,L|304:180,9,35.625001358986
264,168,463105,6,0,P|280:232|268:288,2,106.875004076958
208,116,463691,1,0,0:0:0:0:
208,116,463764,1,0,0:0:0:0:
208,116,463837,2,0,P|188:184|196:212,1,71.2500027179719
148,248,464130,1,0,0:0:0:0:
100,188,464276,6,0,P|120:112|116:40,1,142.500005435944
196,64,464715,1,0,0:0:0:0:
196,64,464788,1,0,0:0:0:0:
196,64,464861,2,0,P|248:64|268:72,1,71.2500027179719
300,140,465154,6,0,L|304:192,3,35.625001358986
264,172,465447,2,0,L|264:264,1,71.2500027179719
200,288,465739,2,0,L|192:336,3,35.625001358986
204,264,466032,5,0,0:0:0:0:
176,192,466179,1,0,0:0:0:0:
184,116,466325,1,0,0:0:0:0:
184,116,466471,2,0,L|172:48,2,35.625001358986
260,128,466764,1,0,0:0:0:0:
260,128,466910,6,0,L|276:184,11,35.625001358986
296,192,467788,5,8,0:0:0:0:
252,284,468959,1,0,0:0:0:0:
252,284,469543,5,0,0:0:0:0:
188,204,469738,1,0,0:0:0:0:
252,284,469934,1,0,0:0:0:0:
356,264,470129,1,0,0:0:0:0:
356,264,470202,1,0,0:0:0:0:
356,264,470275,6,0,P|340:320|340:360,1,95
240,320,470568,1,0,0:0:0:0:
240,320,470641,1,0,0:0:0:0:
240,320,470714,2,0,P|176:308|132:320,1,95
196,220,471007,2,0,P|256:216|304:192,1,95
368,136,471299,2,0,P|304:88|176:68,1,190
124,140,471738,1,0,0:0:0:0:
124,140,471812,1,0,0:0:0:0:
124,140,471885,6,0,L|120:196,7,47.5
148,144,472470,2,0,P|216:100|324:100,1,190
420,56,472909,1,0,0:0:0:0:
380,152,473056,2,0,P|292:176|232:164,2,142.5
444,236,473641,2,0,P|420:304|312:336,1,190
304,232,474080,1,0,0:0:0:0:
216,184,474226,2,0,P|168:228|208:340,1,190
96,332,474665,1,0,0:0:0:0:
80,228,474812,6,0,P|140:204|256:236,1,190
260,132,475251,1,0,0:0:0:0:
260,132,475324,1,0,0:0:0:0:
260,132,475397,2,0,P|244:72|248:32,1,95
160,100,475690,2,0,P|176:164|172:216,1,95
120,280,475982,2,0,P|72:192|92:100,1,190
188,84,476421,1,0,0:0:0:0:
188,84,476568,2,0,P|220:152|216:184,1,95
196,272,476860,2,0,P|268:276|296:292,1,95
376,312,477153,6,0,L|384:112,1,190
296,68,477592,1,0,0:0:0:0:
308,172,477738,2,0,P|380:176|444:140,2,142.5
208,204,478324,2,0,P|228:264|264:288,1,95
164,340,478617,2,0,P|128:292|92:264,2,95
168,236,479056,1,0,0:0:0:0:
168,236,479129,1,0,0:0:0:0:
168,236,479202,6,0,P|108:200|88:172,1,95
136,84,479495,2,0,P|208:64|324:88,1,190
260,172,479934,1,0,0:0:0:0:
212,264,480080,2,0,P|280:256|372:284,2,142.5
112,240,480665,6,0,P|132:328|148:340,1,95
208,256,480958,2,0,P|208:180|180:144,1,95
228,120,481178,1,0,0:0:0:0:
228,120,481251,2,0,P|256:180|292:200,1,95
384,196,481543,1,0,0:0:0:0:
384,196,481690,1,0,0:0:0:0:
336,268,481836,6,0,P|228:288|104:240,1,237.5
72,228,482275,1,0,0:0:0:0:
156,164,482421,2,0,P|176:88|164:12,2,142.5
208,256,483007,2,0,P|296:284|416:256,1,190
232,132,483592,2,0,P|292:96|332:196,1,190
312,280,484031,1,0,0:0:0:0:
208,292,484178,5,0,0:0:0:0:
148,164,484373,1,0,0:0:0:0:
208,292,484568,1,0,0:0:0:0:
148,164,484763,1,0,0:0:0:0:
280,116,484958,5,0,0:0:0:0:
416,96,485153,1,0,0:0:0:0:
280,116,485348,1,0,0:0:0:0:
416,96,485543,1,0,0:0:0:0:
428,236,485738,1,0,0:0:0:0:
296,280,485934,2,0,P|192:292|104:248,1,190
348,100,486519,5,0,0:0:0:0:
348,100,486592,1,0,0:0:0:0:
348,100,486665,1,0,0:0:0:0:
348,100,486738,1,0,0:0:0:0:
348,100,486812,2,0,P|344:172|448:168,1,190
376,248,487251,1,0,0:0:0:0:
252,212,487397,2,0,P|260:296|252:324,1,95
176,260,487690,6,0,P|152:200|220:72,1,190
256,164,488129,1,0,0:0:0:0:
256,164,488202,1,0,0:0:0:0:
256,164,488275,2,0,P|204:192|148:192,1,95
188,100,488568,2,0,P|232:64|292:64,1,95
364,72,488860,2,0,P|400:148|360:260,1,190
296,300,489299,5,0,0:0:0:0:
296,300,489373,1,0,0:0:0:0:
296,300,489446,2,0,P|348:348|396:352,1,95
380,240,489738,2,0,P|340:204|284:192,1,95
200,244,490031,5,0,0:0:0:0:
200,244,490104,1,0,0:0:0:0:
200,244,490178,1,0,0:0:0:0:
108,264,490324,2,0,P|136:308|180:324,1,95
200,244,490617,2,0,P|180:160|196:48,1,190
360,140,491202,5,0,0:0:0:0:
360,140,491275,1,0,0:0:0:0:
360,140,491348,1,0,0:0:0:0:
360,140,491421,1,0,0:0:0:0:
360,140,491495,6,0,P|376:188|444:216,1,95
452,112,491787,2,0,P|424:64|376:44,1,95
280,80,492080,2,0,P|276:144|244:188,1,95
280,284,492373,1,0,0:0:0:0:
280,284,492446,1,0,0:0:0:0:
280,284,492519,1,0,0:0:0:0:
280,284,492592,1,0,0:0:0:0:
280,284,492665,6,0,P|352:344|460:316,2,190
188,156,493397,1,0,0:0:0:0:
184,120,493470,1,0,0:0:0:0:
184,92,493543,6,0,P|228:56|384:64,1,190
344,144,493982,1,0,0:0:0:0:
344,144,494056,1,0,0:0:0:0:
344,144,494129,2,0,P|340:192|308:236,1,95
236,288,494421,2,0,P|208:244|220:192,1,95
308,216,494714,5,0,0:0:0:0:
332,236,494787,1,0,0:0:0:0:
344,268,494860,1,0,0:0:0:0:
336,300,494934,1,0,0:0:0:0:
312,324,495007,2,0,P|248:344|208:328,1,95
152,260,495299,2,0,P|136:192|96:144,1,95
204,108,495592,2,0,P|256:152|296:160,1,95
304,72,495885,6,0,P|388:60|484:128,1,190
440,212,496324,1,0,0:0:0:0:
440,212,496397,1,0,0:0:0:0:
440,212,496470,2,0,P|416:280|428:320,1,95
332,244,496763,2,0,P|348:176|344:136,1,95
248,120,497056,6,0,L|236:324,1,190
132,304,497495,1,0,0:0:0:0:
132,304,497568,1,0,0:0:0:0:
132,304,497641,2,0,P|192:296|244:312,1,95
204,200,497934,5,0,0:0:0:0:
204,200,498080,1,0,0:0:0:0:
116,140,498226,2,0,P|64:204|136:312,1,190
204,288,498665,1,0,0:0:0:0:
236,188,498812,6,0,P|236:88|220:40,2,142.5
204,288,499397,2,0,P|312:316|396:280,1,190
400,180,499836,1,0,0:0:0:0:
400,180,499909,1,0,0:0:0:0:
400,180,499982,2,0,P|320:156|272:252,1,190
228,332,500421,1,0,0:0:0:0:
228,332,500568,6,0,P|232:164|228:120,1,190
140,88,501007,1,0,0:0:0:0:
140,88,501080,1,0,0:0:0:0:
140,88,501153,2,0,P|200:76|284:88,2,142.5
112,188,501738,6,0,P|204:184|256:200,1,142.5
208,168,502031,2,0,P|212:248|188:312,1,142.5
176,256,502324,2,0,P|256:264|316:304,1,142.5
380,240,502617,1,0,0:0:0:0:
408,156,502763,1,0,0:0:0:0:
408,156,502909,6,0,L|396:100,7,47.5
352,136,503495,2,0,L|328:84,7,47.5
372,156,504080,6,0,L|364:212,3,47.5
392,232,504373,2,0,L|420:272,3,47.5
356,252,504665,2,0,L|364:316,3,47.5
364,324,504958,2,0,P|280:304|204:316,1,142.5
136,300,505251,5,0,0:0:0:0:
136,300,505397,1,0,0:0:0:0:
104,228,505543,2,0,P|88:140|92:124,1,95
184,180,505836,2,0,P|216:228|228:272,1,95
276,244,506056,1,0,0:0:0:0:
276,244,506129,6,0,P|256:172|264:132,1,95
184,80,506421,2,0,P|112:68|68:76,1,95
132,168,506714,2,0,P|192:192|240:188,1,95
308,252,507007,2,0,P|372:280|400:312,1,95
440,280,507226,1,0,0:0:0:0:
440,280,507299,6,0,P|368:304|344:340,1,95
252,308,507592,2,0,P|292:220|288:192,1,95
364,148,507885,2,0,P|280:112|176:112,1,190
132,120,508251,1,0,0:0:0:0:
132,120,508324,1,0,0:0:0:0:
216,56,508470,6,0,L|196:160,1,95
116,216,508763,2,0,P|116:288|172:344,2,142.5
200,152,509348,5,0,0:0:0:0:
200,152,509495,1,0,0:0:0:0:
296,192,509641,2,0,P|304:264|312:296,1,95
400,336,509934,6,0,P|408:252|456:132,1,190,2|0,0:0|0:0,0:0:0:0:
368,80,510373,1,0,0:0:0:0:
340,84,510446,1,0,0:0:0:0:
312,88,510519,2,0,P|264:124|248:192,1,95
164,216,510812,2,0,P|100:232|44:208,1,95
104,124,511104,6,0,P|96:220|140:316,1,190,8|0,0:0|0:0,0:0:0:0:
236,308,511543,1,0,0:0:0:0:
304,228,511690,1,0,0:0:0:0:
304,228,511836,1,0,0:0:0:0:
304,228,511982,2,0,P|368:208|488:244,1,190
400,304,512421,1,0,0:0:0:0:
400,304,512568,6,0,P|380:256|376:200,1,95
472,176,512860,2,0,P|472:120|444:72,1,95
380,160,513153,2,0,P|332:180|280:164,1,95
180,144,513446,1,0,0:0:0:0:
181,162,513519,1,0,0:0:0:0:
182,181,513593,1,0,0:0:0:0:
184,199,513666,1,0,0:0:0:0:
186,217,513739,2,0,L|179:273,8,47.5
408,144,514470,5,0,0:0:0:0:
408,144,514543,1,0,0:0:0:0:
408,144,514617,2,0,L|388:344,1,190,2|0,0:0|0:0,0:0:0:0:
292,296,515056,1,0,0:0:0:0:
220,220,515202,2,0,P|148:208|112:188,1,95
80,184,515421,1,0,0:0:0:0:
80,184,515495,6,0,P|120:236|132:276,1,95
200,188,515787,2,0,P|224:124|332:44,1,190
404,104,516226,1,0,0:0:0:0:
404,208,516373,5,0,0:0:0:0:
404,208,516446,1,0,0:0:0:0:
404,208,516519,1,0,0:0:0:0:
404,208,516592,1,0,0:0:0:0:
404,208,516665,6,0,P|360:144|356:112,1,95
272,64,516958,2,0,P|268:124|252:176,1,95
176,220,517251,2,0,P|150:270|144:320,1,95
100,336,517470,1,0,0:0:0:0:
100,336,517543,6,0,P|104:264|96:220,1,95
104,136,517836,2,0,P|155:102|224:104,1,95
292,128,518129,1,0,0:0:0:0:
292,128,518202,1,0,0:0:0:0:
292,128,518275,1,0,0:0:0:0:
292,128,518348,1,0,0:0:0:0:
292,128,518421,6,0,L|280:236,1,95
180,252,518714,2,0,P|152:160|200:72,1,190
372,120,519153,1,0,0:0:0:0:
372,120,519299,6,0,L|368:80,15,35.625001358986
344,116,520470,2,0,L|344:176,14,35.625001358986
288,60,521641,5,0,0:0:0:0:
92,304,522226,1,0,0:0:0:0:
404,304,522812,1,0,0:0:0:0:
148,120,523397,1,0,0:0:0:0:
204,168,523982,5,0,0:0:0:0:
216,161,524056,1,0,0:0:0:0:
230,159,524129,1,0,0:0:0:0:
244,159,524202,1,0,0:0:0:0:
258,159,524275,1,0,0:0:0:0:
272,161,524348,1,0,0:0:0:0:
285,164,524421,1,0,0:0:0:0:
298,167,524495,1,0,0:0:0:0:
311,170,524568,6,0,P|304:142|304:123,7,35.625001358986
349,174,525153,2,0,P|342:202|327:235,7,35.625001358986
333,224,525738,5,0,0:0:0:0:
315,218,525812,1,0,0:0:0:0:
297,217,525885,1,0,0:0:0:0:
279,218,525958,1,0,0:0:0:0:
261,222,526031,1,0,0:0:0:0:
243,226,526104,1,0,0:0:0:0:
225,227,526178,1,0,0:0:0:0:
207,225,526251,1,0,0:0:0:0:
189,223,526324,5,4,0:0:0:0:
336,268,526909,6,0,L|348:168,2,95.0000036239625
235,267,527495,2,0,P|147:251|91:199,1,142.500005435944,4|0,0:0|0:0,0:0:0:0:
256,192,527934,12,0,533641,0:0:0:0:
