osu file format v14

[General]
AudioFilename: audio.mp3
AudioLeadIn: 0
PreviewTime: 7433
Countdown: 0
SampleSet: Normal
StackLeniency: 0.7
Mode: 0
LetterboxInBreaks: 0
WidescreenStoryboard: 1

[Editor]
DistanceSpacing: 1
BeatDivisor: 4
GridSize: 8
TimelineZoom: 2.85

[Metadata]
Title:Uta
TitleUnicode:謳
Artist:Imperial Circus Dead Decadence
ArtistUnicode:Imperial Circus Dead Decadence
Creator:Mapper
Version:more pp
Source:
Tags:
BeatmapID:1709056
BeatmapSetID:814909

[Difficulty]
HPDrainRate:6
CircleSize:4.2
OverallDifficulty:9.7
ApproachRate:9.7
SliderMultiplier:2
SliderTickRate:1

[Events]
//Background and Video events
0,0,"Anime.jpg",0,0
//Break Periods
//Storyboard Layer 0 (Background)
//Storyboard Layer 1 (Fail)
//Storyboard Layer 2 (Pass)
//Storyboard Layer 3 (Foreground)
//Storyboard Sound Samples

[TimingPoints]
375,294.117647058824,4,2,1,50,1,0
5669,-200,4,2,1,50,0,0
6845,-100,4,1,1,60,0,0
8020,292.682926829268,4,1,1,60,1,1
8020,-100,4,1,1,60,0,1
8093,-100,4,1,1,60,0,0
16215,-133.333333333333,4,1,1,60,0,0
17385,-100,4,1,1,60,0,1
17459,-100,4,1,1,60,0,0
26751,-133.333333333333,4,1,1,60,0,0
29093,-200,4,1,1,60,0,0
29678,-200,4,2,1,60,0,0
31434,-86.9565217391304,4,1,1,60,0,1
50166,-86.9565217391304,4,1,1,60,0,0

[Colours]
Combo1 : 6,134,6
Combo2 : 255,0,0
Combo3 : 0,128,255
Combo4 : 128,0,255
Combo5 : 255,128,255
Combo6 : 241,131,7
SliderBorder : 255,255,255
SliderTrackOverride : 0,0,0

[HitObjects]
95,56,5669,6,0,L|102:165,1,100
41,300,6110,1,0,0:0:0:0:
109,240,6257,2,0,P|136:234|169:232,1,50,8|0,0:0|0:0,0:0:0:0:
19,371,6551,2,0,P|23:343|47:289,1,75
34,284,6845,5,4,0:0:0:0:
264,158,6992,2,0,B|380:126|351:193|473:152,1,200
249,34,7433,5,8,0:0:0:0:
459,156,7580,1,0,0:0:0:0:
154,98,7727,5,8,0:0:0:0:
481,55,7875,1,0,0:0:0:0:
217,326,8020,6,0,P|273:300|324:241,1,100,4|0,0:0|0:0,0:0:0:0:
362,88,8312,1,8,0:0:0:0:
501,311,8459,2,0,B|435:316|435:316|380:281|380:281|295:290,1,200
224,127,8898,2,0,P|270:154|310:197,1,100,8|0,0:0|0:0,0:0:0:0:
49,187,9190,5,0,0:0:0:0:
230,112,9337,1,0,0:0:0:0:
14,90,9483,1,8,0:0:0:0:
14,90,9776,5,0,0:0:0:0:
203,210,9922,1,0,0:0:0:0:
177,46,10068,2,0,B|188:215,1,150,8|0,0:0|0:0,0:0:0:0:
186,195,10361,6,0,B|207:202|237:201|237:201|268:239|268:239|319:237|390:259,1,200,4|8,0:0|0:0,0:0:0:0:
466,364,10800,2,0,P|403:346|368:331,1,100
374,134,11093,1,0,0:0:0:0:
465,245,11239,5,8,0:0:0:0:
449,43,11385,1,0,0:0:0:0:
270,193,11532,6,0,P|339:180|477:172,1,200,0|8,0:0|0:0,0:0:0:0:
468,171,12117,1,0,0:0:0:0:
347,37,12263,1,0,0:0:0:0:
270,193,12410,2,0,B|230:222|230:222|120:239,1,150,8|0,0:0|0:0,0:0:0:0:
130,237,12702,6,0,P|166:188|177:123,1,100,4|0,0:0|0:0,0:0:0:0:
62,21,12995,1,8,0:0:0:0:
192,142,13141,2,0,B|260:139|260:139|288:148|288:148|314:134|314:134|403:126,1,200
405,303,13580,2,0,P|374:276|344:220,1,100,8|0,0:0|0:0,0:0:0:0:
375,28,13873,6,0,B|382:52|382:52|387:136,1,100
255,17,14166,1,8,0:0:0:0:
155,244,14312,2,0,B|192:239|229:249|229:249|266:221|266:221|295:227|373:223,1,200
184,145,14751,2,0,P|149:191|50:224,1,150,8|0,0:0|0:0,0:0:0:0:
65,224,15044,6,0,B|28:212|28:212|-2:130,1,100,4|0,0:0|0:0,0:0:0:0:
107,7,15337,1,8,0:0:0:0:
259,191,15483,2,0,B|378:149|321:228|482:183,1,200
358,31,15922,2,0,P|304:58|264:104,1,100,8|0,0:0|0:0,0:0:0:0:
344,321,16215,6,0,L|423:326,1,75.0000028610231,4|0,0:0|0:0,0:0:0:0:
481,113,16507,2,0,L|402:118,1,75.0000028610231,8|0,0:0|0:0,0:0:0:0:
228,355,16800,5,0,0:0:0:0:
191,362,16873,1,0,0:0:0:0:
153,361,16946,1,0,0:0:0:0:
117,353,17019,1,0,0:0:0:0:
83,338,17092,1,0,0:0:0:0:
301,243,17239,1,0,0:0:0:0:
43,66,17385,6,0,P|35:128|36:179,1,100,4|0,0:0|0:0,0:0:0:0:
165,39,17678,1,8,0:0:0:0:
282,220,17824,2,0,B|318:194|318:194|337:28,1,200
195,141,18263,1,8,0:0:0:0:
415,94,18410,1,0,0:0:0:0:
249,319,18556,5,4,0:0:0:0:
285,124,18702,1,0,0:0:0:0:
431,346,18849,1,8,0:0:0:0:
431,346,19141,5,0,0:0:0:0:
380,185,19288,1,0,0:0:0:0:
235,340,19434,2,0,P|181:350|68:355,1,150,8|0,0:0|0:0,0:0:0:0:
86,355,19727,6,0,B|87:311|71:287|71:287|97:250|97:250|75:214|87:151,1,200,4|8,0:0|0:0,0:0:0:0:
270,233,20166,2,0,P|206:224|168:198,1,100
146,44,20459,1,0,0:0:0:0:
294,118,20605,1,8,0:0:0:0:
69,184,20751,1,0,0:0:0:0:
243,30,20898,6,0,L|121:22,1,100,4|0,0:0|0:0,0:0:0:0:
309,135,21190,2,0,P|394:113|542:97,1,200,8|0,0:0|0:0,0:0:0:0:
396,239,21629,1,0,0:0:0:0:
217,108,21776,2,0,L|29:96,1,150,8|0,0:0|0:0,0:0:0:0:
67,98,22068,6,0,P|93:149|94:207,1,100,4|0,0:0|0:0,0:0:0:0:
143,23,22361,1,8,0:0:0:0:
223,219,22507,2,0,B|184:215|162:208|162:208|100:239|100:239|70:233|19:237,1,200
228,91,22946,1,8,0:0:0:0:
241,244,23093,1,0,0:0:0:0:
316,47,23239,6,0,P|264:64|221:97,1,100
406,124,23532,1,8,0:0:0:0:
388,296,23678,2,0,B|363:268|363:268|349:179,1,100
504,83,23971,1,0,0:0:0:0:
341,216,24117,2,0,B|275:215|275:215|150:179,1,150,8|0,0:0|0:0,0:0:0:0:
194,191,24410,6,0,P|123:207|211:258,1,200,4|8,0:0|0:0,0:0:0:0:
162,91,24849,2,0,P|104:109|51:147,1,100
263,113,25141,1,0,0:0:0:0:
341,321,25288,2,0,L|456:338,1,100,8|0,0:0|0:0,0:0:0:0:
188,311,25580,5,4,0:0:0:0:
316,182,25727,1,0,0:0:0:0:
449,356,25873,1,8,0:0:0:0:
449,356,26166,5,0,0:0:0:0:
451,306,26239,1,0,0:0:0:0:
453,256,26312,1,0,0:0:0:0:
455,206,26385,1,0,0:0:0:0:
457,156,26459,2,0,P|429:207|390:251,1,100
137,65,26751,5,4,0:0:0:0:
266,106,26971,1,0,0:0:0:0:
95,148,27190,5,0,0:0:0:0:
221,11,27410,1,0,0:0:0:0:
261,238,27629,5,4,0:0:0:0:
119,48,27824,1,0,0:0:0:0:
171,311,28068,5,0,0:0:0:0:
320,28,28288,1,0,0:0:0:0:
424,364,28507,6,0,P|368:351|342:343,1,75.0000028610231,4|0,0:0|0:0,0:0:0:0:
320,147,28800,1,8,0:0:0:0:
480,303,28946,1,8,0:0:0:0:
177,183,29093,6,0,B|116:149|85:200|42:181|42:181|65:157|65:112,1,200,4|0,0:0|0:0,0:0:0:0:
62,109,29971,1,0,0:0:0:0:
133,258,30263,2,0,B|241:274|241:274|289:254,2,150
368,72,31434,5,4,0:0:0:0:
176,171,31580,1,0,0:0:0:0:
453,157,31727,5,8,0:0:0:0:
184,55,31873,1,0,0:0:0:0:
308,285,32019,5,0,0:0:0:0:
458,57,32166,1,0,0:0:0:0:
49,113,32312,5,8,0:0:0:0:
420,231,32459,1,0,0:0:0:0:
178,35,32605,5,0,0:0:0:0:
156,332,32751,1,0,0:0:0:0:
307,83,32898,1,8,0:0:0:0:
33,131,33044,6,0,B|-12:222|99:240|33:349,1,230.000004386902
299,197,33483,2,0,P|309:121|301:52,1,115.000002193451,8|0,0:0|0:0,0:0:0:0:
144,346,33776,5,0,0:0:0:0:
488,121,33922,1,0,0:0:0:0:
56,217,34068,5,8,0:0:0:0:
449,273,34215,1,0,0:0:0:0:
177,64,34361,5,0,0:0:0:0:
211,262,34507,1,0,0:0:0:0:
301,66,34654,1,8,0:0:0:0:
386,344,34800,6,0,P|315:338|239:342,1,115.000002193451
119,270,35093,1,0,0:0:0:0:
131,309,35166,1,0,0:0:0:0:
144,346,35239,1,8,0:0:0:0:
50,148,35385,6,0,B|101:150|167:114|167:114|224:162|224:162|284:132|374:149,1,345.000006580353,0|8,0:0|0:0,0:0:0:0:
378,161,35971,1,0,0:0:0:0:
232,19,36117,5,4,0:0:0:0:
390,63,36263,1,0,0:0:0:0:
133,95,36410,5,8,0:0:0:0:
303,65,36556,1,0,0:0:0:0:
48,15,36702,5,0,0:0:0:0:
139,235,36849,1,0,0:0:0:0:
313,48,36995,5,8,0:0:0:0:
21,133,37141,1,0,0:0:0:0:
377,345,37288,5,4,0:0:0:0:
122,79,37434,1,0,0:0:0:0:
231,379,37580,5,8,0:0:0:0:
303,65,37727,1,0,0:0:0:0:
77,341,37873,5,0,0:0:0:0:
389,233,38019,1,0,0:0:0:0:
123,228,38166,5,8,0:0:0:0:
377,345,38312,1,0,0:0:0:0:
122,79,38459,5,4,0:0:0:0:
323,173,38605,1,0,0:0:0:0:
46,159,38751,5,8,0:0:0:0:
401,105,38898,1,0,0:0:0:0:
289,364,39044,5,0,0:0:0:0:
122,79,39190,1,0,0:0:0:0:
426,212,39337,5,8,0:0:0:0:
0,335,39483,1,0,0:0:0:0:
102,43,39629,5,0,0:0:0:0:
102,43,39702,1,0,0:0:0:0:
102,43,39776,2,0,P|149:37|175:37,1,57.5000010967255
288,169,39922,2,0,P|227:160|176:142,1,115.000002193451,8|0,0:0|0:0,0:0:0:0:
297,31,40215,5,0,0:0:0:0:
336,35,40288,1,0,0:0:0:0:
374,50,40361,1,0,0:0:0:0:
406,74,40434,1,0,0:0:0:0:
430,106,40507,5,8,0:0:0:0:
163,158,40654,1,0,0:0:0:0:
492,262,40800,6,0,P|469:187|491:28,1,230.000004386902,4|8,0:0|0:0,0:0:0:0:
305,154,41239,1,0,0:0:0:0:
406,335,41385,5,0,0:0:0:0:
247,277,41532,1,0,0:0:0:0:
497,182,41678,2,0,L|369:194,1,115.000002193451,8|0,0:0|0:0,0:0:0:0:
149,335,41971,5,0,0:0:0:0:
328,305,42117,1,0,0:0:0:0:
97,235,42263,5,8,0:0:0:0:
243,361,42410,1,0,0:0:0:0:
152,141,42556,5,0,0:0:0:0:
30,323,42702,1,0,0:0:0:0:
260,191,42849,5,8,0:0:0:0:
1,155,42995,1,0,0:0:0:0:
221,28,43141,5,0,0:0:0:0:
301,268,43288,1,0,0:0:0:0:
119,46,43434,5,8,0:0:0:0:
42,305,43580,1,0,0:0:0:0:
401,34,43727,5,0,0:0:0:0:
1,155,43873,1,0,0:0:0:0:
468,275,44019,5,8,0:0:0:0:
8,24,44166,1,0,0:0:0:0:
363,353,44312,6,0,B|324:231|415:274|363:100,1,230.000004386902,0|8,0:0|0:0,0:0:0:0:
130,165,44751,6,0,B|163:159|182:136|182:136|225:169|284:159|284:159|261:115|286:60|356:68|386:101|365:152,1,345.000006580353,0|8,0:0|0:0,0:0:0:0:
371,129,45483,6,0,B|282:118|282:118|246:77|246:77|128:62,1,230.000004386902,4|8,0:0|0:0,0:0:0:0:
32,162,45922,1,0,0:0:0:0:
245,123,46068,1,0,0:0:0:0:
245,123,46215,1,0,0:0:0:0:
19,177,46361,2,0,P|14:241|18:354,1,172.500003290176,8|0,0:0|0:0,0:0:0:0:
17,349,46654,6,0,B|46:371|46:371|152:363,1,115.000002193451,4|0,0:0|0:0,0:0:0:0:
191,193,46946,1,8,0:0:0:0:
318,369,47093,2,0,P|256:354|203:295,1,115.000002193451
262,135,47385,1,0,0:0:0:0:
90,221,47532,1,8,0:0:0:0:
90,221,47678,1,0,0:0:0:0:
349,161,47824,6,0,B|426:145|426:145|465:156,1,115.000002193451,4|0,0:0|0:0,0:0:0:0:
266,246,48117,2,0,P|299:183|308:8,1,230.000004386902,8|0,0:0|0:0,0:0:0:0:
185,117,48556,1,0,0:0:0:0:
404,59,48702,1,8,0:0:0:0:
46,26,48849,6,0,B|36:53|17:74|17:74|29:178|72:100|84:251,1,230.000004386902,4|0,0:0|0:0,0:0:0:0:
81,242,49215,1,0,0:0:0:0:
79,253,49288,1,0,0:0:0:0:
193,103,49434,1,0,0:0:0:0:
219,322,49580,5,0,0:0:0:0:
305,74,49727,1,0,0:0:0:0:
101,352,49873,6,0,L|58:362,1,28.7500005483627
223,305,50019,1,0,0:0:0:0:
46,26,50166,5,4,0:0:0:0:
