osu file format v14

[General]
AudioFilename: audio.mp3
AudioLeadIn: 0
PreviewTime: 387585
Countdown: 0
SampleSet: Soft
StackLeniency: 0.7
Mode: 2
LetterboxInBreaks: 0
WidescreenStoryboard: 0

[Editor]
Bookmarks: 1641,33703,87556,106288,125020,134385,143751,162483,181215,199946,218678,237410,256142,274873,284239,293605,312337,331068,350268,367550,369438,388170,409243,430316,448463,467778,486510,505242,527486
DistanceSpacing: 1.3
BeatDivisor: 6
GridSize: 8
TimelineZoom: 4.199998

[Metadata]
Title:Uta
TitleUnicode:謳
Artist:Imperial Circus Dead Decadence
ArtistUnicode:Imperial Circus Dead Decadence
Creator:Kyuare
Version:Ophestra
Source:
Tags:ICDD DANCE ASK extol ou song declare express ode to the dreadful sacrament 惨劇の血に赫く染まった愛と絶望の黒い死とが紡ぐ最期の物語 sangeki no chi ni kagayaku somatta ai to zetsubou no kuroi shitoga tsumugu saigo no monogatari rib:y(uhki) l.g.c. kim kylie hull vaguedge another stream kimiko peath2 tome あにょ marathon
BeatmapID:1514618
BeatmapSetID:457332

[Difficulty]
HPDrainRate:7
CircleSize:4.2
OverallDifficulty:9.7
ApproachRate:9.7
SliderMultiplier:1.92
SliderTickRate:1

[Events]
//Background and Video events
0,0,"60515982_p0.png",0,0
//Break Periods
2,30380,33208
2,331268,349805
2,430516,447968
//Storyboard Layer 0 (Background)
//Storyboard Layer 1 (Fail)
//Storyboard Layer 2 (Pass)
//Storyboard Layer 3 (Foreground)
//Storyboard Sound Samples

[TimingPoints]
1641,428.571428571429,4,2,0,30,1,0
23926,458.015267175573,4,2,0,40,1,0
24842,468.75,4,2,0,40,1,8
25777,500,4,2,0,40,1,0
27777,545.454545454546,4,2,0,38,1,0
28322,-100,4,2,0,36,0,0
28867,555.555555555556,4,2,0,34,1,8
29422,-100,4,2,0,32,0,8
29973,310.880829015544,4,2,0,32,1,0
30076,-100,4,2,0,40,0,0
30180,-100,4,2,0,50,0,0
33703,292.682926829268,4,2,1,70,1,0
33995,-100,4,2,1,60,0,0
34142,-100,4,2,1,70,0,0
34288,-100,4,2,1,35,0,0
34434,-100,4,2,1,70,0,0
34581,-100,4,2,1,60,0,0
34727,-100,4,2,1,70,0,0
34873,-100,4,2,1,35,0,0
35020,-100,4,2,1,70,0,0
35166,-100,4,2,1,35,0,0
35312,-100,4,2,1,70,0,0
35459,-100,4,2,1,60,0,0
35605,-100,4,2,1,70,0,0
35751,-100,4,2,1,50,0,0
35971,-100,4,2,1,70,0,0
36337,-100,4,2,1,60,0,0
36483,-100,4,2,1,70,0,0
36629,-100,4,2,1,35,0,0
36776,-100,4,2,1,70,0,0
36922,-100,4,2,1,60,0,0
37068,-100,4,2,1,70,0,0
37215,-100,4,2,1,35,0,0
37288,-100,4,2,1,70,0,0
37507,-100,4,2,1,60,0,0
37654,-100,4,2,1,70,0,0
37800,-100,4,2,1,35,0,0
37946,-100,4,2,1,70,0,0
38093,-66.6666666666667,4,2,1,50,0,0
38312,-66.6666666666667,4,2,1,70,0,0
38385,-200,4,2,1,70,0,0
40434,-200,4,2,1,45,0,0
40727,-100,4,2,1,70,0,0
43361,-100,4,2,1,60,0,0
43507,-100,4,2,1,70,0,0
43654,-100,4,2,1,35,0,0
43800,-100,4,2,1,70,0,0
43946,-100,4,2,1,60,0,0
44093,-100,4,2,1,70,0,0
44239,-100,4,2,1,35,0,0
44385,-100,4,2,1,70,0,0
44532,-100,4,2,1,35,0,0
44678,-100,4,2,1,70,0,0
44824,-100,4,2,1,60,0,0
44971,-100,4,2,1,70,0,0
45117,-100,4,2,1,50,0,0
45337,-100,4,2,1,70,0,0
45702,-100,4,2,1,60,0,0
45849,-100,4,2,1,70,0,0
45995,-100,4,2,1,35,0,0
46142,-100,4,2,1,70,0,0
46288,-100,4,2,1,60,0,0
46434,-100,4,2,1,70,0,0
46581,-100,4,2,1,35,0,0
46727,-100,4,2,1,70,0,0
46873,-100,4,2,1,60,0,0
47020,-100,4,2,1,70,0,0
47166,-100,4,2,1,35,0,0
47312,-100,4,2,1,70,0,0
47459,-100,4,2,1,50,0,0
47678,-100,4,2,1,70,0,0
48044,-100,4,2,1,60,0,0
48190,-100,4,2,1,70,0,0
48337,-100,4,2,1,35,0,0
48483,-100,4,2,1,70,0,0
48629,-100,4,2,1,60,0,0
48776,-100,4,2,1,70,0,0
48922,-100,4,2,1,35,0,0
49068,-100,4,2,1,70,0,0
49215,-100,4,2,1,35,0,0
49361,-100,4,2,1,70,0,0
49507,-100,4,2,1,60,0,0
49654,-100,4,2,1,70,0,0
49800,-100,4,2,1,60,0,0
49946,-100,4,2,1,70,0,0
51556,-100,4,2,1,50,0,0
51922,-100,4,2,1,70,0,0
53020,-100,4,2,1,50,0,0
53093,-100,4,2,1,70,0,0
53605,-100,4,2,1,50,0,0
53751,-100,4,2,1,70,0,0
53898,-100,4,2,1,50,0,0
54044,-100,4,2,1,70,0,0
54483,-100,4,2,1,50,0,0
54629,-100,4,2,1,70,0,0
55361,-100,4,2,1,50,0,0
55434,-100,4,2,1,70,0,0
55946,-100,4,2,1,50,0,0
56093,-100,4,2,1,70,0,0
56532,-100,4,2,1,50,0,0
56678,-100,4,2,1,70,0,0
56824,-100,4,2,1,50,0,0
56971,-100,4,2,1,70,0,0
57702,-100,4,2,1,50,0,0
57776,-100,4,2,1,70,0,0
58288,-100,4,2,1,50,0,0
58434,-100,4,2,1,70,0,0
58581,-100,4,2,1,50,0,0
58727,-100,4,2,1,70,0,0
59166,-100,4,2,1,50,0,0
59459,-100,4,2,1,70,0,0
61800,-100,4,2,2,60,0,0
61946,-100,4,2,1,70,0,0
62385,-100,4,2,1,50,0,0
62459,-100,4,2,1,70,0,0
62971,-100,4,2,1,50,0,0
63044,-100,4,2,1,70,0,0
63263,-100,4,2,1,50,0,0
63410,-100,4,2,1,70,0,0
63849,-100,4,2,1,50,0,0
64142,-100,4,2,1,70,0,0
64727,-100,4,2,1,50,0,0
64800,-100,4,2,1,70,0,0
65312,-100,4,2,1,50,0,0
65385,-100,4,2,1,70,0,0
65898,-100,4,2,1,50,0,0
65971,-100,4,2,1,70,0,0
66190,-100,4,2,1,50,0,0
66263,-100,4,2,1,70,0,0
66337,-100,4,2,1,50,0,0
66410,-100,4,2,1,70,0,0
67434,-100,4,2,1,50,0,0
67507,-100,4,2,1,70,0,0
67654,-100,4,2,1,40,0,0
67727,-100,4,2,1,70,0,0
67800,-100,4,2,1,50,0,0
67873,-100,4,2,1,70,0,0
67946,-100,4,2,1,55,0,0
68020,-100,4,2,1,70,0,0
68093,-100,4,2,1,57,0,0
68166,-100,4,2,1,70,0,0
68239,-100,4,2,1,60,0,0
68312,-100,4,2,1,70,0,0
68385,-100,4,2,1,62,0,0
68459,-100,4,2,1,70,0,0
68532,-100,4,2,1,65,0,0
68605,-100,4,2,1,70,0,0
68824,-100,4,2,2,70,0,0
68898,-100,4,2,1,70,0,0
77898,-100,4,2,2,55,0,0
77971,-100,4,2,1,70,0,0
78190,-100,4,2,2,55,0,0
78263,-100,4,2,1,70,0,0
80239,-100,4,2,2,55,0,0
80459,-100,4,2,1,70,0,0
80532,-100,4,2,2,55,0,0
80605,-100,4,2,1,70,0,0
82581,-100,4,2,2,55,0,0
82654,-100,4,2,1,70,0,0
82873,-100,4,2,2,55,0,0
82946,-100,4,2,1,70,0,0
84922,-100,4,2,2,55,0,0
85142,-100,4,2,1,70,0,0
85215,-100,4,2,2,55,0,0
85361,-100,4,2,1,70,0,0
85654,-100,4,2,1,50,0,0
85800,-100,4,2,1,70,0,0
86093,-100,4,2,1,50,0,0
86239,-100,4,2,1,70,0,0
86532,-100,4,2,1,50,0,0
86678,-100,4,2,1,70,0,0
86971,-100,4,2,1,50,0,0
87117,-100,4,2,1,70,0,0
87263,-100,4,2,1,50,0,0
87483,-100,4,2,1,70,0,0
87556,-100,4,2,2,55,0,1
87702,-100,4,2,1,70,0,1
87995,-100,4,2,1,50,0,1
88142,-100,4,2,1,70,0,1
88434,-100,4,2,1,50,0,1
88581,-100,4,2,1,70,0,1
88727,-100,4,2,1,50,0,1
88873,-100,4,2,1,70,0,1
89166,-100,4,2,1,50,0,1
89312,-100,4,2,1,70,0,1
89605,-100,4,2,1,50,0,1
89751,-100,4,2,1,70,0,1
89898,-100,4,2,1,50,0,1
90044,-100,4,2,1,70,0,1
90337,-100,4,2,1,50,0,1
90483,-100,4,2,1,70,0,1
90776,-100,4,2,1,50,0,1
90922,-100,4,2,1,70,0,1
91068,-100,4,2,1,50,0,1
91215,-100,4,2,1,70,0,1
91361,-100,4,2,1,50,0,1
91507,-100,4,2,1,70,0,1
91946,-100,4,2,1,50,0,1
92093,-100,4,2,1,70,0,1
92239,-100,4,2,1,50,0,1
92339,-100,4,2,1,70,0,1
92678,-100,4,2,1,50,0,1
92824,-100,4,2,1,70,0,1
93117,-100,4,2,1,50,0,1
93263,-100,4,2,1,70,0,1
93410,-100,4,2,1,50,0,1
93556,-100,4,2,1,70,0,1
93849,-100,4,2,1,50,0,1
93995,-100,4,2,1,70,0,1
94288,-100,4,2,1,50,0,1
94434,-100,4,2,1,70,0,1
94581,-100,4,2,1,50,0,1
94727,-100,4,2,1,70,0,1
95020,-100,4,2,1,50,0,1
95166,-100,4,2,1,70,0,1
95459,-100,4,2,1,50,0,1
95605,-100,4,2,1,70,0,1
95751,-100,4,2,1,50,0,1
95898,-100,4,2,1,70,0,1
95971,-100,4,2,1,50,0,1
96044,-100,4,2,1,45,0,1
96117,-100,4,2,1,70,0,1
96263,-100,4,2,1,60,0,1
96337,-100,4,2,1,55,0,1
96483,-100,4,2,1,70,0,1
96629,-100,4,2,2,50,0,1
96849,-100,4,2,1,70,0,1
96922,-100,4,2,2,60,0,1
97068,-100,4,2,1,70,0,1
97361,-100,4,2,1,50,0,1
97507,-100,4,2,1,70,0,1
97800,-100,4,2,1,50,0,1
97946,-100,4,2,1,70,0,1
98093,-100,4,2,1,50,0,1
98239,-100,4,2,1,70,0,1
98532,-100,4,2,1,50,0,1
98678,-100,4,2,1,70,0,1
98971,-100,4,2,1,50,0,1
99117,-100,4,2,1,70,0,1
99263,-100,4,2,1,50,0,1
99410,-100,4,2,1,70,0,1
99702,-100,4,2,1,50,0,1
99849,-100,4,2,1,70,0,1
100142,-100,4,2,1,50,0,1
100288,-100,4,2,1,70,0,1
100727,-100,4,2,1,50,0,1
100800,-100,4,2,1,70,0,1
101312,-100,4,2,1,50,0,1
101385,-100,4,2,1,70,0,1
101605,-100,4,2,1,50,0,1
101751,-100,4,2,1,70,0,1
102044,-100,4,2,1,50,0,1
102190,-100,4,2,1,70,0,1
102483,-100,4,2,1,50,0,1
102629,-100,4,2,1,70,0,1
102776,-100,4,2,1,50,0,1
102922,-100,4,2,1,70,0,1
103215,-100,4,2,1,50,0,1
103361,-100,4,2,1,70,0,1
103654,-100,4,2,1,50,0,1
103800,-100,4,2,1,70,0,1
104532,-100,4,2,1,55,0,1
104605,-100,4,2,1,70,0,1
105410,-100,4,2,1,55,0,1
105483,-100,4,2,1,70,0,1
105702,-100,4,2,1,55,0,1
105776,-100,4,2,1,70,0,1
105995,-100,4,2,1,55,0,1
106068,-100,4,2,1,70,0,1
106288,-100,4,2,2,50,0,8755
106507,-100,4,2,1,70,0,0
106727,-100,4,2,1,40,0,0
106873,-100,4,2,1,70,0,0
107166,-100,4,2,1,40,0,0
107385,-100,4,2,1,70,0,0
107459,-100,4,2,1,40,0,0
107605,-100,4,2,1,70,0,0
107898,-100,4,2,1,40,0,0
107971,-100,4,2,1,70,0,0
108337,-100,4,2,1,40,0,0
109946,-100,4,2,1,70,0,0
110239,-100,4,2,1,40,0,0
110385,-100,4,2,1,70,0,0
110532,-100,4,2,1,40,0,0
110898,-100,4,2,1,70,0,0
111410,-100,4,2,1,40,0,0
111556,-100,4,2,1,70,0,0
111849,-100,4,2,1,40,0,0
112068,-100,4,2,1,70,0,0
112142,-100,4,2,1,40,0,0
112288,-100,4,2,1,70,0,0
112581,-100,4,2,1,40,0,0
112727,-100,4,2,1,70,0,0
113020,-100,4,2,1,40,0,0
113239,-100,4,2,1,70,0,0
113312,-100,4,2,1,40,0,0
113459,-100,4,2,1,70,0,0
113605,-100,4,2,1,40,0,0
114190,-100,4,2,1,70,0,0
114337,-100,4,2,1,55,0,0
114410,-100,4,2,1,70,0,0
114629,-100,4,2,1,50,0,0
114922,-100,4,2,1,30,0,0
115215,-100,4,2,1,55,0,0
115361,-100,4,2,1,40,0,0
115507,-100,4,2,1,25,0,0
115654,-100,4,2,1,70,0,0
116093,-100,4,2,1,40,0,0
116239,-100,4,2,1,70,0,0
116532,-100,4,2,1,40,0,0
116751,-100,4,2,1,70,0,0
116824,-100,4,2,1,40,0,0
117044,-100,4,2,1,70,0,0
117117,-100,4,2,1,40,0,0
117263,-90.0900900900901,4,2,1,40,0,0
117556,-90.0900900900901,4,2,1,70,0,0
117702,-100,4,2,1,40,0,0
117849,-100,4,2,1,70,0,0
117995,-100,4,2,1,40,0,0
118581,-100,4,2,1,70,0,0
118873,-100,4,2,1,40,0,0
119312,-100,4,2,1,70,0,0
119605,-100,4,2,1,40,0,0
119751,-100,4,2,1,70,0,0
119898,-100,4,2,1,40,0,0
120263,-100,4,2,1,70,0,0
120776,-100,4,2,1,40,0,0
120922,-100,4,2,1,70,0,0
121068,-100,4,2,1,40,0,0
121434,-100,4,2,1,70,0,0
121507,-100,4,2,1,40,0,0
121800,-100,4,2,1,70,0,0
121946,-100,4,2,1,40,0,0
122093,-100,4,2,1,70,0,0
122239,-100,4,2,1,40,0,0
122824,-100,4,2,1,70,0,0
122971,-100,4,2,1,40,0,0
123263,-100,4,2,1,70,0,0
123410,-100,4,2,1,40,0,0
123556,-100,4,2,1,70,0,0
123702,-100,4,2,1,40,0,0
123995,-100,4,2,1,55,0,0
124142,-100,4,2,1,50,0,0
124288,-100,4,2,1,30,0,0
124581,-100,4,2,1,55,0,0
124727,-100,4,2,1,40,0,0
124873,-100,4,2,1,25,0,0
125020,-100,4,2,1,70,0,0
125605,-100,4,2,1,40,0,0
125751,-100,4,2,1,70,0,0
125898,-100,4,2,1,40,0,0
126044,-100,4,2,1,70,0,0
126483,-100,4,2,1,40,0,0
126629,-100,4,2,1,70,0,0
126776,-100,4,2,1,40,0,0
126922,-100,4,2,1,70,0,0
127068,-100,4,2,1,40,0,0
127215,-100,4,2,1,70,0,0
127361,-100,4,2,1,40,0,0
127800,-100,4,2,1,70,0,0
127946,-100,4,2,1,40,0,0
128385,-100,4,2,1,70,0,0
128532,-100,4,2,1,40,0,0
128678,-100,4,2,1,70,0,0
128824,-100,4,2,1,40,0,0
130288,-100,4,2,1,70,0,0
130581,-100,4,2,1,40,0,0
130727,-100,4,2,1,70,0,0
130873,-100,4,2,1,40,0,0
131020,-100,4,2,1,70,0,0
131312,-100,4,2,1,40,0,0
131459,-100,4,2,1,70,0,0
131751,-100,4,2,1,40,0,0
131898,-100,4,2,1,70,0,0
132044,-100,4,2,1,40,0,0
133068,-100,4,2,1,70,0,0
133507,-100,4,2,1,40,0,0
133654,-100,4,2,1,70,0,0
133800,-100,4,2,1,40,0,0
133873,-100,4,2,1,70,0,0
134093,-100,4,2,1,40,0,0
134239,-100,4,2,1,70,0,0
134385,-100,4,2,1,40,0,0
134532,-100,4,2,1,70,0,0
134678,-100,4,2,1,40,0,0
134824,-100,4,2,1,70,0,0
135117,-100,4,2,1,40,0,0
135263,-100,4,2,1,70,0,0
135410,-100,4,2,1,40,0,0
135556,-100,4,2,1,70,0,0
135702,-100,4,2,1,40,0,0
135849,-100,4,2,1,70,0,0
135995,-100,4,2,1,40,0,0
136142,-100,4,2,1,70,0,0
136288,-100,4,2,1,40,0,0
136434,-100,4,2,1,70,0,0
136581,-100,4,2,1,40,0,0
136727,-100,4,2,1,70,0,0
136873,-100,4,2,1,40,0,0
137020,-100,4,2,1,70,0,0
137166,-100,4,2,1,40,0,0
137385,-100,4,2,1,70,0,0
137459,-100,4,2,1,40,0,0
137605,-100,4,2,1,70,0,0
137751,-100,4,2,1,40,0,0
137898,-100,4,2,1,50,0,0
138044,-100,4,2,1,40,0,0
138190,-100,4,2,1,70,0,0
138337,-100,4,2,1,40,0,0
138483,-100,4,2,1,70,0,0
138629,-100,4,2,1,40,0,0
138776,-100,4,2,1,70,0,0
138922,-100,4,2,1,40,0,0
139068,-100,4,2,1,70,0,0
139215,-100,4,2,1,40,0,0
139361,-100,4,2,1,70,0,0
139507,-100,4,2,1,40,0,0
139654,-100,4,2,1,70,0,0
139800,-100,4,2,1,40,0,0
139946,-100,4,2,1,70,0,0
140093,-100,4,2,1,40,0,0
140532,-100,4,2,1,70,0,0
140678,-100,4,2,1,40,0,0
140824,-100,4,2,1,70,0,0
140971,-100,4,2,1,40,0,0
141117,-100,4,2,1,70,0,0
141263,-100,4,2,1,40,0,0
141410,-100,4,2,1,70,0,0
143751,-100,4,2,2,55,0,0
143898,-100,4,2,1,70,0,0
144044,-100,4,2,1,50,0,0
144190,-100,4,2,1,70,0,0
144483,-100,4,2,1,50,0,0
144629,-100,4,2,1,70,0,0
144702,-100,4,2,1,50,0,0
144849,-100,4,2,1,70,0,0
144922,-100,4,2,1,50,0,0
145068,-100,4,2,1,70,0,0
145142,-100,4,2,1,50,0,0
145288,-100,4,2,1,70,0,0
145361,-100,4,2,1,50,0,0
145434,-100,4,2,1,70,0,0
145507,-100,4,2,1,50,0,0
145581,-100,4,2,1,70,0,0
145654,-100,4,2,1,30,0,0
145727,-100,4,2,1,60,0,0
145800,-100,4,2,1,50,0,0
145873,-100,4,2,1,60,0,0
145946,-100,4,2,1,70,0,0
146385,-100,4,2,1,50,0,0
146532,-100,4,2,1,70,0,0
146678,-100,4,2,1,50,0,0
146824,-100,4,2,1,70,0,0
146898,-100,4,2,1,50,0,0
147044,-100,4,2,1,70,0,0
147117,-100,4,2,1,50,0,0
147190,-100,4,2,1,70,0,0
147263,-100,4,2,1,50,0,0
147337,-100,4,2,1,70,0,0
147483,-100,4,2,1,50,0,0
147556,-100,4,2,1,70,0,0
147702,-100,4,2,1,50,0,0
147776,-100,4,2,1,70,0,0
147849,-100,4,2,1,50,0,0
147922,-100,4,2,1,70,0,0
148434,-100,4,2,1,50,0,0
148507,-100,4,2,1,70,0,0
148581,-100,4,2,1,50,0,0
148654,-100,4,2,1,70,0,0
148727,-100,4,2,1,50,0,0
148946,-100,4,2,1,70,0,0
149020,-100,4,2,1,50,0,0
149093,-100,4,2,1,70,0,0
149166,-100,4,2,1,50,0,0
149239,-100,4,2,1,70,0,0
149312,-100,4,2,1,50,0,0
149532,-100,4,2,1,70,0,0
149605,-100,4,2,1,50,0,0
149678,-100,4,2,1,70,0,0
149751,-100,4,2,1,50,0,0
149824,-100,4,2,1,70,0,0
149898,-100,4,2,1,50,0,0
149971,-100,4,2,1,70,0,0
150044,-100,4,2,1,50,0,0
150117,-100,4,2,1,70,0,0
150776,-100,4,2,1,50,0,0
150995,-100,4,2,1,70,0,0
151068,-100,4,2,1,50,0,0
151581,-100,4,2,1,70,0,0
151654,-100,4,2,1,50,0,0
152020,-100,4,2,1,70,0,0
152093,-100,4,2,1,50,0,0
152166,-100,4,2,1,70,0,0
152239,-100,4,2,1,50,0,0
152312,-100,4,2,1,70,0,0
152385,-100,4,2,1,50,0,0
152605,-100,4,2,1,70,0,0
152678,-100,4,2,1,50,0,0
152751,-100,4,2,1,70,0,0
153117,-100,4,2,1,50,0,0
153190,-100,4,2,1,70,0,0
153263,-100,4,2,1,50,0,0
153337,-100,4,2,1,70,0,0
153410,-100,4,2,1,50,0,0
153483,-100,4,2,1,70,0,0
153556,-100,4,2,1,50,0,0
153629,-100,4,2,1,70,0,0
153702,-100,4,2,1,50,0,0
153776,-100,4,2,1,70,0,0
153849,-100,4,2,1,50,0,0
153922,-100,4,2,1,70,0,0
153995,-100,4,2,1,50,0,0
154068,-100,4,2,1,70,0,0
154142,-100,4,2,1,50,0,0
154215,-100,4,2,1,70,0,0
154288,-100,4,2,1,50,0,0
154361,-100,4,2,1,70,0,0
154434,-100,4,2,1,50,0,0
154507,-100,4,2,1,70,0,0
154581,-100,4,2,1,50,0,0
154654,-100,4,2,1,70,0,0
154727,-100,4,2,1,50,0,0
154800,-100,4,2,1,70,0,0
154873,-100,4,2,1,50,0,0
154946,-100,4,2,1,70,0,0
155020,-100,4,2,1,50,0,0
155093,-100,4,2,1,70,0,0
155166,-100,4,2,1,50,0,0
155239,-100,4,2,1,70,0,0
155605,-100,4,2,1,50,0,0
155678,-100,4,2,1,70,0,0
155751,-100,4,2,1,50,0,0
155824,-100,4,2,1,70,0,0
155898,-100,4,2,1,50,0,0
155971,-100,4,2,1,70,0,0
156044,-100,4,2,1,50,0,0
156117,-100,4,2,1,70,0,0
156190,-100,4,2,1,50,0,0
156263,-100,4,2,1,70,0,0
156337,-100,4,2,1,50,0,0
156410,-100,4,2,1,70,0,0
156483,-100,4,2,1,50,0,0
156556,-100,4,2,1,70,0,0
156629,-100,4,2,1,50,0,0
156702,-100,4,2,1,70,0,0
156776,-100,4,2,1,50,0,0
156849,-100,4,2,1,70,0,0
156922,-100,4,2,1,50,0,0
156995,-100,4,2,1,70,0,0
157068,-100,4,2,1,50,0,0
157142,-100,4,2,1,70,0,0
157215,-100,4,2,1,50,0,0
157288,-100,4,2,1,70,0,0
157800,-100,4,2,1,50,0,0
157873,-100,4,2,1,70,0,0
157946,-100,4,2,1,50,0,0
158020,-100,4,2,1,70,0,0
158093,-100,4,2,1,50,0,0
158166,-100,4,2,1,70,0,0
158239,-100,4,2,1,50,0,0
158312,-100,4,2,1,70,0,0
158385,-100,4,2,1,50,0,0
158459,-100,4,2,1,70,0,0
158532,-100,4,2,1,50,0,0
158605,-100,4,2,1,70,0,0
158678,-100,4,2,1,50,0,0
158751,-100,4,2,1,70,0,0
158824,-100,4,2,1,50,0,0
158898,-100,4,2,1,70,0,0
158971,-100,4,2,1,50,0,0
159044,-100,4,2,1,70,0,0
159117,-100,4,2,1,50,0,0
159190,-100,4,2,1,70,0,0
159263,-100,4,2,1,50,0,0
159337,-100,4,2,1,70,0,0
159410,-100,4,2,1,50,0,0
159483,-100,4,2,1,70,0,0
159556,-100,4,2,1,50,0,0
159629,-100,4,2,1,70,0,0
160142,-100,4,2,2,70,0,0
160215,-100,4,2,1,70,0,0
160727,-100,4,2,1,50,0,0
160800,-100,4,2,1,70,0,0
161312,-100,4,2,1,55,0,0
161385,-100,4,2,1,70,0,0
161605,-100,4,2,1,60,0,0
161678,-100,4,2,1,70,0,0
161898,-100,4,2,1,65,0,0
161971,-100,4,2,1,70,0,0
162483,-75.187969924812,4,2,3,100,0,1
162532,-75.187969924812,4,2,1,70,0,1
162922,-75.187969924812,4,2,1,60,0,1
162995,-75.187969924812,4,2,1,70,0,1
163361,-75.187969924812,4,2,1,60,0,1
163434,-75.187969924812,4,2,1,70,0,1
163507,-75.187969924812,4,2,1,60,0,1
163581,-75.187969924812,4,2,1,70,0,1
163654,-75.187969924812,4,2,1,60,0,1
163727,-75.187969924812,4,2,1,70,0,1
164093,-75.187969924812,4,2,1,60,0,1
164166,-75.187969924812,4,2,1,70,0,1
164239,-75.187969924812,4,2,1,60,0,1
164312,-75.187969924812,4,2,1,70,0,1
164459,-75.187969924812,4,2,1,60,0,1
164532,-75.187969924812,4,2,1,70,0,1
164678,-75.187969924812,4,2,1,60,0,1
164751,-75.187969924812,4,2,1,70,0,1
164824,-75.187969924812,4,2,1,60,0,1
164898,-75.187969924812,4,2,1,70,0,1
165263,-75.187969924812,4,2,1,60,0,1
165337,-75.187969924812,4,2,1,70,0,1
165410,-75.187969924812,4,2,1,60,0,1
165483,-75.187969924812,4,2,1,70,0,1
165556,-75.187969924812,4,2,1,60,0,1
165629,-75.187969924812,4,2,1,70,0,1
165702,-75.187969924812,4,2,1,60,0,1
165776,-75.187969924812,4,2,1,70,0,1
165849,-75.187969924812,4,2,1,60,0,1
165922,-75.187969924812,4,2,1,70,0,1
165995,-75.187969924812,4,2,1,60,0,1
166068,-75.187969924812,4,2,1,70,0,1
166434,-75.187969924812,4,2,1,60,0,1
166507,-75.187969924812,4,2,1,70,0,1
166581,-75.187969924812,4,2,1,60,0,1
166654,-75.187969924812,4,2,1,70,0,1
167166,-75.187969924812,4,2,1,60,0,1
167239,-75.187969924812,4,2,1,70,0,1
167605,-75.187969924812,4,2,1,60,0,1
167678,-75.187969924812,4,2,1,70,0,1
167751,-75.187969924812,4,2,1,60,0,1
167824,-75.187969924812,4,2,1,70,0,1
167971,-75.187969924812,4,2,1,60,0,1
168044,-75.187969924812,4,2,1,70,0,1
168190,-75.187969924812,4,2,1,60,0,1
168263,-75.187969924812,4,2,1,70,0,1
168337,-75.187969924812,4,2,1,60,0,1
168410,-75.187969924812,4,2,1,70,0,1
168776,-75.187969924812,4,2,1,60,0,1
168849,-75.187969924812,4,2,1,70,0,1
168922,-75.187969924812,4,2,1,60,0,1
168995,-75.187969924812,4,2,1,70,0,1
169361,-75.187969924812,4,2,1,60,0,1
169434,-75.187969924812,4,2,1,70,0,1
169507,-75.187969924812,4,2,1,60,0,1
169581,-75.187969924812,4,2,1,70,0,1
169946,-75.187969924812,4,2,1,60,0,1
170020,-75.187969924812,4,2,1,70,0,1
170093,-75.187969924812,4,2,1,60,0,1
170166,-75.187969924812,4,2,1,70,0,1
170312,-75.187969924812,4,2,1,60,0,1
170385,-75.187969924812,4,2,1,70,0,1
170532,-75.187969924812,4,2,1,60,0,1
170605,-75.187969924812,4,2,1,70,0,1
170678,-75.187969924812,4,2,1,60,0,1
170751,-75.187969924812,4,2,1,70,0,1
171117,-75.187969924812,4,2,1,60,0,1
171190,-75.187969924812,4,2,1,70,0,1
171263,-75.187969924812,4,2,1,60,0,1
171337,-75.187969924812,4,2,1,70,0,1
171556,-75.187969924812,4,2,1,60,0,1
171629,-75.187969924812,4,2,1,70,0,1
171702,-75.187969924812,4,2,1,60,0,1
171776,-75.187969924812,4,2,1,70,0,1
171849,-75.187969924812,4,2,2,50,0,1
171922,-75.187969924812,4,2,1,70,0,1
172288,-75.187969924812,4,2,1,40,0,1
172361,-75.187969924812,4,2,1,70,0,1
172434,-75.187969924812,4,2,1,55,0,1
172581,-75.187969924812,4,2,1,70,0,1
172654,-75.187969924812,4,2,1,55,0,1
172800,-75.187969924812,4,2,1,70,0,1
172873,-75.187969924812,4,2,1,55,0,1
172946,-75.187969924812,4,2,1,70,0,1
173020,-75.187969924812,4,2,1,55,0,1
173166,-75.187969924812,4,2,1,40,0,1
173312,-75.187969924812,4,2,1,70,0,1
173459,-75.187969924812,4,2,1,55,0,1
173678,-75.187969924812,4,2,1,70,0,1
173751,-75.187969924812,4,2,1,40,0,1
173824,-75.187969924812,4,2,1,70,0,1
173898,-75.187969924812,4,2,1,55,0,1
174337,-75.187969924812,4,2,1,40,0,1
174483,-75.187969924812,4,2,1,70,0,1
174629,-75.187969924812,4,2,1,55,0,1
174922,-75.187969924812,4,2,1,70,0,1
174995,-75.187969924812,4,2,1,55,0,1
175142,-75.187969924812,4,2,1,70,0,1
175215,-75.187969924812,4,2,1,55,0,1
175288,-75.187969924812,4,2,1,70,0,1
175361,-75.187969924812,4,2,1,55,0,1
175507,-75.187969924812,4,2,1,40,0,1
175654,-75.187969924812,4,2,1,70,0,1
175800,-75.187969924812,4,2,1,55,0,1
176020,-75.187969924812,4,2,1,70,0,1
176093,-75.187969924812,4,2,1,40,0,1
176239,-75.187969924812,4,2,1,55,0,1
176678,-75.187969924812,4,2,1,40,0,1
176824,-75.187969924812,4,2,1,55,0,1
176898,-75.187969924812,4,2,1,70,0,1
176971,-75.187969924812,4,2,1,55,0,1
177190,-75.187969924812,4,2,1,70,0,1
177263,-75.187969924812,4,2,1,55,0,1
177410,-75.187969924812,4,2,1,70,0,1
177556,-75.187969924812,4,2,1,55,0,1
177849,-75.187969924812,4,2,1,70,0,1
177995,-75.187969924812,4,2,1,60,0,1
178142,-75.187969924812,4,2,1,70,0,1
178581,-75.187969924812,4,2,1,55,0,1
178727,-75.187969924812,4,2,1,62,0,1
178873,-75.187969924812,4,2,1,70,0,1
180629,-100,4,2,1,70,0,0
181215,-100,4,2,2,70,0,1
181288,-100,4,2,1,70,0,1
181507,-100,4,2,1,55,0,1
181581,-100,4,2,1,70,0,1
181800,-100,4,2,1,55,0,1
181873,-100,4,2,1,70,0,1
181946,-100,4,2,1,55,0,1
182020,-100,4,2,1,70,0,1
182093,-100,4,2,1,55,0,1
182166,-100,4,2,1,70,0,1
182239,-100,4,2,1,55,0,1
182312,-100,4,2,1,70,0,1
182678,-100,4,2,1,55,0,1
182751,-100,4,2,1,70,0,1
182971,-100,4,2,1,55,0,1
183044,-100,4,2,1,70,0,1
183117,-100,4,2,1,55,0,1
183190,-100,4,2,1,70,0,1
183263,-100,4,2,1,55,0,1
183337,-100,4,2,1,70,0,1
183410,-100,4,2,1,55,0,1
183483,-100,4,2,1,70,0,1
183849,-100,4,2,1,55,0,1
183922,-100,4,2,1,70,0,1
184142,-100,4,2,1,55,0,1
184215,-100,4,2,1,70,0,1
184288,-100,4,2,1,55,0,1
184361,-100,4,2,1,70,0,1
184434,-100,4,2,1,55,0,1
184507,-100,4,2,1,70,0,1
184581,-100,4,2,1,55,0,1
184654,-100,4,2,1,70,0,1
184873,-100,4,2,1,68,0,1
184946,-100,4,2,1,70,0,1
185020,-100,4,2,1,66,0,1
185093,-100,4,2,1,70,0,1
185166,-100,4,2,1,64,0,1
185239,-100,4,2,1,70,0,1
185312,-100,4,2,1,62,0,1
185385,-100,4,2,1,70,0,1
185459,-100,4,2,1,60,0,1
185532,-100,4,2,1,70,0,1
185605,-100,4,2,1,58,0,1
185678,-100,4,2,1,70,0,1
185898,-100,4,2,1,55,0,1
185971,-100,4,2,1,70,0,1
186190,-100,4,2,1,55,0,1
186263,-100,4,2,1,70,0,1
186483,-100,4,2,1,55,0,1
186556,-100,4,2,1,70,0,1
186629,-100,4,2,1,55,0,1
186702,-100,4,2,1,70,0,1
186776,-100,4,2,1,55,0,1
186849,-100,4,2,1,70,0,1
186922,-100,4,2,1,55,0,1
186995,-100,4,2,1,70,0,1
187361,-100,4,2,1,55,0,1
187434,-100,4,2,1,70,0,1
187654,-100,4,2,1,55,0,1
187727,-100,4,2,1,70,0,1
187800,-100,4,2,1,55,0,1
187873,-100,4,2,1,70,0,1
187946,-100,4,2,1,55,0,1
188020,-100,4,2,1,70,0,1
188093,-100,4,2,1,55,0,1
188166,-100,4,2,1,70,0,1
188532,-100,4,2,1,55,0,1
188605,-100,4,2,1,70,0,1
188824,-100,4,2,1,55,0,1
188898,-100,4,2,1,70,0,1
188971,-100,4,2,1,55,0,1
189044,-100,4,2,1,70,0,1
189117,-100,4,2,1,55,0,1
189190,-100,4,2,1,70,0,1
189263,-100,4,2,1,55,0,1
189337,-100,4,2,1,70,0,1
189483,-100,4,2,1,40,0,1
189556,-100,4,2,1,45,0,1
189629,-100,4,2,1,50,0,1
189702,-100,4,2,1,70,0,1
189776,-100,4,2,1,60,0,1
189849,-100,4,2,1,50,0,1
189922,-100,4,2,1,40,0,1
190068,-100,4,2,1,50,0,1
190142,-100,4,2,1,60,0,1
190215,-100,4,2,1,70,0,1
190581,-66.6666666666667,4,2,2,60,0,1
190654,-66.6666666666667,4,2,1,70,0,1
191215,-100,4,2,1,70,0,1
191312,-100,4,2,1,65,0,1
191385,-100,4,2,1,60,0,1
191507,-100,4,2,1,58,0,1
191605,-100,4,2,1,56,0,1
191702,-100,4,2,1,54,0,1
191800,-100,4,2,1,52,0,1
191898,-100,4,2,1,50,0,1
192044,-100,4,2,1,50,0,1
192190,-100,4,2,1,45,0,1
192337,-100,4,2,1,70,0,1
192483,-100,4,2,1,45,0,1
192581,-100,4,2,1,70,0,1
192776,-100,4,2,1,45,0,1
192922,-100,4,2,1,70,0,1
193068,-100,4,2,1,45,0,1
193142,-100,4,2,1,70,0,1
193361,-100,4,2,1,45,0,1
193434,-100,4,2,1,70,0,1
193654,-100,4,2,1,45,0,1
193727,-100,4,2,1,70,0,1
193946,-100,4,2,1,45,0,1
194020,-100,4,2,1,70,0,1
194239,-100,4,2,1,45,0,1
194385,-100,4,2,1,70,0,1
194532,-100,4,2,1,45,0,1
194678,-100,4,2,1,70,0,1
194824,-100,4,2,1,45,0,1
194898,-100,4,2,1,70,0,1
195117,-100,4,2,1,45,0,1
195190,-100,4,2,1,70,0,1
195410,-100,4,2,1,45,0,1
195483,-100,4,2,1,70,0,1
195702,-100,4,2,1,50,0,1
195751,-100,4,2,1,70,0,1
195849,-100,4,2,1,50,0,1
195898,-100,4,2,1,70,0,1
195946,-100,4,2,1,50,0,1
195995,-100,4,2,1,70,0,1
196068,-100,4,2,1,50,0,1
196142,-100,4,2,1,70,0,1
196190,-100,4,2,1,50,0,1
196337,-100,4,2,1,70,0,1
196434,-100,4,2,1,50,0,1
196532,-100,4,2,1,70,0,1
196629,-100,4,2,1,50,0,1
196678,-100,4,2,1,70,0,1
196727,-100,4,2,1,50,0,1
196776,-100,4,2,1,70,0,1
196873,-100,4,2,1,40,0,1
196946,-100,4,2,1,70,0,1
197020,-100,4,2,1,50,0,1
199946,-100,4,2,2,50,0,0
200020,-100,4,2,1,70,0,0
200239,-100,4,2,1,45,0,0
200385,-100,4,2,1,70,0,0
200532,-100,4,2,1,45,0,0
200678,-100,4,2,1,70,0,0
200824,-100,4,2,1,45,0,0
200971,-100,4,2,1,70,0,0
201117,-100,4,2,1,45,0,0
201263,-100,4,2,1,70,0,0
201410,-100,4,2,1,45,0,0
201556,-100,4,2,1,70,0,0
201702,-100,4,2,1,45,0,0
201776,-100,4,2,1,70,0,0
202288,-100,4,2,1,45,0,0
202361,-100,4,2,1,70,0,0
202581,-100,4,2,1,45,0,0
202654,-100,4,2,1,70,0,0
202873,-100,4,2,1,45,0,0
203020,-100,4,2,1,70,0,0
203166,-100,4,2,1,45,0,0
203312,-100,4,2,1,70,0,0
203459,-100,4,2,1,45,0,0
203532,-100,4,2,1,70,0,0
203751,-100,4,2,1,45,0,0
203824,-100,4,2,1,70,0,0
204044,-100,4,2,1,45,0,0
204117,-100,4,2,1,70,0,0
204629,-100,4,2,1,45,0,0
204702,-100,4,2,1,70,0,0
204922,-100,4,2,1,45,0,0
204995,-100,4,2,1,70,0,0
205215,-100,4,2,1,45,0,0
205361,-100,4,2,1,70,0,0
205507,-100,4,2,1,45,0,0
205654,-100,4,2,1,70,0,0
205800,-100,4,2,1,45,0,0
205946,-100,4,2,1,70,0,0
206093,-100,4,2,1,45,0,0
206166,-100,4,2,1,70,0,0
206385,-100,4,2,1,45,0,0
206532,-100,4,2,1,70,0,0
206824,-100,4,2,1,45,0,0
207190,-100,4,2,1,70,0,0
207263,-100,4,2,1,45,0,0
207337,-100,4,2,1,70,0,0
207556,-100,4,2,1,45,0,0
207702,-100,4,2,1,70,0,0
207849,-100,4,2,1,45,0,0
207995,-100,4,2,1,70,0,0
208142,-100,4,2,1,50,0,0
208215,-100,4,2,1,70,0,0
208434,-100,4,2,1,50,0,0
208507,-100,4,2,1,70,0,0
208727,-100,4,2,1,45,0,0
208873,-100,4,2,1,70,0,0
209020,-100,4,2,1,45,0,0
209093,-100,4,2,1,70,0,0
209312,-100,4,2,1,45,0,0
209385,-100,4,2,1,70,0,0
209605,-100,4,2,1,45,0,0
209678,-100,4,2,1,70,0,0
209898,-100,4,2,1,45,0,0
210044,-100,4,2,1,70,0,0
210190,-100,4,2,1,45,0,0
210337,-100,4,2,1,70,0,0
210483,-100,4,2,1,45,0,0
210629,-100,4,2,1,70,0,0
210776,-100,4,2,1,45,0,0
210849,-100,4,2,1,70,0,0
211068,-100,4,2,1,45,0,0
211215,-100,4,2,1,70,0,0
211654,-100,4,2,1,45,0,0
211727,-100,4,2,1,70,0,0
211946,-100,4,2,1,45,0,0
212020,-100,4,2,1,70,0,0
212239,-100,4,2,1,45,0,0
212385,-100,4,2,1,70,0,0
212532,-100,4,2,1,45,0,0
212678,-100,4,2,1,70,0,0
212824,-100,4,2,1,45,0,0
212971,-100,4,2,1,70,0,0
213117,-100,4,2,1,45,0,0
213190,-100,4,2,1,70,0,0
213410,-100,4,2,1,45,0,0
213556,-100,4,2,1,70,0,0
213995,-100,4,2,1,45,0,0
214068,-100,4,2,1,70,0,0
214288,-100,4,2,1,45,0,0
214361,-100,4,2,1,70,0,0
214581,-100,4,2,1,45,0,0
214727,-100,4,2,1,70,0,0
214873,-100,4,2,1,45,0,0
215020,-100,4,2,1,70,0,0
215166,-100,4,2,1,45,0,0
215312,-100,4,2,1,70,0,0
215459,-100,4,2,1,45,0,0
215532,-100,4,2,1,70,0,0
215751,-100,4,2,1,45,0,0
215898,-100,4,2,1,70,0,0
216044,-100,4,2,1,45,0,0
216190,-100,4,2,1,70,0,0
216337,-100,4,2,1,45,0,0
216483,-100,4,2,1,70,0,0
216629,-100,4,2,1,45,0,0
216702,-100,4,2,1,70,0,0
216922,-100,4,2,1,45,0,0
217068,-100,4,2,1,70,0,0
217215,-100,4,2,1,45,0,0
217361,-100,4,2,1,70,0,0
217507,-100,4,2,1,45,0,0
217581,-100,4,2,1,70,0,0
217800,-100,4,2,1,45,0,0
217873,-100,4,2,1,70,0,0
218093,-100,4,2,1,45,0,0
218166,-100,4,2,1,70,0,0
218385,-100,4,2,1,45,0,0
218459,-100,4,2,1,70,0,0
218678,-100,4,2,2,70,0,0
218751,-100,4,2,1,70,0,0
218971,-100,4,2,1,50,0,0
219117,-100,4,2,1,70,0,0
219263,-100,4,2,1,50,0,0
219483,-100,4,2,1,70,0,0
219556,-100,4,2,1,50,0,0
219702,-100,4,2,1,70,0,0
219849,-100,4,2,1,50,0,0
219922,-100,4,2,1,70,0,0
220142,-100,4,2,1,50,0,0
220215,-100,4,2,1,70,0,0
220288,-100,4,2,1,50,0,0
220361,-100,4,2,1,70,0,0
220581,-100,4,2,1,50,0,0
220654,-100,4,2,1,70,0,0
220727,-100,4,2,1,50,0,0
220800,-100,4,2,1,70,0,0
221020,-100,4,2,1,50,0,0
221459,-100,4,2,1,70,0,0
221751,-100,4,2,1,50,0,0
221971,-100,4,2,1,70,0,0
222190,-100,4,2,1,50,0,0
222288,-100,4,2,1,70,0,0
222483,-100,4,2,1,50,0,0
222581,-100,4,2,1,70,0,0
222922,-100,4,2,1,50,0,0
222995,-100,4,2,1,70,0,0
223068,-100,4,2,1,50,0,0
223288,-100,4,2,1,70,0,0
223361,-100,4,2,1,50,0,0
223507,-100,4,2,1,70,0,0
223654,-100,4,2,1,50,0,0
223800,-100,4,2,1,70,0,0
223946,-100,4,2,1,50,0,0
224385,-100,4,2,1,70,0,0
224532,-100,4,2,1,50,0,0
224678,-100,4,2,1,70,0,0
224824,-100,4,2,1,50,0,0
225117,-100,4,2,1,70,0,0
225263,-100,4,2,1,50,0,0
225556,-100,4,2,1,70,0,0
225702,-100,4,2,1,50,0,0
225751,-100,4,2,1,70,0,0
225995,-100,4,2,1,50,0,0
226044,-100,4,2,1,70,0,0
226434,-100,4,2,1,50,0,0
226483,-100,4,2,1,70,0,0
226581,-100,4,2,1,50,0,0
226629,-100,4,2,1,70,0,0
226727,-100,4,2,1,50,0,0
226776,-100,4,2,1,70,0,0
227020,-100,4,2,1,50,0,0
227459,-100,4,2,1,40,0,0
227751,-100,4,2,1,50,0,0
228483,-100,4,2,1,70,0,0
228629,-100,4,2,1,50,0,0
229068,-100,4,2,1,70,0,0
229215,-100,4,2,1,50,0,0
229800,-100,4,2,1,70,0,0
229946,-100,4,2,1,50,0,0
230239,-100,4,2,1,70,0,0
230385,-100,4,2,1,50,0,0
230532,-100,4,2,1,70,0,0
230678,-100,4,2,1,50,0,0
230824,-100,4,2,1,70,0,0
231117,-100,4,2,1,50,0,0
231410,-100,4,2,1,70,0,0
231556,-100,4,2,1,50,0,0
232142,-100,4,2,1,70,0,0
232288,-100,4,2,1,50,0,0
232654,-100,4,2,1,70,0,0
232727,-100,4,2,1,50,0,0
232824,-100,4,2,1,70,0,0
233020,-100,4,2,1,50,0,0
233117,-100,4,2,1,70,0,0
233312,-100,4,2,1,50,0,0
233410,-100,4,2,1,70,0,0
233605,-100,4,2,1,50,0,0
233702,-100,4,2,1,70,0,0
233898,-100,4,2,1,50,0,0
233995,-100,4,2,1,70,0,0
234190,-100,4,2,1,50,0,0
234288,-100,4,2,1,70,0,0
234483,-100,4,2,1,50,0,0
234581,-100,4,2,1,70,0,0
234776,-100,4,2,1,50,0,0
234873,-100,4,2,1,70,0,0
235068,-100,4,2,1,50,0,0
235166,-100,4,2,1,70,0,0
235361,-100,4,2,1,50,0,0
235459,-100,4,2,1,70,0,0
235654,-100,4,2,1,50,0,0
235727,-100,4,2,1,70,0,0
235800,-100,4,2,1,50,0,0
235873,-100,4,2,1,70,0,0
235946,-100,4,2,1,50,0,0
236239,-100,4,2,1,70,0,0
236385,-100,4,2,1,50,0,0
236459,-100,4,2,1,70,0,0
236532,-100,4,2,1,50,0,0
236605,-100,4,2,1,70,0,0
236824,-100,4,2,1,50,0,0
236898,-100,4,2,1,70,0,0
236971,-100,4,2,1,50,0,0
237044,-100,4,2,1,70,0,0
237117,-100,4,2,1,50,0,0
237190,-100,4,2,1,70,0,0
237263,-100,4,2,1,50,0,0
237337,-100,4,2,1,70,0,0
237410,-100,4,2,2,55,0,1
237556,-100,4,2,1,50,0,1
237702,-100,4,2,1,70,0,1
237849,-100,4,2,1,50,0,1
237996,-100,4,2,1,70,0,1
238288,-100,4,2,1,50,0,1
238435,-100,4,2,1,70,0,1
238581,-100,4,2,1,50,0,1
238727,-100,4,2,1,70,0,1
239020,-100,4,2,1,50,0,1
239166,-100,4,2,1,70,0,1
239459,-100,4,2,1,50,0,1
239605,-100,4,2,1,70,0,1
239752,-100,4,2,1,50,0,1
239898,-100,4,2,1,70,0,1
240191,-100,4,2,1,50,0,1
240337,-100,4,2,1,70,0,1
240630,-100,4,2,1,50,0,1
240776,-100,4,2,1,70,0,1
240922,-100,4,2,1,50,0,1
241069,-100,4,2,1,70,0,1
241215,-100,4,2,1,50,0,1
241361,-100,4,2,1,70,0,1
241800,-100,4,2,1,50,0,1
241947,-100,4,2,1,70,0,1
242093,-100,4,2,1,50,0,1
242193,-100,4,2,1,70,0,1
242532,-100,4,2,1,50,0,1
242678,-100,4,2,1,70,0,1
242971,-100,4,2,1,50,0,1
243117,-100,4,2,1,70,0,1
243264,-100,4,2,1,50,0,1
243410,-100,4,2,1,70,0,1
243703,-100,4,2,1,50,0,1
243849,-100,4,2,1,70,0,1
244142,-100,4,2,1,50,0,1
244288,-100,4,2,1,70,0,1
244435,-100,4,2,1,50,0,1
244581,-100,4,2,1,70,0,1
244874,-100,4,2,1,50,0,1
245020,-100,4,2,1,70,0,1
245313,-100,4,2,1,50,0,1
245459,-100,4,2,1,70,0,1
245605,-100,4,2,1,50,0,1
245752,-100,4,2,1,70,0,1
245825,-100,4,2,1,50,0,1
245898,-100,4,2,1,45,0,1
245971,-100,4,2,1,70,0,1
246117,-100,4,2,1,60,0,1
246191,-100,4,2,1,55,0,1
246337,-100,4,2,1,70,0,1
246483,-100,4,2,1,50,0,1
246703,-100,4,2,1,70,0,1
246776,-100,4,2,2,60,0,1
246922,-100,4,2,1,50,0,1
247068,-100,4,2,1,70,0,1
247215,-100,4,2,1,50,0,1
247361,-100,4,2,1,70,0,1
247654,-100,4,2,1,50,0,1
247800,-100,4,2,1,70,0,1
247947,-100,4,2,1,50,0,1
248093,-100,4,2,1,70,0,1
248386,-100,4,2,1,50,0,1
248532,-100,4,2,1,70,0,1
248825,-100,4,2,1,50,0,1
248971,-100,4,2,1,70,0,1
249117,-100,4,2,1,50,0,1
249264,-100,4,2,1,70,0,1
249556,-100,4,2,1,50,0,1
249703,-100,4,2,1,70,0,1
249996,-100,4,2,1,50,0,1
250142,-100,4,2,1,70,0,1
250581,-100,4,2,1,50,0,1
250654,-100,4,2,1,70,0,1
251166,-100,4,2,1,50,0,1
251239,-100,4,2,1,70,0,1
251459,-100,4,2,1,50,0,1
251605,-100,4,2,1,70,0,1
251898,-100,4,2,1,50,0,1
252044,-100,4,2,1,70,0,1
252337,-100,4,2,1,50,0,1
252483,-100,4,2,1,70,0,1
252630,-100,4,2,1,50,0,1
252776,-100,4,2,1,70,0,1
253069,-100,4,2,1,50,0,1
253215,-100,4,2,1,70,0,1
253508,-100,4,2,1,50,0,1
253654,-100,4,2,1,70,0,1
254385,-100,4,2,1,55,0,1
254459,-100,4,2,1,70,0,1
255263,-100,4,2,1,55,0,1
255337,-100,4,2,1,70,0,1
255556,-100,4,2,1,55,0,1
255629,-100,4,2,1,70,0,1
255849,-100,4,2,1,55,0,1
255922,-100,4,2,1,70,0,1
256142,-100,4,2,2,60,0,0
256361,-100,4,2,1,70,0,0
256581,-100,4,2,1,40,0,0
256727,-100,4,2,1,70,0,0
257020,-100,4,2,1,40,0,0
257239,-100,4,2,1,70,0,0
257313,-100,4,2,1,40,0,0
257459,-100,4,2,1,70,0,0
257752,-100,4,2,1,40,0,0
257825,-100,4,2,1,70,0,0
258191,-100,4,2,1,40,0,0
258337,-100,4,2,1,70,0,0
258483,-100,4,2,1,40,0,0
259069,-100,4,2,1,70,0,0
259361,-100,4,2,1,40,0,0
259800,-100,4,2,1,70,0,0
260093,-100,4,2,1,40,0,0
260239,-100,4,2,1,70,0,0
260386,-100,4,2,1,40,0,0
260752,-100,4,2,1,70,0,0
261264,-100,4,2,1,40,0,0
261410,-100,4,2,1,70,0,0
261703,-100,4,2,1,40,0,0
261922,-100,4,2,1,70,0,0
261996,-100,4,2,1,40,0,0
262142,-100,4,2,1,70,0,0
262435,-100,4,2,1,40,0,0
262581,-100,4,2,1,70,0,0
262874,-100,4,2,1,40,0,0
263093,-100,4,2,1,70,0,0
263166,-100,4,2,1,40,0,0
263313,-100,4,2,1,70,0,0
263459,-100,4,2,1,40,0,0
263605,-100,4,2,1,70,0,0
263898,-100,4,2,1,40,0,0
264044,-100,4,2,1,70,0,0
264191,-100,4,2,1,55,0,0
264264,-100,4,2,1,70,0,0
264483,-100,4,2,1,50,0,0
264776,-100,4,2,1,30,0,0
265069,-100,4,2,1,55,0,0
265215,-100,4,2,1,40,0,0
265361,-100,4,2,1,25,0,0
265508,-100,4,2,1,70,0,0
265947,-100,4,2,1,40,0,0
266093,-100,4,2,1,70,0,0
266386,-100,4,2,1,40,0,0
266605,-100,4,2,1,70,0,0
266678,-100,4,2,1,40,0,0
266898,-100,4,2,1,70,0,0
266971,-100,4,2,1,40,0,0
267117,-90.0900900900901,4,2,1,40,0,0
267410,-90.0900900900901,4,2,1,70,0,0
267556,-100,4,2,1,40,0,0
267703,-100,4,2,1,70,0,0
267849,-100,4,2,1,40,0,0
268435,-100,4,2,1,70,0,0
268727,-100,4,2,1,40,0,0
269166,-100,4,2,1,70,0,0
269459,-100,4,2,1,40,0,0
269605,-100,4,2,1,70,0,0
269752,-100,4,2,1,40,0,0
270117,-100,4,2,1,70,0,0
270630,-100,4,2,1,40,0,0
270776,-100,4,2,1,70,0,0
271069,-100,4,2,1,40,0,0
271288,-100,4,2,1,70,0,0
271361,-100,4,2,1,40,0,0
271654,-100,4,2,1,70,0,0
271800,-100,4,2,1,40,0,0
271947,-100,4,2,1,70,0,0
272239,-100,4,2,1,40,0,0
272459,-100,4,2,1,70,0,0
272532,-100,4,2,1,40,0,0
272678,-100,4,2,1,70,0,0
272825,-100,4,2,1,40,0,0
273117,-100,4,2,1,70,0,0
273264,-100,4,2,1,40,0,0
273410,-100,4,2,1,70,0,0
273556,-100,4,2,1,40,0,0
273849,-100,4,2,1,55,0,0
273996,-100,4,2,1,50,0,0
274142,-100,4,2,1,30,0,0
274435,-100,4,2,1,55,0,0
274581,-100,4,2,1,40,0,0
274727,-100,4,2,1,25,0,0
274874,-100,4,2,0,50,0,0
275898,-100,4,2,0,60,0,0
276044,-100,4,2,0,70,0,0
276190,-100,4,2,0,50,0,0
277068,-100,4,2,0,60,0,0
277215,-100,4,2,0,70,0,0
277361,-100,4,2,0,50,0,0
278239,-100,4,2,0,55,0,0
278385,-100,4,2,0,60,0,0
278532,-100,4,2,0,50,0,0
280581,-100,4,2,0,60,0,0
280727,-100,4,2,0,70,0,0
280873,-100,4,2,0,50,0,0
281751,-100,4,2,0,60,0,0
281898,-100,4,2,0,70,0,0
282044,-100,4,2,0,50,0,0
282922,-100,4,2,0,60,0,0
283068,-100,4,2,1,70,0,0
283215,-100,4,3,0,90,0,0
283361,-100,4,3,0,80,0,0
283507,-100,4,3,0,70,0,0
283654,-100,4,3,0,60,0,0
283800,-100,4,3,0,90,0,0
283946,-100,4,3,0,70,0,0
284093,-100,4,3,0,50,0,0
284239,-100,4,2,2,60,0,0
287751,-100,4,2,1,55,0,0
287898,-100,4,2,1,70,0,0
288044,-100,4,2,1,55,0,0
288190,-100,4,2,1,70,0,0
288483,-100,4,2,1,55,0,0
288776,-100,4,2,1,70,0,0
289507,-100,4,2,1,60,0,0
289654,-100,4,2,1,70,0,0
289800,-100,4,2,1,60,0,0
289946,-100,4,2,1,70,0,0
290678,-100,4,2,1,60,0,0
290824,-100,4,2,1,70,0,0
290971,-100,4,2,1,60,0,0
291117,-100,4,2,1,70,0,0
291849,-100,4,2,1,60,0,0
291995,-100,4,2,1,70,0,0
292142,-100,4,2,1,60,0,0
292288,-100,4,2,1,70,0,0
292727,-100,4,2,1,55,0,0
293020,-100,4,2,1,70,0,0
293312,-100,4,2,1,55,0,0
293410,-100,4,2,1,70,0,0
293605,-75.187969924812,4,2,1,70,0,0
293824,-75.187969924812,4,2,1,55,0,0
293971,-75.187969924812,4,2,1,70,0,0
294044,-75.187969924812,4,2,1,55,0,0
294117,-75.187969924812,4,2,1,70,0,0
294410,-75.187969924812,4,2,1,55,0,0
294556,-75.187969924812,4,2,1,70,0,0
294629,-75.187969924812,4,2,1,55,0,0
294702,-75.187969924812,4,2,1,70,0,0
294995,-75.187969924812,4,2,1,55,0,0
295142,-75.187969924812,4,2,1,70,0,0
295215,-75.187969924812,4,2,1,55,0,0
295288,-75.187969924812,4,2,1,70,0,0
295507,-75.187969924812,4,2,1,55,0,0
295654,-75.187969924812,4,2,1,70,0,0
295800,-75.187969924812,4,2,1,55,0,0
295946,-75.187969924812,4,2,1,70,0,0
296166,-75.187969924812,4,2,1,55,0,0
296312,-75.187969924812,4,2,1,70,0,0
296385,-75.187969924812,4,2,1,55,0,0
296459,-75.187969924812,4,2,1,70,0,0
296751,-75.187969924812,4,2,1,55,0,0
296898,-75.187969924812,4,2,1,70,0,0
296971,-75.187969924812,4,2,1,55,0,0
297044,-75.187969924812,4,2,1,70,0,0
297337,-75.187969924812,4,2,1,55,0,0
297483,-75.187969924812,4,2,1,70,0,0
297556,-75.187969924812,4,2,1,55,0,0
297629,-75.187969924812,4,2,1,70,0,0
297849,-75.187969924812,4,2,1,55,0,0
297995,-75.187969924812,4,2,1,70,0,0
298142,-75.187969924812,4,2,1,55,0,0
298288,-75.187969924812,4,2,1,70,0,0
298507,-75.187969924812,4,2,1,55,0,0
298654,-75.187969924812,4,2,1,70,0,0
298727,-75.187969924812,4,2,1,55,0,0
298800,-75.187969924812,4,2,1,70,0,0
299093,-75.187969924812,4,2,1,55,0,0
299166,-75.187969924812,4,2,1,70,0,0
299312,-75.187969924812,4,2,1,55,0,0
299385,-75.187969924812,4,2,1,70,0,0
299678,-75.187969924812,4,2,1,55,0,0
299824,-75.187969924812,4,2,1,70,0,0
299898,-75.187969924812,4,2,1,55,0,0
299971,-75.187969924812,4,2,1,70,0,0
300190,-75.187969924812,4,2,1,55,0,0
300337,-75.187969924812,4,2,1,70,0,0
300483,-75.187969924812,4,2,1,55,0,0
300629,-75.187969924812,4,2,1,70,0,0
300849,-75.187969924812,4,2,1,55,0,0
300995,-75.187969924812,4,2,1,70,0,0
301068,-75.187969924812,4,2,1,55,0,0
301142,-75.187969924812,4,2,1,70,0,0
301434,-75.187969924812,4,2,1,55,0,0
301581,-75.187969924812,4,2,1,70,0,0
301654,-75.187969924812,4,2,1,55,0,0
301727,-75.187969924812,4,2,1,70,0,0
302020,-75.187969924812,4,2,1,55,0,0
302166,-75.187969924812,4,2,1,70,0,0
302239,-75.187969924812,4,2,1,55,0,0
302312,-75.187969924812,4,2,1,70,0,0
302532,-75.187969924812,4,2,1,55,0,0
302678,-75.187969924812,4,2,1,70,0,0
302824,-75.187969924812,4,2,1,55,0,0
302971,-75.187969924812,4,2,1,70,0,0
303190,-75.187969924812,4,2,1,55,0,0
303337,-75.187969924812,4,2,1,70,0,0
303410,-75.187969924812,4,2,1,55,0,0
303483,-75.187969924812,4,2,1,70,0,0
303776,-75.187969924812,4,2,1,55,0,0
303922,-75.187969924812,4,2,1,70,0,0
303995,-75.187969924812,4,2,1,55,0,0
304068,-75.187969924812,4,2,1,70,0,0
304361,-75.187969924812,4,2,1,55,0,0
304507,-75.187969924812,4,2,1,70,0,0
304581,-75.187969924812,4,2,1,55,0,0
304654,-75.187969924812,4,2,1,70,0,0
304873,-75.187969924812,4,2,1,55,0,0
305020,-75.187969924812,4,2,1,70,0,0
305166,-75.187969924812,4,2,1,55,0,0
305312,-75.187969924812,4,2,1,70,0,0
305532,-75.187969924812,4,2,1,55,0,0
305678,-75.187969924812,4,2,1,70,0,0
305751,-75.187969924812,4,2,1,55,0,0
305824,-75.187969924812,4,2,1,70,0,0
306117,-75.187969924812,4,2,1,55,0,0
306263,-75.187969924812,4,2,1,70,0,0
306337,-75.187969924812,4,2,1,55,0,0
306410,-75.187969924812,4,2,1,70,0,0
306702,-75.187969924812,4,2,1,55,0,0
306849,-75.187969924812,4,2,1,70,0,0
306922,-75.187969924812,4,2,1,55,0,0
306995,-75.187969924812,4,2,1,70,0,0
307215,-75.187969924812,4,2,1,55,0,0
307361,-75.187969924812,4,2,1,70,0,0
307507,-75.187969924812,4,2,1,55,0,0
307654,-75.187969924812,4,2,1,70,0,0
307873,-75.187969924812,4,2,1,55,0,0
308020,-75.187969924812,4,2,1,70,0,0
308093,-75.187969924812,4,2,1,55,0,0
308166,-75.187969924812,4,2,1,70,0,0
308459,-75.187969924812,4,2,1,55,0,0
308605,-75.187969924812,4,2,1,70,0,0
308678,-75.187969924812,4,2,1,55,0,0
308751,-75.187969924812,4,2,1,70,0,0
309044,-75.187969924812,4,2,1,55,0,0
309190,-75.187969924812,4,2,1,70,0,0
309263,-75.187969924812,4,2,1,55,0,0
309337,-75.187969924812,4,2,1,70,0,0
310288,-75.187969924812,4,2,1,50,0,0
310361,-75.187969924812,4,2,1,70,0,0
310581,-75.187969924812,4,2,1,50,0,0
310654,-75.187969924812,4,2,1,70,0,0
310873,-75.187969924812,4,2,1,50,0,0
310946,-75.187969924812,4,2,1,70,0,0
311459,-75.187969924812,4,2,1,50,0,0
311532,-75.187969924812,4,2,1,70,0,0
312044,-75.187969924812,4,2,1,50,0,0
312117,-75.187969924812,4,2,1,70,0,0
312337,-75.187969924812,4,2,3,100,0,1
312410,-75.187969924812,4,2,1,70,0,1
312776,-75.187969924812,4,2,1,60,0,1
312849,-75.187969924812,4,2,1,70,0,1
313215,-75.187969924812,4,2,1,60,0,1
313288,-75.187969924812,4,2,1,70,0,1
313361,-75.187969924812,4,2,1,60,0,1
313435,-75.187969924812,4,2,1,70,0,1
313508,-75.187969924812,4,2,1,60,0,1
313581,-75.187969924812,4,2,1,70,0,1
313947,-75.187969924812,4,2,1,60,0,1
314020,-75.187969924812,4,2,1,70,0,1
314093,-75.187969924812,4,2,1,60,0,1
314166,-75.187969924812,4,2,1,70,0,1
314313,-75.187969924812,4,2,1,60,0,1
314386,-75.187969924812,4,2,1,70,0,1
314532,-75.187969924812,4,2,1,60,0,1
314605,-75.187969924812,4,2,1,70,0,1
314678,-75.187969924812,4,2,1,60,0,1
314752,-75.187969924812,4,2,1,70,0,1
315117,-75.187969924812,4,2,1,60,0,1
315191,-75.187969924812,4,2,1,70,0,1
315264,-75.187969924812,4,2,1,60,0,1
315337,-75.187969924812,4,2,1,70,0,1
315410,-75.187969924812,4,2,1,60,0,1
315483,-75.187969924812,4,2,1,70,0,1
315556,-75.187969924812,4,2,1,60,0,1
315630,-75.187969924812,4,2,1,70,0,1
315703,-75.187969924812,4,2,1,60,0,1
315776,-75.187969924812,4,2,1,70,0,1
315849,-75.187969924812,4,2,1,60,0,1
315922,-75.187969924812,4,2,1,70,0,1
316288,-75.187969924812,4,2,1,60,0,1
316361,-75.187969924812,4,2,1,70,0,1
316435,-75.187969924812,4,2,1,60,0,1
316508,-75.187969924812,4,2,1,70,0,1
317020,-75.187969924812,4,2,1,60,0,1
317093,-75.187969924812,4,2,1,70,0,1
317459,-75.187969924812,4,2,1,60,0,1
317532,-75.187969924812,4,2,1,70,0,1
317605,-75.187969924812,4,2,1,60,0,1
317678,-75.187969924812,4,2,1,70,0,1
317825,-75.187969924812,4,2,1,60,0,1
317898,-75.187969924812,4,2,1,70,0,1
318044,-75.187969924812,4,2,1,60,0,1
318117,-75.187969924812,4,2,1,70,0,1
318191,-75.187969924812,4,2,1,60,0,1
318264,-75.187969924812,4,2,1,70,0,1
318630,-75.187969924812,4,2,1,60,0,1
318703,-75.187969924812,4,2,1,70,0,1
318776,-75.187969924812,4,2,1,60,0,1
318849,-75.187969924812,4,2,1,70,0,1
319215,-75.187969924812,4,2,1,60,0,1
319288,-75.187969924812,4,2,1,70,0,1
319361,-75.187969924812,4,2,1,60,0,1
319435,-75.187969924812,4,2,1,70,0,1
319800,-75.187969924812,4,2,1,60,0,1
319874,-75.187969924812,4,2,1,70,0,1
319947,-75.187969924812,4,2,1,60,0,1
320020,-75.187969924812,4,2,1,70,0,1
320166,-75.187969924812,4,2,1,60,0,1
320239,-75.187969924812,4,2,1,70,0,1
320386,-75.187969924812,4,2,1,60,0,1
320459,-75.187969924812,4,2,1,70,0,1
320532,-75.187969924812,4,2,1,60,0,1
320605,-75.187969924812,4,2,1,70,0,1
320971,-75.187969924812,4,2,1,60,0,1
321044,-75.187969924812,4,2,1,70,0,1
321117,-75.187969924812,4,2,1,60,0,1
321191,-75.187969924812,4,2,1,70,0,1
321410,-75.187969924812,4,2,1,60,0,1
321483,-75.187969924812,4,2,1,70,0,1
321556,-75.187969924812,4,2,1,60,0,1
321630,-75.187969924812,4,2,1,70,0,1
321703,-75.187969924812,4,2,2,55,0,1
321776,-75.187969924812,4,2,1,70,0,1
322142,-75.187969924812,4,2,1,40,0,1
322215,-75.187969924812,4,2,1,70,0,1
322288,-75.187969924812,4,2,1,55,0,1
322435,-75.187969924812,4,2,1,70,0,1
322508,-75.187969924812,4,2,1,55,0,1
322654,-75.187969924812,4,2,1,70,0,1
322727,-75.187969924812,4,2,1,55,0,1
322800,-75.187969924812,4,2,1,70,0,1
322874,-75.187969924812,4,2,1,55,0,1
323020,-75.187969924812,4,2,1,50,0,1
323166,-75.187969924812,4,2,1,70,0,1
323313,-75.187969924812,4,2,1,55,0,1
323532,-75.187969924812,4,2,1,70,0,1
323605,-75.187969924812,4,2,1,40,0,1
323678,-75.187969924812,4,2,1,70,0,1
323752,-75.187969924812,4,2,1,55,0,1
324191,-75.187969924812,4,2,1,40,0,1
324337,-75.187969924812,4,2,1,70,0,1
324483,-75.187969924812,4,2,1,55,0,1
324776,-75.187969924812,4,2,1,70,0,1
324849,-75.187969924812,4,2,1,55,0,1
324996,-75.187969924812,4,2,1,70,0,1
325069,-75.187969924812,4,2,1,55,0,1
325142,-75.187969924812,4,2,1,70,0,1
325215,-75.187969924812,4,2,1,55,0,1
325361,-75.187969924812,4,2,1,40,0,1
325508,-75.187969924812,4,2,1,70,0,1
325654,-75.187969924812,4,2,1,55,0,1
325874,-75.187969924812,4,2,1,70,0,1
325947,-75.187969924812,4,2,1,40,0,1
326093,-75.187969924812,4,2,1,55,0,1
326532,-75.187969924812,4,2,1,40,0,1
326678,-75.187969924812,4,2,1,55,0,1
326752,-75.187969924812,4,2,1,70,0,1
326825,-75.187969924812,4,2,1,55,0,1
327044,-75.187969924812,4,2,1,70,0,1
327117,-75.187969924812,4,2,1,55,0,1
327264,-75.187969924812,4,2,1,70,0,1
327410,-75.187969924812,4,2,1,55,0,1
327703,-75.187969924812,4,2,1,70,0,1
327849,-75.187969924812,4,2,1,60,0,1
327996,-75.187969924812,4,2,1,70,0,1
328435,-75.187969924812,4,2,1,55,0,1
328581,-75.187969924812,4,2,1,62,0,1
328727,-75.187969924812,4,2,1,70,0,1
330483,-100,4,2,1,70,0,0
330776,-100,4,2,2,55,0,0
330849,-100,4,2,1,70,0,0
331068,300,4,2,1,70,1,0
350300,300,4,2,1,70,1,8
350450,-100,4,2,1,50,0,8
368268,292.682926829268,4,2,1,70,1,0
368853,-100,4,2,1,45,0,0
369365,-100,4,2,1,60,0,0
370024,-100,4,2,1,40,0,0
370316,-100,4,2,1,60,0,0
371194,-100,4,2,1,40,0,0
371487,-100,4,2,1,60,0,0
371780,-100,4,2,1,40,0,0
372072,-100,4,2,1,60,0,0
372365,-100,4,2,1,40,0,0
372658,-100,4,2,1,60,0,0
373536,-100,4,2,1,40,0,0
373682,-100,4,2,1,60,0,0
374121,-100,4,2,1,40,0,0
374268,-100,4,2,1,60,0,0
374707,-100,4,2,1,40,0,0
374853,-100,4,2,1,60,0,0
375877,-100,4,2,1,40,0,0
376024,-100,4,2,1,60,0,0
376463,-100,4,2,1,40,0,0
376755,-100,4,2,1,60,0,0
377048,-100,4,2,1,40,0,0
377341,-100,4,2,1,60,0,0
378219,-100,4,2,1,40,0,0
378365,-100,4,2,1,60,0,0
379097,-100,4,2,1,45,0,0
379316,-100,4,2,1,60,0,0
379389,-100,4,2,1,45,0,0
379609,-100,4,2,1,60,0,0
379682,-100,4,2,1,45,0,0
379902,-100,4,2,1,60,0,0
379975,-100,4,2,1,45,0,0
380268,-100,4,2,1,60,0,0
380560,-100,4,2,1,45,0,0
380853,-100,4,2,1,60,0,0
381146,-100,4,2,1,45,0,0
381292,-100,4,2,1,60,0,0
381438,-100,4,2,1,45,0,0
381658,-100,4,2,1,60,0,0
381731,-100,4,2,1,45,0,0
381950,-100,4,2,1,60,0,0
382024,-100,4,2,1,45,0,0
382243,-100,4,2,1,60,0,0
382316,-100,4,2,1,45,0,0
382609,-100,4,2,1,60,0,0
382902,-100,4,2,1,45,0,0
383194,-100,4,2,1,60,0,0
383414,-100,4,2,1,45,0,0
383633,-100,4,2,1,60,0,0
383780,-100,4,2,1,45,0,0
383999,-100,4,2,1,60,0,0
384072,-100,4,2,1,45,0,0
384292,-100,4,2,1,60,0,0
384365,-100,4,2,1,45,0,0
384585,-100,4,2,1,60,0,0
384658,-100,4,2,1,45,0,0
384950,-100,4,2,1,60,0,0
385243,-100,4,2,1,45,0,0
385536,-100,4,2,1,60,0,0
385828,-100,4,2,1,45,0,0
386194,-100,4,2,1,60,0,0
386414,-100,4,2,1,45,0,0
386633,-100,4,2,1,60,0,0
386999,-100,4,2,1,45,0,0
387146,-100,4,2,1,60,0,0
387585,-100,4,2,1,55,0,0
387731,-100,4,2,1,70,0,0
388170,-100,4,2,3,70,0,1
388219,-100,4,2,1,70,0,1
388609,-100,4,2,1,60,0,1
388902,-100,4,2,1,70,0,1
389048,-100,4,2,1,60,0,1
389194,-100,4,2,1,70,0,1
389341,-100,4,2,1,60,0,1
389633,-100,4,2,1,70,0,1
389926,-100,4,2,1,60,0,1
390072,-100,4,2,1,70,0,1
390219,-100,4,2,1,60,0,1
390365,-100,4,2,1,70,0,1
390511,-100,4,2,1,60,0,1
390804,-100,4,2,1,70,0,1
390950,-100,4,2,1,60,0,1
391243,-100,4,2,1,70,0,1
391389,-100,4,2,1,60,0,1
391536,-100,4,2,1,70,0,1
391682,-100,4,2,1,60,0,1
391975,-100,4,2,1,70,0,1
392268,-100,4,2,1,60,0,1
392414,-100,4,2,1,70,0,1
392560,-100,4,2,1,60,0,1
392707,-100,4,2,1,70,0,1
392853,-100,4,2,1,60,0,1
393146,-100,4,2,1,70,0,1
393292,-100,4,2,1,60,0,1
393585,-100,4,2,1,70,0,1
393731,-100,4,2,1,60,0,1
393877,-100,4,2,1,70,0,1
394024,-100,4,2,1,60,0,1
394170,-100,4,2,1,70,0,1
394316,-100,4,2,1,60,0,1
394755,-100,4,2,1,70,0,1
394902,-100,4,2,1,60,0,1
395048,-100,4,2,1,70,0,1
395194,-100,4,2,1,60,0,1
395487,-100,4,2,1,70,0,1
395633,-100,4,2,1,60,0,1
395926,-100,4,2,1,70,0,1
396072,-100,4,2,1,60,0,1
396219,-100,4,2,1,70,0,1
396365,-100,4,2,1,60,0,1
396511,-100,4,2,1,70,0,1
396950,-100,4,2,1,60,0,1
397024,-100,4,2,1,70,0,1
397243,-100,4,2,1,60,0,1
397389,-100,4,2,1,70,0,1
397536,-100,4,2,1,60,0,1
397755,-100,4,2,1,70,0,1
397975,-100,4,2,1,60,0,1
398268,-100,4,2,1,70,0,1
398414,-100,4,2,1,60,0,1
398560,-100,4,2,1,70,0,1
398707,-100,4,2,1,60,0,1
398999,-100,4,2,1,70,0,1
399292,-100,4,2,1,60,0,1
399438,-100,4,2,1,70,0,1
399585,-100,4,2,1,60,0,1
399731,-100,4,2,1,70,0,1
399877,-100,4,2,1,60,0,1
400170,-100,4,2,1,70,0,1
400316,-100,4,2,1,60,0,1
400609,-100,4,2,1,70,0,1
400755,-100,4,2,1,60,0,1
400902,-100,4,2,1,70,0,1
401048,-100,4,2,1,60,0,1
401341,-100,4,2,1,70,0,1
401633,-100,4,2,1,60,0,1
401780,-100,4,2,1,70,0,1
401926,-100,4,2,1,60,0,1
402146,-100,4,2,1,70,0,1
402219,-100,4,2,1,60,0,1
402511,-100,4,2,1,70,0,1
402658,-100,4,2,1,60,0,1
402950,-100,4,2,1,70,0,1
403097,-100,4,2,1,60,0,1
403243,-100,4,2,1,70,0,1
403389,-100,4,2,1,60,0,1
403682,-100,4,2,1,70,0,1
403828,-100,4,2,1,60,0,1
404121,-100,4,2,1,70,0,1
404267,-100,4,2,1,60,0,1
404414,-100,4,2,1,70,0,1
404560,-100,4,2,1,60,0,1
404853,-100,4,2,1,70,0,1
404999,-100,4,2,1,60,0,1
405292,-100,4,2,1,70,0,1
405438,-100,4,2,1,60,0,1
405585,-100,4,2,1,70,0,1
405731,-100,4,2,1,60,0,1
405877,-100,4,2,1,70,0,1
406316,-100,4,2,1,60,0,1
406389,-100,4,2,1,70,0,1
406609,-100,4,2,1,60,0,1
406755,-100,4,2,1,70,0,1
406902,-100,4,3,0,60,0,1
409243,-100,4,2,2,55,0,0
409316,-100,4,2,1,70,0,0
410121,-100,4,2,1,60,0,0
411585,-100,4,2,1,70,0,1
411877,-100,4,2,1,50,0,1
412024,-100,4,2,1,70,0,1
412463,-100,4,2,1,50,0,1
412609,-100,4,2,1,70,0,1
413048,-100,4,2,1,50,0,1
413194,-100,4,2,1,70,0,1
413633,-100,4,2,1,50,0,1
413780,-100,4,2,1,70,0,1
414219,-100,4,2,1,50,0,1
414365,-100,4,2,1,70,0,1
414804,-100,4,2,1,50,0,1
414950,-100,4,2,1,70,0,1
415389,-100,4,2,1,50,0,1
415536,-100,4,2,1,70,0,1
415975,-100,4,2,1,50,0,1
416121,-100,4,2,1,70,0,1
416560,-100,4,2,1,50,0,1
416707,-100,4,2,1,70,0,1
417146,-100,4,2,1,50,0,1
417292,-100,4,2,1,70,0,1
417731,-100,4,2,1,50,0,1
417877,-100,4,2,1,70,0,1
418316,-100,4,2,1,50,0,1
418463,-100,4,2,1,70,0,1
418902,-100,4,2,1,50,0,1
419048,-100,4,2,1,70,0,1
419487,-100,4,2,1,50,0,1
419633,-100,4,2,1,70,0,1
420072,-100,4,2,1,50,0,1
420219,-100,4,2,1,70,0,1
420365,-100,4,2,1,40,0,1
420658,-100,4,2,1,50,0,1
420731,-100,4,2,1,70,0,1
421243,-100,4,2,1,50,0,1
421389,-100,4,2,1,70,0,1
421828,-100,4,2,1,50,0,1
421975,-100,4,2,1,70,0,1
422414,-100,4,2,1,50,0,1
422560,-100,4,2,1,70,0,1
422999,-100,4,2,1,50,0,1
423146,-100,4,2,1,70,0,1
423585,-100,4,2,1,50,0,1
423731,-100,4,2,1,70,0,1
424170,-100,4,2,1,50,0,1
424316,-100,4,2,1,70,0,1
424755,-100,4,2,1,50,0,1
424902,-100,4,2,1,70,0,1
425341,-100,4,2,1,50,0,1
425487,-100,4,2,1,70,0,1
425926,-100,4,2,1,50,0,1
426072,-100,4,2,1,70,0,1
426511,-100,4,2,1,50,0,1
426658,-100,4,2,1,70,0,1
427097,-100,4,2,1,50,0,1
427243,-100,4,2,1,70,0,1
427682,-100,4,2,1,50,0,1
427828,-100,4,2,1,70,0,1
428267,-100,4,2,1,50,0,1
428560,-100,4,2,1,70,0,1
428853,-100,4,2,1,50,0,1
428999,-100,4,2,1,70,0,1
429438,-100,4,2,1,50,0,1
429585,-100,4,2,1,70,0,1
429731,-100,4,2,1,50,0,1
429804,-100,4,2,1,70,0,1
430024,-100,4,2,1,50,0,1
430097,-100,4,2,1,70,0,1
430316,-100,4,2,2,50,0,0
448463,300,4,3,0,50,1,8
449063,292.682926829268,4,3,0,50,1,0
453502,-100,4,3,0,30,0,0
453745,-100,4,3,0,50,0,0
458184,-100,4,3,0,30,0,0
458428,-100,4,3,0,50,0,0
462950,292.682926829268,4,3,0,60,1,8
463096,292.682926829268,4,3,0,60,1,0
467778,-100,4,2,2,60,0,1
467852,-100,4,2,1,60,0,0
468949,-100,4,2,1,60,0,1
469022,-100,4,2,1,60,0,0
470120,-100,4,2,1,60,0,1
470193,-100,4,2,1,60,0,0
484169,-75.187969924812,4,2,1,55,0,0
486510,-75.187969924812,4,2,3,80,0,1
486559,-75.187969924812,4,2,1,70,0,1
491193,-75.187969924812,4,2,2,70,0,1
491266,-75.187969924812,4,2,1,70,0,1
495876,-75.187969924812,4,2,2,80,0,1
496022,-75.187969924812,4,2,1,50,0,1
496169,-75.187969924812,4,2,1,70,0,1
496315,-75.187969924812,4,2,1,50,0,1
496461,-75.187969924812,4,2,1,70,0,1
496608,-75.187969924812,4,2,1,50,0,1
496681,-75.187969924812,4,2,1,70,0,1
496900,-75.187969924812,4,2,1,50,0,1
496974,-75.187969924812,4,2,1,70,0,1
497193,-75.187969924812,4,2,1,50,0,1
497339,-75.187969924812,4,2,1,70,0,1
497486,-75.187969924812,4,2,1,50,0,1
497559,-75.187969924812,4,2,1,70,0,1
497778,-75.187969924812,4,2,1,50,0,1
497925,-75.187969924812,4,2,1,70,0,1
498071,-75.187969924812,4,2,1,50,0,1
498217,-75.187969924812,4,2,1,70,0,1
498364,-75.187969924812,4,2,1,50,0,1
498510,-75.187969924812,4,2,1,70,0,1
498656,-75.187969924812,4,2,1,50,0,1
498803,-75.187969924812,4,2,1,70,0,1
498949,-75.187969924812,4,2,1,50,0,1
499022,-75.187969924812,4,2,1,70,0,1
499242,-75.187969924812,4,2,1,50,0,1
499315,-75.187969924812,4,2,1,70,0,1
499535,-75.187969924812,4,2,1,50,0,1
499681,-75.187969924812,4,2,1,70,0,1
499827,-75.187969924812,4,2,1,50,0,1
499974,-75.187969924812,4,2,1,70,0,1
500120,-75.187969924812,4,2,1,50,0,1
500266,-75.187969924812,4,2,1,70,0,1
500413,-75.187969924812,4,2,1,50,0,1
500559,-75.187969924812,4,2,1,70,0,1
500705,-75.187969924812,4,2,1,50,0,1
500852,-75.187969924812,4,2,1,70,0,1
500998,-75.187969924812,4,2,1,50,0,1
501144,-75.187969924812,4,2,1,70,0,1
501291,-75.187969924812,4,2,1,50,0,1
501437,-75.187969924812,4,2,1,70,0,1
501583,-75.187969924812,4,2,1,50,0,1
501730,-75.187969924812,4,2,1,70,0,1
501876,-75.187969924812,4,2,1,50,0,1
501949,-75.187969924812,4,2,1,60,0,1
502169,-75.187969924812,4,2,1,70,0,1
502242,-75.187969924812,4,2,1,60,0,1
502461,-75.187969924812,4,2,1,50,0,1
502608,-75.187969924812,4,2,1,70,0,1
502754,-75.187969924812,4,2,1,50,0,1
502900,-75.187969924812,4,2,1,70,0,1
504656,-100,4,2,2,50,0,0
504949,-100,4,2,1,70,0,0
505242,-75.187969924812,4,2,1,70,0,1
505388,-75.187969924812,4,2,1,60,0,1
505535,-75.187969924812,4,2,1,70,0,1
505681,-75.187969924812,4,2,1,60,0,1
505827,-75.187969924812,4,2,1,70,0,1
505974,-75.187969924812,4,2,1,60,0,1
506120,-75.187969924812,4,2,1,70,0,1
506266,-75.187969924812,4,2,1,60,0,1
506413,-75.187969924812,4,2,1,70,0,1
506559,-75.187969924812,4,2,1,60,0,1
506705,-75.187969924812,4,2,1,70,0,1
506852,-75.187969924812,4,2,1,60,0,1
506998,-75.187969924812,4,2,1,70,0,1
507144,-75.187969924812,4,2,1,60,0,1
507291,-75.187969924812,4,2,1,70,0,1
507437,-75.187969924812,4,2,1,60,0,1
507583,-75.187969924812,4,2,1,70,0,1
507730,-75.187969924812,4,2,1,60,0,1
507876,-75.187969924812,4,2,1,70,0,1
508022,-75.187969924812,4,2,1,60,0,1
508169,-75.187969924812,4,2,1,70,0,1
508315,-75.187969924812,4,2,1,60,0,1
508461,-75.187969924812,4,2,1,70,0,1
508608,-75.187969924812,4,2,1,60,0,1
508754,-75.187969924812,4,2,1,70,0,1
508900,-75.187969924812,4,2,1,60,0,1
509047,-75.187969924812,4,2,1,70,0,1
509193,-75.187969924812,4,2,1,60,0,1
509339,-75.187969924812,4,2,1,70,0,1
509486,-75.187969924812,4,2,1,60,0,1
509632,-75.187969924812,4,2,1,70,0,1
509778,-75.187969924812,4,2,1,60,0,1
509925,-75.187969924812,4,2,1,70,0,1
510071,-75.187969924812,4,2,1,60,0,1
510217,-75.187969924812,4,2,1,70,0,1
510364,-75.187969924812,4,2,1,60,0,1
510510,-75.187969924812,4,2,1,70,0,1
510656,-75.187969924812,4,2,1,60,0,1
510803,-75.187969924812,4,2,1,70,0,1
510949,-75.187969924812,4,2,1,60,0,1
511095,-75.187969924812,4,2,1,70,0,1
511242,-75.187969924812,4,2,1,60,0,1
511388,-75.187969924812,4,2,1,70,0,1
511535,-75.187969924812,4,2,1,60,0,1
511681,-75.187969924812,4,2,1,70,0,1
511827,-75.187969924812,4,2,1,60,0,1
511974,-75.187969924812,4,2,1,70,0,1
512120,-75.187969924812,4,2,1,60,0,1
512266,-75.187969924812,4,2,1,70,0,1
512413,-75.187969924812,4,2,1,60,0,1
512559,-75.187969924812,4,2,1,70,0,1
512705,-75.187969924812,4,2,1,60,0,1
512852,-75.187969924812,4,2,1,70,0,1
512998,-75.187969924812,4,2,1,60,0,1
513144,-75.187969924812,4,2,1,70,0,1
513291,-75.187969924812,4,2,1,60,0,1
513437,-75.187969924812,4,2,1,70,0,1
514315,-75.187969924812,4,2,1,60,0,1
514388,-75.187969924812,4,2,1,70,0,1
514754,-75.187969924812,4,2,1,60,0,1
514900,-75.187969924812,4,2,1,70,0,1
515047,-75.187969924812,4,2,1,60,0,1
515193,-75.187969924812,4,2,1,70,0,1
515339,-75.187969924812,4,2,1,60,0,1
515486,-75.187969924812,4,2,1,70,0,1
515632,-75.187969924812,4,2,1,60,0,1
515778,-75.187969924812,4,2,1,70,0,1
515925,-75.187969924812,4,2,1,60,0,1
516071,-75.187969924812,4,2,1,70,0,1
516217,-75.187969924812,4,2,1,60,0,1
516364,-75.187969924812,4,2,1,70,0,1
516510,-75.187969924812,4,2,1,60,0,1
516656,-75.187969924812,4,2,1,70,0,1
516803,-75.187969924812,4,2,1,60,0,1
516949,-75.187969924812,4,2,1,70,0,1
517095,-75.187969924812,4,2,1,60,0,1
517242,-75.187969924812,4,2,1,70,0,1
517388,-75.187969924812,4,2,1,60,0,1
517535,-75.187969924812,4,2,1,70,0,1
517681,-75.187969924812,4,2,1,60,0,1
517827,-75.187969924812,4,2,1,70,0,1
517974,-75.187969924812,4,2,1,60,0,1
518120,-75.187969924812,4,2,1,70,0,1
519144,-75.187969924812,4,2,1,60,0,1
519217,-75.187969924812,4,2,1,70,0,1
521339,-75.187969924812,4,2,0,70,0,1
521559,-75.187969924812,4,2,1,70,0,1
521632,-75.187969924812,4,2,2,70,0,1
523974,-75.187969924812,4,2,1,80,0,1
526315,-100,4,2,2,100,0,0
526900,-75.187969924812,4,2,2,100,0,0
527047,-75.187969924812,4,2,1,100,0,0
527095,-75.187969924812,4,2,2,100,0,0
527242,-75.187969924812,4,2,1,100,0,0
527291,-75.187969924812,4,2,2,100,0,0
527437,-75.187969924812,4,2,1,100,0,0
527486,-100,4,2,2,100,0,0

[Colours]
Combo1 : 255,91,91
Combo2 : 255,240,222
Combo3 : 255,164,60
Combo4 : 255,176,170

[HitObjects]
350,235,1641,6,0,L|159:218,2,192,2|0|0,0:0|0:0|0:0,0:0:0:0:
158,217,2926,1,2,0:0:0:0:
390,289,3355,2,0,P|408:194|334:162,1,192,2|0,0:0|0:0,0:0:0:0:
199,188,3998,1,2,0:0:0:0:
333,162,4212,2,0,P|412:203|390:289,1,192,0|2,0:0|0:0,0:0:0:0:
162,149,5069,6,0,L|353:166,3,192,2|0|0|2,0:0|0:0|0:0|0:0,0:0:0:0:
122,95,6783,2,0,P|104:190|178:222,1,192,2|0,0:0|0:0,0:0:0:0:
334,221,7640,2,0,P|413:180|390:95,1,192,2|0,0:0|0:0,0:0:0:0:
101,243,8498,6,0,P|39:174|95:112,1,192,2|0,0:0|0:0,0:0:0:0:
324,113,9355,2,2,L|123:130,1,192
421,314,10212,6,0,L|438:113,1,192,2|0,0:0|0:0,0:0:0:0:
301,147,10855,1,2,0:0:0:0:
438,122,11069,2,0,L|422:313,1,192,0|2,0:0|0:0,0:0:0:0:
134,292,11926,6,0,P|151:203|240:184,1,192,2|0,0:0|0:0,0:0:0:0:
384,221,12569,1,2,0:0:0:0:
240,183,12783,2,0,P|152:202|134:292,1,192,2|2,0:0|0:0,0:0:0:0:
423,211,13641,5,2,0:0:0:0:
480,208,13748,1,2,0:0:0:0:
423,211,13855,1,2,0:0:0:0:
279,217,14069,1,0,0:0:0:0:
79,267,14498,2,0,P|63:173|121:103,1,192,2|2,0:0|0:0,0:0:0:0:
410,141,15355,6,0,L|219:124,2,192,2|0|0,0:0|0:0|0:0,0:0:0:0:
218,123,16641,1,2,0:0:0:0:
450,47,17069,2,0,L|462:252,1,192,2|0,0:0|0:0,0:0:0:0:
218,123,17926,2,0,L|412:167,1,192,2|0,0:0|0:0,0:0:0:0:
98,311,18783,6,0,P|110:215|191:193,1,192,2|0,0:0|0:0,0:0:0:0:
326,217,19426,1,2,0:0:0:0:
192,193,19641,2,0,P|105:165|98:75,1,192,2|2,0:0|0:0,0:0:0:0:
386,63,20498,6,0,L|399:268,1,192,2|0,0:0|0:0,0:0:0:0:
130,117,21355,2,0,L|117:322,1,192,2|0,0:0|0:0,0:0:0:0:
406,300,22212,6,0,P|391:204|309:185,1,192,2|0,0:0|0:0,0:0:0:0:
175,208,22855,1,2,0:0:0:0:
175,208,23283,1,0,0:0:0:0:
339,167,23498,2,0,P|426:192|436:283,1,192,2|0,0:0|0:0,0:0:0:0:
129,267,24384,1,2,0:0:0:0:
410,282,24842,1,2,0:0:0:0:
84,292,25310,1,2,0:0:0:0:
406,302,25777,6,0,P|444:214|383:156,1,192,2|0,0:0|0:0,0:0:0:0:
220,143,26527,1,2,0:0:0:0:
382,155,26777,1,0,0:0:0:0:
88,312,27277,1,2,0:0:0:0:
422,279,27777,5,2,0:0:0:0:
89,279,28322,1,2,0:0:0:0:
422,279,28867,1,2,0:0:0:0:
89,279,29422,1,2,0:0:0:0:
336,192,29973,1,2,0:0:0:0:
256,192,30076,1,2,0:0:0:0:
176,192,30180,1,2,0:0:0:0:
256,192,33703,5,4,0:0:0:0:
256,192,33849,1,0,0:0:0:0:
141,200,33995,1,2,0:0:0:0:
141,200,34142,1,0,0:0:0:0:
256,192,34288,1,2,0:0:0:0:
256,192,34435,1,0,0:0:0:0:
112,126,34581,1,2,0:0:0:0:
112,126,34728,1,0,0:0:0:0:
340,125,34873,5,8,0:0:0:0:
340,125,35020,1,0,0:0:0:0:
225,172,35166,1,8,0:0:0:0:
225,172,35313,1,0,0:0:0:0:
110,219,35459,1,2,0:0:0:0:
110,219,35606,1,0,0:0:0:0:
340,125,35751,2,0,B|392:174|392:174|339:225,1,144,8|0,0:0|0:0,0:0:0:0:
170,287,36044,5,4,0:0:0:0:
170,287,36190,1,0,0:0:0:0:
287,223,36337,1,2,0:0:0:0:
287,223,36484,1,0,0:0:0:0:
173,164,36629,1,2,0:0:0:0:
173,164,36776,1,0,0:0:0:0:
317,152,36922,1,2,0:0:0:0:
317,152,37069,1,0,0:0:0:0:
87,93,37215,5,8,0:0:0:0:
38,108,37361,1,0,0:0:0:0:
182,120,37507,1,2,0:0:0:0:
231,135,37653,1,0,0:0:0:0:
87,202,37800,1,8,0:0:0:0:
136,217,37946,1,0,0:0:0:0:
376,256,38093,2,0,B|448:175|448:175|375:95,1,216.000008239746,8|0,0:0|0:0,0:0:0:0:
137,95,38385,6,0,P|256:339|376:96,1,672,4|8,0:0|0:0,0:0:0:0:
137,95,40581,1,8,0:0:0:0:
424,56,40727,5,4,0:0:0:0:
427,113,40800,1,0,0:0:0:0:
356,119,40873,1,0,0:0:0:0:
359,176,40946,1,0,0:0:0:0:
427,113,41020,1,0,0:0:0:0:
430,170,41093,1,0,0:0:0:0:
359,176,41166,1,0,0:0:0:0:
362,233,41239,1,0,0:0:0:0:
194,189,41312,5,4,0:0:0:0:
137,192,41385,1,0,0:0:0:0:
305,230,41459,1,0,0:0:0:0:
362,233,41532,1,0,0:0:0:0:
196,245,41605,1,0,0:0:0:0:
139,248,41678,1,0,0:0:0:0:
307,286,41752,1,0,0:0:0:0:
364,289,41825,1,0,0:0:0:0:
142,303,41898,5,4,0:0:0:0:
139,248,41971,1,0,0:0:0:0:
137,192,42044,1,0,0:0:0:0:
134,137,42117,1,0,0:0:0:0:
301,188,42190,1,4,0:0:0:0:
304,133,42263,1,0,0:0:0:0:
306,77,42336,1,0,0:0:0:0:
309,22,42409,1,0,0:0:0:0:
139,78,42483,5,4,0:0:0:0:
84,81,42556,1,0,0:0:0:0:
235,93,42629,1,4,0:0:0:0:
238,148,42702,1,0,0:0:0:0:
85,149,42776,1,4,0:0:0:0:
88,204,42849,1,0,0:0:0:0:
241,199,42922,1,4,0:0:0:0:
296,202,42995,1,0,0:0:0:0:
152,261,43068,5,4,0:0:0:0:
104,261,43215,1,0,0:0:0:0:
249,203,43361,1,2,0:0:0:0:
296,202,43507,1,0,0:0:0:0:
161,136,43654,1,8,0:0:0:0:
210,140,43801,1,0,0:0:0:0:
353,148,43946,1,2,0:0:0:0:
353,148,44092,1,0,0:0:0:0:
122,174,44239,5,8,0:0:0:0:
73,170,44386,1,0,0:0:0:0:
207,244,44532,1,8,0:0:0:0:
158,240,44679,1,0,0:0:0:0:
301,221,44824,1,2,0:0:0:0:
350,217,44971,1,0,0:0:0:0:
120,241,45117,2,0,B|67:190|67:190|119:141,1,144,8|0,0:0|0:0,0:0:0:0:
290,270,45410,5,4,0:0:0:0:
339,266,45557,1,0,0:0:0:0:
195,207,45702,1,2,0:0:0:0:
195,207,45849,1,0,0:0:0:0:
330,141,45996,1,8,0:0:0:0:
281,145,46143,1,0,0:0:0:0:
138,153,46288,1,2,0:0:0:0:
138,153,46434,1,0,0:0:0:0:
369,179,46581,5,8,0:0:0:0:
418,175,46728,1,0,0:0:0:0:
284,249,46874,1,2,0:0:0:0:
333,245,47021,1,0,0:0:0:0:
190,226,47166,1,8,0:0:0:0:
141,222,47313,1,0,0:0:0:0:
372,248,47459,2,0,B|424:197|424:197|372:148,1,144,8|0,0:0|0:0,0:0:0:0:
204,153,47751,5,4,0:0:0:0:
139,148,47898,1,0,0:0:0:0:
283,94,48044,1,2,0:0:0:0:
347,98,48191,1,0,0:0:0:0:
212,166,48337,1,8,0:0:0:0:
208,230,48484,1,0,0:0:0:0:
351,234,48629,1,2,0:0:0:0:
415,238,48776,1,0,0:0:0:0:
185,295,48922,5,8,0:0:0:0:
185,295,49069,1,0,0:0:0:0:
327,295,49215,1,8,0:0:0:0:
327,295,49362,1,0,0:0:0:0:
164,236,49507,1,2,0:0:0:0:
106,236,49654,1,0,0:0:0:0:
348,236,49800,1,2,0:0:0:0:
406,236,49947,1,0,0:0:0:0:
106,236,50093,5,4,0:0:0:0:
298,270,50385,1,2,0:0:0:0:
353,253,50459,1,0,0:0:0:0:
378,203,50532,1,0,0:0:0:0:
348,154,50605,1,0,0:0:0:0:
181,176,50678,2,0,P|119:137|135:79,1,144,8|0,0:0|0:0,0:0:0:0:
305,70,50971,1,2,0:0:0:0:
207,70,51117,1,0,0:0:0:0:
145,68,51190,1,0,0:0:0:0:
305,70,51263,5,4,0:0:0:0:
367,68,51337,1,0,0:0:0:0:
305,70,51410,1,0,0:0:0:0:
190,176,51556,1,8,0:0:0:0:
322,176,51702,1,8,0:0:0:0:
190,176,51849,1,8,0:0:0:0:
122,172,51946,1,0,0:0:0:0:
287,228,52044,1,2,0:0:0:0:
191,241,52142,2,0,P|156:189|188:140,1,128
378,136,52434,5,4,0:0:0:0:
435,196,52581,1,0,0:0:0:0:
310,225,52727,1,2,0:0:0:0:
425,258,52874,1,0,0:0:0:0:
194,212,53020,1,8,0:0:0:0:
136,225,53093,1,0,0:0:0:0:
194,212,53166,1,0,0:0:0:0:
310,225,53312,1,2,0:0:0:0:
185,214,53459,1,0,0:0:0:0:
415,226,53605,6,0,L|486:150,1,96,8|0,0:0|0:0,0:0:0:0:
336,182,53898,2,0,L|265:106,1,96,8|0,0:0|0:0,0:0:0:0:
413,78,54190,2,0,L|347:148,1,96,2|0,0:0|0:0,0:0:0:0:
203,167,54483,2,0,L|268:237,1,96,8|0,0:0|0:0,0:0:0:0:
37,257,54776,5,4,0:0:0:0:
31,157,54922,1,0,0:0:0:0:
175,112,55068,1,2,0:0:0:0:
75,118,55214,1,0,0:0:0:0:
306,273,55361,1,8,0:0:0:0:
308,220,55434,1,0,0:0:0:0:
312,173,55507,1,0,0:0:0:0:
168,130,55654,1,2,0:0:0:0:
268,136,55800,1,0,0:0:0:0:
39,123,55946,6,0,L|32:221,1,96,8|0,0:0|0:0,0:0:0:0:
158,222,56239,2,0,L|151:320,1,96,2|0,0:0|0:0,0:0:0:0:
383,215,56532,2,0,L|390:313,1,96,8|0,0:0|0:0,0:0:0:0:
264,291,56824,1,8,0:0:0:0:
409,317,56971,1,2,0:0:0:0:
179,296,57117,5,4,0:0:0:0:
63,262,57263,1,0,0:0:0:0:
189,221,57410,1,2,0:0:0:0:
73,187,57556,1,0,0:0:0:0:
197,148,57702,1,8,0:0:0:0:
259,153,57775,1,0,0:0:0:0:
197,148,57848,1,0,0:0:0:0:
322,159,57995,1,2,0:0:0:0:
188,79,58142,1,0,0:0:0:0:
419,83,58288,5,4,0:0:0:0:
479,138,58434,1,0,0:0:0:0:
325,138,58581,1,8,0:0:0:0:
421,192,58727,1,0,0:0:0:0:
210,204,58873,1,8,0:0:0:0:
327,254,59020,1,0,0:0:0:0:
59,272,59166,1,8,0:0:0:0:
193,335,59312,1,8,0:0:0:0:
458,341,59459,5,4,0:0:0:0:
246,290,59605,1,8,0:0:0:0:
457,200,59751,1,8,0:0:0:0:
245,164,59898,1,8,0:0:0:0:
34,31,60044,5,4,0:0:0:0:
58,85,60117,1,0,0:0:0:0:
209,62,60190,1,2,0:0:0:0:
233,116,60263,1,0,0:0:0:0:
80,137,60337,1,8,0:0:0:0:
104,191,60410,1,0,0:0:0:0:
255,168,60483,1,2,0:0:0:0:
279,222,60556,1,0,0:0:0:0:
129,243,60629,5,4,0:0:0:0:
63,219,60702,1,0,0:0:0:0:
49,155,60776,1,0,0:0:0:0:
91,104,60849,1,0,0:0:0:0:
243,101,60922,1,4,0:0:0:0:
309,125,60995,1,0,0:0:0:0:
323,189,61069,1,0,0:0:0:0:
281,240,61142,1,0,0:0:0:0:
129,243,61215,5,4,0:0:0:0:
63,219,61288,1,0,0:0:0:0:
207,221,61361,1,2,0:0:0:0:
231,155,61434,1,0,0:0:0:0:
80,176,61507,1,8,0:0:0:0:
31,116,61580,1,0,0:0:0:0:
176,144,61654,1,2,0:0:0:0:
223,76,61727,1,0,0:0:0:0:
374,69,61800,5,4,0:0:0:0:
479,147,61946,1,0,0:0:0:0:
334,154,62093,1,2,0:0:0:0:
450,139,62239,1,0,0:0:0:0:
220,136,62385,1,8,0:0:0:0:
283,135,62459,1,0,0:0:0:0:
345,133,62532,1,0,0:0:0:0:
220,69,62678,1,2,0:0:0:0:
335,84,62824,1,0,0:0:0:0:
104,134,62971,5,8,0:0:0:0:
42,145,63045,1,0,0:0:0:0:
104,134,63118,1,0,0:0:0:0:
218,115,63263,1,8,0:0:0:0:
104,134,63409,1,0,0:0:0:0:
326,174,63556,5,2,0:0:0:0:
388,184,63629,1,0,0:0:0:0:
326,174,63702,1,0,0:0:0:0:
200,207,63849,1,8,0:0:0:0:
139,234,63922,1,0,0:0:0:0:
200,259,63995,1,0,0:0:0:0:
441,265,64142,5,4,0:0:0:0:
345,193,64288,1,0,0:0:0:0:
211,148,64434,1,2,0:0:0:0:
278,138,64507,1,0,0:0:0:0:
345,128,64581,1,0,0:0:0:0:
116,95,64727,5,8,0:0:0:0:
54,104,64800,1,0,0:0:0:0:
116,95,64874,1,0,0:0:0:0:
240,79,65020,1,2,0:0:0:0:
116,95,65166,1,0,0:0:0:0:
346,94,65312,5,8,0:0:0:0:
351,145,65385,1,0,0:0:0:0:
205,166,65459,1,0,0:0:0:0:
200,217,65532,1,0,0:0:0:0:
356,196,65605,1,2,0:0:0:0:
418,193,65751,1,0,0:0:0:0:
356,196,65824,1,0,0:0:0:0:
186,210,65898,5,8,0:0:0:0:
135,211,65971,1,0,0:0:0:0:
287,272,66044,1,0,0:0:0:0:
338,267,66117,1,0,0:0:0:0:
187,265,66190,1,8,0:0:0:0:
132,271,66263,1,0,0:0:0:0:
278,282,66337,1,8,0:0:0:0:
283,334,66410,1,0,0:0:0:0:
132,345,66483,5,4,0:0:0:0:
76,324,66556,1,0,0:0:0:0:
57,271,66629,1,0,0:0:0:0:
80,220,66702,1,0,0:0:0:0:
233,219,66776,1,2,0:0:0:0:
288,212,66849,1,0,0:0:0:0:
137,129,66922,1,2,0:0:0:0:
192,120,66995,1,0,0:0:0:0:
380,39,67068,5,8,0:0:0:0:
436,60,67141,1,0,0:0:0:0:
455,113,67214,1,0,0:0:0:0:
432,164,67287,1,0,0:0:0:0:
279,165,67361,1,2,0:0:0:0:
224,172,67434,1,0,0:0:0:0:
392,259,67507,1,2,0:0:0:0:
387,215,67580,1,0,0:0:0:0:
180,163,67654,5,4,0:0:0:0:
188,191,67727,1,0,0:0:0:0:
332,163,67800,1,4,0:0:0:0:
324,191,67873,1,0,0:0:0:0:
180,163,67946,5,4,0:0:0:0:
172,193,68020,1,0,0:0:0:0:
332,163,68093,1,4,0:0:0:0:
340,193,68166,1,0,0:0:0:0:
171,194,68239,5,4,0:0:0:0:
123,225,68312,1,0,0:0:0:0:
341,194,68385,1,4,0:0:0:0:
389,225,68458,1,0,0:0:0:0:
123,225,68532,5,4,0:0:0:0:
63,240,68605,1,0,0:0:0:0:
389,225,68678,1,4,0:0:0:0:
449,240,68751,1,0,0:0:0:0:
63,240,68824,1,4,0:0:0:0:
256,192,68971,12,0,70873,0:0:0:0:
304,192,71166,5,4,0:2:0:0:
256,192,71312,12,0,73215,0:0:0:0:
128,192,73507,6,0,L|320:192,2,192,4|0|2,0:0|0:0|0:0,0:0:0:0:
384,192,74385,1,2,0:0:0:0:
126,303,74678,2,0,P|102:215|182:175,1,192,4|0,0:0|0:0,0:0:0:0:
386,303,75263,2,0,P|410:215|330:175,1,192,2|0,0:0|0:0,0:0:0:0:
91,202,75849,5,4,0:0:0:0:
35,186,75922,1,0,0:0:0:0:
11,131,75995,1,0,0:0:0:0:
43,85,76068,1,0,0:0:0:0:
196,74,76142,1,2,0:0:0:0:
203,129,76215,1,0,0:0:0:0:
210,184,76288,1,0,0:0:0:0:
217,239,76361,1,0,0:0:0:0:
368,273,76434,5,8,0:0:0:0:
424,257,76507,1,0,0:0:0:0:
448,202,76580,1,0,0:0:0:0:
416,156,76653,1,0,0:0:0:0:
263,197,76727,1,2,0:0:0:0:
231,151,76800,1,0,0:0:0:0:
255,96,76873,1,0,0:0:0:0:
311,80,76946,1,0,0:0:0:0:
158,54,77020,5,4,0:0:0:0:
110,99,77093,1,0,0:0:0:0:
62,144,77166,1,0,0:0:0:0:
110,99,77239,1,0,0:0:0:0:
261,155,77312,1,2,0:0:0:0:
213,200,77385,1,0,0:0:0:0:
165,245,77458,1,0,0:0:0:0:
213,200,77531,1,0,0:0:0:0:
366,298,77605,5,8,0:0:0:0:
426,262,77678,1,0,0:0:0:0:
423,194,77751,1,0,0:0:0:0:
358,159,77824,1,0,0:0:0:0:
205,85,77898,1,4,0:0:0:0:
138,78,77971,1,0,0:0:0:0:
205,85,78044,1,0,0:0:0:0:
272,92,78117,1,0,0:0:0:0:
121,105,78190,5,4,0:0:0:0:
58,115,78263,1,0,0:0:0:0:
36,177,78337,1,0,0:0:0:0:
80,229,78410,1,0,0:0:0:0:
231,151,78483,1,2,0:0:0:0:
296,165,78556,1,0,0:0:0:0:
325,226,78629,1,0,0:0:0:0:
295,285,78702,1,0,0:0:0:0:
136,337,78776,5,4,0:0:0:0:
106,278,78849,1,0,0:0:0:0:
135,217,78922,1,0,0:0:0:0:
200,203,78995,1,0,0:0:0:0:
351,187,79068,1,2,0:0:0:0:
414,176,79142,1,0,0:0:0:0:
351,187,79215,1,0,0:0:0:0:
288,198,79289,1,0,0:0:0:0:
437,151,79361,5,4,0:0:0:0:
464,195,79434,1,0,0:0:0:0:
439,245,79507,1,0,0:0:0:0:
386,268,79581,1,0,0:0:0:0:
231,251,79654,1,4,0:0:0:0:
182,255,79727,1,0,0:0:0:0:
231,215,79800,1,0,0:0:0:0:
182,216,79873,1,0,0:0:0:0:
333,186,79946,5,2,0:0:0:0:
360,230,80019,1,0,0:0:0:0:
335,280,80092,1,0,0:0:0:0:
281,291,80166,1,0,0:0:0:0:
129,277,80239,2,0,P|63:248|50:183,1,144,4|0,0:0|0:0,0:0:0:0:
228,93,80532,5,4,0:0:0:0:
233,158,80605,1,0,0:0:0:0:
161,156,80678,1,0,0:0:0:0:
166,221,80751,1,0,0:0:0:0:
317,133,80824,1,2,0:0:0:0:
368,178,80898,1,0,0:0:0:0:
381,241,80971,1,0,0:0:0:0:
335,291,81044,1,0,0:0:0:0:
184,218,81117,5,4,0:0:0:0:
179,283,81190,1,0,0:0:0:0:
251,281,81263,1,0,0:0:0:0:
246,346,81336,1,0,0:0:0:0:
93,354,81410,1,2,0:0:0:0:
36,317,81483,1,0,0:0:0:0:
16,254,81556,1,0,0:0:0:0:
45,196,81629,1,0,0:0:0:0:
213,122,81702,5,4,0:0:0:0:
218,187,81775,1,0,0:0:0:0:
146,185,81848,1,0,0:0:0:0:
151,250,81921,1,0,0:0:0:0:
304,157,81995,1,2,0:0:0:0:
309,222,82068,1,0,0:0:0:0:
158,263,82141,1,0,0:0:0:0:
163,328,82214,1,0,0:0:0:0:
323,185,82288,5,4,0:0:0:0:
328,250,82361,1,0,0:0:0:0:
177,291,82434,1,0,0:0:0:0:
182,356,82507,1,0,0:0:0:0:
349,205,82581,1,4,0:0:0:0:
354,270,82654,1,0,0:0:0:0:
203,311,82727,1,0,0:0:0:0:
208,376,82800,1,0,0:0:0:0:
400,338,82873,5,4,0:0:0:0:
457,291,82946,1,0,0:0:0:0:
438,226,83020,1,0,0:0:0:0:
375,202,83093,1,0,0:0:0:0:
224,119,83166,1,2,0:0:0:0:
162,127,83239,1,0,0:0:0:0:
224,119,83312,1,0,0:0:0:0:
286,111,83385,1,0,0:0:0:0:
133,48,83459,5,4,0:0:0:0:
68,65,83532,1,0,0:0:0:0:
35,124,83606,1,0,0:0:0:0:
69,183,83679,1,0,0:0:0:0:
218,188,83751,1,2,0:0:0:0:
280,184,83824,1,0,0:0:0:0:
128,256,83897,1,0,0:0:0:0:
136,320,83970,1,0,0:0:0:0:
309,302,84044,5,4,0:0:0:0:
371,294,84117,1,0,0:0:0:0:
309,302,84190,1,0,0:0:0:0:
247,310,84263,1,0,0:0:0:0:
400,237,84337,1,4,0:0:0:0:
434,178,84410,1,0,0:0:0:0:
401,119,84484,1,0,0:0:0:0:
336,102,84557,1,0,0:0:0:0:
176,102,84629,5,2,0:0:0:0:
114,119,84702,1,0,0:0:0:0:
52,136,84776,1,0,0:0:0:0:
115,182,84849,1,0,0:0:0:0:
282,203,84922,2,0,B|377:221|377:221|312:209,1,144,4|0,0:0|0:0,0:0:0:0:
129,201,85215,5,4,0:0:0:0:
33,184,85361,1,0,0:0:0:0:
48,111,85507,1,0,0:0:0:0:
269,221,85654,1,8,0:0:0:0:
155,194,85800,1,0,0:0:0:0:
168,120,85946,1,0,0:0:0:0:
391,225,86093,5,8,0:0:0:0:
257,204,86239,1,0,0:0:0:0:
271,130,86385,1,0,0:0:0:0:
492,224,86532,1,8,0:0:0:0:
339,207,86678,1,0,0:0:0:0:
354,127,86824,1,0,0:0:0:0:
103,123,86971,5,8,0:0:0:0:
247,106,87117,1,0,0:0:0:0:
36,245,87263,1,8,0:0:0:0:
247,253,87409,1,8,0:0:0:0:
287,198,87483,1,0,0:0:0:0:
119,188,87556,5,4,0:0:0:0:
235,171,87702,1,0,0:0:0:0:
119,188,87849,1,0,0:0:0:0:
348,70,87995,1,8,0:0:0:0:
232,87,88141,1,0,0:0:0:0:
348,70,88288,1,0,0:0:0:0:
118,74,88434,1,8,0:0:0:0:
348,70,88581,1,2,0:0:0:0:
119,174,88727,5,8,0:0:0:0:
235,157,88874,1,0,0:0:0:0:
119,174,89020,1,0,0:0:0:0:
349,212,89166,1,8,0:0:0:0:
349,212,89313,1,0,0:0:0:0:
233,228,89459,1,0,0:0:0:0:
464,295,89605,1,8,0:0:0:0:
248,299,89752,1,2,0:0:0:0:
296,272,89825,1,0,0:0:0:0:
450,279,89898,5,8,0:0:0:0:
345,262,90044,1,0,0:0:0:0:
438,166,90190,1,0,0:0:0:0:
390,173,90263,1,0,0:0:0:0:
232,128,90337,1,8,0:0:0:0:
337,169,90483,1,0,0:0:0:0:
232,128,90629,1,0,0:0:0:0:
444,194,90776,1,8,0:0:0:0:
232,128,90922,1,2,0:0:0:0:
203,120,90995,1,0,0:0:0:0:
395,128,91068,6,0,L|491:128,1,96,8|0,0:0|0:0,0:0:0:0:
269,168,91361,2,0,L|365:168,1,96,8|0,0:0|0:0,0:0:0:0:
143,208,91654,2,0,L|239:208,1,96,8|0,0:0|0:0,0:0:0:0:
17,248,91946,2,0,L|113:248,1,96,8|2,0:0|0:0,0:0:0:0:
368,258,92239,5,4,0:0:0:0:
253,239,92385,1,0,0:0:0:0:
368,258,92532,1,0,0:0:0:0:
373,196,92605,1,0,0:0:0:0:
206,177,92678,1,8,0:0:0:0:
320,151,92824,1,0,0:0:0:0:
320,151,92971,1,0,0:0:0:0:
109,166,93117,1,8,0:0:0:0:
320,151,93263,1,2,0:0:0:0:
89,59,93410,5,8,0:0:0:0:
203,85,93556,1,0,0:0:0:0:
89,59,93702,1,0,0:0:0:0:
320,151,93849,1,8,0:0:0:0:
206,125,93995,1,0,0:0:0:0:
320,151,94141,1,0,0:0:0:0:
110,175,94288,1,8,0:0:0:0:
320,216,94434,1,2,0:0:0:0:
89,211,94581,5,8,0:0:0:0:
204,242,94727,1,0,0:0:0:0:
89,211,94873,1,0,0:0:0:0:
84,277,94946,1,0,0:0:0:0:
254,292,95020,1,8,0:0:0:0:
149,311,95166,1,0,0:0:0:0:
43,328,95312,1,0,0:0:0:0:
255,266,95459,1,8,0:0:0:0:
44,244,95605,1,2,0:0:0:0:
283,243,95751,6,0,L|373:211,1,96,4|0,0:0|0:0,0:0:0:0:
306,191,95971,1,2,0:0:0:0:
239,181,96044,2,0,L|329:149,1,96,8|0,0:0|0:0,0:0:0:0:
256,136,96263,1,2,0:0:0:0:
184,130,96337,2,0,L|274:98,1,96,8|0,0:0|0:0,0:0:0:0:
337,78,96556,1,2,0:0:0:0:
186,74,96629,2,0,B|137:74|137:74|252:74,1,144,4|0,0:0|0:0,0:0:0:0:
433,282,96922,5,4,0:0:0:0:
321,275,97068,1,0,0:0:0:0:
433,282,97215,1,0,0:0:0:0:
438,217,97288,1,0,0:0:0:0:
270,180,97361,1,8,0:0:0:0:
381,191,97507,1,0,0:0:0:0:
390,102,97654,1,0,0:0:0:0:
256,87,97800,1,8,0:0:0:0:
390,102,97946,1,2,0:0:0:0:
178,78,98093,6,0,L|168:187,1,96,8|0,0:0|0:0,0:0:0:0:
313,175,98385,2,0,L|303:284,1,96,0|8,0:0|0:0,0:0:0:0:
92,192,98678,2,0,L|82:301,1,96
228,307,98971,1,8,0:0:0:0:
84,287,99117,1,2,0:0:0:0:
322,293,99263,5,8,0:0:0:0:
205,270,99410,1,0,0:0:0:0:
436,91,99556,2,0,L|446:200,1,96,0|8,0:0|0:0,0:0:0:0:
299,169,99849,2,0,L|309:278,1,96
452,228,100142,2,0,L|462:337,1,96,8|2,0:0|0:0,0:0:0:0:
231,320,100434,5,4,0:0:0:0:
231,320,100581,1,0,0:0:0:0:
364,316,100727,1,8,0:0:0:0:
369,251,100800,1,0,0:0:0:0:
218,221,100873,1,0,0:0:0:0:
102,236,101020,1,0,0:0:0:0:
313,228,101166,1,2,0:0:0:0:
204,211,101312,1,8,0:0:0:0:
198,147,101385,1,0,0:0:0:0:
351,198,101459,1,2,0:0:0:0:
106,110,101605,5,8,0:0:0:0:
216,138,101751,1,0,0:0:0:0:
106,110,101898,1,0,0:0:0:0:
100,46,101971,1,0,0:0:0:0:
267,97,102044,1,8,0:0:0:0:
157,77,102190,1,0,0:0:0:0:
267,97,102337,1,0,0:0:0:0:
56,165,102483,1,8,0:0:0:0:
56,165,102629,1,2,0:0:0:0:
306,209,102776,5,8,0:0:0:0:
191,181,102922,1,0,0:0:0:0:
82,153,103068,1,0,0:0:0:0:
352,238,103215,2,0,L|451:229,1,96,8|0,0:0|0:0,0:0:0:0:
376,170,103434,1,0,0:0:0:0:
194,165,103507,1,2,0:0:0:0:
310,161,103654,1,8,0:0:0:0:
108,158,103800,1,2,0:0:0:0:
412,44,103946,5,4,0:0:0:0:
456,96,104020,1,0,0:0:0:0:
288,96,104093,1,0,0:0:0:0:
256,160,104167,1,0,0:0:0:0:
424,160,104239,1,0,0:0:0:0:
440,224,104312,1,0,0:0:0:0:
272,224,104385,1,0,0:0:0:0:
256,288,104459,1,0,0:0:0:0:
101,44,104532,5,4,0:0:0:0:
73,96,104606,1,0,0:0:0:0:
240,96,104678,1,0,0:0:0:0:
256,160,104751,1,0,0:0:0:0:
89,160,104825,1,0,0:0:0:0:
73,224,104898,1,0,0:0:0:0:
240,224,104971,1,0,0:0:0:0:
256,288,105045,1,0,0:0:0:0:
91,114,105117,5,4,0:0:0:0:
54,148,105190,1,0,0:0:0:0:
71,202,105263,1,0,0:0:0:0:
139,194,105337,1,0,0:0:0:0:
320,160,105410,1,8,0:0:0:0:
256,176,105483,1,0,0:0:0:0:
219,225,105556,1,0,0:0:0:0:
224,288,105629,1,0,0:0:0:0:
392,240,105702,5,8,0:0:0:0:
431,275,105776,1,0,0:0:0:0:
408,328,105849,1,0,0:0:0:0:
344,320,105922,1,0,0:0:0:0:
184,136,105995,1,8,0:0:0:0:
135,198,106068,1,0,0:0:0:0:
328,136,106142,1,0,0:0:0:0:
377,198,106215,1,0,0:0:0:0:
95,254,106288,6,0,P|61:165|129:114,1,192,4|8,0:0|0:0,0:0:0:0:
225,125,106727,1,2,0:0:0:0:
91,150,106873,1,0,0:0:0:0:
91,150,107020,1,2,0:0:0:0:
235,127,107166,2,0,P|256:196|204:232,1,144,8|0,0:0|0:0,0:0:0:0:
375,293,107459,6,0,B|472:293|472:293|367:293,1,192,4|0,0:0|0:0,0:0:0:0:
146,284,107898,2,0,B|49:284|49:284|154:284,1,192,8|0,0:0|0:0,0:0:0:0:
289,297,108337,1,8,0:0:0:0:
146,284,108483,1,0,0:0:0:0:
375,293,108629,1,4,0:0:0:0:
182,217,108922,5,8,0:0:0:0:
182,217,109068,1,8,0:0:0:0:
298,155,109215,2,0,L|199:155,1,96,2|0,0:0|0:0,0:0:0:0:
413,87,109507,1,8,0:0:0:0:
221,89,109800,5,2,0:0:0:0:
332,103,109946,1,0,0:0:0:0:
338,187,110093,1,8,0:0:0:0:
194,193,110239,1,2,0:0:0:0:
305,207,110385,1,0,0:0:0:0:
311,291,110532,1,2,0:0:0:0:
168,306,110678,2,0,P|114:264|137:201,1,144,8|0,0:0|0:0,0:0:0:0:
307,123,110971,6,0,B|404:123|404:123|299:123,1,192,4|8,0:0|0:0,0:0:0:0:
425,87,111410,1,2,0:0:0:0:
329,76,111556,1,0,0:0:0:0:
425,87,111702,1,0,0:0:0:0:
280,120,111849,2,0,P|257:183|310:224,1,144,8|0,0:0|0:0,0:0:0:0:
141,274,112142,6,0,B|44:274|44:274|149:274,1,192,4|8,0:0|0:0,0:0:0:0:
255,229,112581,1,2,0:0:0:0:
159,218,112727,1,0,0:0:0:0:
255,229,112873,1,0,0:0:0:0:
109,260,113020,2,0,L|104:108,1,144,8|0,0:0|0:0,0:0:0:0:
272,82,113312,6,0,L|176:85,1,96,4|0,0:0|0:0,0:0:0:0:
321,144,113605,2,0,L|225:147,1,96,8|0,0:0|0:0,0:0:0:0:
370,206,113898,2,0,L|274:209,1,96,2|8,0:0|0:0,0:0:0:0:
417,263,114190,1,2,0:0:0:0:
205,309,114337,6,0,P|129:251|172:185,1,192,4|2,0:0|0:0,0:0:0:0:
386,187,114776,1,8,0:0:0:0:
251,188,114922,1,8,0:0:0:0:
318,117,115068,1,2,0:0:0:0:
183,118,115215,1,2,0:0:0:0:
251,53,115361,1,8,0:0:0:0:
116,54,115507,1,8,0:0:0:0:
347,61,115654,6,0,P|425:122|401:201,1,192,4|8,0:0|0:0,0:0:0:0:
286,217,116093,1,2,0:0:0:0:
286,217,116239,1,0,0:0:0:0:
401,247,116385,1,2,0:0:0:0:
256,273,116532,2,0,P|217:212|253:160,1,144,8|0,0:0|0:0,0:0:0:0:
401,247,116824,6,0,P|437:185|414:120,1,144,4|0,0:0|0:0,0:0:0:0:
342,141,117117,1,8,0:0:0:0:
108,157,117263,2,0,L|322:150,1,213.120005203125,2|0,0:0|0:0,0:0:0:0:
176,127,117702,2,0,L|172:230,1,96,8|0,0:0|0:0,0:0:0:0:
384,263,117995,1,4,0:0:0:0:
191,113,118288,5,8,0:0:0:0:
191,113,118434,1,8,0:0:0:0:
307,175,118581,2,0,L|208:175,1,96,2|0,0:0|0:0,0:0:0:0:
422,243,118873,1,8,0:0:0:0:
229,111,119166,5,2,0:0:0:0:
340,125,119312,1,0,0:0:0:0:
346,209,119459,1,8,0:0:0:0:
489,218,119605,1,2,0:0:0:0:
378,232,119751,1,0,0:0:0:0:
372,316,119898,1,2,0:0:0:0:
228,308,120044,2,0,B|181:252|181:252|228:199,1,144,8|0,0:0|0:0,0:0:0:0:
398,247,120337,6,0,P|406:156|323:115,1,192,4|8,0:0|0:0,0:0:0:0:
211,145,120776,1,2,0:0:0:0:
327,114,120922,1,0,0:0:0:0:
443,83,121068,1,2,0:0:0:0:
298,72,121215,2,0,B|251:125|251:125|298:181,1,144,8|0,0:0|0:0,0:0:0:0:
130,274,121507,6,0,P|66:227|113:141,1,192,4|8,0:0|0:0,0:0:0:0:
256,202,121946,1,2,0:0:0:0:
140,155,122093,1,0,0:0:0:0:
256,202,122239,1,2,0:0:0:0:
112,186,122385,2,0,P|92:256|144:296,1,144,8|0,0:0|0:0,0:0:0:0:
311,299,122678,5,4,0:0:0:0:
321,202,122824,1,0,0:0:0:0:
112,186,122971,1,8,0:0:0:0:
112,186,123263,1,0,0:0:0:0:
237,194,123410,1,8,0:0:0:0:
112,186,123556,1,0,0:0:0:0:
343,98,123702,6,0,P|409:168|368:242,1,192,8|2,0:0|0:0,0:0:0:0:
155,241,124142,1,8,0:0:0:0:
290,242,124288,1,2,0:0:0:0:
223,171,124434,1,8,0:0:0:0:
358,172,124581,1,2,0:0:0:0:
290,107,124727,1,8,0:0:0:0:
425,108,124873,1,8,0:0:0:0:
213,67,125020,6,0,P|191:161|275:196,1,192,4|8,0:0|0:0,0:0:0:0:
360,204,125459,1,0,0:0:0:0:
245,239,125605,1,2,0:0:0:0:
245,239,125751,1,0,0:0:0:0:
390,256,125898,1,8,0:0:0:0:
245,239,126044,2,0,L|239:45,1,192
471,58,126483,6,0,L|375:59,1,96,8|0,0:0|0:0,0:0:0:0:
259,126,126776,2,0,L|354:124,1,96,8|0,0:0|0:0,0:0:0:0:
417,141,126995,1,0,0:0:0:0:
266,151,127068,1,8,0:0:0:0:
170,200,127215,1,0,0:0:0:0:
409,241,127361,6,0,L|205:241,1,192,4|8,0:0|0:0,0:0:0:0:
313,242,127800,1,0,0:0:0:0:
74,151,127946,2,0,L|278:151,1,192,4|8,0:0|0:0,0:0:0:0:
170,150,128385,1,0,0:0:0:0:
411,83,128532,6,0,L|416:190,1,96,4|0,0:0|0:0,0:0:0:0:
205,86,128824,2,0,P|130:145|157:226,1,192,8|2,0:0|0:0,0:0:0:0:
220,217,129190,1,0,0:0:0:0:
282,211,129263,1,0,0:0:0:0:
220,217,129337,1,0,0:0:0:0:
69,256,129410,2,0,B|12:211|12:211|54:153,1,144,8|0,0:0|0:0,0:0:0:0:
298,112,129702,6,0,L|199:109,2,96,4|0|0,0:0|0:0|0:0,0:0:0:0:
153,200,130142,2,0,L|252:203,2,96,8|0|0,0:0|0:0|0:0,0:0:0:0:
298,276,130581,2,0,L|301:177,1,96,8|0,0:0|0:0,0:0:0:0:
70,309,130873,6,0,L|169:312,2,96,4|0|0,0:0|0:0|0:0,0:0:0:0:
215,221,131313,2,0,L|116:218,2,96,8|0|0,0:0|0:0|0:0,0:0:0:0:
277,225,131678,1,0,0:0:0:0:
442,145,131752,2,0,L|445:244,1,96,8|0,0:0|0:0,0:0:0:0:
215,81,132044,6,0,L|311:84,1,96,4|0,0:0|0:0,0:0:0:0:
166,143,132337,2,0,L|262:146,1,96,8|0,0:0|0:0,0:0:0:0:
117,205,132630,2,0,L|213:208,1,96,8|0,0:0|0:0,0:0:0:0:
70,262,132922,1,8,0:0:0:0:
282,308,133069,6,0,P|358:250|315:184,1,192,4|0,0:0|0:0,0:0:0:0:
253,181,133434,1,0,0:0:0:0:
191,177,133507,1,8,0:0:0:0:
335,146,133654,1,0,0:0:0:0:
124,77,133800,5,8,0:0:0:0:
62,70,133873,1,0,0:0:0:0:
124,77,133946,1,0,0:0:0:0:
240,102,134093,1,8,0:0:0:0:
96,146,134239,1,0,0:0:0:0:
158,157,134312,1,0,0:0:0:0:
354,157,134385,5,4,0:0:0:0:
470,208,134532,1,8,0:0:0:0:
345,218,134678,1,2,0:0:0:0:
461,269,134824,2,0,L|467:163,1,96,8|2,0:0|0:0,0:0:0:0:
403,147,135044,1,0,0:0:0:0:
252,228,135117,1,8,0:0:0:0:
368,177,135264,1,2,0:0:0:0:
243,165,135410,1,8,0:0:0:0:
359,114,135556,1,2,0:0:0:0:
236,101,135702,1,8,0:0:0:0:
447,53,135849,5,2,0:0:0:0:
332,41,135994,1,8,0:0:0:0:
447,53,136142,1,2,0:0:0:0:
385,71,136215,1,0,0:0:0:0:
236,101,136287,1,8,0:0:0:0:
352,80,136434,1,2,0:0:0:0:
236,101,136581,1,8,0:0:0:0:
451,159,136727,5,4,0:0:0:0:
336,185,136873,1,8,0:0:0:0:
451,159,137020,1,0,0:0:0:0:
241,87,137166,2,0,P|254:155|320:169,1,144,8|0,0:0|0:0,0:0:0:0:
392,168,137459,1,8,0:0:0:0:
182,204,137605,5,2,0:0:0:0:
308,248,137752,1,0,0:0:0:0:
97,209,137898,1,8,0:0:0:0:
35,202,137971,1,0,0:0:0:0:
97,209,138044,1,0,0:0:0:0:
309,307,138190,6,0,L|313:192,1,96,2|8,0:0|0:0,0:0:0:0:
190,205,138483,1,2,0:0:0:0:
144,188,138556,1,0,0:0:0:0:
98,175,138629,1,8,0:0:0:0:
312,232,138776,1,2,0:0:0:0:
374,188,138849,1,0,0:0:0:0:
312,142,138922,1,8,0:0:0:0:
90,199,139068,6,0,L|84:93,1,96,4|8,0:0|0:0,0:0:0:0:
297,94,139361,2,0,L|201:99,1,96,0|8,0:0|0:0,0:0:0:0:
413,150,139654,2,0,L|418:245,1,96,0|8,0:0|0:0,0:0:0:0:
208,286,139946,1,0,0:0:0:0:
449,320,140093,2,0,P|473:232|397:193,1,192,8|8,0:0|0:0,0:0:0:0:
184,200,140532,6,0,L|89:194,1,96,0|8,0:0|0:0,0:0:0:0:
299,144,140824,2,0,L|204:138,1,96,0|8,0:0|0:0,0:0:0:0:
415,101,141117,2,0,L|320:95,1,96,0|8,0:0|0:0,0:0:0:0:
97,70,141410,5,4,0:0:0:0:
57,120,141483,1,0,0:0:0:0:
78,184,141556,1,0,0:0:0:0:
141,194,141629,1,0,0:0:0:0:
308,225,141702,1,0,0:0:0:0:
371,215,141775,1,0,0:0:0:0:
392,151,141848,1,0,0:0:0:0:
352,101,141921,1,0,0:0:0:0:
158,54,141995,5,2,0:0:0:0:
96,82,142068,1,0,0:0:0:0:
34,110,142142,1,0,0:0:0:0:
96,82,142215,1,0,0:0:0:0:
264,155,142288,1,2,0:0:0:0:
326,127,142362,1,0,0:0:0:0:
161,106,142434,1,2,0:0:0:0:
223,78,142508,1,0,0:0:0:0:
444,74,142581,5,4,0:0:0:0:
474,123,142654,1,0,0:0:0:0:
446,168,142727,1,2,0:0:0:0:
384,176,142800,1,0,0:0:0:0:
233,157,142873,1,2,0:0:0:0:
228,216,142946,1,0,0:0:0:0:
302,211,143020,1,2,0:0:0:0:
297,270,143093,1,0,0:0:0:0:
129,266,143166,5,2,0:0:0:0:
70,261,143239,1,0,0:0:0:0:
243,216,143312,1,2,0:0:0:0:
302,211,143385,1,0,0:0:0:0:
126,200,143459,1,2,0:0:0:0:
67,195,143532,1,0,0:0:0:0:
240,150,143605,1,2,0:0:0:0:
299,145,143678,1,0,0:0:0:0:
63,129,143751,6,0,L|57:32,1,96,4|0,0:0|0:0,0:0:0:0:
183,57,144044,2,0,L|87:62,1,96,8|0,0:0|0:0,0:0:0:0:
93,127,144263,1,0,0:0:0:0:
246,128,144337,1,2,0:0:0:0:
251,192,144410,1,0,0:0:0:0:
100,218,144483,2,0,L|4:223,1,96,8|0,0:0|0:0,0:0:0:0:
155,291,144702,2,0,L|163:193,1,96,8|0,0:0|0:0,0:0:0:0:
331,226,144922,6,0,L|426:231,1,96,8|0,0:0|0:0,0:0:0:0:
257,153,145142,2,0,L|161:147,1,96,8|0,0:0|0:0,0:0:0:0:
331,226,145361,2,0,L|396:230,1,48,8|0,0:0|0:0,0:0:0:0:
170,266,145507,6,0,L|159:204,1,48,8|0,0:0|0:0,0:0:0:0:
230,218,145654,2,0,L|230:149,1,48,2|0,0:0|0:0,0:0:0:0:
309,160,145800,2,0,L|329:96,1,48,2|0,0:0|0:0,0:0:0:0:
467,104,145946,2,0,L|496:45,1,48,2|0,0:0|0:0,0:0:0:0:
294,54,146093,6,0,L|199:59,1,96,4|0,0:0|0:0,0:0:0:0:
200,120,146312,1,0,0:0:0:0:
363,101,146385,2,0,L|458:106,1,96,8|0,0:0|0:0,0:0:0:0:
247,252,146678,6,0,L|152:247,1,96,8|0,0:0|0:0,0:0:0:0:
304,199,146898,2,0,L|309:104,1,96,8|0,0:0|0:0,0:0:0:0:
158,99,147117,2,0,L|93:95,1,48,8|0,0:0|0:0,0:0:0:0:
278,52,147263,5,8,0:0:0:0:
325,54,147337,1,0,0:0:0:0:
374,58,147410,1,0,0:0:0:0:
223,123,147483,1,8,0:0:0:0:
221,172,147556,1,0,0:0:0:0:
217,218,147629,1,0,0:0:0:0:
369,246,147702,1,8,0:0:0:0:
416,248,147776,1,0,0:0:0:0:
224,298,147849,5,8,0:0:0:0:
177,296,147923,1,0,0:0:0:0:
318,204,147995,1,2,0:0:0:0:
365,206,148069,1,0,0:0:0:0:
222,164,148142,1,8,0:0:0:0:
220,117,148216,1,0,0:0:0:0:
79,100,148288,1,2,0:0:0:0:
32,102,148362,1,0,0:0:0:0:
221,93,148434,5,4,0:0:0:0:
269,96,148507,1,0,0:0:0:0:
116,144,148581,1,2,0:0:0:0:
163,146,148654,1,0,0:0:0:0:
330,123,148727,2,0,L|441:131,1,96,8|2,0:0|0:0,0:0:0:0:
378,126,148946,1,0,0:0:0:0:
225,260,149020,5,8,0:0:0:0:
177,257,149093,1,0,0:0:0:0:
330,209,149166,1,2,0:0:0:0:
283,207,149240,1,0,0:0:0:0:
118,202,149312,2,0,L|7:194,1,96,8|2,0:0|0:0,0:0:0:0:
70,199,149531,1,0,0:0:0:0:
264,148,149605,5,8,0:0:0:0:
326,155,149678,1,0,0:0:0:0:
175,178,149751,1,8,0:0:0:0:
168,116,149824,1,0,0:0:0:0:
321,135,149898,1,8,0:0:0:0:
328,73,149971,1,0,0:0:0:0:
177,50,150044,1,8,0:0:0:0:
115,57,150117,1,0,0:0:0:0:
357,72,150190,6,0,L|468:64,1,96,4|0,0:0|0:0,0:0:0:0:
327,129,150483,2,0,L|216:137,1,96,8|0,0:0|0:0,0:0:0:0:
443,222,150776,2,0,L|347:228,1,96,8|2,0:0|0:0,0:0:0:0:
285,231,150995,1,0,0:0:0:0:
436,269,151068,2,0,B|480:244|480:244|442:221,1,96,8|0,0:0|0:0,0:0:0:0:
231,180,151361,6,0,L|326:186,1,96,8|2,0:0|0:0,0:0:0:0:
389,189,151580,1,0,0:0:0:0:
236,228,151654,2,0,B|192:203|192:203|230:180,1,96,8|0,0:0|0:0,0:0:0:0:
443,152,151946,2,0,L|448:84,1,48,8|0,0:0|0:0,0:0:0:0:
277,96,152093,2,0,L|272:164,1,48,8|0,0:0|0:0,0:0:0:0:
347,153,152239,2,0,L|342:221,1,48,8|0,0:0|0:0,0:0:0:0:
195,207,152385,1,8,0:0:0:0:
407,305,152532,5,4,0:0:0:0:
440,248,152605,1,0,0:0:0:0:
415,187,152678,1,2,0:0:0:0:
351,176,152751,1,0,0:0:0:0:
195,207,152824,2,0,L|127:202,1,48,2|0,0:0|0:0,0:0:0:0:
303,172,152971,2,0,L|371:177,1,48
147,203,153117,5,8,0:0:0:0:
80,193,153190,1,0,0:0:0:0:
77,129,153263,1,0,0:0:0:0:
74,65,153337,1,0,0:0:0:0:
225,150,153410,1,8,0:0:0:0:
158,140,153483,1,0,0:0:0:0:
155,76,153556,1,0,0:0:0:0:
152,12,153630,1,0,0:0:0:0:
317,116,153702,5,8,0:0:0:0:
320,52,153776,1,0,0:0:0:0:
246,70,153849,1,8,0:0:0:0:
243,134,153923,1,0,0:0:0:0:
392,151,153995,1,8,0:0:0:0:
389,215,154069,1,0,0:0:0:0:
238,217,154142,1,8,0:0:0:0:
235,281,154216,1,0,0:0:0:0:
424,299,154288,5,4,0:0:0:0:
431,233,154361,1,0,0:0:0:0:
280,266,154434,1,2,0:0:0:0:
287,200,154507,1,0,0:0:0:0:
440,206,154581,5,8,0:0:0:0:
433,145,154654,1,0,0:0:0:0:
282,159,154727,1,2,0:0:0:0:
275,98,154800,1,0,0:0:0:0:
426,125,154873,5,8,0:0:0:0:
402,68,154946,1,0,0:0:0:0:
249,120,155020,1,2,0:0:0:0:
225,63,155093,1,0,0:0:0:0:
376,122,155166,5,8,0:0:0:0:
328,100,155239,1,0,0:0:0:0:
177,117,155312,1,2,0:0:0:0:
129,95,155385,1,0,0:0:0:0:
335,117,155459,1,8,0:0:0:0:
383,95,155532,1,0,0:0:0:0:
129,95,155605,5,4,0:0:0:0:
63,118,155678,1,0,0:0:0:0:
37,184,155751,1,2,0:0:0:0:
66,247,155824,1,0,0:0:0:0:
219,210,155898,1,8,0:0:0:0:
248,273,155971,1,0,0:0:0:0:
97,261,156044,1,2,0:0:0:0:
68,198,156117,1,0,0:0:0:0:
219,210,156190,5,8,0:0:0:0:
190,147,156263,1,0,0:0:0:0:
343,157,156337,1,2,0:0:0:0:
372,94,156410,1,0,0:0:0:0:
221,118,156483,1,8,0:0:0:0:
192,55,156556,1,0,0:0:0:0:
347,71,156629,5,2,0:0:0:0:
402,75,156702,1,0,0:0:0:0:
346,115,156776,1,8,0:0:0:0:
401,119,156849,1,0,0:0:0:0:
257,114,156922,1,2,0:0:0:0:
195,106,156995,1,0,0:0:0:0:
257,114,157068,1,8,0:0:0:0:
319,122,157141,1,0,0:0:0:0:
173,109,157215,5,4,0:0:0:0:
119,108,157288,1,0,0:0:0:0:
174,151,157362,1,2,0:0:0:0:
120,150,157435,1,0,0:0:0:0:
261,175,157507,1,2,0:0:0:0:
323,183,157580,1,0,0:0:0:0:
174,151,157654,1,2,0:0:0:0:
112,159,157727,1,0,0:0:0:0:
309,149,157800,5,4,0:0:0:0:
364,168,157873,1,0,0:0:0:0:
394,215,157946,1,8,0:0:0:0:
364,266,158020,1,0,0:0:0:0:
213,298,158093,1,2,0:0:0:0:
151,285,158166,1,0,0:0:0:0:
213,298,158239,1,8,0:0:0:0:
275,307,158312,1,0,0:0:0:0:
426,263,158385,5,2,0:0:0:0:
488,260,158459,1,0,0:0:0:0:
426,263,158532,1,8,0:0:0:0:
364,260,158606,1,0,0:0:0:0:
215,213,158678,5,2,0:0:0:0:
166,210,158752,1,0,0:0:0:0:
315,139,158824,1,2,0:0:0:0:
364,137,158898,1,0,0:0:0:0:
107,80,158971,5,8,0:0:0:0:
59,78,159044,1,0,0:0:0:0:
203,116,159117,1,8,0:0:0:0:
251,118,159190,1,0,0:0:0:0:
395,178,159263,1,8,0:0:0:0:
347,176,159336,1,0,0:0:0:0:
153,238,159410,1,8,0:0:0:0:
201,236,159483,1,0,0:0:0:0:
413,257,159556,5,8,0:0:0:0:
461,260,159629,1,0,0:0:0:0:
269,279,159702,1,8,0:0:0:0:
221,278,159775,1,0,0:0:0:0:
396,137,159849,1,8,0:0:0:0:
348,141,159922,1,0,0:0:0:0:
147,93,159995,1,8,0:0:0:0:
195,91,160068,1,0,0:0:0:0:
433,53,160142,5,4,0:0:0:0:
482,112,160215,1,0,0:0:0:0:
460,183,160288,1,0,0:0:0:0:
383,192,160361,1,0,0:0:0:0:
191,279,160434,1,0,0:0:0:0:
123,258,160507,1,0,0:0:0:0:
96,190,160581,1,0,0:0:0:0:
145,125,160654,1,0,0:0:0:0:
231,109,160727,5,4,0:0:0:0:
303,143,160800,1,0,0:0:0:0:
335,205,160873,1,0,0:0:0:0:
302,269,160946,1,0,0:0:0:0:
108,294,161020,1,0,0:0:0:0:
170,298,161093,1,0,0:0:0:0:
321,274,161166,1,0,0:0:0:0:
383,278,161239,1,0,0:0:0:0:
143,277,161312,5,4,0:0:0:0:
71,265,161385,1,0,0:0:0:0:
31,207,161459,1,0,0:0:0:0:
71,146,161532,1,0,0:0:0:0:
263,198,161605,5,4,0:0:0:0:
335,186,161678,1,0,0:0:0:0:
375,128,161752,1,0,0:0:0:0:
335,67,161825,1,0,0:0:0:0:
143,158,161898,5,4,0:0:0:0:
71,146,161971,1,0,0:0:0:0:
31,88,162045,1,0,0:0:0:0:
71,27,162118,1,0,0:0:0:0:
369,158,162190,5,4,0:0:0:0:
441,146,162263,1,0,0:0:0:0:
481,88,162337,1,0,0:0:0:0:
441,27,162410,1,0,0:0:0:0:
106,28,162483,5,4,0:0:0:0:
42,59,162556,1,0,0:0:0:0:
29,125,162629,1,0,0:0:0:0:
60,186,162702,1,0,0:0:0:0:
127,205,162776,1,0,0:0:0:0:
203,206,162849,1,0,0:0:0:0:
363,197,162922,5,2,0:0:0:0:
426,184,162995,1,0,0:0:0:0:
363,197,163068,1,0,0:0:0:0:
300,210,163141,1,0,0:0:0:0:
363,197,163215,1,0,0:0:0:0:
426,210,163288,1,0,0:0:0:0:
235,55,163361,5,2,0:0:0:0:
168,66,163435,1,0,0:0:0:0:
357,147,163507,1,2,0:0:0:0:
424,136,163581,1,0,0:0:0:0:
235,55,163654,5,6,0:0:0:0:
168,66,163727,1,0,0:0:0:0:
136,134,163800,1,0,0:0:0:0:
153,205,163873,1,0,0:0:0:0:
218,231,163947,1,0,0:0:0:0:
290,240,164020,1,0,0:0:0:0:
131,330,164093,1,2,0:0:0:0:
97,278,164167,1,0,0:0:0:0:
286,326,164239,5,2,0:0:0:0:
350,310,164312,1,0,0:0:0:0:
414,294,164385,1,0,0:0:0:0:
259,175,164459,1,2,0:0:0:0:
195,159,164532,1,0,0:0:0:0:
259,175,164605,1,0,0:0:0:0:
417,154,164678,1,2,0:0:0:0:
353,138,164751,1,0,0:0:0:0:
194,254,164824,5,6,0:0:0:0:
118,253,164897,1,0,0:0:0:0:
70,208,164971,1,0,0:0:0:0:
59,144,165044,1,0,0:0:0:0:
91,89,165117,1,0,0:0:0:0:
157,78,165190,1,0,0:0:0:0:
355,78,165263,1,2,0:0:0:0:
420,96,165337,1,0,0:0:0:0:
198,119,165410,5,2,0:0:0:0:
180,184,165484,1,0,0:0:0:0:
337,192,165556,1,2,0:0:0:0:
355,257,165630,1,0,0:0:0:0:
198,288,165702,5,2,0:0:0:0:
133,306,165776,1,0,0:0:0:0:
314,288,165849,1,2,0:0:0:0:
379,270,165923,1,0,0:0:0:0:
200,242,165995,5,6,0:0:0:0:
171,179,166068,1,0,0:0:0:0:
216,113,166142,1,0,0:0:0:0:
284,114,166215,1,0,0:0:0:0:
329,180,166288,1,0,0:0:0:0:
299,243,166361,1,0,0:0:0:0:
140,254,166434,1,2,0:0:0:0:
169,322,166507,1,0,0:0:0:0:
331,310,166581,5,6,0:0:0:0:
395,306,166654,1,0,0:0:0:0:
236,321,166727,1,0,0:0:0:0:
169,322,166800,1,0,0:0:0:0:
155,263,166873,1,0,0:0:0:0:
201,226,166946,1,0,0:0:0:0:
362,171,167020,1,0,0:0:0:0:
423,164,167093,1,0,0:0:0:0:
235,204,167166,5,6,0:0:0:0:
216,144,167239,1,0,0:0:0:0:
283,153,167312,1,0,0:0:0:0:
264,93,167385,1,0,0:0:0:0:
332,102,167459,1,0,0:0:0:0:
313,42,167532,1,0,0:0:0:0:
154,101,167605,1,2,0:0:0:0:
135,41,167678,1,0,0:0:0:0:
326,43,167751,5,6,0:0:0:0:
390,52,167824,1,0,0:0:0:0:
326,43,167898,1,0,0:0:0:0:
186,137,167971,1,2,0:0:0:0:
122,146,168044,1,0,0:0:0:0:
186,137,168118,1,0,0:0:0:0:
342,140,168190,1,2,0:0:0:0:
406,149,168264,1,0,0:0:0:0:
212,281,168337,5,6,0:0:0:0:
145,252,168410,1,0,0:0:0:0:
117,187,168483,1,0,0:0:0:0:
146,124,168556,1,0,0:0:0:0:
194,81,168629,1,0,0:0:0:0:
258,70,168702,1,0,0:0:0:0:
420,48,168776,1,2,0:0:0:0:
484,49,168849,1,0,0:0:0:0:
325,43,168922,5,6,0:0:0:0:
260,64,168995,1,0,0:0:0:0:
226,126,169068,1,0,0:0:0:0:
250,188,169141,1,0,0:0:0:0:
301,228,169214,1,0,0:0:0:0:
368,239,169287,1,0,0:0:0:0:
207,283,169361,1,2,0:0:0:0:
143,282,169434,1,0,0:0:0:0:
316,338,169507,5,6,0:0:0:0:
380,339,169580,1,0,0:0:0:0:
317,287,169654,1,0,0:0:0:0:
253,286,169727,1,0,0:0:0:0:
318,238,169800,1,0,0:0:0:0:
382,237,169873,1,0,0:0:0:0:
241,134,169946,1,2,0:0:0:0:
177,133,170019,1,0,0:0:0:0:
371,89,170093,5,6,0:0:0:0:
437,89,170166,1,0,0:0:0:0:
371,89,170239,1,0,0:0:0:0:
214,166,170312,1,2,0:0:0:0:
150,164,170385,1,0,0:0:0:0:
83,164,170459,1,0,0:0:0:0:
243,223,170532,1,2,0:0:0:0:
307,224,170606,1,0,0:0:0:0:
130,303,170678,5,6,0:0:0:0:
66,271,170751,1,0,0:0:0:0:
43,200,170824,1,0,0:0:0:0:
67,134,170898,1,0,0:0:0:0:
121,94,170971,1,0,0:0:0:0:
188,88,171044,1,0,0:0:0:0:
347,89,171117,1,2,0:0:0:0:
414,83,171190,1,0,0:0:0:0:
223,60,171263,5,10,0:0:0:0:
158,64,171337,1,0,0:0:0:0:
317,98,171410,1,0,0:0:0:0:
321,163,171484,1,0,0:0:0:0:
165,89,171556,1,2,0:0:0:0:
161,154,171630,1,0,0:0:0:0:
318,213,171702,1,2,0:0:0:0:
383,217,171776,1,0,0:0:0:0:
148,196,171849,5,4,0:0:0:0:
33,127,171995,1,8,0:0:0:0:
161,42,172142,1,2,0:0:0:0:
104,55,172215,1,0,0:0:0:0:
47,68,172288,1,8,0:0:0:0:
250,48,172434,2,0,P|291:97|267:149,1,127.679994739746,2|0,0:0|0:0,0:0:0:0:
125,138,172654,2,0,P|84:187|108:239,1,127.679994739746,2|0,0:0|0:0,0:0:0:0:
248,174,172873,2,0,L|250:246,1,63.8399973698732,2|0,0:0|0:0,0:0:0:0:
88,305,173020,5,6,0:0:0:0:
202,225,173166,1,8,0:0:0:0:
202,225,173312,1,0,0:0:0:0:
88,305,173459,1,2,0:0:0:0:
216,233,173605,1,2,0:0:0:0:
273,220,173678,1,0,0:0:0:0:
216,233,173751,1,8,0:0:0:0:
88,305,173898,1,2,0:0:0:0:
216,233,174044,1,2,0:0:0:0:
454,257,174190,5,6,0:0:0:0:
454,257,174337,1,8,0:0:0:0:
327,342,174483,1,2,0:0:0:0:
384,329,174556,1,0,0:0:0:0:
441,316,174629,1,8,0:0:0:0:
238,336,174775,2,0,P|197:287|221:235,1,127.679994739746,2|0,0:0|0:0,0:0:0:0:
363,246,174995,2,0,P|404:197|380:145,1,127.679994739746,2|0,0:0|0:0,0:0:0:0:
240,210,175215,2,0,L|238:138,1,63.8399973698732,2|0,0:0|0:0,0:0:0:0:
400,79,175361,5,6,0:0:0:0:
286,104,175507,1,8,0:0:0:0:
286,104,175653,1,0,0:0:0:0:
400,79,175800,1,2,0:0:0:0:
273,76,175946,1,2,0:0:0:0:
216,89,176019,1,0,0:0:0:0:
273,76,176092,1,8,0:0:0:0:
400,79,176239,1,2,0:0:0:0:
197,148,176385,1,0,0:0:0:0:
452,141,176532,6,0,L|456:274,1,127.679994739746,4|8,0:0|0:0,0:0:0:0:
329,282,176824,2,0,L|256:289,1,63.8399973698732,2|0,0:0|0:0,0:0:0:0:
426,322,176971,2,0,P|447:229|374:192,1,191.519992109619,2|0,0:0|0:0,0:0:0:0:
214,156,177263,1,8,0:0:0:0:
328,152,177410,1,2,0:0:0:0:
214,156,177556,1,8,0:0:0:0:
419,215,177702,6,0,L|281:228,1,127.679994739746,6|0,0:0|0:0,0:0:0:0:
164,209,177995,2,0,L|302:196,1,127.679994739746,6|0,0:0|0:0,0:0:0:0:
87,250,178288,2,0,L|225:237,1,127.679994739746,6|0,0:0|0:0,0:0:0:0:
337,276,178581,1,2,0:0:0:0:
164,209,178727,1,2,0:0:0:0:
391,208,178873,5,2,0:0:0:0:
457,188,178946,1,0,0:0:0:0:
480,122,179020,1,0,0:0:0:0:
467,56,179093,1,0,0:0:0:0:
417,8,179166,1,0,0:0:0:0:
353,3,179239,1,2,0:0:0:0:
194,36,179312,1,0,0:0:0:0:
130,40,179385,1,0,0:0:0:0:
323,161,179459,5,2,0:0:0:0:
390,159,179532,1,0,0:0:0:0:
323,161,179605,1,0,0:0:0:0:
163,248,179678,1,2,0:0:0:0:
230,246,179751,1,0,0:0:0:0:
297,244,179824,1,0,0:0:0:0:
158,173,179898,1,2,0:0:0:0:
91,175,179971,1,0,0:0:0:0:
283,77,180044,5,2,0:0:0:0:
350,75,180117,1,0,0:0:0:0:
381,79,180190,1,0,0:0:0:0:
350,75,180263,1,0,0:0:0:0:
188,86,180337,1,2,0:0:0:0:
121,87,180410,1,0,0:0:0:0:
188,86,180483,1,0,0:0:0:0:
255,84,180556,1,0,0:0:0:0:
422,86,180629,6,0,P|466:139|434:198,1,144,4|0,0:0|0:0,0:0:0:0:
275,264,180922,2,0,L|129:254,1,144,8|0,0:0|0:0,0:0:0:0:
304,112,181215,5,4,0:0:0:0:
336,176,181288,1,0,0:0:0:0:
192,160,181361,1,0,0:0:0:0:
139,201,181434,1,0,0:0:0:0:
128,268,181507,1,8,0:0:0:0:
164,326,181581,1,0,0:0:0:0:
232,336,181654,1,0,0:0:0:0:
304,304,181727,1,0,0:0:0:0:
160,304,181800,5,8,0:0:0:0:
112,288,181873,1,0,0:0:0:0:
160,240,181946,1,8,0:0:0:0:
112,224,182020,1,0,0:0:0:0:
256,96,182093,1,8,0:0:0:0:
272,160,182166,1,0,0:0:0:0:
128,160,182239,1,8,0:0:0:0:
112,96,182312,1,0,0:0:0:0:
256,96,182385,5,4,0:0:0:0:
320,104,182459,1,0,0:0:0:0:
368,144,182532,1,0,0:0:0:0:
392,200,182605,1,0,0:0:0:0:
383,263,182677,1,8,0:0:0:0:
343,315,182751,1,0,0:0:0:0:
287,327,182824,1,0,0:0:0:0:
222,309,182897,1,0,0:0:0:0:
368,304,182971,5,8,0:0:0:0:
416,288,183043,1,0,0:0:0:0:
368,240,183116,1,8,0:0:0:0:
416,224,183190,1,0,0:0:0:0:
272,96,183263,1,8,0:0:0:0:
256,160,183336,1,0,0:0:0:0:
400,160,183409,1,8,0:0:0:0:
416,96,183482,1,0,0:0:0:0:
208,176,183556,5,4,0:0:0:0:
140,169,183629,1,0,0:0:0:0:
106,116,183702,1,0,0:0:0:0:
138,69,183776,1,0,0:0:0:0:
281,62,183849,1,8,0:0:0:0:
349,69,183922,1,0,0:0:0:0:
382,120,183995,1,0,0:0:0:0:
351,169,184069,1,0,0:0:0:0:
208,176,184142,6,0,L|160:176,3,48,8|0|8|0,0:0|0:0|0:0|0:0,0:0:0:0:
304,176,184434,1,8,0:0:0:0:
296,240,184507,1,0,0:0:0:0:
248,288,184581,1,8,0:0:0:0:
176,304,184654,1,0,0:0:0:0:
368,321,184727,5,4,0:0:0:0:
432,305,184800,1,0,0:0:0:0:
288,305,184873,1,4,0:0:0:0:
224,289,184946,1,0,0:0:0:0:
368,257,185020,1,4,0:0:0:0:
416,225,185093,1,0,0:0:0:0:
272,241,185166,1,4,0:0:0:0:
224,225,185239,1,0,0:0:0:0:
368,193,185312,5,4,0:0:0:0:
400,145,185385,1,0,0:0:0:0:
256,177,185458,1,4,0:0:0:0:
224,161,185531,1,0,0:0:0:0:
368,129,185605,1,4,0:0:0:0:
384,81,185678,1,0,0:0:0:0:
240,113,185751,1,0,0:0:0:0:
224,97,185824,1,0,0:0:0:0:
368,33,185898,5,4,0:0:0:0:
384,49,185971,1,0,0:0:0:0:
352,81,186044,1,0,0:0:0:0:
304,65,186117,1,0,0:0:0:0:
448,17,186190,1,8,0:0:0:0:
480,33,186263,1,0,0:0:0:0:
464,81,186336,1,0,0:0:0:0:
400,97,186409,1,0,0:0:0:0:
240,49,186483,5,8,0:0:0:0:
178,53,186556,1,0,0:0:0:0:
322,74,186629,1,8,0:0:0:0:
384,78,186702,1,0,0:0:0:0:
240,49,186776,1,8,0:0:0:0:
236,111,186849,1,0,0:0:0:0:
380,119,186922,1,8,0:0:0:0:
384,181,186995,1,0,0:0:0:0:
240,353,187068,5,4,0:0:0:0:
224,337,187141,1,0,0:0:0:0:
256,305,187214,1,0,0:0:0:0:
304,321,187287,1,0,0:0:0:0:
160,289,187361,1,8,0:0:0:0:
128,305,187434,1,0,0:0:0:0:
144,353,187507,1,0,0:0:0:0:
208,369,187580,1,0,0:0:0:0:
353,281,187654,5,8,0:0:0:0:
415,277,187727,1,0,0:0:0:0:
271,256,187800,1,8,0:0:0:0:
209,252,187873,1,0,0:0:0:0:
353,281,187947,1,8,0:0:0:0:
357,219,188020,1,0,0:0:0:0:
213,211,188093,1,8,0:0:0:0:
209,149,188166,1,0,0:0:0:0:
353,156,188239,5,4,0:0:0:0:
369,140,188312,1,0,0:0:0:0:
337,108,188385,1,0,0:0:0:0:
289,124,188458,1,0,0:0:0:0:
143,110,188532,1,8,0:0:0:0:
111,126,188605,1,0,0:0:0:0:
127,174,188678,1,0,0:0:0:0:
191,190,188751,1,0,0:0:0:0:
354,102,188824,5,8,0:0:0:0:
417,107,188898,1,0,0:0:0:0:
274,159,188971,1,8,0:0:0:0:
269,222,189045,1,0,0:0:0:0:
411,188,189117,5,8,0:0:0:0:
474,193,189191,1,0,0:0:0:0:
332,227,189263,1,8,0:0:0:0:
269,222,189337,1,0,0:0:0:0:
411,188,189410,5,4,0:0:0:0:
384,273,189483,1,0,0:0:0:0:
224,273,189556,1,2,0:0:0:0:
160,305,189629,1,2,0:0:0:0:
304,305,189702,1,2,0:0:0:0:
272,369,189776,1,2,0:0:0:0:
96,369,189849,5,2,0:0:0:0:
63,305,189922,1,2,0:0:0:0:
98,245,189995,1,2,0:0:0:0:
166,236,190068,1,2,0:0:0:0:
304,177,190142,1,2,0:0:0:0:
373,166,190215,1,2,0:0:0:0:
208,177,190288,1,2,0:0:0:0:
139,166,190361,1,0,0:0:0:0:
373,166,190434,1,0,0:0:0:0:
139,166,190581,6,0,P|255:391|372:166,1,624.000023803712,4|2,0:0|0:0,0:0:0:0:
295,178,191312,1,2,0:0:0:0:
371,165,191410,1,2,0:0:0:0:
211,132,191507,1,2,0:0:0:0:
287,119,191605,1,2,0:0:0:0:
211,132,191702,1,2,0:0:0:0:
287,119,191800,1,2,0:0:0:0:
126,194,191898,1,2,0:0:0:0:
240,155,192044,6,0,L|363:158,1,96,2|8,0:0|0:0,0:0:0:0:
210,240,192337,1,0,0:0:0:0:
155,237,192410,1,0,0:0:0:0:
210,240,192483,1,8,0:0:0:0:
390,295,192581,2,0,L|392:151,1,128,0|8,0:0|0:0,0:0:0:0:
180,120,192922,5,0,0:0:0:0:
127,117,192995,1,0,0:0:0:0:
180,120,193068,1,8,0:0:0:0:
326,96,193142,2,0,P|377:144|347:200,1,144,0|8,0:0|0:0,0:0:0:0:
293,197,193434,1,0,0:0:0:0:
149,257,193507,1,0,0:0:0:0:
202,260,193580,1,0,0:0:0:0:
348,269,193654,1,8,0:0:0:0:
202,260,193727,6,0,P|132:245|117:181,1,144,0|8,0:0|0:0,0:0:0:0:
171,178,194020,1,0,0:0:0:0:
315,138,194093,1,0,0:0:0:0:
368,135,194166,1,0,0:0:0:0:
315,138,194239,1,8,0:0:0:0:
104,175,194385,5,0,0:0:0:0:
220,164,194532,1,8,0:0:0:0:
104,175,194678,1,0,0:0:0:0:
315,138,194824,1,8,0:0:0:0:
368,129,194897,1,0,0:0:0:0:
215,132,194971,1,0,0:0:0:0:
206,185,195044,1,0,0:0:0:0:
357,205,195117,1,8,0:0:0:0:
366,258,195190,1,0,0:0:0:0:
148,204,195263,6,0,L|49:201,2,96,4|8|0,0:0|0:0|0:0,0:0:0:0:
360,238,195702,1,2,0:0:0:0:
423,211,195776,1,0,0:0:0:0:
272,209,195849,1,2,0:0:0:0:
224,209,195898,1,0,0:0:0:0:
272,209,195946,1,2,0:0:0:0:
384,207,195995,1,0,0:0:0:0:
446,196,196068,1,2,0:0:0:0:
293,192,196142,5,0,0:0:0:0:
184,196,196190,2,0,P|152:196|192:196,1,64,2|2,0:0|0:0,0:0:0:0:
293,192,196337,1,0,0:0:0:0:
371,218,196434,1,2,0:0:0:0:
293,192,196532,1,0,0:0:0:0:
217,171,196629,1,2,0:0:0:0:
185,163,196678,1,0,0:0:0:0:
217,155,196727,1,2,0:0:0:0:
313,67,196873,2,0,L|312:136,1,64,8|0,0:0|0:0,0:0:0:0:
190,64,197020,5,2,0:0:0:0:
157,63,197068,1,0,0:0:0:0:
279,131,197117,1,0,0:0:0:0:
312,130,197165,1,0,0:0:0:0:
345,129,197215,1,0,0:0:0:0:
312,130,197263,1,0,0:0:0:0:
190,179,197312,5,0,0:0:0:0:
157,178,197360,1,0,0:0:0:0:
190,179,197410,1,0,0:0:0:0:
223,180,197458,1,0,0:0:0:0:
344,179,197507,1,0,0:0:0:0:
377,180,197555,1,0,0:0:0:0:
178,230,197605,5,2,0:0:0:0:
116,227,197678,1,0,0:0:0:0:
267,307,197751,1,0,0:0:0:0:
296,249,197824,1,0,0:0:0:0:
260,194,197898,1,0,0:0:0:0:
198,184,197971,1,0,0:0:0:0:
349,135,198044,1,2,0:0:0:0:
411,132,198117,1,0,0:0:0:0:
243,102,198190,5,2,0:0:0:0:
181,99,198263,1,0,0:0:0:0:
243,102,198337,1,0,0:0:0:0:
394,223,198410,1,2,0:0:0:0:
456,226,198483,1,0,0:0:0:0:
394,223,198557,1,0,0:0:0:0:
245,174,198629,1,2,0:0:0:0:
183,177,198703,1,0,0:0:0:0:
351,293,198776,5,4,0:0:0:0:
375,234,198849,1,0,0:0:0:0:
224,244,198922,1,0,0:0:0:0:
248,185,198995,1,0,0:0:0:0:
413,181,199068,1,0,0:0:0:0:
437,122,199141,1,0,0:0:0:0:
413,181,199215,1,2,0:0:0:0:
246,51,199288,5,0,0:0:0:0:
308,73,199361,1,0,0:0:0:0:
371,90,199434,1,0,0:0:0:0:
308,73,199507,1,2,0:0:0:0:
163,109,199581,1,0,0:0:0:0:
100,126,199654,1,0,0:0:0:0:
163,109,199727,1,0,0:0:0:0:
307,156,199800,1,6,0:0:0:0:
370,173,199873,1,0,0:0:0:0:
169,156,199946,5,4,0:0:0:0:
45,114,200093,1,0,0:0:0:0:
169,156,200239,1,2,0:0:0:0:
107,135,200312,1,0,0:0:0:0:
45,114,200385,1,0,0:0:0:0:
190,297,200532,6,0,L|193:195,1,96,8|0,0:0|0:0,0:0:0:0:
131,201,200751,1,0,0:0:0:0:
69,200,200824,2,0,L|72:98,1,96,2|0,0:0|0:0,0:0:0:0:
217,114,201117,5,2,0:0:0:0:
341,72,201264,1,0,0:0:0:0:
217,114,201410,1,2,0:0:0:0:
279,93,201483,1,0,0:0:0:0:
341,72,201556,1,0,0:0:0:0:
197,53,201702,1,2,0:0:0:0:
135,52,201775,1,0,0:0:0:0:
281,44,201849,6,0,P|344:119|305:191,1,192,4|0,0:0|0:0,0:0:0:0:
242,192,202215,1,0,0:0:0:0:
393,271,202288,1,2,0:0:0:0:
455,272,202361,1,0,0:0:0:0:
393,271,202434,1,0,0:0:0:0:
277,231,202581,1,2,0:0:0:0:
339,233,202654,1,0,0:0:0:0:
401,235,202727,1,0,0:0:0:0:
258,275,202873,6,0,L|255:173,1,96,8|0,0:0|0:0,0:0:0:0:
317,179,203092,1,0,0:0:0:0:
379,178,203165,2,0,L|376:76,1,96,2|0,0:0|0:0,0:0:0:0:
313,85,203385,1,0,0:0:0:0:
160,91,203459,5,2,0:0:0:0:
98,94,203532,1,0,0:0:0:0:
36,97,203605,1,0,0:0:0:0:
179,162,203751,1,2,0:0:0:0:
117,165,203824,1,0,0:0:0:0:
55,168,203897,1,0,0:0:0:0:
199,233,204044,1,8,0:0:0:0:
202,295,204117,1,0,0:0:0:0:
35,294,204190,6,0,P|35:202|117:166,1,192,4|0,0:0|0:0,0:0:0:0:
329,166,204629,1,2,0:0:0:0:
391,169,204702,1,0,0:0:0:0:
329,166,204775,1,0,0:0:0:0:
213,114,204922,1,2,0:0:0:0:
151,117,204995,1,0,0:0:0:0:
213,114,205068,1,0,0:0:0:0:
358,104,205215,6,0,L|361:206,1,96,8|0,0:0|0:0,0:0:0:0:
299,200,205434,1,0,0:0:0:0:
237,201,205507,2,0,L|240:303,1,96,2|0,0:0|0:0,0:0:0:0:
303,298,205727,1,0,0:0:0:0:
366,300,205800,1,2,0:0:0:0:
238,296,205946,1,0,0:0:0:0:
366,300,206093,1,2,0:0:0:0:
429,302,206166,1,0,0:0:0:0:
366,300,206239,1,0,0:0:0:0:
222,220,206385,6,0,L|324:222,2,96,8|2|0,0:0|0:0|0:0,0:0:0:0:
434,268,206824,2,0,P|456:176|384:129,1,192,4|0,0:0|0:0,0:0:0:0:
322,138,207190,1,0,0:0:0:0:
259,147,207263,5,2,0:0:0:0:
322,138,207337,1,0,0:0:0:0:
384,129,207410,1,0,0:0:0:0:
240,74,207556,1,8,0:0:0:0:
365,56,207702,1,0,0:0:0:0:
240,74,207849,1,8,0:0:0:0:
452,103,207995,6,0,L|482:201,1,96,4|0,0:0|0:0,0:0:0:0:
417,201,208215,1,0,0:0:0:0:
355,209,208288,1,0,0:0:0:0:
498,258,208434,1,2,0:0:0:0:
436,266,208507,1,0,0:0:0:0:
374,274,208581,1,0,0:0:0:0:
258,271,208727,5,8,0:0:0:0:
374,274,208873,1,0,0:0:0:0:
259,207,209020,1,8,0:0:0:0:
197,199,209094,1,0,0:0:0:0:
259,207,209166,1,0,0:0:0:0:
469,156,209312,5,4,0:0:0:0:
407,150,209385,1,0,0:0:0:0:
344,144,209459,2,0,L|343:242,1,96,0|8,0:0|0:0,0:0:0:0:
405,246,209678,1,0,0:0:0:0:
467,252,209751,1,0,0:0:0:0:
255,312,209898,6,0,L|254:216,1,96,8|0,0:0|0:0,0:0:0:0:
316,229,210117,1,0,0:0:0:0:
378,235,210190,1,8,0:0:0:0:
233,181,210337,1,0,0:0:0:0:
171,175,210410,1,0,0:0:0:0:
109,169,210483,1,8,0:0:0:0:
233,181,210629,1,0,0:0:0:0:
89,247,210776,5,8,0:0:0:0:
27,253,210849,1,0,0:0:0:0:
89,247,210922,1,0,0:0:0:0:
301,323,211068,1,8,0:0:0:0:
89,247,211215,2,0,P|65:152|136:120,1,192,4|0,0:0|0:0,0:0:0:0:
281,134,211654,5,8,0:0:0:0:
343,140,211727,1,0,0:0:0:0:
405,146,211800,1,0,0:0:0:0:
261,196,211946,1,8,0:0:0:0:
199,202,212019,1,0,0:0:0:0:
137,208,212092,1,0,0:0:0:0:
350,201,212239,6,0,L|351:299,1,96,8|0,0:0|0:0,0:0:0:0:
289,303,212458,1,0,0:0:0:0:
227,309,212531,1,8,0:0:0:0:
372,268,212678,1,0,0:0:0:0:
434,262,212751,1,0,0:0:0:0:
372,268,212824,1,8,0:0:0:0:
227,241,212971,1,0,0:0:0:0:
371,183,213117,5,8,0:0:0:0:
309,190,213190,1,0,0:0:0:0:
247,196,213263,1,0,0:0:0:0:
459,230,213410,1,8,0:0:0:0:
247,196,213556,2,0,P|223:113|307:86,1,192,4|0,0:0|0:0,0:0:0:0:
94,118,213995,5,8,0:0:0:0:
32,128,214068,1,0,0:0:0:0:
94,118,214142,1,0,0:0:0:0:
237,176,214288,1,8,0:0:0:0:
175,183,214361,1,0,0:0:0:0:
113,189,214434,1,0,0:0:0:0:
325,257,214581,2,0,L|326:159,1,96,8|0,0:0|0:0,0:0:0:0:
264,155,214800,1,0,0:0:0:0:
202,149,214873,1,8,0:0:0:0:
347,107,215020,5,0,0:0:0:0:
409,117,215093,1,0,0:0:0:0:
347,107,215167,1,8,0:0:0:0:
204,93,215312,1,0,0:0:0:0:
59,79,215459,1,8,0:0:0:0:
121,88,215532,1,0,0:0:0:0:
183,98,215606,1,0,0:0:0:0:
391,178,215751,5,4,0:0:0:0:
267,168,215898,1,0,0:0:0:0:
391,178,216044,1,8,0:0:0:0:
121,206,216190,1,0,0:0:0:0:
245,216,216337,6,0,L|248:107,1,96,4|0,0:0|0:0,0:0:0:0:
186,121,216556,1,0,0:0:0:0:
330,86,216629,1,8,0:0:0:0:
392,85,216702,1,0,0:0:0:0:
330,86,216776,1,0,0:0:0:0:
118,71,216922,6,0,L|225:69,1,96,8|0,0:0|0:0,0:0:0:0:
426,173,217215,1,8,0:0:0:0:
213,69,217361,1,4,0:0:0:0:
357,75,217507,6,0,L|357:191,1,96,8|0,0:0|0:0,0:0:0:0:
212,193,217800,1,8,0:0:0:0:
274,185,217873,1,0,0:0:0:0:
336,177,217946,1,0,0:0:0:0:
191,94,218093,1,8,0:0:0:0:
183,156,218166,1,0,0:0:0:0:
175,218,218239,1,0,0:0:0:0:
386,159,218385,5,8,0:0:0:0:
394,221,218458,1,0,0:0:0:0:
224,186,218532,1,0,0:0:0:0:
216,248,218605,1,0,0:0:0:0:
455,340,218678,6,0,P|480:250|407:208,1,192,4|8,0:0|0:0,0:0:0:0:
291,229,219117,1,0,0:0:0:0:
436,260,219263,2,0,L|437:152,1,96,2|0,0:0|0:0,0:0:0:0:
374,159,219483,1,0,0:0:0:0:
223,139,219556,1,8,0:0:0:0:
338,167,219702,1,0,0:0:0:0:
343,100,219776,1,0,0:0:0:0:
192,88,219849,5,2,0:0:0:0:
130,112,219922,1,0,0:0:0:0:
108,176,219995,1,0,0:0:0:0:
141,235,220068,1,0,0:0:0:0:
294,269,220142,1,8,0:0:0:0:
342,269,220215,1,0,0:0:0:0:
292,234,220288,1,0,0:0:0:0:
340,233,220361,1,0,0:0:0:0:
195,267,220434,6,0,P|141:235|141:194,1,96,2|0,0:0|0:0,0:0:0:0:
201,198,220654,1,0,0:0:0:0:
352,206,220727,1,8,0:0:0:0:
415,191,220800,1,0,0:0:0:0:
432,127,220873,1,0,0:0:0:0:
391,73,220946,1,0,0:0:0:0:
238,61,221020,6,0,P|200:148|266:199,1,192,2|8,0:0|0:0,0:0:0:0:
382,204,221459,1,0,0:0:0:0:
170,230,221605,1,2,0:0:0:0:
108,231,221678,1,0,0:0:0:0:
170,230,221751,1,0,0:0:0:0:
382,204,221898,1,8,0:0:0:0:
407,148,221971,1,0,0:0:0:0:
371,94,222044,1,0,0:0:0:0:
309,94,222117,1,0,0:0:0:0:
158,121,222190,5,2,0:0:0:0:
232,129,222288,1,0,0:0:0:0:
158,121,222385,1,0,0:0:0:0:
351,243,222483,1,8,0:0:0:0:
277,235,222581,1,0,0:0:0:0:
351,243,222678,1,0,0:0:0:0:
158,121,222776,6,0,L|119:226,1,96,2|0,0:0|0:0,0:0:0:0:
187,223,222995,1,0,0:0:0:0:
337,245,223068,2,0,B|435:227|435:227|395:209,1,144,8|0,0:0|0:0,0:0:0:0:
215,165,223361,6,0,L|117:118,1,96,4|0,0:0|0:0,0:0:0:0:
272,106,223654,2,0,L|174:59,1,96,8|0,0:0|0:0,0:0:0:0:
330,55,223946,2,0,L|334:168,1,96,2|0,0:0|0:0,0:0:0:0:
189,133,224239,2,0,L|185:246,1,96,8|0,0:0|0:0,0:0:0:0:
399,188,224532,6,0,L|497:235,1,96,4|0,0:0|0:0,0:0:0:0:
342,247,224824,2,0,L|440:294,1,96,8|0,0:0|0:0,0:0:0:0:
284,298,225117,2,0,L|280:185,1,96,2|0,0:0|0:0,0:0:0:0:
425,220,225410,2,0,L|429:107,1,96,8|0,0:0|0:0,0:0:0:0:
215,127,225702,6,0,L|190:126,1,24,4|0,0:0|0:0,0:0:0:0:
301,85,225849,2,0,L|324:85,1,24
191,126,225995,2,0,L|166:125,1,24,8|0,0:0|0:0,0:0:0:0:
277,84,226142,2,0,L|300:84,1,24
84,208,226288,6,0,L|59:207,1,24,2|0,0:0|0:0,0:0:0:0:
277,84,226434,2,0,L|300:84,1,24,4|0,0:0|0:0,0:0:0:0:
60,207,226581,2,0,L|35:206,1,24,8|0,0:0|0:0,0:0:0:0:
253,83,226727,2,0,L|276:83,1,24,8|0,0:0|0:0,0:0:0:0:
36,206,226873,6,0,L|33:103,1,96,2|0,0:0|0:0,0:0:0:0:
178,112,227166,1,8,0:0:0:0:
33,110,227312,1,2,0:0:0:0:
245,36,227459,1,2,0:0:0:0:
309,53,227532,1,0,0:0:0:0:
336,117,227605,1,0,0:0:0:0:
307,177,227678,1,0,0:0:0:0:
140,161,227751,2,0,L|137:256,1,96,8|0,0:0|0:0,0:0:0:0:
376,256,228044,6,0,B|472:256|472:256|368:256,1,192,4|8,0:0|0:0,0:0:0:0:
280,256,228483,1,0,0:0:0:0:
491,78,228629,2,0,L|376:78,2,96,2|0|8,0:0|0:0|0:0,0:0:0:0:
346,77,229068,1,0,0:0:0:0:
491,78,229215,6,0,P|492:174|411:212,1,192,2|8,0:0|0:0,0:0:0:0:
202,165,229654,2,0,L|317:165,2,96,2|0|2,0:0|0:0|0:0,0:0:0:0:
414,212,230093,1,8,0:0:0:0:
414,212,230239,1,0,0:0:0:0:
203,185,230385,6,0,L|318:185,2,96,4|0|8,0:0|0:0|0:0,0:0:0:0:
348,185,230824,1,0,0:0:0:0:
136,254,230971,1,2,0:0:0:0:
136,254,231117,1,0,0:0:0:0:
348,185,231263,2,0,L|239:185,1,96,8|0,0:0|0:0,0:0:0:0:
466,133,231556,6,0,L|468:237,1,96,2|0,0:0|0:0,0:0:0:0:
323,230,231849,2,0,L|325:334,1,96,8|0,0:0|0:0,0:0:0:0:
113,303,232142,2,0,L|109:186,1,96,2|0,0:0|0:0,0:0:0:0:
320,283,232434,2,0,P|344:213|297:174,1,144,8|0,0:0|0:0,0:0:0:0:
128,112,232727,5,4,0:0:0:0:
128,160,232824,1,0,0:0:0:0:
208,192,232922,1,0,0:0:0:0:
48,240,233020,1,8,0:0:0:0:
128,208,233118,1,0,0:0:0:0:
128,160,233215,1,0,0:0:0:0:
287,314,233312,5,2,0:0:0:0:
213,267,233410,1,0,0:0:0:0:
287,218,233507,1,0,0:0:0:0:
128,208,233605,1,8,0:0:0:0:
192,176,233703,1,0,0:0:0:0:
256,144,233800,1,0,0:0:0:0:
415,210,233898,5,4,0:0:0:0:
342,211,233995,1,0,0:0:0:0:
415,210,234093,1,0,0:0:0:0:
256,144,234190,1,8,0:0:0:0:
182,110,234288,1,0,0:0:0:0:
256,80,234385,1,0,0:0:0:0:
414,193,234483,5,2,0:0:0:0:
342,191,234580,1,0,0:0:0:0:
269,189,234678,1,0,0:0:0:0:
109,141,234776,1,8,0:0:0:0:
182,110,234873,1,0,0:0:0:0:
109,77,234971,1,0,0:0:0:0:
302,99,235068,5,4,0:0:0:0:
229,163,235166,1,0,0:0:0:0:
302,227,235263,1,0,0:0:0:0:
109,192,235361,1,8,0:0:0:0:
183,257,235459,1,0,0:0:0:0:
109,320,235556,1,0,0:0:0:0:
302,99,235654,5,2,0:0:0:0:
366,135,235727,1,0,0:0:0:0:
380,199,235800,1,0,0:0:0:0:
335,252,235873,1,0,0:0:0:0:
144,239,235946,1,8,0:0:0:0:
356,280,236093,6,0,L|381:184,1,96,4|0,0:0|0:0,0:0:0:0:
318,187,236312,1,0,0:0:0:0:
167,193,236385,1,2,0:0:0:0:
105,181,236459,1,0,0:0:0:0:
256,199,236532,1,2,0:0:0:0:
318,187,236606,1,0,0:0:0:0:
351,126,236678,1,0,0:0:0:0:
318,65,236751,1,0,0:0:0:0:
151,114,236824,5,2,0:0:0:0:
213,102,236898,1,0,0:0:0:0:
364,151,236971,1,2,0:0:0:0:
426,139,237045,1,0,0:0:0:0:
275,114,237117,1,8,0:0:0:0:
213,102,237191,1,0,0:0:0:0:
365,217,237263,1,8,0:0:0:0:
428,208,237337,1,0,0:0:0:0:
160,160,237410,5,4,0:0:0:0:
266,170,237556,1,0,0:0:0:0:
160,160,237703,1,0,0:0:0:0:
394,107,237849,1,8,0:0:0:0:
284,88,237995,1,0,0:0:0:0:
174,73,238142,1,0,0:0:0:0:
385,84,238288,1,8,0:0:0:0:
155,80,238435,1,2,0:0:0:0:
385,84,238581,5,8,0:0:0:0:
269,67,238728,1,0,0:0:0:0:
385,84,238874,1,0,0:0:0:0:
174,212,239020,1,8,0:0:0:0:
174,212,239167,1,0,0:0:0:0:
290,228,239313,1,0,0:0:0:0:
79,272,239459,1,8,0:0:0:0:
291,341,239606,1,2,0:0:0:0:
229,330,239679,1,0,0:0:0:0:
61,337,239752,5,8,0:0:0:0:
157,273,239898,1,0,0:0:0:0:
47,191,240044,1,0,0:0:0:0:
109,182,240117,1,0,0:0:0:0:
279,128,240191,1,8,0:0:0:0:
174,169,240337,1,0,0:0:0:0:
279,128,240483,1,0,0:0:0:0:
135,110,240630,1,8,0:0:0:0:
279,128,240776,1,2,0:0:0:0:
308,120,240849,1,0,0:0:0:0:
116,128,240922,6,0,L|20:128,1,96,8|0,0:0|0:0,0:0:0:0:
242,168,241215,2,0,L|146:168,1,96,8|0,0:0|0:0,0:0:0:0:
369,131,241507,2,0,L|465:131,1,96,8|0,0:0|0:0,0:0:0:0:
255,202,241800,1,8,0:0:0:0:
465,131,241946,1,2,0:0:0:0:
176,262,242093,5,4,0:0:0:0:
291,243,242239,1,0,0:0:0:0:
176,262,242386,1,0,0:0:0:0:
171,200,242459,1,0,0:0:0:0:
338,181,242532,1,8,0:0:0:0:
228,201,242678,1,0,0:0:0:0:
224,155,242825,1,0,0:0:0:0:
435,170,242971,1,8,0:0:0:0:
224,155,243117,1,2,0:0:0:0:
455,63,243264,5,8,0:0:0:0:
341,89,243410,1,0,0:0:0:0:
455,63,243556,1,0,0:0:0:0:
224,155,243703,1,8,0:0:0:0:
338,129,243849,1,0,0:0:0:0:
224,155,243995,1,0,0:0:0:0:
434,179,244142,1,8,0:0:0:0:
224,220,244288,1,2,0:0:0:0:
455,215,244435,5,8,0:0:0:0:
349,252,244581,1,0,0:0:0:0:
455,215,244727,1,0,0:0:0:0:
460,281,244800,1,0,0:0:0:0:
290,296,244874,1,8,0:0:0:0:
395,315,245020,1,0,0:0:0:0:
290,296,245166,1,0,0:0:0:0:
185,277,245312,1,8,0:0:0:0:
395,315,245459,1,2,0:0:0:0:
185,277,245605,6,0,L|181:181,1,96,4|0,0:0|0:0,0:0:0:0:
246,186,245824,1,2,0:0:0:0:
312,187,245898,2,0,L|316:91,1,96,2|0,0:0|0:0,0:0:0:0:
244,92,246117,1,2,0:0:0:0:
172,92,246190,2,0,L|168:188,1,96,2|0,0:0|0:0,0:0:0:0:
246,186,246410,1,2,0:0:0:0:
397,103,246483,2,0,B|409:174|409:174|330:189,1,144,8|0,0:0|0:0,0:0:0:0:
136,280,246776,5,4,0:0:0:0:
247,273,246922,1,0,0:0:0:0:
136,280,247068,1,8,0:0:0:0:
131,215,247142,1,0,0:0:0:0:
299,178,247215,1,0,0:0:0:0:
188,189,247361,1,8,0:0:0:0:
179,100,247507,1,0,0:0:0:0:
313,85,247654,1,8,0:0:0:0:
102,150,247800,1,2,0:0:0:0:
332,158,247946,5,8,0:0:0:0:
332,158,248093,1,0,0:0:0:0:
222,195,248239,1,0,0:0:0:0:
332,158,248385,1,8,0:0:0:0:
120,215,248532,1,0,0:0:0:0:
120,215,248678,1,0,0:0:0:0:
331,259,248824,1,8,0:0:0:0:
215,254,248971,1,2,0:0:0:0:
210,191,249044,1,0,0:0:0:0:
378,203,249117,5,8,0:0:0:0:
269,180,249263,1,0,0:0:0:0:
378,203,249410,1,0,0:0:0:0:
168,84,249556,1,8,0:0:0:0:
277,107,249702,1,0,0:0:0:0:
168,84,249849,1,0,0:0:0:0:
380,86,249995,1,8,0:0:0:0:
476,167,250142,1,2,0:0:0:0:
414,180,250215,1,0,0:0:0:0:
263,203,250288,6,0,L|149:203,1,96,4|0,0:0|0:0,0:0:0:0:
312,137,250581,2,0,L|426:137,1,96,8|0,0:0|0:0,0:0:0:0:
197,85,250873,2,0,L|83:85,1,96,2|0,0:0|0:0,0:0:0:0:
312,137,251166,2,0,L|198:137,1,96,8|0,0:0|0:0,0:0:0:0:
447,70,251459,5,4,0:0:0:0:
338,100,251605,1,0,0:0:0:0:
229,130,251751,1,0,0:0:0:0:
338,100,251898,1,8,0:0:0:0:
127,90,252044,1,0,0:0:0:0:
127,90,252190,1,0,0:0:0:0:
338,100,252337,1,8,0:0:0:0:
127,90,252483,1,2,0:0:0:0:
358,144,252629,6,0,L|454:144,1,96,8|0,0:0|0:0,0:0:0:0:
241,236,252922,2,0,L|337:236,1,96,2|0,0:0|0:0,0:0:0:0:
125,209,253215,2,0,L|29:209,1,96,8|0,0:0|0:0,0:0:0:0:
337,245,253507,1,8,0:0:0:0:
125,209,253654,1,2,0:0:0:0:
393,220,253800,5,4,0:0:0:0:
455,213,253873,1,0,0:0:0:0:
304,192,253946,1,0,0:0:0:0:
297,130,254019,1,0,0:0:0:0:
443,145,254093,1,0,0:0:0:0:
450,83,254166,1,0,0:0:0:0:
291,79,254239,1,0,0:0:0:0:
272,28,254312,1,0,0:0:0:0:
119,220,254385,5,4,0:0:0:0:
57,213,254458,1,0,0:0:0:0:
208,192,254532,1,0,0:0:0:0:
215,130,254605,1,0,0:0:0:0:
69,145,254678,1,0,0:0:0:0:
62,83,254751,1,0,0:0:0:0:
221,79,254824,1,0,0:0:0:0:
240,28,254898,1,0,0:0:0:0:
384,234,254971,5,4,0:0:0:0:
446,227,255044,1,0,0:0:0:0:
384,234,255117,1,0,0:0:0:0:
322,241,255190,1,0,0:0:0:0:
164,192,255263,5,4,0:0:0:0:
180,163,255337,1,0,0:0:0:0:
348,192,255410,1,0,0:0:0:0:
332,163,255484,1,0,0:0:0:0:
128,234,255556,5,4,0:0:0:0:
66,227,255629,1,0,0:0:0:0:
128,234,255702,1,0,0:0:0:0:
190,241,255775,1,0,0:0:0:0:
348,192,255849,5,4,0:0:0:0:
332,163,255923,1,0,0:0:0:0:
164,192,255996,1,0,0:0:0:0:
180,163,256068,1,0,0:0:0:0:
417,130,256142,6,0,P|451:219|383:270,1,192,4|8,0:0|0:0,0:0:0:0:
287,259,256581,1,2,0:0:0:0:
421,234,256727,1,0,0:0:0:0:
421,234,256873,1,2,0:0:0:0:
277,257,257020,2,0,P|256:188|308:152,1,144,8|0,0:0|0:0,0:0:0:0:
137,91,257312,6,0,B|40:91|40:91|145:91,1,192,4|8,0:0|0:0,0:0:0:0:
366,100,257751,2,2,B|463:100|463:100|358:100,1,192,2|0,0:0|0:0,0:0:0:0:
223,87,258191,1,8,0:0:0:0:
366,100,258337,1,0,0:0:0:0:
137,91,258483,1,4,0:0:0:0:
330,167,258776,5,8,0:0:0:0:
330,167,258922,1,8,0:0:0:0:
214,229,259068,2,0,L|313:229,1,96,2|0,0:0|0:0,0:0:0:0:
99,297,259361,1,8,0:0:0:0:
291,295,259654,5,2,0:0:0:0:
180,281,259800,1,0,0:0:0:0:
174,197,259947,1,8,0:0:0:0:
318,191,260093,1,2,0:0:0:0:
207,177,260239,1,0,0:0:0:0:
201,93,260385,1,2,0:0:0:0:
344,78,260532,2,0,P|398:120|375:183,1,144,8|0,0:0|0:0,0:0:0:0:
205,261,260824,6,0,B|108:261|108:261|213:261,1,192,4|8,0:0|0:0,0:0:0:0:
320,296,261263,1,2,0:0:0:0:
224,307,261410,1,0,0:0:0:0:
320,296,261556,1,2,0:0:0:0:
176,272,261702,2,0,P|153:209|206:168,1,144,8|0,0:0|0:0,0:0:0:0:
371,110,261995,6,0,B|468:110|468:110|363:110,1,192,4|8,0:0|0:0,0:0:0:0:
257,155,262435,1,2,0:0:0:0:
353,166,262581,1,0,0:0:0:0:
257,155,262727,1,2,0:0:0:0:
403,124,262874,2,0,L|408:276,1,144,8|0,0:0|0:0,0:0:0:0:
240,302,263166,6,0,L|336:299,1,96,4|0,0:0|0:0,0:0:0:0:
191,240,263459,2,0,L|287:237,1,96,8|0,0:0|0:0,0:0:0:0:
142,178,263752,2,0,L|238:175,1,96,2|8,0:0|0:0,0:0:0:0:
95,121,264044,1,2,0:0:0:0:
307,75,264190,6,0,P|383:133|340:199,1,192,8|2,0:0|0:0,0:0:0:0:
126,197,264629,1,8,0:0:0:0:
261,196,264776,1,2,0:0:0:0:
194,267,264922,1,8,0:0:0:0:
329,266,265068,1,2,0:0:0:0:
261,331,265215,1,8,0:0:0:0:
396,330,265361,1,2,0:0:0:0:
165,323,265508,6,0,P|87:262|111:183,1,192,4|8,0:0|0:0,0:0:0:0:
226,167,265946,1,2,0:0:0:0:
226,167,266093,1,0,0:0:0:0:
111,137,266239,1,2,0:0:0:0:
256,111,266386,2,0,L|259:258,1,144,8|0,0:0|0:0,0:0:0:0:
96,256,266678,6,0,P|25:202|25:154,1,144,4|0,0:0|0:0,0:0:0:0:
97,153,266971,1,8,0:0:0:0:
331,193,267117,2,0,L|117:186,1,213.120005203125,2|2,0:0|0:0,0:0:0:0:
262,124,267556,2,0,L|159:120,1,96,8|0,0:0|0:0,0:0:0:0:
378,130,267849,5,4,0:0:0:0:
186,204,268142,1,8,0:0:0:0:
186,204,268288,1,8,0:0:0:0:
302,142,268435,2,0,L|203:142,1,96,2|0,0:0|0:0,0:0:0:0:
350,106,268727,1,8,0:0:0:0:
158,277,269020,5,2,0:0:0:0:
269,263,269166,1,0,0:0:0:0:
275,179,269313,1,8,0:0:0:0:
131,186,269459,1,2,0:0:0:0:
242,172,269605,1,0,0:0:0:0:
248,88,269751,1,2,0:0:0:0:
392,96,269898,2,0,B|439:152|439:152|392:205,1,144,8|0,0:0|0:0,0:0:0:0:
222,157,270191,6,0,P|214:248|297:289,1,192,4|8,0:0|0:0,0:0:0:0:
409,259,270630,1,2,0:0:0:0:
293,290,270776,1,0,0:0:0:0:
177,321,270922,1,2,0:0:0:0:
322,332,271069,2,0,B|369:279|369:279|322:223,1,144,8|0,0:0|0:0,0:0:0:0:
154,122,271361,6,0,P|90:169|137:255,1,192,4|8,0:0|0:0,0:0:0:0:
280,194,271800,1,2,0:0:0:0:
164,241,271947,1,0,0:0:0:0:
280,194,272093,1,2,0:0:0:0:
136,210,272239,2,0,P|116:140|168:100,1,144,8|0,0:0|0:0,0:0:0:0:
335,97,272532,5,4,0:0:0:0:
345,194,272678,1,0,0:0:0:0:
136,210,272825,1,8,0:0:0:0:
136,210,273117,1,0,0:0:0:0:
261,202,273264,1,8,0:0:0:0:
136,210,273410,1,0,0:0:0:0:
347,285,273556,6,0,P|413:215|372:141,1,192,4|2,0:0|0:0,0:0:0:0:
159,142,273996,1,8,0:0:0:0:
294,141,274142,1,2,0:0:0:0:
227,212,274288,1,8,0:0:0:0:
362,211,274434,1,2,0:0:0:0:
294,276,274581,1,8,0:0:0:0:
429,275,274727,1,2,0:0:0:0:
190,289,274873,5,4,0:0:0:0:
116,266,275020,1,0,0:0:0:0:
76,195,275166,1,0,0:0:0:0:
89,118,275312,1,0,0:0:0:0:
154,79,275459,1,0,0:0:0:0:
239,70,275605,1,0,0:0:0:0:
382,102,275751,1,2,0:0:0:0:
392,198,275898,1,2,0:0:0:0:
176,281,276044,5,2,0:0:0:0:
105,260,276190,1,2,0:0:0:0:
68,198,276337,1,0,0:0:0:0:
95,129,276483,1,0,0:0:0:0:
219,166,276629,1,0,0:0:0:0:
325,156,276776,1,0,0:0:0:0:
215,115,276922,1,2,0:0:0:0:
321,105,277069,1,2,0:0:0:0:
110,45,277215,5,2,0:0:0:0:
42,82,277361,1,2,0:0:0:0:
23,152,277507,1,0,0:0:0:0:
54,218,277654,1,0,0:0:0:0:
179,228,277800,1,0,0:0:0:0:
275,189,277946,1,0,0:0:0:0:
180,162,278093,1,2,0:0:0:0:
84,123,278239,1,2,0:0:0:0:
296,34,278385,5,2,0:0:0:0:
364,60,278532,1,2,0:0:0:0:
401,125,278678,1,0,0:0:0:0:
406,197,278824,1,0,0:0:0:0:
368,259,278971,1,0,0:0:0:0:
297,289,279117,1,0,0:0:0:0:
219,286,279263,1,0,0:0:0:0:
363,313,279410,1,0,0:0:0:0:
152,326,279556,5,2,0:0:0:0:
56,291,279702,1,0,0:0:0:0:
181,248,279849,1,0,0:0:0:0:
277,213,279995,1,0,0:0:0:0:
151,145,280142,1,0,0:0:0:0:
247,110,280288,1,0,0:0:0:0:
123,77,280434,1,2,0:0:0:0:
27,42,280580,1,2,0:0:0:0:
256,46,280727,5,2,0:0:0:0:
327,67,280873,1,2,0:0:0:0:
364,129,281020,1,0,0:0:0:0:
337,198,281166,1,0,0:0:0:0:
213,161,281312,1,0,0:0:0:0:
107,171,281459,1,0,0:0:0:0:
217,212,281605,1,2,0:0:0:0:
111,222,281752,1,2,0:0:0:0:
322,282,281898,5,2,0:0:0:0:
390,245,282044,1,2,0:0:0:0:
409,175,282190,1,0,0:0:0:0:
378,109,282337,1,0,0:0:0:0:
253,99,282483,1,0,0:0:0:0:
157,138,282629,1,0,0:0:0:0:
252,165,282776,1,2,0:0:0:0:
156,204,282922,1,2,0:0:0:0:
368,235,283068,5,4,0:0:0:0:
252,165,283215,1,8,0:0:0:0:
463,132,283361,1,4,0:0:0:0:
463,132,283507,1,4,0:0:0:0:
252,165,283654,1,4,0:0:0:0:
368,235,283800,1,8,0:0:0:0:
157,235,283946,1,4,0:0:0:0:
273,305,284092,1,4,0:0:0:0:
61,303,284239,5,4,0:0:0:0:
451,303,284824,1,4,0:0:0:0:
61,303,285410,1,4,0:0:0:0:
451,303,285995,1,4,0:0:0:0:
61,303,286581,1,4,0:0:0:0:
451,303,287166,1,4,0:0:0:0:
61,303,287751,6,0,L|167:303,2,96,8|0|8,0:0|0:0|0:0,0:0:0:0:
186,227,288190,1,0,0:0:0:0:
248,226,288263,1,0,0:0:0:0:
186,227,288337,1,0,0:0:0:0:
330,270,288483,1,8,0:0:0:0:
206,283,288629,1,8,0:0:0:0:
330,270,288776,1,0,0:0:0:0:
392,269,288849,1,0,0:0:0:0:
152,312,288922,6,0,L|136:216,1,96,4|0,0:0|0:0,0:0:0:0:
199,217,289142,1,0,0:0:0:0:
360,312,289215,2,0,L|376:216,1,96,2|0,0:0|0:0,0:0:0:0:
72,216,289507,2,0,L|88:311,1,96,8|0,0:0|0:0,0:0:0:0:
265,263,289727,1,0,0:0:0:0:
440,216,289800,2,0,L|425:311,1,96,2|0,0:0|0:0,0:0:0:0:
152,312,290093,6,0,L|136:217,1,96,4|0,0:0|0:0,0:0:0:0:
359,312,290385,2,0,L|374:217,1,96,2|0,0:0|0:0,0:0:0:0:
221,215,290605,1,0,0:0:0:0:
71,215,290678,2,0,L|87:310,1,96,8|0,0:0|0:0,0:0:0:0:
440,216,290970,2,0,L|425:311,1,96,2|0,0:0|0:0,0:0:0:0:
52,215,291263,6,0,L|36:120,1,96,4|0,0:0|0:0,0:0:0:0:
171,168,291483,1,0,0:0:0:0:
304,208,291556,2,0,L|200:208,1,96,2|0,0:0|0:0,0:0:0:0:
475,109,291849,2,0,L|459:204,1,96,8|0,0:0|0:0,0:0:0:0:
208,176,292142,2,0,L|304:176,1,96,2|0,0:0|0:0,0:0:0:0:
56,232,292434,5,4,0:0:0:0:
0,192,292507,1,0,0:0:0:0:
56,152,292581,1,0,0:0:0:0:
267,108,292727,1,8,0:0:0:0:
144,128,292873,1,8,0:0:0:0:
368,128,293020,5,2,0:0:0:0:
445,193,293117,1,0,0:0:0:0:
368,256,293215,1,0,0:0:0:0:
144,128,293312,1,8,0:0:0:0:
67,193,293410,1,0,0:0:0:0:
144,256,293507,1,0,0:0:0:0:
426,304,293605,6,0,P|472:265|441:217,1,127.679994739746,4|0,0:0|0:0,0:0:0:0:
283,274,293824,2,0,P|237:235|268:187,1,127.679994739746,8|0,0:0|0:0,0:0:0:0:
429,145,294044,2,0,L|369:122,1,63.8399973698732,8|0,0:0|0:0,0:0:0:0:
209,120,294190,6,0,P|163:156|193:206,1,127.679994739746,4|0,0:0|0:0,0:0:0:0:
356,151,294410,2,0,L|359:287,1,127.679994739746,8|0,0:0|0:0,0:0:0:0:
199,303,294629,2,0,L|139:280,1,63.8399973698732,8|0,0:0|0:0,0:0:0:0:
301,298,294776,6,0,L|441:289,1,127.679994739746,4|0,0:0|0:0,0:0:0:0:
268,226,294995,2,0,L|128:217,1,127.679994739746,8|0,0:0|0:0,0:0:0:0:
301,298,295215,2,0,L|367:293,1,63.8399973698732,8|0,0:0|0:0,0:0:0:0:
170,167,295361,6,0,L|104:162,2,63.8399973698732,4|0|8,0:0|0:0|0:0,0:0:0:0:
299,171,295654,1,4,0:0:0:0:
299,171,295800,1,8,0:0:0:0:
72,80,295946,6,0,P|26:119|57:167,1,127.679994739746,4|0,0:0|0:0,0:0:0:0:
215,120,296166,2,0,P|261:159|230:207,1,127.679994739746,8|0,0:0|0:0,0:0:0:0:
69,239,296385,2,0,L|129:262,1,63.8399973698732,8|0,0:0|0:0,0:0:0:0:
320,282,296531,6,0,P|365:245|335:195,1,127.679994739746,4|0,0:0|0:0,0:0:0:0:
173,260,296751,2,0,L|170:124,1,127.679994739746,8|0,0:0|0:0,0:0:0:0:
330,99,296970,2,0,L|390:122,1,63.8399973698732,8|0,0:0|0:0,0:0:0:0:
197,86,297117,6,0,L|57:95,1,127.679994739746,4|0,0:0|0:0,0:0:0:0:
229,163,297336,2,0,L|369:172,1,127.679994739746,8|0,0:0|0:0,0:0:0:0:
197,86,297556,2,0,L|131:91,1,63.8399973698732,4|0,0:0|0:0,0:0:0:0:
324,231,297702,6,0,L|390:236,2,63.8399973698732,4|0|8,0:0|0:0|0:0,0:0:0:0:
196,239,297995,1,4,0:0:0:0:
196,239,298142,1,8,0:0:0:0:
423,331,298288,6,0,P|484:310|487:255,1,127.679994739746,4|0,0:0|0:0,0:0:0:0:
327,314,298507,2,0,P|332:254|390:237,1,127.679994739746,8|0,0:0|0:0,0:0:0:0:
229,289,298727,2,0,L|225:207,1,63.8399973698732,8|0,0:0|0:0,0:0:0:0:
386,210,298873,6,0,P|447:189|450:134,1,127.679994739746,4|0,0:0|0:0,0:0:0:0:
288,122,299093,2,0,P|227:143|224:198,1,127.679994739746,8|0,0:0|0:0,0:0:0:0:
383,203,299312,2,0,L|386:266,1,63.8399973698732,8|0,0:0|0:0,0:0:0:0:
200,193,299459,6,0,L|60:202,1,127.679994739746,4|0,0:0|0:0,0:0:0:0:
234,279,299678,2,0,L|374:288,1,127.679994739746,8|0,0:0|0:0,0:0:0:0:
200,193,299898,2,0,L|134:198,1,63.8399973698732,8|0,0:0|0:0,0:0:0:0:
300,235,300044,6,0,L|366:230,2,63.8399973698732,4|0|8,0:0|0:0|0:0,0:0:0:0:
172,224,300337,1,4,0:0:0:0:
301,237,300483,1,8,0:0:0:0:
72,315,300629,6,0,P|54:254|98:219,1,127.679994739746,4|0,0:0|0:0,0:0:0:0:
259,298,300849,2,0,P|304:258|285:201,1,127.679994739746,8|0,0:0|0:0,0:0:0:0:
444,223,301068,2,0,L|400:168,1,63.8399973698732,8|0,0:0|0:0,0:0:0:0:
216,94,301215,6,0,P|155:107|134:165,1,127.679994739746,4|0,0:0|0:0,0:0:0:0:
295,159,301434,2,0,P|356:172|377:230,1,127.679994739746,8|0,0:0|0:0,0:0:0:0:
216,94,301654,2,0,L|150:89,1,63.8399973698732,8|0,0:0|0:0,0:0:0:0:
398,62,301800,6,0,P|439:120|416:164,1,127.679994739746,4|0,0:0|0:0,0:0:0:0:
255,186,302020,2,0,L|395:195,1,127.679994739746,8|0,0:0|0:0,0:0:0:0:
223,235,302239,2,0,L|218:312,1,63.8399973698732,8|0,0:0|0:0,0:0:0:0:
378,319,302385,6,0,L|441:323,2,63.8399973698732,4|0|8,0:0|0:0|0:0,0:0:0:0:
149,318,302678,2,0,L|85:322,2,63.8399973698732,4|0|4,0:0|0:0|0:0,0:0:0:0:
473,330,302971,6,0,P|481:267|436:230,1,127.679994739746,4|0,0:0|0:0,0:0:0:0:
277,281,303190,2,0,P|230:241|239:180,1,127.679994739746,8|0,0:0|0:0,0:0:0:0:
399,177,303410,2,0,L|403:113,1,63.8399973698732,8|0,0:0|0:0,0:0:0:0:
243,66,303556,6,0,L|103:75,1,127.679994739746,4|0,0:0|0:0,0:0:0:0:
278,75,303776,2,0,P|316:122|304:185,1,127.679994739746,8|0,0:0|0:0,0:0:0:0:
464,225,303995,2,0,L|460:289,1,63.8399973698732,8|0,0:0|0:0,0:0:0:0:
234,308,304142,6,0,L|94:317,1,127.679994739746,4|0,0:0|0:0,0:0:0:0:
268,235,304361,2,0,L|408:226,1,127.679994739746,8|0,0:0|0:0,0:0:0:0:
234,308,304581,2,0,L|168:303,1,63.8399973698732,8|0,0:0|0:0,0:0:0:0:
330,280,304727,6,0,L|396:275,2,63.8399973698732,4|0|8,0:0|0:0|0:0,0:0:0:0:
203,253,305020,1,4,0:0:0:0:
330,280,305166,1,8,0:0:0:0:
27,317,305312,6,0,P|18:256|65:216,1,127.679994739746,4|0,0:0|0:0,0:0:0:0:
228,282,305532,2,0,P|274:242|266:181,1,127.679994739746,8|0,0:0|0:0,0:0:0:0:
107,148,305751,2,0,L|141:72,1,63.8399973698732,8|0,0:0|0:0,0:0:0:0:
359,61,305898,6,0,P|423:80|440:137,1,127.679994739746,4|0,0:0|0:0,0:0:0:0:
281,171,306117,2,0,P|302:228|362:243,1,127.679994739746,8|0,0:0|0:0,0:0:0:0:
201,307,306337,2,0,L|154:263,1,63.8399973698732,8|0,0:0|0:0,0:0:0:0:
340,251,306483,6,0,L|480:242,1,127.679994739746,4|0,0:0|0:0,0:0:0:0:
306,184,306702,2,0,L|166:175,1,127.679994739746,8|0,0:0|0:0,0:0:0:0:
340,251,306922,2,0,L|406:246,1,63.8399973698732,8|0,0:0|0:0,0:0:0:0:
172,251,307068,2,0,L|106:246,2,63.8399973698732,4|0|8,0:0|0:0|0:0,0:0:0:0:
399,166,307361,1,4,0:0:0:0:
120,167,307507,1,8,0:0:0:0:
441,68,307654,6,0,P|438:132|384:151,1,127.679994739746,4|0,0:0|0:0,0:0:0:0:
223,175,307873,2,0,P|226:239|280:258,1,127.679994739746,8|0,0:0|0:0,0:0:0:0:
441,68,308093,2,0,L|389:135,1,63.8399973698732,8|0,0:0|0:0,0:0:0:0:
211,183,308239,6,0,P|155:160|155:99,1,127.679994739746,4|0,0:0|0:0,0:0:0:0:
317,288,308459,2,0,P|372:265|372:204,1,127.679994739746,8|0,0:0|0:0,0:0:0:0:
160,272,308678,2,0,L|120:221,1,63.8399973698732,8|0,0:0|0:0,0:0:0:0:
352,286,308824,6,0,L|479:285,1,127.679994739746,4|0,0:0|0:0,0:0:0:0:
160,286,309044,2,0,L|33:285,1,127.679994739746,8|0,0:0|0:0,0:0:0:0:
352,98,309263,2,0,L|426:98,1,63.8399973698732,8|0,0:0|0:0,0:0:0:0:
160,98,309410,6,0,L|86:98,1,63.8399973698732
287,175,309556,2,0,L|361:175,1,63.8399973698732
160,98,309702,2,0,L|156:169,1,63.8399973698732,2|0,0:0|0:0,0:0:0:0:
350,175,309849,2,0,L|346:246,1,63.8399973698732,2|0,0:0|0:0,0:0:0:0:
91,113,309995,6,0,L|86:186,1,63.8399973698732,4|0,0:0|0:0,0:0:0:0:
231,178,310142,1,0,0:0:0:0:
375,183,310215,1,0,0:0:0:0:
231,178,310288,2,0,L|226:251,1,63.8399973698732,8|0,0:0|0:0,0:0:0:0:
375,183,310434,2,0,L|370:256,1,63.8399973698732
226,241,310581,6,0,L|153:236,1,63.8399973698732,8|0,0:0|0:0,0:0:0:0:
306,251,310727,2,0,L|379:246,1,63.8399973698732
206,251,310873,2,0,L|133:246,1,63.8399973698732,8|0,0:0|0:0,0:0:0:0:
336,314,311020,2,0,L|409:309,1,63.8399973698732
176,314,311166,5,4,0:0:0:0:
112,309,311239,1,0,0:0:0:0:
82,249,311312,1,0,0:0:0:0:
126,197,311385,1,0,0:0:0:0:
336,314,311459,2,0,L|409:309,1,63.8399973698732,8|0,0:0|0:0,0:0:0:0:
176,314,311605,2,0,L|103:309,1,63.8399973698732
336,314,311751,5,4,0:0:0:0:
400,309,311824,1,0,0:0:0:0:
430,249,311897,1,0,0:0:0:0:
386,197,311970,1,0,0:0:0:0:
145,255,312044,2,0,L|72:250,1,63.8399973698732,8|0,0:0|0:0,0:0:0:0:
367,255,312190,2,0,L|440:250,1,63.8399973698732
82,250,312337,5,4,0:0:0:0:
38,196,312410,1,0,0:0:0:0:
21,132,312483,1,0,0:0:0:0:
46,68,312556,1,0,0:0:0:0:
106,31,312629,1,0,0:0:0:0:
181,24,312702,1,0,0:0:0:0:
343,39,312776,5,2,0:0:0:0:
407,43,312849,1,0,0:0:0:0:
343,103,312922,1,0,0:0:0:0:
279,99,312995,1,0,0:0:0:0:
216,159,313068,1,0,0:0:0:0:
280,163,313141,1,0,0:0:0:0:
441,261,313215,1,2,0:0:0:0:
377,257,313288,1,0,0:0:0:0:
217,275,313361,1,2,0:0:0:0:
153,271,313434,1,0,0:0:0:0:
344,323,313507,5,6,0:0:0:0:
413,312,313581,1,0,0:0:0:0:
462,262,313654,1,0,0:0:0:0:
490,196,313727,1,0,0:0:0:0:
461,130,313800,1,0,0:0:0:0:
396,100,313873,1,0,0:0:0:0:
236,76,313946,1,2,0:0:0:0:
172,72,314019,1,0,0:0:0:0:
343,194,314093,5,2,0:0:0:0:
407,198,314166,1,0,0:0:0:0:
343,194,314239,1,0,0:0:0:0:
183,252,314312,1,2,0:0:0:0:
119,248,314385,1,0,0:0:0:0:
183,252,314458,1,0,0:0:0:0:
343,257,314532,1,2,0:0:0:0:
407,261,314605,1,0,0:0:0:0:
183,252,314678,5,6,0:0:0:0:
118,229,314751,1,0,0:0:0:0:
79,164,314824,1,0,0:0:0:0:
116,100,314898,1,0,0:0:0:0:
182,70,314971,1,0,0:0:0:0:
251,100,315044,1,0,0:0:0:0:
92,140,315117,1,2,0:0:0:0:
28,136,315190,1,0,0:0:0:0:
181,151,315263,5,2,0:0:0:0:
248,160,315336,1,0,0:0:0:0:
416,232,315410,1,2,0:0:0:0:
408,168,315483,1,0,0:0:0:0:
250,193,315556,1,2,0:0:0:0:
246,257,315629,1,0,0:0:0:0:
408,312,315702,1,2,0:0:0:0:
354,309,315775,1,0,0:0:0:0:
144,328,315849,5,6,0:0:0:0:
80,324,315922,1,0,0:0:0:0:
145,261,315995,1,0,0:0:0:0:
209,265,316068,1,0,0:0:0:0:
272,204,316142,1,0,0:0:0:0:
208,200,316215,1,0,0:0:0:0:
49,107,316288,1,2,0:0:0:0:
113,111,316361,1,0,0:0:0:0:
273,78,316434,5,6,0:0:0:0:
340,106,316507,1,0,0:0:0:0:
366,173,316581,1,0,0:0:0:0:
343,235,316654,1,0,0:0:0:0:
272,265,316727,1,0,0:0:0:0:
209,235,316800,1,0,0:0:0:0:
177,171,316873,1,0,0:0:0:0:
205,106,316946,1,0,0:0:0:0:
399,75,317020,5,6,0:0:0:0:
412,137,317093,1,0,0:0:0:0:
347,133,317166,1,0,0:0:0:0:
360,195,317239,1,0,0:0:0:0:
295,191,317312,1,0,0:0:0:0:
308,253,317385,1,0,0:0:0:0:
469,282,317459,1,2,0:0:0:0:
456,220,317532,1,0,0:0:0:0:
265,297,317605,5,6,0:0:0:0:
201,293,317678,1,0,0:0:0:0:
137,289,317751,1,0,0:0:0:0:
295,191,317824,1,2,0:0:0:0:
359,187,317897,1,0,0:0:0:0:
295,191,317970,1,0,0:0:0:0:
137,289,318044,1,2,0:0:0:0:
73,285,318117,1,0,0:0:0:0:
265,297,318190,5,6,0:0:0:0:
327,263,318263,1,0,0:0:0:0:
356,201,318337,1,0,0:0:0:0:
325,139,318410,1,0,0:0:0:0:
263,112,318483,1,0,0:0:0:0:
201,144,318556,1,0,0:0:0:0:
360,77,318629,1,2,0:0:0:0:
424,73,318702,1,0,0:0:0:0:
231,50,318776,5,6,0:0:0:0:
167,54,318849,1,0,0:0:0:0:
232,113,318922,1,0,0:0:0:0:
296,109,318995,1,0,0:0:0:0:
362,169,319068,1,0,0:0:0:0:
298,173,319141,1,0,0:0:0:0:
136,196,319215,1,2,0:0:0:0:
72,200,319288,1,0,0:0:0:0:
264,319,319361,5,6,0:0:0:0:
328,321,319434,1,0,0:0:0:0:
264,281,319507,1,0,0:0:0:0:
200,279,319580,1,0,0:0:0:0:
265,250,319654,1,0,0:0:0:0:
329,252,319727,1,0,0:0:0:0:
169,130,319800,1,2,0:0:0:0:
105,128,319873,1,0,0:0:0:0:
296,72,319946,5,6,0:0:0:0:
360,70,320019,1,0,0:0:0:0:
424,68,320093,1,0,0:0:0:0:
265,167,320166,1,2,0:0:0:0:
201,165,320239,1,0,0:0:0:0:
265,167,320313,1,0,0:0:0:0:
422,176,320385,1,2,0:0:0:0:
486,178,320459,1,0,0:0:0:0:
296,72,320532,5,6,0:0:0:0:
283,134,320605,1,0,0:0:0:0:
348,130,320678,1,0,0:0:0:0:
335,192,320751,1,0,0:0:0:0:
400,188,320824,1,0,0:0:0:0:
387,250,320897,1,0,0:0:0:0:
226,279,320971,1,2,0:0:0:0:
239,217,321044,1,0,0:0:0:0:
430,334,321117,5,6,0:0:0:0:
443,272,321190,1,0,0:0:0:0:
283,310,321263,1,0,0:0:0:0:
270,248,321336,1,0,0:0:0:0:
110,334,321410,1,2,0:0:0:0:
64,272,321483,1,0,0:0:0:0:
224,310,321556,1,2,0:0:0:0:
270,248,321629,1,0,0:0:0:0:
63,202,321702,6,0,L|35:69,1,127.679994739746,4|8,0:0|0:0,0:0:0:0:
165,85,321995,2,0,L|177:147,1,63.8399973698732
339,134,322142,1,8,0:0:0:0:
116,144,322288,6,0,L|89:268,1,127.679994739746,2|0,0:0|0:0,0:0:0:0:
249,213,322507,2,2,L|275:337,1,127.679994739746,2|0,0:0|0:0,0:0:0:0:
116,144,322727,2,0,L|103:206,1,63.8399973698732,8|0,0:0|0:0,0:0:0:0:
320,249,322873,6,0,L|444:222,3,127.679994739746,4|8|0|2,0:0|0:0|0:0|0:0,0:0:0:0:
222,161,323459,1,2,0:0:0:0:
161,148,323532,1,0,0:0:0:0:
222,161,323605,1,8,0:0:0:0:
349,202,323751,1,2,0:0:0:0:
194,258,323898,1,8,0:0:0:0:
449,202,324043,6,0,L|477:69,1,127.679994739746,4|8,0:0|0:0,0:0:0:0:
347,85,324337,2,0,L|335:147,1,63.8399973698732
173,134,324483,1,8,0:0:0:0:
396,144,324629,6,0,L|423:268,1,127.679994739746,2|0,0:0|0:0,0:0:0:0:
263,213,324848,2,2,L|237:337,1,127.679994739746,2|0,0:0|0:0,0:0:0:0:
396,144,325068,2,0,L|409:206,1,63.8399973698732,8|0,0:0|0:0,0:0:0:0:
192,249,325214,6,0,L|68:222,3,127.679994739746,4|8|0|10,0:0|0:0|0:0|0:0,0:0:0:0:
290,161,325800,1,2,0:0:0:0:
351,148,325873,1,0,0:0:0:0:
290,161,325946,1,8,0:0:0:0:
163,202,326093,1,2,0:0:0:0:
318,258,326239,1,8,0:0:0:0:
63,202,326385,6,0,L|35:69,1,127.679994739746,6|8,0:0|0:0,0:0:0:0:
265,68,326678,2,0,L|278:130,1,63.8399973698732,2|0,0:0|0:0,0:0:0:0:
138,136,326824,2,0,L|111:260,1,127.679994739746,2|0,0:0|0:0,0:0:0:0:
364,290,327117,1,2,0:0:0:0:
256,192,327263,1,2,0:0:0:0:
410,155,327410,1,8,0:0:0:0:
102,155,327556,6,0,L|75:30,1,127.679994739746,4|0,0:0|0:0,0:0:0:0:
410,155,327849,2,0,L|437:30,1,127.679994739746,8|0,0:0|0:0,0:0:0:0:
75,30,328142,2,0,L|102:155,1,127.679994739746,8|0,0:0|0:0,0:0:0:0:
437,30,328434,2,0,L|452:96,1,63.8399973698732,2|0,0:0|0:0,0:0:0:0:
290,109,328581,2,0,L|224:152,1,63.8399973698732,2|0,0:0|0:0,0:0:0:0:
396,107,328727,5,4,0:0:0:0:
453,144,328800,1,0,0:0:0:0:
474,208,328873,1,0,0:0:0:0:
447,272,328946,1,0,0:0:0:0:
389,294,329020,1,0,0:0:0:0:
319,285,329093,1,2,0:0:0:0:
161,240,329166,1,0,0:0:0:0:
97,208,329239,1,0,0:0:0:0:
288,193,329312,5,2,0:0:0:0:
352,161,329385,1,0,0:0:0:0:
288,193,329459,1,0,0:0:0:0:
128,149,329532,1,2,0:0:0:0:
64,117,329605,1,0,0:0:0:0:
128,149,329679,1,0,0:0:0:0:
288,193,329751,1,2,0:0:0:0:
352,225,329825,1,0,0:0:0:0:
161,131,329898,5,4,0:0:0:0:
93,156,329971,1,0,0:0:0:0:
67,226,330044,1,0,0:0:0:0:
113,285,330117,1,0,0:0:0:0:
273,246,330190,1,2,0:0:0:0:
319,187,330263,1,0,0:0:0:0:
293,117,330336,1,0,0:0:0:0:
225,92,330409,1,0,0:0:0:0:
387,68,330483,5,8,0:0:0:0:
455,93,330556,1,0,0:0:0:0:
481,163,330629,1,0,0:0:0:0:
435,222,330702,1,0,0:0:0:0:
125,68,330776,1,4,0:0:0:0:
57,93,330849,1,0,0:0:0:0:
31,163,330922,1,0,0:0:0:0:
77,222,330995,1,0,0:0:0:0:
435,222,331068,1,4,0:0:0:0:
392,192,350300,6,0,L|395:94,1,96,4|0,0:0|0:0,0:0:0:0:
261,268,350600,2,0,L|258:170,1,96,2|0,0:0|0:0,0:0:0:0:
392,192,350900,2,0,L|294:189,1,96
161,128,351200,2,0,L|259:125,1,96,2|0,0:0|0:0,0:0:0:0:
123,140,351500,6,0,L|120:235,1,96
254,210,351800,2,0,L|256:305,1,96
391,184,352100,2,0,L|388:279,1,96,2|0,0:0|0:0,0:0:0:0:
254,292,352400,5,0,0:0:0:0:
192,266,352475,1,0,0:0:0:0:
169,206,352550,1,0,0:0:0:0:
200,147,352625,1,0,0:0:0:0:
344,136,352700,1,4,0:0:0:0:
259,127,353000,6,0,L|256:222,1,96,2|0,0:0|0:0,0:0:0:0:
389,221,353300,2,0,L|386:316,1,96
252,245,353600,2,0,L|249:340,1,96,2|0,0:0|0:0,0:0:0:0:
383,343,353900,6,0,L|481:340,1,96
344,288,354200,2,0,L|341:193,1,96,2|0,0:0|0:0,0:0:0:0:
208,160,354500,2,0,L|110:163,1,96
246,288,354800,5,0,0:0:0:0:
308,262,354875,1,0,0:0:0:0:
331,202,354950,1,0,0:0:0:0:
300,143,355025,1,0,0:0:0:0:
156,132,355100,1,4,0:0:0:0:
365,117,355400,6,0,L|368:212,1,96,2|0,0:0|0:0,0:0:0:0:
234,194,355700,2,0,L|231:289,1,96
96,228,356000,2,0,L|99:323,1,96,2|0,0:0|0:0,0:0:0:0:
233,333,356300,6,0,L|135:330,1,96
272,270,356600,2,0,L|174:267,1,96
310,207,356900,2,0,L|408:204,1,96
272,146,357200,2,0,L|370:143,1,96,2|0,0:0|0:0,0:0:0:0:
233,91,357500,6,0,P|150:130|135:223,1,192,4|0,0:0|0:0,0:0:0:0:
270,242,357950,1,2,0:0:0:0:
386,237,358100,1,0,0:0:0:0:
386,237,358250,1,0,0:0:0:0:
270,242,358400,1,0,0:0:0:0:
209,218,358500,1,0,0:0:0:0:
272,200,358600,1,0,0:0:0:0:
361,200,358700,2,0,L|372:97,1,96,0|0,0:0|0:0,0:0:0:0:
235,142,359000,2,0,L|137:139,1,96,2|0,0:0|0:0,0:0:0:0:
273,76,359300,5,0,0:0:0:0:
335,102,359375,1,0,0:0:0:0:
358,162,359450,1,0,0:0:0:0:
327,221,359525,1,0,0:0:0:0:
268,241,359600,1,0,0:0:0:0:
204,223,359675,1,0,0:0:0:0:
181,159,359750,1,0,0:0:0:0:
207,94,359825,1,0,0:0:0:0:
351,96,359900,6,0,L|449:93,1,96,4|0,0:0|0:0,0:0:0:0:
313,168,360200,2,0,L|215:171,1,96,2|0,0:0|0:0,0:0:0:0:
351,199,360500,2,0,L|354:294,1,96
220,334,360800,2,0,L|122:337,1,96,2|0,0:0|0:0,0:0:0:0:
258,284,361100,6,0,L|261:189,1,96
127,250,361400,2,0,L|130:155,1,96
264,122,361700,2,0,L|359:119,1,96,2|0,0:0|0:0,0:0:0:0:
226,61,362000,5,0,0:0:0:0:
166,91,362075,1,0,0:0:0:0:
140,153,362150,1,0,0:0:0:0:
172,213,362225,1,0,0:0:0:0:
320,224,362300,1,4,0:0:0:0:
247,306,362600,6,0,L|250:211,1,96,2|0,0:0|0:0,0:0:0:0:
384,243,362900,2,0,L|387:148,1,96
253,190,363200,2,0,L|250:95,1,96,2|0,0:0|0:0,0:0:0:0:
116,91,363500,6,0,L|20:88,1,96
155,166,363800,2,0,L|250:168,1,96,2|0,0:0|0:0,0:0:0:0:
116,91,364100,2,0,L|113:186,1,96
247,140,364400,1,0,0:0:0:0:
309,166,364475,1,0,0:0:0:0:
333,231,364550,1,0,0:0:0:0:
304,289,364625,1,0,0:0:0:0:
160,316,364700,1,4,0:0:0:0:
352,336,365000,6,0,L|355:241,1,96,2|0,0:0|0:0,0:0:0:0:
221,228,365300,2,0,L|316:230,1,96
182,289,365600,2,0,L|179:194,1,96,2|0,0:0|0:0,0:0:0:0:
313,213,365900,6,0,L|310:118,1,96
176,182,366200,2,0,L|173:87,1,96
39,268,366500,2,0,L|42:173,1,96
176,234,366800,2,0,L|179:139,1,96,2|0,0:0|0:0,0:0:0:0:
329,88,367100,6,0,P|412:127|427:220,1,192,4|0,0:0|0:0,0:0:0:0:
292,267,367550,1,2,0:0:0:0:
408,262,367700,1,0,0:0:0:0:
408,262,367850,1,0,0:0:0:0:
292,267,368000,1,2,0:0:0:0:
176,272,368150,1,0,0:0:0:0:
82,188,368268,1,0,0:0:0:0:
176,112,368414,5,0,0:0:0:0:
336,112,368560,1,2,0:0:0:0:
256,152,368657,1,0,0:0:0:0:
336,192,368755,1,0,0:0:0:0:
176,192,368853,1,8,0:0:0:0:
327,272,368999,2,0,P|255:193|183:272,1,240
389,280,369438,6,0,P|402:185|328:145,1,192,4|2,0:0|0:0,0:0:0:0:
443,117,369877,1,0,0:0:0:0:
231,95,370024,2,0,P|218:190|292:230,1,192,8|2,0:0|0:0,0:0:0:0:
177,258,370463,1,0,0:0:0:0:
388,283,370609,1,2,0:0:0:0:
195,335,370902,1,0,0:0:0:0:
407,314,371194,6,0,P|400:216|321:192,1,192,8|2,0:0|0:0,0:0:0:0:
206,218,371633,1,0,0:0:0:0:
418,260,371780,2,0,L|421:66,1,192,2|2,0:0|0:0,0:0:0:0:
305,71,372219,1,0,0:0:0:0:
94,109,372365,2,0,P|104:207|183:240,1,192,8|2,0:0|0:0,0:0:0:0:
66,276,372804,1,0,0:0:0:0:
210,301,372950,6,0,L|304:282,1,96,2|0,0:0|0:0,0:0:0:0:
188,214,373243,2,0,L|94:195,1,96,2|0,0:0|0:0,0:0:0:0:
306,139,373536,1,8,0:0:0:0:
306,139,373682,1,0,0:0:0:0:
191,46,373828,2,0,L|285:65,1,96,2|0,0:0|0:0,0:0:0:0:
73,132,374121,6,0,L|167:151,3,96,2|0|2|0,0:0|0:0|0:0|0:0,0:0:0:0:
379,188,374707,2,0,L|285:207,3,96,8|0|2|0,0:0|0:0|0:0|0:0,0:0:0:0:
74,178,375292,6,0,L|168:197,1,96,2|0,0:0|0:0,0:0:0:0:
52,250,375585,2,0,L|146:269,1,96,2|0,0:0|0:0,0:0:0:0:
357,308,375877,1,8,0:0:0:0:
441,264,376024,1,0,0:0:0:0:
441,184,376170,1,2,0:0:0:0:
354,149,376316,1,0,0:0:0:0:
142,75,376463,6,0,L|135:267,1,192,2|2,0:0|0:0,0:0:0:0:
19,236,376902,1,0,0:0:0:0:
230,299,377048,2,0,P|287:221|240:151,1,192,8|2,0:0|0:0,0:0:0:0:
125,150,377487,1,0,0:0:0:0:
336,80,377633,6,0,B|431:80|431:80|329:79,1,192,2|2,0:0|0:0,0:0:0:0:
223,215,378072,1,0,0:0:0:0:
428,235,378219,1,8,0:0:0:0:
189,238,378365,2,0,P|107:186|120:102,1,192,2|0,0:0|0:0,0:0:0:0:
183,103,378731,1,0,0:0:0:0:
351,82,378804,5,4,0:0:0:0:
351,82,378950,1,0,0:0:0:0:
226,87,379097,2,0,B|154:87|154:87|202:159,1,144,8|0,0:0|0:0,0:0:0:0:
338,207,379389,2,0,B|378:147|378:147|306:147,1,144,8|0,0:0|0:0,0:0:0:0:
162,199,379682,2,0,B|90:199|90:199|138:271,1,144,8|0,0:0|0:0,0:0:0:0:
274,263,379974,1,8,0:0:0:0:
369,194,380268,5,2,0:0:0:0:
256,256,380414,1,0,0:0:0:0:
143,194,380560,1,8,0:0:0:0:
369,194,380853,2,0,P|389:131|330:98,1,144,2|0,0:0|0:0,0:0:0:0:
161,82,381146,5,4,0:0:0:0:
161,82,381292,1,0,0:0:0:0:
286,87,381438,6,0,B|358:87|358:87|310:159,1,144,8|0,0:0|0:0,0:0:0:0:
174,207,381730,2,0,B|134:147|134:147|206:147,1,144,8|0,0:0|0:0,0:0:0:0:
350,199,382023,2,0,B|422:199|422:199|374:271,1,144,8|0,0:0|0:0,0:0:0:0:
238,263,382316,1,8,0:0:0:0:
143,194,382609,5,2,0:0:0:0:
256,256,382755,1,0,0:0:0:0:
369,194,382901,1,8,0:0:0:0:
143,194,383194,2,0,P|123:131|182:98,1,144,2|0,0:0|0:0,0:0:0:0:
328,32,383487,1,4,0:0:0:0:
328,32,383633,1,0,0:0:0:0:
184,32,383780,6,0,B|112:32|112:32|192:32,1,144,8|0,0:0|0:0,0:0:0:0:
328,96,384072,2,0,B|400:96|400:96|320:96,1,144,8|0,0:0|0:0,0:0:0:0:
184,96,384365,2,0,B|112:96|112:96|192:96,1,144,8|0,0:0|0:0,0:0:0:0:
328,192,384658,1,8,0:0:0:0:
213,238,384950,5,2,0:0:0:0:
100,263,385097,1,0,0:0:0:0:
213,238,385243,1,8,0:0:0:0:
439,240,385536,1,2,0:0:0:0:
190,282,385828,6,0,P|104:201|168:124,1,240,8|2,0:0|0:0,0:0:0:0:
236,125,386268,1,0,0:0:0:0:
447,147,386414,2,0,P|463:217|412:257,1,144,8|0,0:0|0:0,0:0:0:0:
259,277,386707,2,0,P|206:233|224:167,1,144,2|0,0:0|0:0,0:0:0:0:
392,172,386999,6,0,L|416:80,1,96,4|0,0:0|0:0,0:0:0:0:
204,92,387292,2,0,L|309:98,1,96,2|0,0:0|0:0,0:0:0:0:
88,212,387585,2,0,L|64:120,1,96,4|0,0:0|0:0,0:0:0:0:
299,86,387877,2,0,L|194:92,1,96,4|0,0:0|0:0,0:0:0:0:
449,119,388170,6,0,P|461:214|387:256,1,192,4|8,0:0|0:0,0:0:0:0:
164,312,388609,2,0,L|356:305,1,192,2|0,0:0|0:0,0:0:0:0:
210,230,389048,2,0,L|306:226,1,96,8|0,0:0|0:0,0:0:0:0:
64,167,389341,2,0,L|256:160,1,192,4|8,0:0|0:0,0:0:0:0:
158,216,389780,1,0,0:0:0:0:
379,140,389926,6,0,L|382:235,1,96,2|0,0:0|0:0,0:0:0:0:
238,242,390219,2,0,L|333:238,1,96,8|0,0:0|0:0,0:0:0:0:
114,328,390511,6,0,P|49:258|96:192,1,192,6|8,0:0|0:0,0:0:0:0:
318,196,390950,2,0,L|126:189,1,192,2|0,0:0|0:0,0:0:0:0:
271,181,391389,2,0,L|274:85,1,96,8|0,0:0|0:0,0:0:0:0:
53,40,391682,2,0,P|31:129|109:168,1,192,4|8,0:0|0:0,0:0:0:0:
358,125,392268,6,0,L|361:220,1,96,2|0,0:0|0:0,0:0:0:0:
218,181,392560,2,0,L|221:276,1,96,2|0,0:0|0:0,0:0:0:0:
443,302,392853,6,0,P|460:208|384:178,1,192,6|8,0:0|0:0,0:0:0:0:
162,283,393292,2,0,P|81:245|103:158,1,192,2|2,0:0|0:0,0:0:0:0:
248,137,393731,2,0,L|153:133,1,96,8|0,0:0|0:0,0:0:0:0:
374,72,394024,6,0,L|279:68,2,96,2|0|8,0:0|0:0|0:0,0:0:0:0:
229,59,394463,2,0,L|224:251,1,192,2|0,0:0|0:0,0:0:0:0:
369,251,394902,2,0,L|464:247,1,96,8|0,0:0|0:0,0:0:0:0:
245,293,395194,6,0,P|151:278|110:197,1,192,6|8,0:0|0:0,0:0:0:0:
332,68,395633,2,0,P|426:83|467:164,1,192,2|0,0:0|0:0,0:0:0:0:
322,153,396072,2,0,L|319:248,1,96,8|0,0:0|0:0,0:0:0:0:
97,206,396365,6,0,L|94:301,1,96,2|0,0:0|0:0,0:0:0:0:
316,295,396658,1,8,0:0:0:0:
125,316,396950,1,2,0:0:0:0:
66,281,397024,1,0,0:0:0:0:
69,221,397097,1,0,0:0:0:0:
131,194,397170,1,0,0:0:0:0:
275,190,397243,2,0,L|370:186,1,96,2|0,0:0|0:0,0:0:0:0:
149,42,397536,6,0,P|61:80|34:166,1,192,6|8,0:0|0:0,0:0:0:0:
255,122,397975,2,0,P|343:160|370:246,1,192,2|0,0:0|0:0,0:0:0:0:
148,202,398414,2,0,L|144:297,1,96,8|0,0:0|0:0,0:0:0:0:
366,295,398707,6,0,P|438:234|397:163,1,192,4|8,0:0|0:0,0:0:0:0:
286,149,399146,1,0,0:0:0:0:
66,155,399292,2,0,L|63:250,1,96,2|0,0:0|0:0,0:0:0:0:
208,182,399585,2,0,L|205:277,1,96,2|0,0:0|0:0,0:0:0:0:
425,300,399877,6,0,P|411:205|329:177,1,192,6|8,0:0|0:0,0:0:0:0:
106,101,400316,2,0,L|298:108,1,192,2|0,0:0|0:0,0:0:0:0:
76,212,400755,2,0,L|171:208,1,96,8|0,0:0|0:0,0:0:0:0:
394,279,401048,6,0,P|417:186|344:148,1,192,4|8,0:0|0:0,0:0:0:0:
153,138,401633,2,0,L|248:134,1,96,2|0,0:0|0:0,0:0:0:0:
104,85,401926,2,0,P|87:155|136:197,1,144,2|0,0:0|0:0,0:0:0:0:
306,90,402219,6,0,P|396:110|428:196,1,192,6|8,0:0|0:0,0:0:0:0:
206,90,402658,2,0,P|116:110|84:196,1,192,2|0,0:0|0:0,0:0:0:0:
229,190,403097,2,0,L|232:285,1,96,8|0,0:0|0:0,0:0:0:0:
12,278,403389,6,0,P|44:191|133:171,1,192,6|8,0:0|0:0,0:0:0:0:
356,234,403828,2,0,P|445:214|477:127,1,192,2|0,0:0|0:0,0:0:0:0:
333,137,404267,2,0,L|238:141,1,96,8|0,0:0|0:0,0:0:0:0:
459,207,404560,6,0,P|469:112|393:76,1,192,6|8,0:0|0:0,0:0:0:0:
161,137,404999,2,0,L|353:144,1,192,2|0,0:0|0:0,0:0:0:0:
120,76,405438,2,0,L|117:171,1,96,8|0,0:0|0:0,0:0:0:0:
348,153,405731,2,0,L|351:248,1,96,2|0,0:0|0:0,0:0:0:0:
110,248,406024,1,8,0:0:0:0:
302,263,406316,5,2,0:0:0:0:
343,210,406389,1,0,0:0:0:0:
324,148,406463,1,0,0:0:0:0:
261,131,406536,1,0,0:0:0:0:
117,69,406609,2,0,L|105:166,1,96,2|0,0:0|0:0,0:0:0:0:
395,69,406902,6,0,L|300:72,2,96,4|0|4,0:0|0:0|0:0,0:0:0:0:
183,67,407341,2,0,P|129:111|146:175,1,144,8|0,0:0|0:0,0:0:0:0:
435,162,407780,6,0,L|276:166,2,144,8|0|4,0:0|0:0|0:0,0:0:0:0:
291,83,408365,1,4,0:0:0:0:
177,87,408511,1,0,0:0:0:0:
389,264,408658,1,8,0:0:0:0:
389,264,408804,1,0,0:0:0:0:
256,207,408950,1,4,0:0:0:0:
389,264,409097,1,8,0:0:0:0:
123,264,409243,1,4,0:0:0:0:
389,264,410121,5,2,0:0:0:0:
123,264,410414,2,0,P|99:178|177:135,1,192,2|0,0:0|0:0,0:0:0:0:
389,264,410853,2,0,P|413:178|335:135,1,192,2|0,0:0|0:0,0:0:0:0:
218,264,411292,2,0,L|115:263,1,96,2|0,0:0|0:0,0:0:0:0:
390,263,411585,5,4,0:0:0:0:
400,168,411731,1,0,0:0:0:0:
256,192,411877,1,8,0:0:0:0:
400,168,412024,1,0,0:0:0:0:
189,293,412170,1,2,0:0:0:0:
118,264,412316,1,0,0:0:0:0:
88,189,412463,1,8,0:0:0:0:
121,118,412609,1,0,0:0:0:0:
284,129,412755,6,0,L|176:132,2,96,2|0|8,0:0|0:0|0:0,0:0:0:0:
121,118,413194,2,0,P|87:190|167:247,1,192,2|2,0:0|0:0,0:0:0:0:
377,254,413633,2,0,L|379:158,1,96,8|0,0:0|0:0,0:0:0:0:
167,146,413926,6,0,L|71:143,1,96,4|0,0:0|0:0,0:0:0:0:
216,245,414219,2,0,L|120:242,1,96,8|0,0:0|0:0,0:0:0:0:
264,334,414511,1,2,0:0:0:0:
347,314,414658,1,0,0:0:0:0:
396,247,414804,1,8,0:0:0:0:
374,167,414950,1,0,0:0:0:0:
210,124,415097,6,0,L|305:121,2,96,2|0|8,0:0|0:0|0:0,0:0:0:0:
423,58,415536,2,0,P|453:140|373:167,1,192,2|2,0:0|0:0,0:0:0:0:
208,225,415975,2,0,L|303:222,1,96,8|0,0:0|0:0,0:0:0:0:
93,240,416267,5,4,0:0:0:0:
83,141,416414,1,0,0:0:0:0:
246,126,416560,2,0,L|151:129,1,96,8|0,0:0|0:0,0:0:0:0:
362,52,416853,2,0,L|457:49,3,96,2|0|8|0,0:0|0:0|0:0|0:0,0:0:0:0:
247,70,417438,6,0,L|244:165,1,96,2|0,0:0|0:0,0:0:0:0:
408,156,417731,2,0,L|405:251,1,96,8|0,0:0|0:0,0:0:0:0:
260,280,418024,1,2,0:0:0:0:
188,268,418170,1,0,0:0:0:0:
151,202,418316,1,8,0:0:0:0:
189,135,418463,1,0,0:0:0:0:
400,182,418609,5,4,0:0:0:0:
477,147,418755,1,0,0:0:0:0:
332,140,418902,1,8,0:0:0:0:
331,74,419048,1,0,0:0:0:0:
187,192,419194,5,2,0:0:0:0:
264,157,419340,1,0,0:0:0:0:
119,150,419487,1,8,0:0:0:0:
118,84,419633,1,0,0:0:0:0:
330,42,419780,5,2,0:0:0:0:
235,90,419926,1,0,0:0:0:0:
379,100,420072,1,8,0:0:0:0:
284,148,420218,1,0,0:0:0:0:
448,146,420365,5,4,0:0:0:0:
453,207,420438,1,0,0:0:0:0:
309,181,420511,1,2,0:0:0:0:
304,242,420584,1,0,0:0:0:0:
450,265,420658,1,8,0:0:0:0:
445,326,420731,1,0,0:0:0:0:
301,321,420804,1,2,0:0:0:0:
240,316,420877,1,0,0:0:0:0:
72,322,420950,6,0,P|63:227|142:192,1,192,4|8,0:0|0:0,0:0:0:0:
43,150,421389,1,0,0:0:0:0:
255,93,421536,2,0,L|160:96,1,96,2|0,0:0|0:0,0:0:0:0:
371,160,421828,2,0,L|276:163,1,96,8|0,0:0|0:0,0:0:0:0:
63,226,422121,6,0,L|158:229,3,96,2|0|8|0,0:0|0:0|0:0|0:0,0:0:0:0:
371,284,422707,1,2,0:0:0:0:
275,179,422853,1,0,0:0:0:0:
427,109,422999,1,8,0:0:0:0:
427,109,423146,1,0,0:0:0:0:
215,126,423292,6,0,L|212:221,1,96,2|0,0:0|0:0,0:0:0:0:
376,201,423585,2,0,L|379:296,1,96,8|0,0:0|0:0,0:0:0:0:
168,298,423877,2,2,L|73:295,3,96,2|2|10|2,0:0|0:0|0:0|0:0,0:0:0:0:
284,214,424463,6,0,L|189:211,2,96,2|0|8,0:0|0:0|0:0,0:0:0:0:
72,296,424902,2,0,P|64:201|142:172,1,192,2|2,0:0|0:0,0:0:0:0:
354,192,425341,2,0,L|357:287,1,96,8|0,0:0|0:0,0:0:0:0:
145,221,425633,6,0,L|352:220,1,192,4|8,0:0|0:0,0:0:0:0:
241,191,426072,1,0,0:0:0:0:
398,142,426219,2,0,L|303:139,2,96,2|2|8,0:0|0:0|0:0,0:0:0:0:
109,134,426804,6,0,P|88:227|158:275,1,192,4|8,0:0|0:0,0:0:0:0:
371,295,427243,2,0,P|419:199|377:137,1,192,2|2,0:0|0:0,0:0:0:0:
165,127,427682,2,0,L|161:237,1,96,8|0,0:0|0:0,0:0:0:0:
374,226,427975,6,0,L|167:225,1,192,4|8,0:0|0:0,0:0:0:0:
375,161,428560,2,0,L|280:158,2,96,2|0|8,0:0|0:0|0:0,0:0:0:0:
163,109,428999,2,0,L|160:204,1,96,4|0,0:0|0:0,0:0:0:0:
305,208,429292,2,0,L|302:303,1,96,8|8,0:0|0:0,0:0:0:0:
156,315,429585,1,0,0:0:0:0:
319,339,429731,5,8,0:0:0:0:
381,316,429804,1,0,0:0:0:0:
319,296,429877,1,0,0:0:0:0:
156,315,430024,1,8,0:0:0:0:
94,292,430097,1,0,0:0:0:0:
156,272,430170,1,0,0:0:0:0:
395,272,430316,1,4,0:0:0:0:
256,160,448463,5,0,0:0:0:0:
144,160,448613,1,0,0:0:0:0:
256,96,448763,1,0,0:0:0:0:
368,96,448913,1,0,0:0:0:0:
144,96,449063,5,2,0:0:0:0:
336,96,449355,1,2,0:0:0:0:
408,128,449453,1,0,0:0:0:0:
408,192,449550,1,0,0:0:0:0:
336,224,449648,1,2,0:0:0:0:
144,96,449941,5,2,0:0:0:0:
216,104,450038,1,0,0:0:0:0:
288,112,450136,1,0,0:0:0:0:
216,104,450233,1,2,0:0:0:0:
96,160,450526,1,2,0:0:0:0:
24,128,450623,1,0,0:0:0:0:
96,160,450721,1,0,0:0:0:0:
256,168,450819,5,2,0:0:0:0:
328,200,450916,1,0,0:0:0:0:
256,232,451014,1,0,0:0:0:0:
360,200,451111,1,2,0:0:0:0:
432,232,451208,1,0,0:0:0:0:
360,264,451306,1,0,0:0:0:0:
200,256,451404,6,0,P|104:248|72:168,1,192,2|2,0:0|0:0,0:0:0:0:
144,144,451794,1,0,0:0:0:0:
72,120,451892,1,0,0:0:0:0:
232,120,451989,1,2,0:0:0:0:
232,120,452282,1,2,0:0:0:0:
160,144,452380,1,0,0:0:0:0:
232,168,452477,1,0,0:0:0:0:
392,168,452575,5,2,0:0:0:0:
392,168,452867,1,2,0:0:0:0:
320,192,452965,1,0,0:0:0:0:
392,216,453063,1,0,0:0:0:0:
288,216,453160,5,2,0:0:0:0:
216,200,453258,1,0,0:0:0:0:
216,128,453355,1,0,0:0:0:0:
288,104,453453,1,2,0:0:0:0:
344,96,453502,1,0,0:0:0:0:
360,64,453550,1,0,0:0:0:0:
360,64,453599,1,0,0:0:0:0:
344,32,453648,1,0,0:0:0:0:
288,24,453697,1,0,0:0:0:0:
128,24,453745,6,0,P|48:56|72:144,1,192,2|2,0:0|0:0,0:0:0:0:
144,168,454136,1,0,0:0:0:0:
72,192,454233,1,0,0:0:0:0:
176,112,454331,2,0,P|272:128|312:208,1,192,2|2,0:0|0:0,0:0:0:0:
240,232,454721,1,0,0:0:0:0:
312,256,454819,1,0,0:0:0:0:
152,304,454916,6,0,P|136:216|216:168,1,192,2|2,0:0|0:0,0:0:0:0:
288,168,455306,1,0,0:0:0:0:
360,168,455404,1,0,0:0:0:0:
256,176,455502,1,2,0:0:0:0:
184,144,455599,1,0,0:0:0:0:
256,112,455697,1,0,0:0:0:0:
152,208,455794,1,2,0:0:0:0:
80,176,455891,1,0,0:0:0:0:
152,144,455989,1,0,0:0:0:0:
312,112,456087,6,0,P|408:128|440:208,1,192,2|2,0:0|0:0,0:0:0:0:
368,224,456477,1,0,0:0:0:0:
296,240,456575,1,0,0:0:0:0:
400,296,456672,2,0,P|464:224|432:144,1,192,2|2,0:0|0:0,0:0:0:0:
360,136,457063,1,0,0:0:0:0:
432,120,457160,1,0,0:0:0:0:
272,48,457258,6,0,P|200:112|240:184,1,192,2|2,0:0|0:0,0:0:0:0:
312,192,457648,1,0,0:0:0:0:
384,200,457745,1,0,0:0:0:0:
224,272,457843,5,2,0:0:0:0:
152,240,457941,1,0,0:0:0:0:
224,208,458038,1,0,0:0:0:0:
384,158,458136,1,2,0:0:0:0:
440,150,458185,1,0,0:0:0:0:
456,118,458233,1,0,0:0:0:0:
456,118,458282,1,0,0:0:0:0:
440,86,458331,1,0,0:0:0:0:
384,78,458380,1,0,0:0:0:0:
224,32,458428,6,0,P|136:56|104:144,1,192,2|2,0:0|0:0,0:0:0:0:
176,160,458819,1,0,0:0:0:0:
104,192,458916,1,0,0:0:0:0:
208,96,459014,2,0,P|296:120|328:208,1,192,2|2,0:0|0:0,0:0:0:0:
256,224,459405,1,0,0:0:0:0:
328,256,459502,1,0,0:0:0:0:
168,303,459599,6,0,P|107:228|157:162,1,192,2|2,0:0|0:0,0:0:0:0:
227,174,459989,1,0,0:0:0:0:
155,162,460087,1,0,0:0:0:0:
315,224,460184,1,2,0:0:0:0:
387,191,460282,1,0,0:0:0:0:
315,160,460380,1,0,0:0:0:0:
212,229,460477,1,2,0:0:0:0:
140,261,460575,1,0,0:0:0:0:
212,293,460673,1,0,0:0:0:0:
371,305,460770,6,0,P|443:241|403:169,1,192,2|2,0:0|0:0,0:0:0:0:
331,153,461160,1,0,0:0:0:0:
403,137,461258,1,0,0:0:0:0:
301,89,461355,2,0,P|229:153|269:225,1,192,2|2,0:0|0:0,0:0:0:0:
341,241,461745,1,0,0:0:0:0:
269,257,461843,1,0,0:0:0:0:
108,217,461941,6,0,L|292:161,1,192,2|2,0:0|0:0,0:0:0:0:
220,145,462331,1,0,0:0:0:0:
148,129,462428,1,0,0:0:0:0:
308,33,462526,1,2,0:0:0:0:
380,57,462623,1,0,0:0:0:0:
308,81,462721,1,0,0:0:0:0:
380,97,462819,1,2,0:0:0:0:
172,97,462950,1,8,0:0:0:0:
152,96,463023,1,8,0:0:0:0:
360,96,463096,6,0,P|456:120|480:200,2,192,4|4|4,0:0|0:0|0:0,0:0:0:0:
296,104,463754,1,4,0:0:0:0:
232,112,463827,1,8,0:0:0:0:
352,192,463974,1,8,0:0:0:0:
472,272,464120,1,8,0:0:0:0:
232,112,464266,5,2,0:0:0:0:
136,120,464413,2,0,P|104:208|176:256,1,192,8|0,0:0|0:0,0:0:0:0:
336,256,464852,2,0,L|344:160,1,96,8|0,0:0|0:0,0:0:0:0:
200,176,465144,2,0,L|192:96,1,48,8|0,0:0|0:0,0:0:0:0:
344,104,465291,1,0,0:0:0:0:
128,64,465437,6,0,P|100:152|168:208,1,192,4|2,0:0|0:0,0:0:0:0:
240,224,465827,1,0,0:0:0:0:
168,248,465925,1,0,0:0:0:0:
336,248,466022,1,8,0:0:0:0:
208,248,466217,2,0,P|176:192|208:144,1,128,2|0,0:0|0:0,0:0:0:0:
272,144,466461,1,0,0:0:0:0:
336,144,466510,1,0,0:0:0:0:
176,144,466608,6,0,P|144:196|176:247,1,128,8|0,0:0|0:0,0:0:0:0:
336,248,466900,1,2,0:0:0:0:
264,216,466998,1,0,0:0:0:0:
336,184,467096,1,0,0:0:0:0:
176,166,467193,5,8,0:0:0:0:
255,136,467291,1,0,0:0:0:0:
334,107,467389,1,0,0:0:0:0:
137,132,467486,1,2,0:0:0:0:
209,100,467584,1,0,0:0:0:0:
137,68,467682,1,0,0:0:0:0:
416,112,467778,5,4,0:0:0:0:
96,112,468949,5,4,0:0:0:0:
416,112,469535,5,4,0:0:0:0:
96,112,469754,1,4,0:0:0:0:
416,112,469974,1,4,0:0:0:0:
352,112,470047,1,0,0:0:0:0:
96,112,470120,6,0,P|61:202|128:246,1,192,4|0,0:0|0:0,0:0:0:0:
192,247,470486,1,0,0:0:0:0:
350,227,470559,1,2,0:0:0:0:
413,224,470632,1,0,0:0:0:0:
245,285,470705,5,4,0:0:0:0:
150,242,470852,1,2,0:0:0:0:
288,192,470998,1,2,0:0:0:0:
144,160,471144,1,2,0:0:0:0:
368,160,471291,6,0,B|464:160|464:64|368:64,1,192,8|2,0:0|0:0,0:0:0:0:
256,64,471730,1,2,0:0:0:0:
144,64,471876,2,0,B|48:64|48:160|144:160,1,192,2|2,0:0|0:0,0:0:0:0:
400,64,472461,6,0,L|112:64,1,288,6|2,0:0|0:0,0:0:0:0:
400,128,473047,1,8,0:0:0:0:
256,128,473266,1,2,0:0:0:0:
112,128,473486,1,2,0:0:0:0:
400,192,473632,6,0,P|400:240|288:304,1,192,6|0,0:0|0:0,0:0:0:0:
400,304,474071,1,0,0:0:0:0:
112,192,474217,2,0,P|112:240|224:304,1,192,8|0,0:0|0:0,0:0:0:0:
112,304,474656,1,2,0:0:0:0:
400,304,474803,6,0,P|480:272|480:176,1,192,6|0,0:0|0:0,0:0:0:0:
400,160,475242,1,0,0:0:0:0:
112,160,475388,1,10,0:0:0:0:
256,160,475608,1,2,0:0:0:0:
400,160,475827,1,2,0:0:0:0:
112,160,475974,6,0,P|176:96|272:95,1,192,6|0,0:0|0:0,0:0:0:0:
112,96,476413,1,2,0:0:0:0:
400,96,476559,1,8,0:0:0:0:
266,157,476705,1,8,0:0:0:0:
266,226,476852,1,2,0:0:0:0:
400,288,476998,1,2,0:0:0:0:
112,288,477144,6,0,L|400:288,1,288,6|2,0:0|0:0,0:0:0:0:
112,192,477730,2,0,L|256:192,2,144,10|2|2,0:0|0:0|0:0,0:0:0:0:
400,192,478315,2,0,L|112:192,1,288,6|2,0:0|0:0,0:0:0:0:
400,96,478900,2,0,P|304:96|240:160,1,192,10|2,0:0|0:0,0:0:0:0:
384,160,479339,1,2,0:0:0:0:
112,96,479486,6,0,P|208:96|272:160,1,192,6|0,0:0|0:0,0:0:0:0:
128,160,479925,1,2,0:0:0:0:
400,224,480071,2,0,L|256:224,2,144,10|2|2,0:0|0:0|0:0,0:0:0:0:
112,224,480656,6,0,P|152:136|240:128,1,192,6|0,0:0|0:0,0:0:0:0:
112,112,481096,1,2,0:0:0:0:
400,224,481242,2,0,P|360:136|272:128,1,192,10|2,0:0|0:0,0:0:0:0:
400,112,481682,1,2,0:0:0:0:
88,80,481827,6,0,L|280:80,1,192,6|0,0:0|0:0,0:0:0:0:
136,144,482266,1,2,0:0:0:0:
424,80,482413,1,8,0:0:0:0:
290,79,482559,1,2,0:0:0:0:
290,191,482705,1,0,0:0:0:0:
425,191,482852,1,2,0:0:0:0:
87,191,482998,5,4,0:0:0:0:
312,160,483291,1,6,0:0:0:0:
88,160,483583,1,6,0:0:0:0:
32,96,483876,1,2,0:0:0:0:
160,96,484022,1,2,0:0:0:0:
448,96,484169,6,0,P|454:157|401:184,1,127.679994739746,4|0,0:0|0:0,0:0:0:0:
256,152,484364,2,0,P|202:180|209:240,1,127.679994739746
367,247,484559,2,0,L|367:151,1,85.1199964931642,2|0,0:0|0:0,0:0:0:0:
64,96,484754,6,0,P|58:157|111:184,1,127.679994739746,8|0,0:0|0:0,0:0:0:0:
256,152,484949,2,0,P|310:180|303:240,1,127.679994739746
144,247,485144,2,0,L|144:151,1,85.1199964931642,2|0,0:0|0:0,0:0:0:0:
459,91,485339,6,0,P|426:146|368:162,1,127.679994739746,8|0,0:0|0:0,0:0:0:0:
144,162,485535,2,0,P|84:145|53:92,1,127.679994739746,2|0,0:0|0:0,0:0:0:0:
367,161,485730,2,0,L|436:112,1,85.1199964931642,2|0,0:0|0:0,0:0:0:0:
52,91,485925,6,0,P|85:146|143:162,1,127.679994739746,8|0,0:0|0:0,0:0:0:0:
460,91,486120,2,0,P|427:146|369:162,1,127.679994739746,2|0,0:0|0:0,0:0:0:0:
51,37,486315,2,0,L|120:86,1,85.1199964931642,2|0,0:0|0:0,0:0:0:0:
461,37,486510,5,4,0:0:0:0:
496,95,486583,1,0,0:0:0:0:
501,158,486656,1,0,0:0:0:0:
474,221,486730,1,0,0:0:0:0:
412,248,486803,1,0,0:0:0:0:
340,257,486876,1,0,0:0:0:0:
149,249,486949,5,2,0:0:0:0:
81,228,487022,1,0,0:0:0:0:
150,185,487096,1,0,0:0:0:0:
218,206,487169,1,0,0:0:0:0:
150,126,487242,1,0,0:0:0:0:
82,105,487315,1,0,0:0:0:0:
273,79,487388,5,2,0:0:0:0:
341,100,487461,1,0,0:0:0:0:
150,126,487535,1,2,0:0:0:0:
82,105,487608,1,0,0:0:0:0:
273,79,487681,5,6,0:0:0:0:
341,100,487754,1,0,0:0:0:0:
364,167,487827,1,0,0:0:0:0:
335,230,487900,1,0,0:0:0:0:
271,245,487974,1,0,0:0:0:0:
203,230,488047,1,2,0:0:0:0:
394,300,488120,1,0,0:0:0:0:
462,321,488193,1,0,0:0:0:0:
239,340,488266,5,2,0:0:0:0:
171,319,488339,1,0,0:0:0:0:
103,298,488413,1,0,0:0:0:0:
293,285,488486,1,2,0:0:0:0:
361,264,488559,1,0,0:0:0:0:
293,285,488633,1,0,0:0:0:0:
104,211,488705,1,2,0:0:0:0:
172,190,488779,1,0,0:0:0:0:
363,206,488852,5,6,0:0:0:0:
431,185,488926,1,0,0:0:0:0:
362,143,488998,1,0,0:0:0:0:
294,164,489072,1,0,0:0:0:0:
226,121,489144,1,0,0:0:0:0:
294,100,489218,1,0,0:0:0:0:
454,102,489291,1,2,0:0:0:0:
386,81,489365,1,0,0:0:0:0:
195,89,489437,5,0,0:0:0:0:
128,69,489511,1,0,0:0:0:0:
348,186,489583,1,2,0:0:0:0:
415,206,489657,1,0,0:0:0:0:
348,252,489730,1,0,0:0:0:0:
281,231,489804,1,0,0:0:0:0:
92,236,489876,1,2,0:0:0:0:
159,257,489950,1,0,0:0:0:0:
379,322,490022,5,6,0:0:0:0:
402,257,490096,1,0,0:0:0:0:
388,186,490169,1,0,0:0:0:0:
342,127,490242,1,0,0:0:0:0:
276,92,490315,1,0,0:0:0:0:
203,88,490388,1,0,0:0:0:0:
394,77,490461,1,2,0:0:0:0:
461,98,490535,1,0,0:0:0:0:
238,140,490608,5,6,0:0:0:0:
171,161,490682,1,0,0:0:0:0:
105,183,490754,1,0,0:0:0:0:
172,196,490828,1,0,0:0:0:0:
241,213,490900,1,0,0:0:0:0:
170,236,490974,1,0,0:0:0:0:
102,254,491047,1,0,0:0:0:0:
170,278,491120,1,0,0:0:0:0:
392,287,491193,5,4,0:0:0:0:
402,221,491266,1,0,0:0:0:0:
386,157,491339,1,0,0:0:0:0:
341,109,491413,1,0,0:0:0:0:
280,78,491486,1,0,0:0:0:0:
210,69,491559,1,0,0:0:0:0:
401,54,491632,1,2,0:0:0:0:
471,63,491705,1,0,0:0:0:0:
280,147,491778,5,6,0:0:0:0:
210,156,491851,1,0,0:0:0:0:
140,165,491925,1,0,0:0:0:0:
299,225,491998,1,2,0:0:0:0:
369,234,492071,1,0,0:0:0:0:
299,225,492145,1,0,0:0:0:0:
110,244,492217,1,2,0:0:0:0:
40,253,492291,1,0,0:0:0:0:
263,333,492364,5,6,0:0:0:0:
331,310,492437,1,0,0:0:0:0:
369,234,492510,1,0,0:0:0:0:
335,166,492583,1,0,0:0:0:0:
272,129,492656,1,0,0:0:0:0:
202,117,492730,1,0,0:0:0:0:
394,60,492803,1,2,0:0:0:0:
406,130,492877,1,0,0:0:0:0:
183,50,492949,5,6,0:0:0:0:
115,73,493022,1,0,0:0:0:0:
78,142,493095,1,0,0:0:0:0:
111,217,493168,1,0,0:0:0:0:
174,254,493241,1,0,0:0:0:0:
244,266,493315,1,0,0:0:0:0:
52,323,493388,1,2,0:0:0:0:
40,253,493462,1,0,0:0:0:0:
269,201,493535,5,6,0:0:0:0:
339,189,493609,1,0,0:0:0:0:
409,177,493681,1,0,0:0:0:0:
479,165,493754,1,0,0:0:0:0:
409,177,493827,1,0,0:0:0:0:
339,189,493900,1,0,0:0:0:0:
139,177,493974,1,2,0:0:0:0:
69,189,494047,1,0,0:0:0:0:
299,288,494120,5,6,0:0:0:0:
369,276,494193,1,0,0:0:0:0:
299,288,494266,1,0,0:0:0:0:
101,284,494339,1,2,0:0:0:0:
171,296,494412,1,0,0:0:0:0:
241,308,494486,1,0,0:0:0:0:
438,228,494559,1,2,0:0:0:0:
368,216,494633,1,0,0:0:0:0:
142,247,494705,5,6,0:0:0:0:
72,235,494779,1,0,0:0:0:0:
142,186,494852,1,0,0:0:0:0:
212,198,494926,1,0,0:0:0:0:
282,210,494998,1,0,0:0:0:0:
352,222,495071,1,0,0:0:0:0:
161,168,495144,1,2,0:0:0:0:
91,156,495217,1,0,0:0:0:0:
256,43,495291,5,4,0:0:0:0:
321,53,495365,1,0,0:0:0:0:
256,43,495437,1,0,0:0:0:0:
191,53,495511,1,0,0:0:0:0:
379,47,495583,1,6,0:0:0:0:
449,59,495657,1,0,0:0:0:0:
133,47,495730,1,6,0:0:0:0:
63,59,495804,1,0,0:0:0:0:
442,184,495876,5,4,0:0:0:0:
340,231,496022,1,8,0:0:0:0:
470,207,496169,1,0,0:0:0:0:
493,259,496242,1,0,0:0:0:0:
429,255,496315,1,8,0:0:0:0:
198,236,496461,6,0,L|69:259,1,127.679994739746,2|0,0:0|0:0,0:0:0:0:
266,302,496681,2,0,L|392:279,1,127.679994739746,2|0,0:0|0:0,0:0:0:0:
198,236,496900,2,0,L|136:247,1,63.8399973698732,2|0,0:0|0:0,0:0:0:0:
329,262,497047,6,0,L|455:239,1,127.679994739746,4|8,0:0|0:0,0:0:0:0:
315,169,497339,2,0,L|253:180,1,63.8399973698732
414,157,497486,2,0,L|402:94,1,63.8399973698732,10|0,0:0|0:0,0:0:0:0:
187,105,497632,2,0,L|125:116,2,63.8399973698732,2|0|8,0:0|0:0|0:0,0:0:0:0:
312,126,497925,2,0,L|186:104,1,127.679994739746,0|8,0:0|0:0,0:0:0:0:
417,259,498217,6,0,L|291:237,1,127.679994739746,4|8,0:0|0:0,0:0:0:0:
417,259,498510,2,0,L|479:248,2,63.8399973698732,0|0|8,0:0|0:0|0:0,0:0:0:0:
185,303,498803,6,0,L|162:174,1,127.679994739746,2|0,0:0|0:0,0:0:0:0:
353,275,499022,2,2,L|376:146,1,127.679994739746,2|0,0:0|0:0,0:0:0:0:
185,303,499242,2,0,L|171:222,1,63.8399973698732,2|0,0:0|0:0,0:0:0:0:
367,185,499388,6,0,L|241:163,2,127.679994739746,4|8|0,0:0|0:0|0:0,0:0:0:0:
136,209,499827,1,10,0:0:0:0:
376,209,499974,2,0,L|438:198,2,63.8399973698732,2|0|8,0:0|0:0|0:0,0:0:0:0:
250,187,500266,2,2,L|376:209,1,127.679994739746,2|10,0:0|0:0,0:0:0:0:
145,289,500559,6,0,L|19:267,1,127.679994739746,4|8,0:0|0:0,0:0:0:0:
145,289,500852,2,0,L|184:232,1,63.8399973698732,2|0,0:0|0:0,0:0:0:0:
19,267,500998,2,0,L|41:141,1,127.679994739746,10|0,0:0|0:0,0:0:0:0:
323,103,501291,2,0,L|197:125,1,127.679994739746,8|0,0:0|0:0,0:0:0:0:
155,138,501510,1,0,0:0:0:0:
357,138,501583,1,8,0:0:0:0:
114,67,501730,6,0,P|70:114|94:164,1,127.679994739746,4|0,0:0|0:0,0:0:0:0:
254,173,501949,1,0,0:0:0:0:
413,180,502022,2,0,P|457:227|433:277,1,127.679994739746,4|0,0:0|0:0,0:0:0:0:
252,292,502242,1,0,0:0:0:0:
73,311,502315,2,0,P|29:264|53:214,1,127.679994739746,4|0,0:0|0:0,0:0:0:0:
319,239,502608,2,8,L|193:217,1,127.679994739746,2|8,0:0|0:0,0:0:0:0:
459,213,502900,5,6,0:0:0:0:
480,152,502974,1,0,0:0:0:0:
264,240,503047,1,0,0:0:0:0:
203,219,503121,1,0,0:0:0:0:
416,168,503193,1,0,0:0:0:0:
437,107,503267,1,2,0:0:0:0:
221,195,503340,1,0,0:0:0:0:
160,174,503414,1,0,0:0:0:0:
408,64,503486,5,2,0:0:0:0:
480,88,503560,1,0,0:0:0:0:
408,64,503632,1,0,0:0:0:0:
216,80,503705,1,2,0:0:0:0:
144,104,503779,1,0,0:0:0:0:
216,80,503851,1,0,0:0:0:0:
408,64,503925,1,2,0:0:0:0:
480,88,503999,1,0,0:0:0:0:
104,64,504071,5,6,0:0:0:0:
32,88,504145,1,0,0:0:0:0:
408,64,504217,1,0,0:0:0:0:
480,88,504291,1,0,0:0:0:0:
176,40,504364,1,2,0:0:0:0:
120,83,504438,1,0,0:0:0:0:
336,40,504510,1,0,0:0:0:0:
392,83,504583,1,0,0:0:0:0:
144,104,504656,2,0,P|56:144|56:232,1,192,4|2,0:0|0:0,0:0:0:0:
456,232,505242,5,4,0:0:0:0:
480,152,505388,1,8,0:0:0:0:
352,168,505535,1,0,0:0:0:0:
480,152,505681,1,8,0:0:0:0:
251,104,505827,1,0,0:0:0:0:
315,96,505900,1,0,0:0:0:0:
379,88,505974,1,8,0:0:0:0:
251,104,506120,1,0,0:0:0:0:
379,88,506266,1,8,0:0:0:0:
150,40,506412,5,0,0:0:0:0:
214,32,506485,1,0,0:0:0:0:
278,24,506559,1,8,0:0:0:0:
150,40,506705,1,0,0:0:0:0:
278,24,506852,1,8,0:0:0:0:
48,169,506998,1,0,0:0:0:0:
112,161,507071,1,0,0:0:0:0:
176,153,507145,1,8,0:0:0:0:
48,169,507291,1,0,0:0:0:0:
176,153,507438,1,8,0:0:0:0:
404,153,507583,5,0,0:0:0:0:
276,181,507730,1,8,0:0:0:0:
276,248,507876,1,0,0:0:0:0:
404,220,508023,1,8,0:0:0:0:
176,153,508169,1,0,0:0:0:0:
112,145,508243,1,0,0:0:0:0:
176,153,508315,1,8,0:0:0:0:
304,161,508461,1,0,0:0:0:0:
176,153,508608,1,8,0:0:0:0:
404,220,508754,5,0,0:0:0:0:
468,212,508828,1,0,0:0:0:0:
404,220,508900,1,8,0:0:0:0:
276,228,509046,1,0,0:0:0:0:
404,220,509193,1,8,0:0:0:0:
176,153,509339,1,0,0:0:0:0:
240,145,509413,1,0,0:0:0:0:
304,137,509486,1,8,0:0:0:0:
176,153,509632,1,0,0:0:0:0:
304,137,509778,1,8,0:0:0:0:
35,198,509925,5,4,0:0:0:0:
264,204,510071,1,8,0:0:0:0:
33,264,510217,1,0,0:0:0:0:
262,270,510363,1,8,0:0:0:0:
492,274,510510,1,0,0:0:0:0:
493,211,510583,1,0,0:0:0:0:
496,144,510656,1,8,0:0:0:0:
365,136,510803,1,0,0:0:0:0:
496,144,510949,1,8,0:0:0:0:
256,232,511095,5,4,0:0:0:0:
320,229,511168,1,0,0:0:0:0:
384,225,511241,1,8,0:0:0:0:
255,169,511388,1,0,0:0:0:0:
386,161,511534,1,8,0:0:0:0:
152,120,511681,1,0,0:0:0:0:
88,123,511754,1,0,0:0:0:0:
152,120,511827,1,8,0:0:0:0:
283,112,511974,1,0,0:0:0:0:
152,120,512120,1,8,0:0:0:0:
384,248,512266,5,4,0:0:0:0:
448,251,512339,1,0,0:0:0:0:
384,248,512412,1,8,0:0:0:0:
253,240,512559,1,0,0:0:0:0:
384,248,512705,1,8,0:0:0:0:
219,238,512852,1,0,0:0:0:0:
384,248,512998,1,8,0:0:0:0:
157,262,513144,1,0,0:0:0:0:
382,183,513291,1,8,0:0:0:0:
104,264,513437,5,4,0:0:0:0:
72,200,513510,1,0,0:0:0:0:
104,144,513583,1,0,0:0:0:0:
166,128,513656,1,0,0:0:0:0:
346,128,513730,1,0,0:0:0:0:
376,184,513803,1,0,0:0:0:0:
166,128,513876,1,0,0:0:0:0:
136,184,513949,1,0,0:0:0:0:
408,120,514022,5,2,0:0:0:0:
440,184,514095,1,0,0:0:0:0:
408,240,514168,1,0,0:0:0:0:
346,256,514241,1,0,0:0:0:0:
166,256,514315,1,8,0:0:0:0:
102,240,514388,1,0,0:0:0:0:
346,256,514461,1,8,0:0:0:0:
410,240,514534,1,0,0:0:0:0:
166,256,514608,5,4,0:0:0:0:
38,235,514754,1,8,0:0:0:0:
167,190,514900,1,0,0:0:0:0:
39,169,515046,1,8,0:0:0:0:
270,141,515193,1,0,0:0:0:0:
206,130,515266,1,0,0:0:0:0:
142,120,515339,1,8,0:0:0:0:
271,207,515486,1,0,0:0:0:0:
142,186,515632,1,8,0:0:0:0:
371,200,515778,5,4,0:0:0:0:
307,189,515851,1,0,0:0:0:0:
243,179,515924,1,8,0:0:0:0:
372,266,516071,1,0,0:0:0:0:
499,247,516217,1,8,0:0:0:0:
268,161,516364,1,0,0:0:0:0:
332,150,516437,1,0,0:0:0:0:
396,140,516510,1,8,0:0:0:0:
267,227,516657,1,0,0:0:0:0:
396,206,516803,1,8,0:0:0:0:
167,266,516949,5,4,0:0:0:0:
38,245,517095,1,8,0:0:0:0:
167,266,517242,1,0,0:0:0:0:
296,245,517388,1,8,0:0:0:0:
65,149,517535,1,0,0:0:0:0:
129,138,517608,1,0,0:0:0:0:
193,128,517681,1,8,0:0:0:0:
65,149,517827,1,0,0:0:0:0:
193,128,517974,1,8,0:0:0:0:
321,103,518120,5,4,0:0:0:0:
385,120,518193,1,0,0:0:0:0:
412,182,518266,1,0,0:0:0:0:
381,243,518339,1,0,0:0:0:0:
216,256,518413,2,0,L|88:256,1,127.679994739746,2|0,0:0|0:0,0:0:0:0:
280,256,518632,6,0,L|288:192,1,63.8399973698732
128,176,518778,2,0,L|56:176,2,63.8399973698732
288,176,518998,2,0,L|416:176,1,127.679994739746,8|0,0:0|0:0,0:0:0:0:
352,176,519217,1,0,0:0:0:0:
160,176,519291,5,4,0:0:0:0:
96,152,519364,1,0,0:0:0:0:
72,88,519437,1,0,0:0:0:0:
104,32,519510,1,0,0:0:0:0:
264,32,519583,1,0,0:0:0:0:
328,40,519656,1,0,0:0:0:0:
264,32,519730,1,0,0:0:0:0:
200,40,519803,1,0,0:0:0:0:
392,48,519876,6,0,P|448:80|440:136,1,127.679994739746,4|0,0:0|0:0,0:0:0:0:
280,144,520095,1,0,0:0:0:0:
216,152,520169,1,0,0:0:0:0:
376,200,520242,1,0,0:0:0:0:
440,208,520316,1,0,0:0:0:0:
280,256,520388,1,0,0:0:0:0:
120,296,520461,5,4,0:0:0:0:
104,232,520535,1,0,0:0:0:0:
136,176,520608,1,0,0:0:0:0:
200,160,520681,1,0,0:0:0:0:
360,160,520754,1,0,0:0:0:0:
424,176,520827,1,0,0:0:0:0:
456,232,520900,1,0,0:0:0:0:
440,296,520974,1,0,0:0:0:0:
280,312,521047,5,4,0:0:0:0:
216,296,521120,1,0,0:0:0:0:
280,280,521193,1,0,0:0:0:0:
344,264,521266,1,0,0:0:0:0:
89,271,521339,2,0,P|25:207|73:135,1,191.519992109619,4|0,0:0|0:0,0:0:0:0:
440,136,521632,5,4,0:0:0:0:
72,136,522217,1,4,0:0:0:0:
440,192,522803,1,4,0:0:0:0:
72,192,523388,1,4,0:0:0:0:
480,256,523974,5,4,0:0:0:0:
488,192,524047,1,0,0:0:0:0:
288,256,524120,1,0,0:0:0:0:
224,248,524193,1,0,0:0:0:0:
288,256,524266,5,0,0:0:0:0:
352,248,524339,1,0,0:0:0:0:
190,283,524413,1,0,0:0:0:0:
182,219,524486,1,0,0:0:0:0:
342,224,524559,5,0,0:0:0:0:
350,160,524632,1,0,0:0:0:0:
170,224,524705,1,0,0:0:0:0:
107,211,524778,1,0,0:0:0:0:
300,141,524852,5,0,0:0:0:0:
363,128,524925,1,0,0:0:0:0:
136,96,524998,1,0,0:0:0:0:
193,85,525071,1,0,0:0:0:0:
423,107,525144,5,0,0:0:0:0:
430,174,525217,1,0,0:0:0:0:
236,205,525291,1,0,0:0:0:0:
169,212,525364,1,0,0:0:0:0:
360,176,525437,5,0,0:0:0:0:
367,243,525510,1,0,0:0:0:0:
173,274,525584,1,0,0:0:0:0:
106,281,525657,1,0,0:0:0:0:
329,320,525730,5,0,0:0:0:0:
396,327,525803,1,0,0:0:0:0:
236,205,525876,1,0,0:0:0:0:
169,212,525949,1,0,0:0:0:0:
425,130,526022,5,0,0:0:0:0:
368,137,526095,1,0,0:0:0:0:
144,137,526169,1,0,0:0:0:0:
87,130,526242,1,0,0:0:0:0:
425,130,526315,1,4,0:0:0:0:
200,270,526900,6,0,P|154:231|176:176,1,127.679994739746,4|0,0:0|0:0,0:0:0:0:
355,291,527095,2,0,P|407:261|396:203,1,127.679994739746,4|0,0:0|0:0,0:0:0:0:
145,272,527291,2,0,P|93:242|104:184,1,127.679994739746,4|0,0:0|0:0,0:0:0:0:
408,184,527486,1,4,0:0:0:0:
