osu file format v14

[General]
AudioFilename: uta.mp3
AudioLeadIn: 0
PreviewTime: 387511
Countdown: 0
SampleSet: Soft
StackLeniency: 0.6
Mode: 0
LetterboxInBreaks: 0
WidescreenStoryboard: 1

[Editor]
Bookmarks: 106215,124947,199946,240922,256142,267117,274800,330995,350274,407707
DistanceSpacing: 0.8
BeatDivisor: 4
GridSize: 32
TimelineZoom: 2.3

[Metadata]
Title:Uta
TitleUnicode:謳
Artist:Imperial Circus Dead Decadence
ArtistUnicode:Imperial Circus Dead Decadence
Creator:Kui
Version:xliE
Source:
Tags:nanomortis extol ou song declare express Ode To The Dreadful Sacrament 惨劇の血に赫く染まった愛と絶望の黒い死とが紡ぐ最期の物語 Sangeki no Chi ni Kagayaku Somatta Ai to Zetsubou no Kuroi Shitoga Tsumugu Saigo no Monogatari Rib:y(uhki) L.G.C. KIM Kylie Hull VAGUEDGE Another Stream Kimiko PEATH2 TOME あにょ REINO Hellnear
BeatmapID:1884258
BeatmapSetID:902507

[Difficulty]
HPDrainRate:5
CircleSize:4
OverallDifficulty:9
ApproachRate:9
SliderMultiplier:1.9
SliderTickRate:1

[Events]
//Background and Video events
0,0,"nanomortis.jpg",0,0
//Break Periods
//Storyboard Layer 0 (Background)
//Storyboard Layer 1 (Fail)
//Storyboard Layer 2 (Pass)
//Storyboard Layer 3 (Foreground)
//Storyboard Layer 4 (Overlay)
//Storyboard Sound Samples

[TimingPoints]
1641,428.571428571429,4,2,1,80,1,0
23926,458.015267175573,4,2,1,80,1,0
24842,468.75,4,2,1,80,1,8
25777,500,4,2,1,80,1,0
27777,545.454545454546,4,2,1,80,1,0
28867,555.555555555556,4,2,1,80,1,8
29973,310.880829015544,4,2,1,80,1,0
33703,292.682926829268,4,2,2,80,1,0
33703,-75.187969924812,4,2,2,80,0,0
33995,-117.647058823529,4,2,12,80,0,0
35678,-75.187969924812,4,2,1,80,0,0
35946,-75.187969924812,4,2,2,80,0,0
36337,-117.647058823529,4,2,12,80,0,0
38093,-75.187969924812,4,2,1,80,0,0
38288,-75.187969924812,4,2,2,80,0,0
38678,-117.647058823529,4,2,12,80,0,0
39849,-100,4,2,12,80,0,0
40068,-90.9090909090909,4,2,12,80,0,0
40361,-83.3333333333333,4,2,12,80,0,0
40727,-100,4,2,1,80,0,1
43068,-75.187969924812,4,2,2,80,0,0
43361,-117.647058823529,4,2,12,80,0,0
45044,-75.187969924812,4,2,1,80,0,0
45337,-75.187969924812,4,2,2,80,0,0
45702,-117.647058823529,4,2,12,80,0,0
47385,-75.187969924812,4,2,1,80,0,0
47678,-75.187969924812,4,2,2,80,0,0
48044,-117.647058823529,4,2,12,80,0,0
49215,-105.263157894737,4,2,12,80,0,0
49507,-95.2380952380952,4,2,12,80,0,0
49800,-86.9565217391304,4,2,12,80,0,0
50093,-75.187969924812,4,2,1,80,0,0
51995,-62.5,4,2,1,80,0,0
52434,-90.9090909090909,4,2,22,50,0,1
52507,-90.9090909090909,4,2,1,80,0,1
61800,-90.9090909090909,4,2,22,80,0,1
61873,-90.9090909090909,4,2,1,80,0,1
65605,-76.9230769230769,4,2,1,80,0,1
66410,-90.9090909090909,4,2,1,80,0,1
68824,-111.111111111111,4,2,1,80,0,0
75849,-100,4,2,1,80,0,0
84922,-68.9655172413793,4,2,1,80,0,0
85215,-100,4,2,1,80,0,0
87190,-62.5,4,2,1,80,0,0
87556,-100,4,2,22,80,0,0
87702,-100,4,2,1,80,0,0
96044,-68.9655172413793,4,2,1,80,0,0
96556,-58.8235294117647,4,2,1,80,0,0
96922,-90.9090909090909,4,2,22,80,0,0
96995,-90.9090909090909,4,2,1,80,0,0
103215,-95.2380952380952,4,2,1,80,0,0
105117,-76.9230769230769,4,2,1,80,0,0
105337,-90.9090909090909,4,2,1,80,0,0
105995,-58.8235294117647,4,2,1,80,0,0
106288,-105.263157894737,4,2,1,80,0,0
114263,-83.3333333333333,4,2,1,80,0,0
114702,-105.263157894737,4,2,1,80,0,0
117190,-76.9230769230769,4,2,1,80,0,0
117629,-105.263157894737,4,2,1,80,0,0
123629,-90.9090909090909,4,2,1,80,0,0
124068,-105.263157894737,4,2,1,80,0,0
127288,-95.2380952380952,4,2,1,80,0,0
128459,-105.263157894737,4,2,1,80,0,0
132995,-83.3333333333333,4,2,1,80,0,0
133361,-105.263157894737,4,2,1,80,0,0
134385,-95.2380952380952,4,2,1,80,0,0
143751,-83.3333333333333,4,2,22,80,0,1
143824,-83.3333333333333,4,2,1,80,0,1
161312,-90.9090909090909,4,2,1,80,0,0
162483,-90.9090909090909,4,2,1,80,0,1
163581,-90.9090909090909,4,2,23,80,0,1
163727,-90.9090909090909,4,2,1,80,0,1
165922,-90.9090909090909,4,2,23,80,0,1
166068,-90.9090909090909,4,2,1,80,0,1
168263,-90.9090909090909,4,2,23,80,0,1
168410,-90.9090909090909,4,2,1,80,0,1
170605,-90.9090909090909,4,2,23,80,0,1
170751,-90.9090909090909,4,2,1,80,0,1
172946,-90.9090909090909,4,2,23,80,0,1
173093,-90.9090909090909,4,2,1,80,0,1
175288,-90.9090909090909,4,2,23,80,0,1
175434,-90.9090909090909,4,2,1,80,0,1
177629,-90.9090909090909,4,2,23,80,0,1
177776,-90.9090909090909,4,2,1,80,0,1
180629,-95.2380952380952,4,2,1,80,0,0
181215,-90.9090909090909,4,2,1,80,0,1
185605,-68.9655172413793,4,2,1,80,0,1
185898,-90.9090909090909,4,2,1,80,0,1
190288,-68.9655172413793,4,2,1,80,0,1
190654,-90.9090909090909,4,2,1,80,0,1
194971,-74.0740740740741,4,2,1,80,0,1
195263,-90.9090909090909,4,2,1,80,0,1
199946,-100,4,2,1,80,0,1
204556,-95.2380952380952,4,2,1,80,0,1
204849,-95.2380952380952,4,2,1,60,0,1
205288,-95.2380952380952,4,2,1,80,0,1
206020,-95.2380952380952,4,2,1,60,0,1
206459,-95.2380952380952,4,2,1,80,0,1
206971,-100,4,2,1,80,0,1
212898,-100,4,2,1,60,0,1
213337,-100,4,2,1,80,0,1
213556,-95.2380952380952,4,2,1,80,0,1
213776,-95.2380952380952,4,2,1,60,0,1
213922,-95.2380952380952,4,2,1,80,0,1
213995,-100,4,2,1,80,0,1
217434,-83.3333333333333,4,2,1,80,0,1
217873,-100,4,2,1,80,0,1
218678,-95.2380952380952,4,2,1,80,0,1
221020,-86.9565217391304,4,2,1,80,0,1
221459,-95.2380952380952,4,2,1,80,0,1
222776,-68.9655172413793,4,2,1,80,0,1
223361,-95.2380952380952,4,2,1,80,0,1
228044,-80,4,2,1,80,0,1
228556,-95.2380952380952,4,2,1,80,0,1
232142,-80,4,2,1,80,0,1
232654,-95.2380952380952,4,2,1,80,0,1
235946,-80,4,2,1,80,0,1
237410,-100,4,2,1,80,0,0
244361,-90.9090909090909,4,2,1,80,0,0
245971,-74.0740740740741,4,2,1,80,0,0
246483,-61.3496932515337,4,2,1,80,0,0
246776,-100,4,2,22,80,0,0
246849,-100,4,2,1,80,0,0
251385,-83.3333333333333,4,2,1,80,0,0
251824,-100,4,2,1,80,0,0
254971,-83.3333333333333,4,2,1,80,0,0
256142,-105.263157894737,4,2,1,80,0,0
264117,-83.3333333333333,4,2,1,80,0,0
264556,-105.263157894737,4,2,1,80,0,0
267117,-76.9230769230769,4,2,1,80,0,0
267483,-105.263157894737,4,2,1,80,0,0
273483,-90.9090909090909,4,2,1,80,0,0
273922,-105.263157894737,4,2,1,80,0,0
274873,-200,4,2,12,90,0,0
282995,-133.333333333333,4,2,1,80,0,0
284239,-117.647058823529,4,2,1,80,0,0
284434,-117.647058823529,4,2,1,50,0,0
284629,-117.647058823529,4,2,1,80,0,0
285605,-117.647058823529,4,2,1,50,0,0
285800,-117.647058823529,4,2,1,80,0,0
286776,-117.647058823529,4,2,1,50,0,0
286971,-117.647058823529,4,2,1,80,0,0
287946,-117.647058823529,4,2,1,50,0,0
288142,-117.647058823529,4,2,1,80,0,0
288702,-100,4,2,1,80,0,0
293239,-66.6666666666667,4,2,1,80,0,0
293605,-90.9090909090909,4,2,23,80,0,1
293751,-90.9090909090909,4,2,1,80,0,1
295873,-90.9090909090909,4,2,23,80,0,1
296020,-90.9090909090909,4,2,1,80,0,1
298215,-90.9090909090909,4,2,23,80,0,1
298361,-90.9090909090909,4,2,1,80,0,1
300556,-90.9090909090909,4,2,23,80,0,1
300702,-90.9090909090909,4,2,1,80,0,1
302898,-90.9090909090909,4,2,23,80,0,1
303044,-90.9090909090909,4,2,1,80,0,1
305239,-90.9090909090909,4,2,23,80,0,1
305385,-90.9090909090909,4,2,1,80,0,1
307581,-90.9090909090909,4,2,23,80,0,1
307727,-90.9090909090909,4,2,1,80,0,1
311751,-90.9090909090909,4,2,1,80,0,0
312337,-86.9565217391304,4,2,1,80,0,1
313434,-86.9565217391304,4,2,23,80,0,1
313581,-86.9565217391304,4,2,1,80,0,1
315776,-86.9565217391304,4,2,23,80,0,1
315922,-86.9565217391304,4,2,1,80,0,1
318117,-86.9565217391304,4,2,23,80,0,1
318263,-86.9565217391304,4,2,1,80,0,1
320459,-86.9565217391304,4,2,23,80,0,1
320605,-86.9565217391304,4,2,1,80,0,1
321702,-90.9090909090909,4,2,1,80,0,1
322800,-90.9090909090909,4,2,23,80,0,1
322946,-90.9090909090909,4,2,1,80,0,1
325142,-90.9090909090909,4,2,23,80,0,1
325288,-90.9090909090909,4,2,1,80,0,1
327483,-90.9090909090909,4,2,23,80,0,1
327629,-90.9090909090909,4,2,1,80,0,1
331068,300,4,2,1,80,1,0
349068,-142.857142857143,4,2,12,70,0,0
368268,292.682926829268,4,2,12,70,1,0
368268,-111.111111111111,4,2,12,70,0,0
368487,-111.111111111111,4,2,1,80,0,0
369658,-111.111111111111,4,2,1,60,0,0
369804,-111.111111111111,4,2,1,80,0,0
377633,-80,4,2,1,80,0,0
378072,-111.111111111111,4,2,1,80,0,0
387511,-100,4,2,1,80,0,0
388170,-100,4,2,1,80,0,1
406828,-109.89010989011,4,2,2,80,0,1
408877,-109.89010989011,4,2,1,80,0,1
409243,-125,4,2,1,80,0,0
409463,-125,4,2,1,40,0,0
409609,-125,4,2,1,80,0,0
410633,-125,4,2,1,40,0,0
410780,-125,4,2,1,80,0,0
410926,-125,4,2,1,40,0,0
411072,-125,4,2,1,80,0,0
411585,-90.9090909090909,4,2,1,80,0,1
415463,-66.6666666666667,4,2,1,80,0,1
415902,-90.9090909090909,4,2,1,80,0,1
424389,-76.9230769230769,4,2,1,80,0,1
424828,-71.4285714285714,4,2,1,80,0,1
425267,-90.9090909090909,4,2,1,80,0,1
430316,-200,4,2,1,80,0,0
430389,-200,4,2,99,5,0,0
446414,-200,4,2,12,40,0,0
446926,-200,4,2,12,10,0,0
447072,-200,4,2,12,40,0,0
447219,-200,4,2,12,10,0,0
447365,-200,4,2,12,40,0,0
447804,-200,4,2,12,50,0,0
448463,300,4,2,12,60,1,8
448463,-200,4,2,12,60,0,0
449063,292.682926829268,4,2,12,70,1,0
449063,-153.846153846154,4,2,12,70,0,0
462950,292.682926829268,4,2,1,80,1,8
463096,292.682926829268,4,2,1,80,1,0
463096,-133.333333333333,4,2,1,80,0,0
465071,-133.333333333333,4,2,2,80,0,0
465437,-125,4,2,1,80,0,0
466022,-125,4,2,2,80,0,0
467778,-125,4,2,1,80,0,0
470120,-111.111111111111,4,2,1,80,0,0
472461,-111.111111111111,4,2,1,80,0,1
484169,-90.9090909090909,4,2,1,80,0,1
484754,-83.3333333333333,4,2,1,80,0,1
485339,-76.9230769230769,4,2,1,80,0,1
486510,-86.9565217391304,4,2,1,80,0,1
487608,-86.9565217391304,4,2,23,80,0,1
487754,-86.9565217391304,4,2,1,80,0,1
489949,-86.9565217391304,4,2,23,80,0,1
490096,-86.9565217391304,4,2,1,80,0,1
492291,-86.9565217391304,4,2,23,80,0,1
492437,-86.9565217391304,4,2,1,80,0,1
494632,-86.9565217391304,4,2,23,80,0,1
494778,-86.9565217391304,4,2,1,80,0,1
496974,-86.9565217391304,4,2,23,80,0,1
497120,-86.9565217391304,4,2,1,80,0,1
499315,-86.9565217391304,4,2,23,80,0,1
499461,-86.9565217391304,4,2,1,80,0,1
501656,-86.9565217391304,4,2,23,80,0,1
501803,-86.9565217391304,4,2,1,80,0,1
504656,-86.9565217391304,4,2,1,80,0,0
505242,-86.9565217391304,4,2,1,80,0,1
521632,-80,4,2,1,80,0,1
521852,-80,4,2,1,40,0,1
521998,-80,4,2,1,80,0,1
523022,-80,4,2,1,40,0,1
523169,-80,4,2,1,80,0,1
525437,-80,4,2,1,90,0,1
526315,-86.9565217391304,4,2,1,80,0,0
527486,-100,4,2,1,80,0,1
527778,-100,4,2,1,80,0,0

[Colours]
Combo1 : 253,172,241
Combo2 : 193,0,0
Combo3 : 175,100,208
Combo4 : 250,30,30

[HitObjects]
180,138,387585,5,0,0:0:0:0:
166,183,387658,1,0,0:0:0:0:
176,229,387731,1,0,0:0:0:0:
206,265,387804,1,0,0:0:0:0:
215,306,387877,5,0,0:0:0:0:
244,269,387950,1,0,0:0:0:0:
285,244,388023,1,0,0:0:0:0:
331,236,388096,1,0,0:0:0:0:
378,246,388170,6,0,P|415:213|438:130,1,95
357,52,388463,1,0,0:0:0:0:
220,133,388609,2,0,L|14:148,1,190
280,211,389048,6,0,P|248:268|264:328,1,95
337,287,389341,2,0,P|358:181|310:116,1,190
435,34,389780,5,0,0:0:0:0:
151,213,389926,2,0,P|180:170|187:90,1,95
196,289,390219,2,0,P|167:332|160:412,1,95
242,356,390511,2,0,L|336:355,1,95
235,212,390804,1,0,0:0:0:0:
150,212,390950,2,0,L|56:213,1,95
235,212,391243,5,0,0:0:0:0:
375,120,391389,1,0,0:0:0:0:
375,292,391536,1,0,0:0:0:0:
375,30,391682,2,0,P|450:80|448:171,1,190
150,163,392121,5,0,0:0:0:0:
256,67,392268,2,0,P|265:114|268:162,1,95
307,338,392561,2,0,P|281:298|262:254,1,95
130,40,392853,6,0,L|118:262,1,190
109,352,393292,2,0,P|127:257|230:194,1,190
256,67,393731,1,0,0:0:0:0:
268,162,393877,1,0,0:0:0:0:
437,238,394024,6,0,L|306:260,1,95
435,49,394316,1,0,0:0:0:0:
238,266,394463,2,0,P|290:257|350:100,1,237.5
268,162,394902,6,0,L|268:278,1,95
129,292,395194,6,0,P|81:202|70:110,1,190
383,292,395633,2,0,P|431:202|442:110,1,190
351,208,396072,6,0,P|310:226|242:226,1,95
145,161,396365,2,0,P|188:142|235:139,1,95
383,292,396658,5,0,0:0:0:0:
69,115,396804,1,0,0:0:0:0:
211,52,396950,5,0,0:0:0:0:
242,68,397023,1,0,0:0:0:0:
277,72,397096,1,0,0:0:0:0:
312,65,397169,1,0,0:0:0:0:
342,46,397242,1,0,0:0:0:0:
381,18,397316,5,0,0:0:0:0:
366,75,397389,1,0,0:0:0:0:
377,133,397462,1,0,0:0:0:0:
410,181,397536,6,0,P|419:281|320:320,1,190
247,324,397975,2,0,P|327:301|263:225,1,190
151,140,398414,2,0,L|154:256,1,95
0,46,398707,5,0,0:0:0:0:
267,130,398853,1,0,0:0:0:0:
418,224,398999,1,0,0:0:0:0:
151,140,399145,1,0,0:0:0:0:
253,36,399292,6,0,L|269:144,1,95
421,129,399585,2,0,L|417:229,1,95
259,304,399877,6,0,B|154:282|180:323|66:299,1,190
280,230,400316,2,0,P|327:268|285:376,1,190
187,204,400755,2,0,L|283:201,1,95
389,216,401048,5,0,0:0:0:0:
333,66,401194,1,0,0:0:0:0:
259,304,401341,1,0,0:0:0:0:
457,115,401487,1,0,0:0:0:0:
172,22,401633,6,0,P|119:20|65:49,1,95
0,167,401926,2,0,P|53:169|107:140,1,95
212,242,402219,2,0,L|208:106,1,95
319,95,402511,1,0,0:0:0:0:
212,242,402658,2,0,L|306:239,1,95
359,349,402950,1,0,0:0:0:0:
141,308,403097,1,0,0:0:0:0:
227,384,403243,1,0,0:0:0:0:
179,87,403389,6,0,P|180:133|216:177,1,95
247,45,403682,2,0,L|121:47,1,95
141,308,403975,5,0,0:0:0:0:
207,171,404121,1,0,0:0:0:0:
25,368,404267,1,0,0:0:0:0:
25,368,404414,1,0,0:0:0:0:
65,204,404560,6,0,L|46:218,10,23.75
142,231,404999,2,0,L|161:217,10,23.75
157,305,405438,6,0,P|204:314|256:305,1,95
426,156,405731,1,0,0:0:0:0:
310,235,405877,1,0,0:0:0:0:
474,229,406024,1,0,0:0:0:0:
262,162,406170,1,0,0:0:0:0:
214,89,406316,5,0,0:0:0:0:
166,92,406389,1,0,0:0:0:0:
119,96,406462,1,0,0:0:0:0:
71,100,406535,1,0,0:0:0:0:
24,103,406608,1,0,0:0:0:0:
73,199,406755,1,0,0:0:0:0:
267,322,406902,5,0,0:0:0:0:
208,251,407121,1,0,0:0:0:0:
240,164,407341,1,0,0:0:0:0:
331,148,407560,1,0,0:0:0:0:
389,218,407780,1,0,0:0:0:0:
357,305,407999,1,0,0:0:0:0:
299,235,408219,6,0,B|260:143|199:148|199:148|125:175|83:107,1,259.350008706208
66,92,408804,1,0,0:0:0:0:
133,226,408950,1,0,0:0:0:0:
158,80,409097,5,0,0:0:0:0:
158,80,409170,1,0,0:0:0:0:
158,80,409243,1,0,0:0:0:0:
72,232,410121,6,0,B|48:162|48:162|51:85,1,152
367,131,410853,2,0,P|251:107|117:151,1,228
440,232,411585,2,0,B|464:162|464:162|461:85,1,152
