osu file format v14

[General]
AudioFilename: uta.mp3
AudioLeadIn: 0
PreviewTime: 387511
Countdown: 0
SampleSet: Soft
StackLeniency: 0.6
Mode: 0
LetterboxInBreaks: 0
WidescreenStoryboard: 1

[Editor]
Bookmarks: 106215,124947,199946,240922,256142,267117,274800,330995,350274
DistanceSpacing: 1
BeatDivisor: 4
GridSize: 4
TimelineZoom: 1

[Metadata]
Title:Uta
TitleUnicode:謳
Artist:Imperial Circus Dead Decadence
ArtistUnicode:Imperial Circus Dead Decadence
Creator:Kite
Version:Himei
Source:
Tags:nanomortis extol ou song declare express lolcubes Ode To The Dreadful Sacrament 惨劇の血に赫く染まった愛と絶望の黒い死とが紡ぐ最期の物語 Sangeki no Chi ni Kagayaku Somatta Ai to Zetsubou no Kuroi Shitoga Tsumugu Saigo no Monogatari Rib:y(uhki) L.G.C. KIM Kylie Hull VAGUEDGE Another Stream Kimiko PEATH2 TOME あにょ REINO Hellnear
BeatmapID:890190
BeatmapSetID:410162

[Difficulty]
HPDrainRate:5
CircleSize:4.5
OverallDifficulty:9
ApproachRate:9.7
SliderMultiplier:1.9
SliderTickRate:1

[Events]
//Background and Video events
0,0,"nanomortis.jpg",0,0
//Break Periods
2,331268,349773
2,434028,446212
//Storyboard Layer 0 (Background)
//Storyboard Layer 1 (Fail)
//Storyboard Layer 2 (Pass)
//Storyboard Layer 3 (Foreground)
//Storyboard Sound Samples

[TimingPoints]
1641,428.571428571429,4,2,1,80,1,0
23926,458.015267175573,4,2,1,80,1,0
24842,468.75,4,2,1,80,1,8
25777,500,4,2,1,80,1,0
27777,545.454545454546,4,2,1,80,1,0
28867,555.555555555556,4,2,1,80,1,8
29973,310.880829015544,4,2,1,80,1,0
33703,292.682926829268,4,2,2,80,1,0
33703,-75.187969924812,4,2,2,80,0,0
33995,-117.647058823529,4,2,12,80,0,0
35678,-75.187969924812,4,2,1,80,0,0
35946,-75.187969924812,4,2,2,80,0,0
36337,-117.647058823529,4,2,12,80,0,0
38093,-75.187969924812,4,2,1,80,0,0
38288,-75.187969924812,4,2,2,80,0,0
38678,-117.647058823529,4,2,12,80,0,0
39849,-100,4,2,12,80,0,0
40068,-90.9090909090909,4,2,12,80,0,0
40361,-83.3333333333333,4,2,12,80,0,0
40727,-100,4,2,1,80,0,1
43068,-75.187969924812,4,2,2,80,0,0
43361,-117.647058823529,4,2,12,80,0,0
45044,-75.187969924812,4,2,1,80,0,0
45337,-75.187969924812,4,2,2,80,0,0
45702,-117.647058823529,4,2,12,80,0,0
47385,-75.187969924812,4,2,1,80,0,0
47678,-75.187969924812,4,2,2,80,0,0
48044,-117.647058823529,4,2,12,80,0,0
49215,-105.263157894737,4,2,12,80,0,0
49507,-95.2380952380952,4,2,12,80,0,0
49800,-86.9565217391304,4,2,12,80,0,0
50093,-75.187969924812,4,2,1,80,0,0
51995,-62.5,4,2,1,80,0,0
52434,-90.9090909090909,4,2,22,50,0,1
52507,-90.9090909090909,4,2,1,80,0,1
61800,-90.9090909090909,4,2,22,80,0,1
61873,-90.9090909090909,4,2,1,80,0,1
65605,-76.9230769230769,4,2,1,80,0,1
66410,-90.9090909090909,4,2,1,80,0,1
68824,-111.111111111111,4,2,1,80,0,0
75849,-100,4,2,1,80,0,0
84922,-68.9655172413793,4,2,1,80,0,0
85215,-100,4,2,1,80,0,0
87190,-62.5,4,2,1,80,0,0
87556,-100,4,2,22,80,0,0
87702,-100,4,2,1,80,0,0
96044,-68.9655172413793,4,2,1,80,0,0
96556,-58.8235294117647,4,2,1,80,0,0
96922,-90.9090909090909,4,2,22,80,0,0
96995,-90.9090909090909,4,2,1,80,0,0
103215,-95.2380952380952,4,2,1,80,0,0
105117,-76.9230769230769,4,2,1,80,0,0
105337,-90.9090909090909,4,2,1,80,0,0
105995,-58.8235294117647,4,2,1,80,0,0
106288,-105.263157894737,4,2,1,80,0,0
114263,-83.3333333333333,4,2,1,80,0,0
114702,-105.263157894737,4,2,1,80,0,0
117190,-76.9230769230769,4,2,1,80,0,0
117629,-105.263157894737,4,2,1,80,0,0
123629,-90.9090909090909,4,2,1,80,0,0
124068,-105.263157894737,4,2,1,80,0,0
127288,-95.2380952380952,4,2,1,80,0,0
128459,-105.263157894737,4,2,1,80,0,0
132995,-83.3333333333333,4,2,1,80,0,0
133361,-105.263157894737,4,2,1,80,0,0
134385,-95.2380952380952,4,2,1,80,0,0
143751,-83.3333333333333,4,2,22,80,0,1
143824,-83.3333333333333,4,2,1,80,0,1
161312,-90.9090909090909,4,2,1,80,0,0
162483,-90.9090909090909,4,2,1,80,0,1
163581,-90.9090909090909,4,2,23,80,0,1
163727,-90.9090909090909,4,2,1,80,0,1
165922,-90.9090909090909,4,2,23,80,0,1
166068,-90.9090909090909,4,2,1,80,0,1
168263,-90.9090909090909,4,2,23,80,0,1
168410,-90.9090909090909,4,2,1,80,0,1
170605,-90.9090909090909,4,2,23,80,0,1
170751,-90.9090909090909,4,2,1,80,0,1
172946,-90.9090909090909,4,2,23,80,0,1
173093,-90.9090909090909,4,2,1,80,0,1
175288,-90.9090909090909,4,2,23,80,0,1
175434,-90.9090909090909,4,2,1,80,0,1
177629,-90.9090909090909,4,2,23,80,0,1
177776,-90.9090909090909,4,2,1,80,0,1
180629,-95.2380952380952,4,2,1,80,0,0
181215,-90.9090909090909,4,2,1,80,0,1
185605,-68.9655172413793,4,2,1,80,0,1
185898,-90.9090909090909,4,2,1,80,0,1
190288,-68.9655172413793,4,2,1,80,0,1
190654,-90.9090909090909,4,2,1,80,0,1
194971,-74.0740740740741,4,2,1,80,0,1
195263,-90.9090909090909,4,2,1,80,0,1
199946,-100,4,2,1,80,0,1
204556,-95.2380952380952,4,2,1,80,0,1
204849,-95.2380952380952,4,2,1,60,0,1
205288,-95.2380952380952,4,2,1,80,0,1
206020,-95.2380952380952,4,2,1,60,0,1
206459,-95.2380952380952,4,2,1,80,0,1
206971,-100,4,2,1,80,0,1
212898,-100,4,2,1,60,0,1
213337,-100,4,2,1,80,0,1
213556,-95.2380952380952,4,2,1,80,0,1
213776,-95.2380952380952,4,2,1,60,0,1
213922,-95.2380952380952,4,2,1,80,0,1
213995,-100,4,2,1,80,0,1
217434,-83.3333333333333,4,2,1,80,0,1
217873,-100,4,2,1,80,0,1
218678,-95.2380952380952,4,2,1,80,0,1
221020,-86.9565217391304,4,2,1,80,0,1
221459,-95.2380952380952,4,2,1,80,0,1
222776,-68.9655172413793,4,2,1,80,0,1
223361,-95.2380952380952,4,2,1,80,0,1
228044,-80,4,2,1,80,0,1
228556,-95.2380952380952,4,2,1,80,0,1
232142,-80,4,2,1,80,0,1
232654,-95.2380952380952,4,2,1,80,0,1
235946,-80,4,2,1,80,0,1
237410,-100,4,2,1,80,0,0
244361,-90.9090909090909,4,2,1,80,0,0
245971,-74.0740740740741,4,2,1,80,0,0
246483,-61.3496932515337,4,2,1,80,0,0
246776,-100,4,2,22,80,0,0
246849,-100,4,2,1,80,0,0
251385,-83.3333333333333,4,2,1,80,0,0
251824,-100,4,2,1,80,0,0
254971,-83.3333333333333,4,2,1,80,0,0
256142,-105.263157894737,4,2,1,80,0,0
264117,-83.3333333333333,4,2,1,80,0,0
264556,-105.263157894737,4,2,1,80,0,0
267117,-76.9230769230769,4,2,1,80,0,0
267483,-105.263157894737,4,2,1,80,0,0
273483,-90.9090909090909,4,2,1,80,0,0
273922,-105.263157894737,4,2,1,80,0,0
274873,-200,4,2,12,90,0,0
282995,-133.333333333333,4,2,1,80,0,0
284239,-117.647058823529,4,2,1,80,0,0
284434,-117.647058823529,4,2,1,50,0,0
284629,-117.647058823529,4,2,1,80,0,0
285605,-117.647058823529,4,2,1,50,0,0
285800,-117.647058823529,4,2,1,80,0,0
286776,-117.647058823529,4,2,1,50,0,0
286971,-117.647058823529,4,2,1,80,0,0
287946,-117.647058823529,4,2,1,50,0,0
288142,-117.647058823529,4,2,1,80,0,0
288702,-100,4,2,1,80,0,0
293239,-66.6666666666667,4,2,1,80,0,0
293605,-90.9090909090909,4,2,23,80,0,1
293751,-90.9090909090909,4,2,1,80,0,1
295873,-90.9090909090909,4,2,23,80,0,1
296020,-90.9090909090909,4,2,1,80,0,1
298215,-90.9090909090909,4,2,23,80,0,1
298361,-90.9090909090909,4,2,1,80,0,1
300556,-90.9090909090909,4,2,23,80,0,1
300702,-90.9090909090909,4,2,1,80,0,1
302898,-90.9090909090909,4,2,23,80,0,1
303044,-90.9090909090909,4,2,1,80,0,1
305239,-90.9090909090909,4,2,23,80,0,1
305385,-90.9090909090909,4,2,1,80,0,1
307581,-90.9090909090909,4,2,23,80,0,1
307727,-90.9090909090909,4,2,1,80,0,1
311751,-90.9090909090909,4,2,1,80,0,0
312337,-86.9565217391304,4,2,1,80,0,1
313434,-86.9565217391304,4,2,23,80,0,1
313581,-86.9565217391304,4,2,1,80,0,1
315776,-86.9565217391304,4,2,23,80,0,1
315922,-86.9565217391304,4,2,1,80,0,1
318117,-86.9565217391304,4,2,23,80,0,1
318263,-86.9565217391304,4,2,1,80,0,1
320459,-86.9565217391304,4,2,23,80,0,1
320605,-86.9565217391304,4,2,1,80,0,1
321702,-90.9090909090909,4,2,1,80,0,1
322800,-90.9090909090909,4,2,23,80,0,1
322946,-90.9090909090909,4,2,1,80,0,1
325142,-90.9090909090909,4,2,23,80,0,1
325288,-90.9090909090909,4,2,1,80,0,1
327483,-90.9090909090909,4,2,23,80,0,1
327629,-90.9090909090909,4,2,1,80,0,1
331068,300,4,2,1,80,1,0
349068,-142.857142857143,4,2,12,70,0,0
368268,292.682926829268,4,2,12,70,1,0
368268,-111.111111111111,4,2,12,70,0,0
368487,-111.111111111111,4,2,1,80,0,0
369658,-111.111111111111,4,2,1,60,0,0
369804,-111.111111111111,4,2,1,80,0,0
377633,-80,4,2,1,80,0,0
378072,-111.111111111111,4,2,1,80,0,0
385463,-90.9090909090909,4,2,1,80,0,0
385828,-111.111111111111,4,2,1,80,0,0
387072,-95.2380952380952,4,2,1,80,0,0
387511,-100,4,2,1,80,0,0
388170,-95.2380952380952,4,2,1,80,0,1
406828,-109.89010989011,4,2,2,80,0,1
408877,-109.89010989011,4,2,1,80,0,1
409243,-125,4,2,1,80,0,0
409463,-125,4,2,1,40,0,0
409609,-125,4,2,1,80,0,0
410633,-125,4,2,1,40,0,0
410780,-125,4,2,1,80,0,0
410926,-125,4,2,1,40,0,0
411072,-125,4,2,1,80,0,0
411585,-90.9090909090909,4,2,1,80,0,1
415463,-66.6666666666667,4,2,1,80,0,1
415902,-90.9090909090909,4,2,1,80,0,1
424389,-76.9230769230769,4,2,1,80,0,1
424828,-71.4285714285714,4,2,1,80,0,1
425267,-90.9090909090909,4,2,1,80,0,1
430316,-200,4,2,1,80,0,0
430389,-200,4,2,99,5,0,0
446414,-200,4,2,12,40,0,0
446926,-200,4,2,12,10,0,0
447072,-200,4,2,12,40,0,0
447219,-200,4,2,12,10,0,0
447365,-200,4,2,12,40,0,0
447804,-200,4,2,12,50,0,0
448463,300,4,2,12,60,1,8
448463,-200,4,2,12,60,0,0
449063,292.682926829268,4,2,12,70,1,0
449063,-153.846153846154,4,2,12,70,0,0
462950,292.682926829268,4,2,1,80,1,8
463096,292.682926829268,4,2,1,80,1,0
463096,-133.333333333333,4,2,1,80,0,0
465071,-133.333333333333,4,2,2,80,0,0
465437,-125,4,2,1,80,0,0
466022,-125,4,2,2,80,0,0
467778,-125,4,2,1,80,0,0
470120,-111.111111111111,4,2,1,80,0,0
472461,-111.111111111111,4,2,1,80,0,1
484169,-90.9090909090909,4,2,1,80,0,1
484754,-83.3333333333333,4,2,1,80,0,1
485339,-76.9230769230769,4,2,1,80,0,1
486510,-86.9565217391304,4,2,1,80,0,1
487608,-86.9565217391304,4,2,23,80,0,1
487754,-86.9565217391304,4,2,1,80,0,1
489949,-86.9565217391304,4,2,23,80,0,1
490096,-86.9565217391304,4,2,1,80,0,1
492291,-86.9565217391304,4,2,23,80,0,1
492437,-86.9565217391304,4,2,1,80,0,1
494632,-86.9565217391304,4,2,23,80,0,1
494778,-86.9565217391304,4,2,1,80,0,1
496974,-86.9565217391304,4,2,23,80,0,1
497120,-86.9565217391304,4,2,1,80,0,1
499315,-86.9565217391304,4,2,23,80,0,1
499461,-86.9565217391304,4,2,1,80,0,1
501656,-86.9565217391304,4,2,23,80,0,1
501803,-86.9565217391304,4,2,1,80,0,1
504656,-86.9565217391304,4,2,1,80,0,0
505242,-86.9565217391304,4,2,1,80,0,1
521632,-80,4,2,1,80,0,1
521852,-80,4,2,1,40,0,1
521998,-80,4,2,1,80,0,1
523022,-80,4,2,1,40,0,1
523169,-80,4,2,1,80,0,1
525437,-80,4,2,1,90,0,1
526315,-86.9565217391304,4,2,1,80,0,0
527486,-100,4,2,1,80,0,1
527778,-100,4,2,1,80,0,0

[Colours]
Combo1 : 253,172,241
Combo2 : 193,0,0
Combo3 : 175,100,208
Combo4 : 250,30,30

[HitObjects]
77,301,33703,6,0,B|44:322|44:322|192:349,1,189.524992191811,8|0,0:1|0:0,0:0:0:0:
273,317,33995,6,0,B|259:325|259:325|322:336,1,80.750001540184,2|0,0:1|0:0,0:0:0:0:
438,279,34288,2,0,B|451:287|451:287|387:298,1,80.750001540184
267,228,34581,2,0,B|253:236|253:236|319:248,1,80.750001540184,2|0,0:1|0:0,0:0:0:0:
446,178,34874,2,0,B|459:186|459:186|395:198,1,80.750001540184
259,127,35166,2,0,B|245:135|245:135|308:146,1,80.750001540184,2|0,0:1|0:0,0:0:0:0:
449,60,35459,2,0,B|462:68|462:68|397:79,1,80.750001540184
277,42,35751,6,0,B|204:31|204:31|153:48|153:48|90:39,1,189.524992191811,2|0,0:3|0:0,0:0:0:0:
29,103,36044,2,0,B|156:125|156:125|213:105,1,189.524992191811,8|0,0:1|0:0,0:0:0:0:
183,190,36337,6,0,B|158:198|158:198|105:188,1,80.750001540184,2|0,0:1|0:0,0:0:0:0:
186,265,36629,2,0,B|236:243|236:243|255:220,1,80.750001540184
329,211,36922,2,0,B|327:236|327:236|298:283,1,80.750001540184,2|0,0:1|0:0,0:0:0:0:
402,236,37215,2,0,B|399:181|399:181|386:157,1,80.750001540184
408,85,37507,2,0,B|431:96|431:96|463:142,1,80.750001540184,2|0,0:1|0:0,0:0:0:0:
456,27,37800,2,0,B|404:9|404:9|377:14,1,80.750001540184
305,55,38093,6,0,B|265:78|265:78|239:176|239:176|201:198,1,189.524992191811,2|0,0:3|0:0,0:0:0:0:
138,237,38385,2,0,B|69:276|69:276|110:172,1,189.524992191811,8|0,0:1|0:0,0:0:0:0:
136,104,38678,6,0,B|156:51|156:51|152:28,1,80.750001540184,2|0,0:1|0:0,0:0:0:0:
16,219,38971,2,0,B|-5:271|-5:271|0:298,1,80.750001540184
255,225,39263,2,0,B|209:192|209:192|183:192,1,80.750001540184,2|0,0:1|0:0,0:0:0:0:
365,367,39556,2,0,B|416:344|416:344|430:322,1,80.750001540184
105,239,39849,6,0,B|130:296|130:296|158:312,1,95,2|0,0:1|0:0,0:0:0:0:
266,31,40142,2,0,B|195:23|195:23|165:37,1,104.500003189087,2|0,0:1|0:0,0:0:0:0:
378,262,40434,2,0,B|421:201|421:201|417:162,1,113.999996520996,2|0,0:1|0:0,0:0:0:0:
99,152,40727,5,2,0:3:0:0:
65,181,40800,1,0,0:0:0:0:
58,225,40873,1,0,0:0:0:0:
81,263,40946,1,0,0:0:0:0:
123,280,41020,1,8,0:0:0:0:
166,269,41093,1,0,0:0:0:0:
196,236,41166,1,0,0:0:0:0:
205,192,41239,1,0,0:0:0:0:
192,148,41312,5,8,0:0:0:0:
198,103,41385,1,0,0:0:0:0:
231,71,41459,1,0,0:0:0:0:
275,66,41532,1,0,0:0:0:0:
316,84,41605,1,8,0:0:0:0:
340,121,41678,1,0,0:0:0:0:
336,165,41751,1,0,0:0:0:0:
354,206,41824,1,0,0:0:0:0:
396,221,41898,5,2,0:3:0:0:
440,216,41971,1,0,0:0:0:0:
473,185,42044,1,0,0:0:0:0:
478,140,42117,1,0,0:0:0:0:
458,100,42190,1,2,0:3:0:0:
417,82,42263,1,0,0:0:0:0:
372,89,42337,1,0,0:0:0:0:
340,121,42410,1,0,0:0:0:0:
298,137,42483,5,2,0:3:0:0:
253,136,42556,1,0,0:0:0:0:
211,119,42629,1,0,0:0:0:0:
186,81,42702,1,0,0:0:0:0:
157,45,42776,1,2,0:3:0:0:
116,24,42849,1,0,0:0:0:0:
71,24,42922,1,0,0:0:0:0:
30,44,42995,1,0,0:0:0:0:
14,85,43068,6,0,B|2:127|2:127|37:223|37:223|23:264,1,189.524992191811,8|0,0:1|0:0,0:0:0:0:
37,332,43361,6,0,B|29:348|29:348|92:358,1,80.9999975280763,2|0,0:1|0:0,0:0:0:0:
175,319,43654,2,0,B|167:335|167:335|230:346,1,80.750001540184
313,306,43946,2,0,B|305:322|305:322|368:331,1,80.750001540184,2|0,0:1|0:0,0:0:0:0:
451,293,44239,2,0,B|443:309|443:309|507:320,1,80.750001540184
384,256,44532,2,0,B|392:240|392:240|328:231,1,80.750001540184,2|0,0:1|0:0,0:0:0:0:
246,269,44824,2,0,B|254:253|254:253|192:243,1,80.750001540184
108,282,45117,6,0,B|116:266|116:266|1:249|1:249|48:220,1,189.524992191811,2|0,0:3|0:0,0:0:0:0:
110,178,45410,2,0,B|228:108|228:108|205:155,1,189.524992191811,8|0,0:1|0:0,0:0:0:0:
295,64,45702,6,0,B|354:31|354:31|348:55,1,80.750001540184,2|0,0:1|0:0,0:0:0:0:
252,192,45995,2,0,B|193:157|193:157|214:151,1,80.750001540184
384,168,46288,2,0,B|383:235|383:235|366:219,1,80.750001540184,2|0,0:1|0:0,0:0:0:0:
351,44,46581,6,0,B|418:50|418:50|398:67,1,80.750001540184
204,153,46874,2,0,B|176:91|176:91|199:99,1,80.750001540184,2|0,0:1|0:0,0:0:0:0:
373,226,47167,2,0,B|333:280|333:280|328:256,1,80.750001540184
412,86,47459,6,0,B|480:67|480:67|414:166,1,189.524992191811,2|0,0:3|0:0,0:0:0:0:
373,226,47751,2,0,B|307:323|307:323|377:305,1,189.524992191811,8|0,0:1|0:0,0:0:0:0:
449,288,48044,6,0,B|475:279|475:279|501:229,1,80.750001540184,2|0,0:1|0:0,0:0:0:0:
284,251,48337,2,0,B|278:278|278:278|309:325,1,80.750001540184
397,128,48629,2,0,B|376:109|376:109|320:112,1,80.750001540184,2|0,0:1|0:0,0:0:0:0:
63,288,48922,6,0,B|37:279|37:279|11:228,1,80.750001540184
206,67,49215,2,0,B|234:75|234:75|260:129,1,90.2499975900651,2|0,0:1|0:0,0:0:0:0:
24,106,49507,2,0,B|33:74|33:74|93:44,1,99.7499969558717,2|0,0:1|0:0,0:0:0:0:
245,249,49800,2,0,B|233:283|233:283|168:316,1,109.250002083778,2|0,0:1|0:0,0:0:0:0:
206,67,50093,6,0,P|322:45|346:91,1,189.524992191811,2|0,0:3|0:0,0:0:0:0:
340,166,50385,2,0,P|338:202|352:228,1,63.1749973972703,2|0,0:1|0:0,0:0:0:0:
418,278,50532,1,0,0:0:0:0:
418,278,50605,1,0,0:0:0:0:
418,278,50678,1,8,0:0:0:0:
120,331,50971,5,2,0:1:0:0:
157,336,51044,1,0,0:0:0:0:
194,341,51117,1,0,0:0:0:0:
231,346,51190,1,0,0:0:0:0:
268,351,51263,2,0,B|319:284|319:284|313:236,1,126.349994794541,2|0,0:3|0:0,0:0:0:0:
299,161,51483,1,0,0:0:0:0:
299,161,51556,2,0,L|391:75,1,126.349994794541,8|0,0:2|0:0,0:0:0:0:
156,192,51849,2,0,L|170:278,1,84.2333298630271,2|0,0:1|0:0,0:0:0:0:
36,162,52044,6,0,B|-13:136|-15:69|36:32|82:45|107:74|107:74|111:103|130:117|130:117|165:107|196:129,1,304,2|0,0:3|0:0,0:0:0:0:
254,218,52434,6,0,P|305:236|348:215,1,104.500003189087,4|0,0:0|0:0,0:0:0:0:
433,104,52727,1,8,0:0:0:0:
240,29,52873,1,0,0:0:0:0:
135,197,53020,1,2,0:1:0:0:
135,197,53093,1,0,0:0:0:0:
135,197,53166,1,0,0:0:0:0:
250,129,53312,1,8,0:0:0:0:
21,197,53459,1,0,0:0:0:0:
188,343,53605,6,0,B|225:339|225:339|254:325|254:325|288:322,1,104.500003189087,2|0,0:1|0:0,0:0:0:0:
457,303,53898,1,8,0:0:0:0:
343,196,54044,2,0,P|314:125|362:72,1,156.750004783631,2|0,0:1|0:0,0:0:0:0:
485,115,54337,2,0,B|460:131|460:131|386:140,1,104.500003189087,2|8,0:1|0:0,0:0:0:0:
254,25,54629,1,8,0:0:0:0:
98,110,54776,6,0,P|78:154|97:205,1,104.500003189087,4|0,0:3|0:0,0:0:0:0:
342,235,55068,1,8,0:0:0:0:
199,349,55215,1,0,0:0:0:0:
479,280,55361,1,2,0:1:0:0:
479,280,55434,1,0,0:0:0:0:
479,280,55507,1,0,0:0:0:0:
237,116,55654,1,8,0:0:0:0:
270,293,55800,1,0,0:0:0:0:
179,68,55946,6,0,P|222:41|274:50,1,104.500003189087,2|0,0:1|0:0,0:0:0:0:
199,349,56239,1,8,0:0:0:0:
37,231,56385,2,0,B|32:171|32:171|39:144|39:144|34:76,1,156.750004783631,2|0,0:1|0:0,0:0:0:0:
103,181,56678,2,0,L|114:287,1,104.500003189087,2|8,0:1|0:0,0:0:0:0:
284,128,56971,1,0,0:0:0:0:
292,104,57044,1,0,0:0:0:0:
300,80,57117,5,4,0:3:0:0:
499,214,57263,1,0,0:0:0:0:
332,247,57410,1,8,0:0:0:0:
467,48,57556,1,0,0:0:0:0:
476,300,57702,1,2,0:1:0:0:
476,300,57776,1,0,0:0:0:0:
476,300,57849,1,0,0:0:0:0:
277,166,57995,1,8,0:0:0:0:
444,134,58142,1,0,0:0:0:0:
309,333,58288,6,0,P|255:357|214:345,1,104.500003189087,4|0,0:3|0:0,0:0:0:0:
107,159,58581,1,8,0:0:0:0:
311,228,58727,2,0,P|349:169|307:99,1,156.750004783631,2|0,0:1|0:0,0:0:0:0:
175,178,59020,2,0,B|214:186|214:186|275:166,1,104.500003189087,2|8,0:1|0:0,0:0:0:0:
108,33,59312,1,8,0:0:0:0:
39,209,59459,6,0,B|31:245|31:245|37:280|37:280|28:310,1,104.500003189087,4|0,0:3|0:0,0:0:0:0:
119,134,59751,2,0,B|111:98|111:98|117:63|117:63|108:33,1,104.500003189087,8|0,0:0|0:0,0:0:0:0:
157,288,60044,6,0,B|153:306|153:306|156:323|156:323|151:338,1,52.2500015945435,8|0,0:0|0:0,0:0:0:0:
236,226,60190,2,0,B|232:208|232:208|235:190|235:190|230:174,1,52.2500015945435,8|0,0:0|0:0,0:0:0:0:
265,314,60337,2,0,B|261:332|261:332|264:349|264:349|259:366,1,52.2500015945435,8|0,0:0|0:0,0:0:0:0:
344,252,60483,2,0,B|340:234|340:234|343:216|343:216|337:202,1,52.2500015945435,8|0,0:0|0:0,0:0:0:0:
367,339,60629,5,4,0:3:0:0:
408,353,60702,1,0,0:0:0:0:
452,347,60776,1,0,0:0:0:0:
487,318,60849,1,0,0:0:0:0:
503,277,60922,1,2,0:3:0:0:
495,233,60995,1,0,0:0:0:0:
466,198,61068,1,0,0:0:0:0:
425,182,61142,1,0,0:0:0:0:
382,189,61215,5,2,0:3:0:0:
339,196,61287,1,0,0:0:0:0:
296,182,61361,1,0,0:0:0:0:
267,147,61434,1,0,0:0:0:0:
259,103,61507,1,2,0:3:0:0:
275,62,61580,1,0,0:0:0:0:
310,33,61653,1,0,0:0:0:0:
354,27,61727,1,0,0:0:0:0:
395,41,61800,6,0,B|422:101|422:101|409:140,1,104.500003189087,4|0,0:0|0:0,0:0:0:0:
349,289,62093,1,8,0:0:0:0:
158,242,62239,1,0,0:0:0:0:
470,244,62385,1,2,0:1:0:0:
470,244,62459,1,0,0:0:0:0:
470,244,62532,2,0,L|446:346,1,104.500003189087,0|8,0:0|0:0,0:0:0:0:
270,207,62824,1,8,0:0:0:0:
88,342,62971,5,2,0:1:0:0:
88,342,63044,1,0,0:0:0:0:
88,342,63117,1,0,0:0:0:0:
229,127,63263,1,8,0:0:0:0:
215,314,63410,1,0,0:0:0:0:
168,75,63556,5,2,0:1:0:0:
204,49,63629,1,0,0:0:0:0:
248,50,63702,1,2,0:1:0:0:
287,72,63776,1,0,0:0:0:0:
305,112,63849,1,8,0:0:0:0:
300,156,63922,1,0,0:0:0:0:
274,192,63995,1,2,0:1:0:0:
231,204,64068,1,0,0:0:0:0:
186,194,64142,6,0,B|126:180|126:180|85:191,1,104.500003189087,4|0,0:3|0:0,0:0:0:0:
339,288,64434,2,0,B|302:298|302:298|238:284,1,104.500003189087,8|0,0:0|0:0,0:0:0:0:
429,223,64727,1,2,0:1:0:0:
429,223,64800,1,0,0:0:0:0:
429,223,64873,2,0,P|446:169|423:129,1,104.500003189087,0|8,0:0|0:0,0:0:0:0:
132,253,65166,1,0,0:0:0:0:
280,368,65312,5,2,0:1:0:0:
299,363,65385,1,0,0:0:0:0:
318,358,65459,1,0,0:0:0:0:
337,353,65532,1,0,0:0:0:0:
356,348,65605,2,0,B|395:337|395:337|410:314|410:314|438:324|438:324|463:318,1,123.499994346619,8|0,0:0|0:0,0:0:0:0:
167,322,65898,5,2,0:1:0:0:
186,317,65971,1,0,0:0:0:0:
205,312,66045,1,0,0:0:0:0:
224,307,66118,1,0,0:0:0:0:
243,302,66191,2,0,B|282:291|282:291|297:268|297:268|325:278|325:278|351:272,1,123.499994346619,8|0,0:0|0:0,0:0:0:0:
417,167,66483,5,4,0:3:0:0:
435,126,66556,1,0,0:0:0:0:
429,82,66629,1,0,0:0:0:0:
401,48,66702,1,0,0:0:0:0:
359,33,66775,1,8,0:0:0:0:
317,44,66848,1,0,0:0:0:0:
286,76,66922,1,0,0:0:0:0:
277,120,66995,1,0,0:0:0:0:
257,159,67068,5,8,0:0:0:0:
218,180,67141,1,0,0:0:0:0:
174,186,67214,1,0,0:0:0:0:
134,169,67287,1,0,0:0:0:0:
108,133,67361,1,8,0:0:0:0:
105,89,67434,1,0,0:0:0:0:
127,50,67507,1,0,0:0:0:0:
168,32,67580,1,0,0:0:0:0:
213,35,67653,5,4,0:3:0:0:
250,61,67726,1,0,0:0:0:0:
261,106,67800,1,0,0:0:0:0:
250,149,67873,1,0,0:0:0:0:
218,180,67946,1,8,0:0:0:0:
180,203,68019,1,0,0:0:0:0:
167,246,68092,1,0,0:0:0:0:
182,289,68165,1,0,0:0:0:0:
224,307,68239,5,4,0:3:0:0:
269,301,68312,1,0,0:0:0:0:
292,263,68385,1,0,0:0:0:0:
294,219,68458,1,0,0:0:0:0:
325,187,68531,1,8,0:0:0:0:
371,185,68605,1,0,0:0:0:0:
403,217,68678,1,0,0:0:0:0:
407,262,68751,1,0,0:0:0:0:
382,299,68824,5,4,0:1:0:0:
256,192,68898,12,4,71166,0:1:0:0:
256,192,71239,12,4,73507,0:1:0:0:
256,192,73581,12,4,74678,0:1:0:0:
77,121,75410,6,0,L|87:91,3,28.4999991302491,8|0|8|0,0:0|0:0|0:0|0:0,0:0:0:0:
109,21,75849,5,2,0:1:0:0:
144,25,75922,1,0,0:0:0:0:
179,29,75995,1,0,0:0:0:0:
214,33,76068,1,0,0:0:0:0:
250,37,76142,1,8,0:0:0:0:
285,41,76215,1,0,0:0:0:0:
320,46,76288,1,0,0:0:0:0:
355,51,76361,1,0,0:0:0:0:
390,56,76434,5,2,0:1:0:0:
359,74,76507,1,0,0:0:0:0:
327,92,76581,1,0,0:0:0:0:
296,110,76654,1,0,0:0:0:0:
265,128,76727,1,8,0:0:0:0:
300,132,76800,1,0,0:0:0:0:
335,136,76873,1,0,0:0:0:0:
370,140,76946,1,0,0:0:0:0:
406,144,77020,6,0,L|455:150,1,47.5,2|0,0:1|0:0,0:0:0:0:
505,219,77166,1,8,0:0:0:0:
505,219,77239,1,8,0:0:0:0:
505,219,77312,2,0,P|509:248|503:269,1,47.5,8|0,0:0|0:0,0:0:0:0:
466,328,77459,2,0,P|439:339|414:338,1,47.5
350,317,77605,5,8,0:0:0:0:
350,317,77678,1,8,0:0:0:0:
350,317,77751,2,0,P|332:293|327:268,1,47.5,8|0,0:0|0:0,0:0:0:0:
330,202,77898,2,0,P|347:178|367:169,3,47.5
448,158,78190,5,4,0:3:0:0:
461,129,78263,1,0,0:0:0:0:
458,97,78337,1,0,0:0:0:0:
438,72,78410,1,0,0:0:0:0:
407,62,78483,1,0,0:0:0:0:
376,68,78556,1,0,0:0:0:0:
350,86,78629,1,0,0:0:0:0:
322,100,78702,1,0,0:0:0:0:
290,106,78776,1,0,0:0:0:0:
258,105,78849,1,0,0:0:0:0:
228,94,78922,1,0,0:0:0:0:
202,76,78995,1,0,0:0:0:0:
174,60,79068,1,0,0:0:0:0:
143,51,79142,1,0,0:0:0:0:
111,51,79215,1,0,0:0:0:0:
82,64,79288,1,0,0:0:0:0:
63,89,79361,1,0,0:0:0:0:
58,120,79434,1,0,0:0:0:0:
67,149,79507,1,0,0:0:0:0:
89,171,79581,1,0,0:0:0:0:
119,178,79654,1,0,0:0:0:0:
150,174,79727,1,0,0:0:0:0:
179,164,79800,1,0,0:0:0:0:
209,157,79873,1,0,0:0:0:0:
240,157,79946,1,0,0:0:0:0:
270,166,80020,1,0,0:0:0:0:
294,185,80093,1,0,0:0:0:0:
309,212,80166,1,0,0:0:0:0:
313,243,80239,1,0,0:0:0:0:
308,274,80312,1,0,0:0:0:0:
291,300,80385,1,0,0:0:0:0:
262,315,80459,1,0,0:0:0:0:
230,318,80532,5,4,0:3:0:0:
199,309,80605,1,0,0:0:0:0:
175,288,80678,1,0,0:0:0:0:
163,258,80751,1,0,0:0:0:0:
165,226,80824,1,0,0:0:0:0:
182,199,80898,1,0,0:0:0:0:
208,181,80971,1,0,0:0:0:0:
239,178,81044,1,0,0:0:0:0:
270,179,81117,1,0,0:0:0:0:
300,184,81190,1,0,0:0:0:0:
328,196,81263,1,0,0:0:0:0:
358,204,81337,1,0,0:0:0:0:
389,204,81410,1,0,0:0:0:0:
418,194,81483,1,0,0:0:0:0:
441,173,81556,1,0,0:0:0:0:
449,142,81629,1,0,0:0:0:0:
441,111,81702,1,0,0:0:0:0:
416,90,81776,1,0,0:0:0:0:
385,82,81849,1,0,0:0:0:0:
355,91,81922,1,0,0:0:0:0:
333,114,81995,1,0,0:0:0:0:
326,144,82068,1,0,0:0:0:0:
336,174,82142,1,0,0:0:0:0:
346,203,82215,1,0,0:0:0:0:
352,233,82288,1,0,0:0:0:0:
354,264,82361,1,0,0:0:0:0:
350,295,82434,1,0,0:0:0:0:
340,324,82507,1,0,0:0:0:0:
318,347,82581,1,0,0:0:0:0:
289,361,82654,1,0,0:0:0:0:
257,363,82727,1,0,0:0:0:0:
226,355,82800,1,0,0:0:0:0:
203,333,82873,5,4,0:3:0:0:
192,303,82946,1,0,0:0:0:0:
180,273,83020,1,0,0:0:0:0:
160,248,83093,1,0,0:0:0:0:
133,230,83166,1,0,0:0:0:0:
102,223,83239,1,0,0:0:0:0:
70,222,83312,1,0,0:0:0:0:
40,232,83385,1,0,0:0:0:0:
20,257,83459,1,0,0:0:0:0:
11,287,83532,1,0,0:0:0:0:
18,317,83605,1,0,0:0:0:0:
39,340,83678,1,0,0:0:0:0:
68,350,83751,1,0,0:0:0:0:
99,346,83824,1,0,0:0:0:0:
125,328,83898,1,0,0:0:0:0:
136,298,83971,1,0,0:0:0:0:
132,266,84044,1,4,0:3:0:0:
117,238,84117,1,0,0:0:0:0:
95,215,84190,1,0,0:0:0:0:
70,195,84263,1,0,0:0:0:0:
56,166,84337,1,0,0:0:0:0:
56,134,84410,1,0,0:0:0:0:
70,106,84483,1,0,0:0:0:0:
97,90,84556,1,0,0:0:0:0:
128,86,84629,1,2,0:1:0:0:
158,95,84702,1,2,0:1:0:0:
179,118,84776,1,2,0:1:0:0:
185,148,84849,1,2,0:1:0:0:
179,179,84922,6,0,B|179:230|179:230|190:257|190:257|190:307|190:307|200:324|200:324|200:380,1,206.625006305695,2|0,0:1|0:0,0:0:0:0:
262,282,85215,2,0,B|260:232|260:232|263:220|263:220|261:188,1,95,2|0,0:3|0:0,0:0:0:0:
461,80,85507,1,2,0:1:0:0:
437,254,85654,2,0,B|389:240|389:240|379:234|379:234|348:224,1,95,2|0,0:3|0:0,0:0:0:0:
300,2,85946,1,2,0:1:0:0:
461,80,86093,2,0,B|433:120|433:120|424:128|424:128|404:157,1,95,2|0,0:3|0:0,0:0:0:0:
169,135,86385,1,2,0:1:0:0:
300,2,86532,2,0,B|330:41|330:41|335:52|335:52|355:80,1,95,2|0,0:3|0:0,0:0:0:0:
262,282,86824,1,2,0:1:0:0:
169,135,86971,2,0,B|215:118|215:118|227:117|227:117|260:105,1,95,2|0,0:3|0:0,0:0:0:0:
35,275,87263,6,0,B|8:250|8:187|66:163|66:163|51:139|56:117|56:117|73:101|75:77,1,228,2|0,0:3|0:0,0:0:0:0:
177,224,87556,2,0,P|131:245|89:232,1,95,4|0,0:0|0:0,0:0:0:0:
218,79,87849,1,8,0:2:0:0:
357,278,87995,1,0,0:0:0:0:
357,278,88068,1,0,0:0:0:0:
357,278,88142,2,0,B|354:316|354:316|346:338|346:338|344:371,1,95,2|0,0:1|0:0,0:0:0:0:
226,188,88434,2,0,L|223:141,1,47.5,8|0,0:0|0:0,0:0:0:0:
311,91,88581,2,0,L|308:139,1,47.5,0|0,0:1|0:0,0:0:0:0:
352,18,88727,6,0,P|396:7|441:33,1,95,2|0,0:3|0:0,0:0:0:0:
357,278,89020,1,8,0:0:0:0:
169,124,89166,2,0,P|128:106|82:120,1,95,2|0,0:3|0:0,0:0:0:0:
234,279,89459,1,0,0:1:0:0:
389,120,89605,1,8,0:0:0:0:
391,84,89678,1,0,0:0:0:0:
394,49,89751,1,0,0:0:0:0:
222,185,89898,6,0,B|224:226|224:226|232:248|232:248|233:278,1,95,10|0,0:3|0:0,0:0:0:0:
73,355,90190,1,8,0:0:0:0:
33,171,90337,1,0,0:0:0:0:
38,135,90410,1,0,0:0:0:0:
43,99,90483,2,0,P|81:76|128:85,1,95,2|0,0:1|0:0,0:0:0:0:
300,325,90776,6,0,P|255:341|212:326,1,95,8|0,0:0|0:0,0:0:0:0:
383,85,91068,2,0,P|428:75|469:99,1,95,2|0,0:3|0:0,0:0:0:0:
102,235,91361,2,0,P|81:192|92:149,1,95,8|0,0:0|0:0,0:0:0:0:
419,148,91654,2,0,P|430:193|410:235,1,95,2|0,0:3|0:0,0:0:0:0:
88,343,91946,1,8,0:0:0:0:
88,343,92020,1,0,0:0:0:0:
88,343,92093,1,0,0:0:0:0:
293,232,92239,6,0,P|304:211|310:188,1,47.5,10|0,0:3|0:0,0:0:0:0:
310,107,92385,2,0,B|251:86|251:86|218:90,1,95,0|8,0:0|0:0,0:0:0:0:
70,222,92678,1,0,0:0:0:0:
63,257,92751,1,0,0:0:0:0:
56,292,92824,2,0,P|99:325|136:319,1,95,2|0,0:1|0:0,0:0:0:0:
358,162,93117,2,0,L|378:69,1,95,8|0,0:0|0:0,0:0:0:0:
329,288,93410,6,0,L|282:294,1,47.5,2|0,0:3|0:0,0:0:0:0:
384,354,93556,2,0,P|428:365|472:346,1,95,0|8,0:0|0:0,0:0:0:0:
400,67,93849,1,2,0:3:0:0:
364,58,93922,1,0,0:0:0:0:
328,50,93995,2,0,B|264:34|264:34|235:40,1,95,0|0,0:3|0:0,0:0:0:0:
146,318,94288,2,0,B|191:270|191:270|202:244,1,95,8|0,0:0|0:0,0:0:0:0:
53,50,94581,5,8,0:3:0:0:
48,85,94654,1,0,0:0:0:0:
43,120,94727,2,0,B|38:161|38:161|41:185|41:185|35:218,1,95,0|8,0:0|0:0,0:0:0:0:
221,358,95020,1,0,0:0:0:0:
216,323,95093,1,0,0:0:0:0:
211,288,95166,2,0,B|206:247|206:247|209:223|209:223|205:194,1,95,4|0,0:1|0:0,0:0:0:0:
322,33,95459,1,8,0:0:0:0:
453,273,95605,1,0,0:0:0:0:
255,48,95751,5,8,0:0:0:0:
255,48,95824,1,8,0:0:0:0:
255,48,95898,2,0,L|301:38,1,47.5,8|8,0:0|0:0,0:0:0:0:
162,72,96044,2,0,B|146:120|146:120|177:201,1,137.750004203797,4|0,0:0|0:0,0:0:0:0:
211,275,96263,1,0,0:0:0:0:
244,283,96337,2,0,B|285:292|285:292|308:280,2,68.8750021018983,4|0|0,0:0|0:0|0:0,0:0:0:0:
374,229,96556,1,0,0:0:0:0:
396,205,96629,6,0,P|479:202|436:311,1,242.250004620552,4|0,0:3|0:0,0:0:0:0:
244,283,96922,6,0,B|219:223|219:223|224:184,1,104.500003189087,4|0,0:0|0:0,0:0:0:0:
442,46,97215,1,8,0:0:0:0:
442,46,97288,1,0,0:0:0:0:
442,46,97361,2,0,P|477:88|469:134,1,104.500003189087,0|2,0:0|0:1,0:0:0:0:
356,290,97654,1,0,0:0:0:0:
317,77,97800,1,8,0:0:0:0:
353,267,97946,1,0,0:0:0:0:
310,51,98093,6,0,B|247:32|247:32|209:45,1,104.500003189087,2|0,0:3|0:0,0:0:0:0:
409,235,98385,2,0,B|456:189|456:189|467:149,1,104.500003189087,8|0,0:0|0:0,0:0:0:0:
200,228,98678,2,0,B|215:292|215:292|246:321,1,104.500003189087,2|0,0:3|0:0,0:0:0:0:
398,84,98971,1,8,0:0:0:0:
456,353,99117,1,0,0:0:0:0:
245,166,99263,6,0,P|198:150|148:171,1,104.500003189087,4|0,0:1|0:0,0:0:0:0:
101,228,99483,1,0,0:0:0:0:
101,228,99556,1,8,0:0:0:0:
112,42,99702,1,0,0:0:0:0:
98,254,99849,2,0,B|94:296|94:296|82:320|82:320|79:358,1,104.500003189087,4|0,0:0|0:0,0:0:0:0:
53,141,100142,1,8,0:0:0:0:
232,327,100288,1,0,0:0:0:0:
450,158,100434,6,0,P|468:106|449:64,1,104.500003189087,8|0,0:3|0:0,0:0:0:0:
170,71,100727,1,8,0:0:0:0:
395,112,100873,1,0,0:0:0:0:
113,120,101019,2,0,P|94:75|112:23,1,104.500003189087,2|0,0:3|0:0,0:0:0:0:
450,158,101312,1,8,0:0:0:0:
203,350,101459,1,8,0:0:0:0:
170,71,101605,6,0,B|213:61|213:61|240:62|240:62|273:55,1,104.500003189087,8|0,0:3|0:0,0:0:0:0:
354,49,101824,1,0,0:0:0:0:
354,49,101898,1,8,0:0:0:0:
354,49,101971,1,0,0:0:0:0:
354,49,102044,2,0,P|375:97|355:143,1,104.500003189087,0|4,0:0|0:0,0:0:0:0:
208,224,102337,1,0,0:0:0:0:
359,334,102483,1,8,0:3:0:0:
52,298,102629,1,0,0:0:0:0:
263,114,102776,5,2,0:3:0:0:
263,114,102849,1,0,0:0:0:0:
263,114,102922,1,0,0:0:0:0:
57,90,103068,1,8,0:0:0:0:
119,268,103215,2,0,B|172:278|172:278|204:272|204:272|265:286,1,149.624995433808,4|0,0:3|0:0,0:0:0:0:
338,307,103507,2,0,P|363:303|382:288,1,49.8749984779358,4|0,0:0|0:0,0:0:0:0:
422,224,103654,2,0,P|431:200|428:177,1,49.8749984779358,4|0,0:0|0:0,0:0:0:0:
402,107,103800,2,0,P|386:87|362:78,1,49.8749984779358,4|0,0:0|0:0,0:0:0:0:
282,72,103946,5,4,0:3:0:0:
243,77,104019,1,0,0:0:0:0:
211,101,104092,1,0,0:0:0:0:
195,136,104165,1,0,0:0:0:0:
198,175,104238,1,8,0:0:0:0:
218,209,104311,1,0,0:0:0:0:
253,228,104385,1,0,0:0:0:0:
292,228,104458,1,0,0:0:0:0:
329,213,104532,5,4,0:3:0:0:
310,177,104605,1,0,0:0:0:0:
274,159,104678,1,0,0:0:0:0:
234,158,104751,1,0,0:0:0:0:
198,175,104824,1,8,0:0:0:0:
162,194,104898,1,0,0:0:0:0:
122,197,104971,1,0,0:0:0:0:
83,186,105044,1,0,0:0:0:0:
54,157,105117,6,0,P|35:96|67:51,1,123.499994346619,4|0,0:3|0:0,0:0:0:0:
320,117,105410,1,8,0:0:0:0:
322,146,105483,1,0,0:0:0:0:
324,175,105556,1,0,0:0:0:0:
326,204,105629,1,0,0:0:0:0:
328,233,105702,2,0,P|281:252|235:231,1,104.500003189087,4|0,0:3|0:0,0:0:0:0:
153,93,105995,6,0,P|63:79|95:186,1,242.250004620552,4|0,0:3|0:0,0:0:0:0:
314,97,106288,6,0,B|361:83|361:83|401:97,1,90.2499975900651,4|0,0:1|0:0,0:0:0:0:
475,274,106581,1,8,0:0:0:0:
417,337,106727,1,0,0:0:0:0:
342,294,106873,1,2,0:1:0:0:
261,325,107020,1,0,0:0:0:0:
217,251,107166,1,8,0:0:0:0:
137,282,107312,1,0,0:0:0:0:
89,204,107459,6,0,P|76:160|94:120,1,90.2499975900651,4|0,0:0|0:0,0:0:0:0:
329,147,107751,1,8,0:0:0:0:
250,328,107898,2,0,B|192:319|192:319|168:297,1,90.2499975900651,8|2,0:3|0:1,0:0:0:0:
147,166,108190,1,0,0:0:0:0:
392,293,108337,1,8,0:0:0:0:
486,135,108483,1,0,0:0:0:0:
439,351,108629,6,0,P|403:368|353:357,1,90.2499975900651,4|0,0:1|0:0,0:0:0:0:
228,137,108922,1,8,0:0:0:0:
329,147,109068,1,0,0:0:0:0:
218,298,109215,1,2,0:1:0:0:
271,224,109361,1,0,0:0:0:0:
134,139,109507,1,8,0:0:0:0:
180,220,109654,1,0,0:0:0:0:
74,275,109800,6,0,P|61:322|76:359,1,90.2499975900651,4|0,0:3|0:0,0:0:0:0:
183,373,110093,1,8,0:0:0:0:
206,138,110239,2,0,L|113:143,1,90.2499975900651,4|2,0:1|0:1,0:0:0:0:
410,198,110532,2,0,L|317:203,1,90.2499975900651,0|8,0:0|0:0,0:0:0:0:
236,272,110824,1,0,0:0:0:0:
473,235,110971,6,0,P|485:185|468:151,1,90.2499975900651,8|0,0:3|0:0,0:0:0:0:
264,80,111263,1,8,0:0:0:0:
151,144,111410,1,0,0:0:0:0:
264,209,111556,1,2,0:1:0:0:
189,80,111702,1,0,0:0:0:0:
189,209,111849,1,8,0:0:0:0:
301,144,111995,1,0,0:0:0:0:
82,126,112142,6,0,B|23:103|23:103|7:81,1,90.2499975900651,8|0,0:3|0:0,0:0:0:0:
240,68,112434,1,8,0:0:0:0:
240,210,112581,1,0,0:0:0:0:
354,76,112727,1,2,0:1:0:0:
200,136,112873,1,0,0:0:0:0:
363,202,113020,2,0,L|451:188,1,90.2499975900651,8|0,0:0|0:0,0:0:0:0:
301,240,113312,6,0,P|288:191|305:155,1,90.2499975900651,4|0,0:1|0:0,0:0:0:0:
489,43,113605,1,8,0:0:0:0:
363,202,113751,1,0,0:0:0:0:
201,33,113898,1,2,0:1:0:0:
465,160,114044,1,0,0:0:0:0:
270,352,114190,1,8,0:0:0:0:
254,123,114337,6,0,P|346:97|363:201,1,227.999993041992,8|0,0:3|0:0,0:0:0:0:
149,289,114776,1,8,0:0:0:0:
26,138,114922,2,0,P|22:117|28:93,1,45.1249987950325
102,39,115068,1,4,0:0:0:0:
127,44,115142,1,0,0:0:0:0:
152,49,115215,1,0,0:0:0:0:
177,54,115288,1,0,0:0:0:0:
201,59,115361,1,4,0:0:0:0:
225,65,115434,1,0,0:0:0:0:
249,72,115507,1,0,0:0:0:0:
273,79,115581,1,0,0:0:0:0:
297,85,115654,6,0,B|357:75|357:75|384:85,1,90.2499975900651,4|0,0:1|0:0,0:0:0:0:
276,322,115946,1,8,0:0:0:0:
362,333,116093,1,0,0:0:0:0:
211,227,116239,1,2,0:1:0:0:
296,237,116385,1,0,0:0:0:0:
148,130,116532,1,8,0:0:0:0:
231,141,116678,1,0,0:0:0:0:
103,40,116824,6,0,B|45:29|45:29|14:37,1,90.2499975900651,8|0,0:3|0:0,0:0:0:0:
219,250,117117,1,8,0:0:0:0:
447,137,117263,2,0,B|474:115|489:82|472:38|440:19|399:18|374:47|374:47|350:33|324:41,1,246.999988693238,4|0,0:1|0:0,0:0:0:0:
119,154,117702,1,8,0:0:0:0:
314,300,117849,1,0,0:0:0:0:
166,96,117995,6,0,P|124:77|83:87,1,90.2499975900651,4|0,0:0|0:0,0:0:0:0:
34,331,118288,1,8,0:0:0:0:
125,244,118434,1,0,0:0:0:0:
24,219,118581,1,2,0:1:0:0:
134,355,118727,1,0,0:0:0:0:
221,207,118873,1,8,0:0:0:0:
231,319,119020,1,0,0:0:0:0:
318,238,119166,6,0,P|331:196|316:151,1,90.2499975900651,8|0,0:3|0:0,0:0:0:0:
138,42,119459,1,8,0:0:0:0:
26,139,119605,2,0,B|6:190|6:190|10:225,1,90.2499975900651,4|2,0:0|0:1,0:0:0:0:
207,288,119898,1,0,0:0:0:0:
215,84,120044,2,0,B|167:48|167:48|138:42,1,90.2499975900651,8|0,0:0|0:0,0:0:0:0:
207,288,120337,6,0,L|298:274,1,90.2499975900651,8|0,0:3|0:0,0:0:0:0:
484,240,120629,1,8,0:0:0:0:
448,333,120776,1,0,0:0:0:0:
329,190,120922,1,2,0:1:0:0:
387,259,121068,1,0,0:0:0:0:
503,147,121215,1,8,0:0:0:0:
413,172,121361,1,0,0:0:0:0:
314,44,121507,6,0,P|266:26|230:37,1,90.2499975900651,4|0,0:1|0:0,0:0:0:0:
87,162,121800,1,8,0:0:0:0:
270,100,121946,1,0,0:0:0:0:
239,280,122093,1,2,0:1:0:0:
193,182,122239,1,0,0:0:0:0:
307,242,122385,2,0,P|320:287|302:326,1,90.2499975900651,8|0,0:0|0:0,0:0:0:0:
87,162,122678,5,4,0:0:0:0:
66,68,122824,1,0,0:0:0:0:
115,253,122971,2,0,L|92:348,1,90.2499975900651,8|0,0:0|0:0,0:0:0:0:
308,323,123263,1,2,0:1:0:0:
202,331,123410,2,0,L|222:243,1,90.2499975900651,4|8,0:0|0:0,0:0:0:0:
356,128,123702,2,0,B|344:172|344:172|353:199|353:199|331:224|331:224|307:322,1,209.000006378174,4|0,0:1|0:0,0:0:0:0:
240,163,124142,5,8,0:0:0:0:
304,49,124288,1,2,0:1:0:0:
464,201,124434,1,2,0:1:0:0:
271,279,124581,1,0,0:0:0:0:
359,102,124727,1,8,0:0:0:0:
430,328,124873,1,2,0:1:0:0:
434,105,125020,6,0,P|400:40|304:49,1,180.49999518013,8|8,0:3|0:0,0:0:0:0:
214,154,125459,1,0,0:0:0:0:
61,107,125605,2,0,P|41:65|51:24,1,90.2499975900651
214,154,125898,1,8,0:0:0:0:
168,293,126044,6,0,B|78:313|78:313|34:299|34:299|1:324,1,180.49999518013
274,196,126483,2,0,P|288:149|275:110,1,90.2499975900651,8|0,0:0|0:0,0:0:0:0:
92,206,126776,2,0,P|124:242|164:248,1,90.2499975900651
174,42,127068,2,0,P|125:51|99:83,1,90.2499975900651,8|0,0:0|0:0,0:0:0:0:
318,251,127361,6,0,B|353:229|359:166|313:136|313:136|323:104|356:93,1,199.499993911743,4|8,0:0|0:0,0:0:0:0:
450,94,127800,1,0,0:0:0:0:
230,141,127946,2,0,B|195:163|189:226|235:256|235:256|225:288|191:297,1,199.499993911743,4|8,0:1|0:0,0:0:0:0:
98,298,128385,1,0,0:0:0:0:
273,196,128532,6,0,P|311:184|357:200,1,90.2499975900651,8|0,0:3|0:0,0:0:0:0:
453,342,128824,1,8,0:0:0:0:
473,155,128971,1,0,0:0:0:0:
311,257,129117,1,2,0:1:0:0:
307,277,129190,1,0,0:0:0:0:
303,297,129263,1,0,0:0:0:0:
299,318,129337,1,0,0:0:0:0:
295,338,129410,2,0,L|203:344,1,90.2499975900651,8|0,0:0|0:0,0:0:0:0:
332,66,129702,6,0,L|424:59,2,90.2499975900651,4|0|8,0:1|0:0|0:0,0:0:0:0:
198,33,130142,1,0,0:0:0:0:
150,242,130288,1,2,0:1:0:0:
51,103,130434,1,0,0:0:0:0:
300,180,130581,1,8,0:0:0:0:
105,339,130727,1,0,0:0:0:0:
114,175,130873,6,0,P|155:164|198:181,2,90.2499975900651,8|0|8,0:3|0:0|0:0,0:0:0:0:
12,297,131312,1,0,0:0:0:0:
51,103,131459,1,2,0:1:0:0:
178,277,131605,1,0,0:0:0:0:
178,277,131678,1,0,0:0:0:0:
178,277,131751,2,0,B|234:282|234:282|264:267,1,90.2499975900651,8|0,0:0|0:0,0:0:0:0:
394,89,132044,5,8,0:3:0:0:
336,288,132190,1,0,0:0:0:0:
297,135,132337,1,8,0:0:0:0:
452,222,132483,1,2,0:1:0:0:
220,215,132629,1,2,0:1:0:0:
312,48,132775,1,0,0:0:0:0:
60,222,132922,1,8,0:0:0:0:
218,124,133068,6,0,P|201:33|120:93,1,227.999993041992,4|0,0:2|0:0,0:0:0:0:
126,168,133434,1,0,0:0:0:0:
126,168,133507,2,0,L|132:268,1,90.2499975900651,8|0,0:0|0:0,0:0:0:0:
314,203,133800,1,2,0:1:0:0:
336,180,133873,1,0,0:0:0:0:
347,149,133946,1,0,0:0:0:0:
340,116,134019,1,0,0:0:0:0:
320,91,134092,1,2,0:1:0:0:
288,79,134165,1,0,0:0:0:0:
255,83,134239,1,0,0:0:0:0:
228,104,134312,1,0,0:0:0:0:
216,134,134385,6,0,L|223:235,1,99.7499969558717,4|0,0:3|0:0,0:0:0:0:
310,351,134678,1,8,0:0:0:0:
476,233,134824,2,0,B|497:180|497:180|479:90,1,149.624995433808,2|0,0:1|0:0,0:0:0:0:
430,29,135117,2,0,P|383:14|337:30,1,99.7499969558717,2|8,0:1|0:0,0:0:0:0:
245,151,135410,1,0,0:0:0:0:
195,48,135556,1,2,0:1:0:0:
131,203,135702,1,0,0:0:0:0:
81,100,135849,6,0,B|68:65|68:65|67:33|67:33|57:4,1,99.7499969558717,8|0,0:0|0:0,0:0:0:0:
245,151,136142,2,0,B|254:181|254:181|256:214|256:214|269:251,1,99.7499969558717,4|0,0:0|0:0,0:0:0:0:
457,380,136434,2,0,B|444:345|444:345|443:314|443:314|433:284,1,99.7499969558717,8|0,0:0|0:0,0:0:0:0:
413,215,136654,1,0,0:0:0:0:
413,215,136727,6,0,B|414:151|478:139|478:139|450:93|478:55,1,199.499993911743,4|8,0:1|0:0,0:0:0:0:
433,283,137166,2,0,B|371:297|371:297|336:289,1,99.7499969558717,0|2,0:0|0:1,0:0:0:0:
202,253,137459,1,0,0:0:0:0:
294,142,137605,2,0,P|309:81|295:49,1,99.7499969558717,8|0,0:0|0:0,0:0:0:0:
205,22,137824,1,0,0:0:0:0:
205,22,137898,6,0,L|105:27,1,99.7499969558717,8|0,0:3|0:0,0:0:0:0:
286,229,138190,2,0,B|322:224|322:224|352:211|352:211|384:209,1,99.7499969558717,8|0,0:0|0:0,0:0:0:0:
492,92,138483,1,2,0:1:0:0:
455,324,138629,1,0,0:0:0:0:
252,294,138776,1,8,0:0:0:0:
224,271,138849,1,0,0:0:0:0:
211,239,138922,1,0,0:0:0:0:
214,204,138995,1,0,0:0:0:0:
234,175,139068,6,0,P|250:128|234:82,1,99.7499969558717,8|0,0:3|0:0,0:0:0:0:
56,33,139361,1,8,0:0:0:0:
56,33,139507,1,0,0:0:0:0:
319,97,139654,1,8,0:0:0:0:
319,97,139800,1,0,0:0:0:0:
109,278,139946,1,8,0:0:0:0:
109,278,140092,1,0,0:0:0:0:
372,342,140239,2,0,L|470:330,1,99.7499969558717,8|0,0:0|0:0,0:0:0:0:
261,144,140532,6,0,P|242:96|258:53,1,99.7499969558717,8|0,0:0|0:0,0:0:0:0:
485,22,140824,1,8,0:0:0:0:
319,97,140971,1,8,0:0:0:0:
482,211,141117,1,8,0:0:0:0:
171,280,141263,1,8,0:0:0:0:
385,141,141410,5,4,0:3:0:0:
397,105,141483,1,0,0:0:0:0:
392,68,141556,1,0,0:0:0:0:
371,37,141629,1,0,0:0:0:0:
338,20,141702,1,8,0:0:0:0:
301,20,141775,1,0,0:0:0:0:
267,37,141849,1,0,0:0:0:0:
246,67,141922,1,0,0:0:0:0:
240,104,141995,5,8,0:0:0:0:
249,146,142068,1,0,0:0:0:0:
257,188,142142,1,0,0:0:0:0:
243,228,142215,1,0,0:0:0:0:
230,268,142288,1,8,0:0:0:0:
239,309,142361,1,0,0:0:0:0:
247,351,142434,2,0,P|265:359|294:355,1,49.8749984779358
351,284,142581,6,0,L|449:296,1,99.7499969558717,4|0,0:3|0:0,0:0:0:0:
511,353,142800,1,0,0:0:0:0:
511,353,142873,1,8,0:0:0:0:
477,138,143020,1,0,0:0:0:0:
351,284,143166,1,8,0:0:0:0:
310,296,143239,1,0,0:0:0:0:
269,308,143312,1,0,0:0:0:0:
229,321,143385,1,0,0:0:0:0:
188,307,143458,1,8,0:0:0:0:
148,291,143532,1,0,0:0:0:0:
107,303,143605,1,0,0:0:0:0:
66,315,143678,1,0,0:0:0:0:
26,328,143751,6,0,P|-2:286|12:228,1,113.999996520996,4|0,0:0|0:0,0:0:0:0:
59,168,143971,1,0,0:0:0:0:
59,168,144044,2,0,B|71:86|71:86|58:57,1,113.999996520996,8|0,0:0|0:0,0:0:0:0:
168,227,144337,2,0,B|207:237|207:237|244:233|244:233|281:245,1,113.999996520996,4|0,0:0|0:0,0:0:0:0:
357,275,144556,1,0,0:0:0:0:
357,275,144629,1,8,0:0:0:0:
493,173,144776,1,0,0:0:0:0:
287,128,144922,6,0,P|266:74|288:26,1,113.999996520996,4|0,0:1|0:0,0:0:0:0:
338,78,145142,2,0,B|378:60|378:60|395:62|395:62|434:45|434:45|458:44|458:44|499:28,1,170.999994781494,0|2,0:1|0:1,0:0:0:0:
40,119,145507,2,0,P|30:90|33:65,1,56.9999982604981,4|0,0:0|0:0,0:0:0:0:
102,86,145654,2,0,B|136:98|136:98|161:117|161:117|204:131,1,113.999996520996,0|8,0:0|0:0,0:0:0:0:
339,78,145946,2,0,B|316:144|275:180|275:180|270:208|278:236|278:236|259:251|254:280,1,227.999993041992,2|2,0:1|0:1,0:0:0:0:
401,36,146385,6,0,P|353:2|302:13,1,113.999996520996,8|0,0:0|0:0,0:0:0:0:
381,239,146678,2,0,L|366:296,1,56.9999982604981,2|0,0:1|0:0,0:0:0:0:
447,277,146824,2,0,B|457:233|457:233|454:204|454:204|463:164,1,113.999996520996,0|8,0:0|0:0,0:0:0:0:
422,358,147117,1,0,0:0:0:0:
321,173,147263,5,4,0:0:0:0:
288,166,147337,1,0,0:0:0:0:
256,159,147410,1,0,0:0:0:0:
224,152,147483,1,0,0:0:0:0:
192,145,147556,2,0,B|146:150|146:150|114:162|114:162|79:166,1,113.999996520996,8|0,0:0|0:0,0:0:0:0:
365,230,147849,2,0,P|393:188|380:129,1,113.999996520996,2|0,0:1|0:0,0:0:0:0:
224,26,148142,1,8,0:0:0:0:
100,295,148288,1,2,0:1:0:0:
258,118,148434,5,8,0:3:0:0:
65,182,148581,1,2,0:1:0:0:
314,163,148727,2,0,P|332:110|307:61,1,113.999996520996,10|0,0:0|0:0,0:0:0:0:
79,24,149020,1,2,0:1:0:0:
34,287,149166,1,0,0:0:0:0:
61,31,149312,1,8,0:0:0:0:
118,313,149459,1,2,0:1:0:0:
9,128,149605,6,0,P|60:104|113:122,1,113.999996520996,8|0,0:3|0:0,0:0:0:0:
283,318,149898,1,8,0:0:0:0:
64,179,150044,1,0,0:1:0:0:
280,138,150190,1,2,0:1:0:0:
184,47,150337,1,0,0:0:0:0:
184,47,150410,1,0,0:0:0:0:
184,47,150483,1,8,0:0:0:0:
138,212,150629,1,8,0:0:0:0:
313,253,150776,6,0,P|336:309|306:362,1,113.999996520996,8|0,0:3|0:0,0:0:0:0:
95,369,151068,1,10,0:0:0:0:
177,137,151215,1,0,0:0:0:0:
192,360,151361,1,2,0:1:0:0:
271,162,151507,1,0,0:0:0:0:
38,240,151654,1,8,0:0:0:0:
273,325,151800,1,0,0:0:0:0:
20,222,151946,6,0,B|14:179|14:179|22:149|22:149|17:109,1,113.999996520996,8|0,0:3|0:0,0:0:0:0:
208,9,152239,1,8,0:0:0:0:
169,265,152385,1,0,0:0:0:0:
129,97,152532,1,2,0:1:0:0:
262,306,152678,1,0,0:0:0:0:
262,306,152751,1,0,0:0:0:0:
262,306,152824,1,8,0:0:0:0:
355,125,152971,1,8,0:0:0:0:
59,189,153117,5,8,0:3:0:0:
161,20,153263,1,0,0:0:0:0:
76,273,153410,1,10,0:0:0:0:
238,19,153556,1,0,0:0:0:0:
154,296,153702,1,2,0:1:0:0:
88,48,153849,1,0,0:0:0:0:
233,279,153995,1,8,0:0:0:0:
308,47,154142,1,0,0:0:0:0:
89,354,154288,5,8,0:3:0:0:
388,320,154434,1,0,0:0:0:0:
202,60,154581,1,8,0:0:0:0:
89,354,154727,1,0,0:0:0:0:
408,178,154873,1,2,0:1:0:0:
88,101,155020,1,0,0:0:0:0:
468,131,155166,2,0,P|485:186|459:238,1,113.999996520996,8|0,0:0|0:0,0:0:0:0:
390,275,155385,1,0,0:0:0:0:
390,275,155459,1,8,0:3:0:0:
216,30,155605,5,0,0:0:0:0:
240,269,155751,1,10,0:0:0:0:
237,21,155898,1,0,0:0:0:0:
165,310,156044,5,2,0:1:0:0:
289,88,156190,1,0,0:0:0:0:
317,310,156337,1,8,0:0:0:0:
310,75,156483,1,0,0:0:0:0:
397,353,156629,5,8,0:3:0:0:
460,66,156776,1,0,0:0:0:0:
490,350,156922,1,8,0:0:0:0:
482,52,157068,1,0,0:0:0:0:
317,310,157215,2,0,P|276:267|282:215,1,113.999996520996,2|0,0:1|0:0,0:0:0:0:
330,150,157434,5,0,0:0:0:0:
330,150,157507,1,8,0:0:0:0:
477,220,157654,1,0,0:0:0:0:
165,321,157800,5,8,0:3:0:0:
127,325,157873,1,0,0:1:0:0:
89,329,157946,1,2,0:1:0:0:
51,333,158020,1,0,0:1:0:0:
13,338,158093,1,10,0:0:0:0:
240,272,158239,1,0,0:0:0:0:
91,143,158385,5,2,0:1:0:0:
82,106,158459,1,0,0:1:0:0:
73,69,158532,1,0,0:1:0:0:
255,124,158678,1,8,0:0:0:0:
251,161,158751,1,0,0:1:0:0:
247,198,158824,1,2,0:1:0:0:
243,235,158898,1,0,0:1:0:0:
240,272,158971,1,8,0:3:0:0:
334,42,159117,1,0,0:0:0:0:
378,234,159263,1,8,0:0:0:0:
492,87,159410,1,0,0:0:0:0:
143,145,159556,5,8,0:0:0:0:
362,115,159702,1,8,0:0:0:0:
276,340,159849,1,8,0:0:0:0:
457,222,159995,1,8,0:0:0:0:
89,204,160142,5,4,0:3:0:0:
65,167,160215,1,0,0:0:0:0:
65,123,160288,1,0,0:0:0:0:
86,85,160361,1,0,0:0:0:0:
125,66,160434,1,8,0:0:0:0:
167,69,160507,1,0,0:0:0:0:
204,91,160581,1,0,0:0:0:0:
221,130,160654,1,0,0:0:0:0:
219,173,160727,5,8,0:0:0:0:
217,216,160800,1,0,0:0:0:0:
234,255,160873,1,0,0:0:0:0:
271,277,160947,1,0,0:0:0:0:
313,280,161020,1,8,0:0:0:0:
352,261,161093,1,0,0:0:0:0:
373,223,161166,1,0,0:0:0:0:
373,179,161239,1,0,0:0:0:0:
349,142,161312,6,0,B|345:107|345:107|353:74|353:74|351:39,1,104.500003189087,4|0,0:3|0:0,0:0:0:0:
277,14,161532,1,0,0:0:0:0:
277,14,161605,2,0,P|246:9|225:16,3,52.2500015945435,8|0|0|0,0:0|0:0|0:0|0:0,0:0:0:0:
170,99,161898,2,0,P|145:103|119:98,3,52.2500015945435,8|0|0|0,0:0|0:0|0:0|0:0,0:0:0:0:
28,53,162190,1,8,0:0:0:0:
26,92,162263,1,0,0:0:0:0:
24,132,162337,1,0,0:0:0:0:
23,171,162410,1,0,0:0:0:0:
22,208,162483,6,0,B|85:239|85:239|119:235,1,104.500003189087,4|0,0:3|0:0,0:0:0:0:
248,212,162776,1,8,0:0:0:0:
303,322,162922,1,0,0:0:0:0:
303,322,162995,1,0,0:0:0:0:
303,322,163068,2,0,P|347:342|398:327,1,104.500003189087,2|0,0:1|0:0,0:0:0:0:
479,89,163361,1,8,0:0:0:0:
466,229,163507,1,0,0:0:0:0:
347,148,163654,6,0,B|305:108|314:45|361:21|361:21|329:39|305:34,1,209.000006378174,4|8,0:0|0:0,0:0:0:0:
199,17,164093,1,0,0:0:0:0:
141,199,164239,1,2,0:1:0:0:
81,88,164385,1,0,0:0:0:0:
81,88,164459,1,0,0:0:0:0:
81,88,164532,1,8,0:0:0:0:
46,313,164678,1,0,0:0:0:0:
141,199,164824,6,0,P|194:184|233:208,1,104.500003189087,4|0,0:3|0:0,0:0:0:0:
272,281,165044,1,0,0:0:0:0:
272,281,165117,1,8,0:0:0:0:
395,233,165263,1,0,0:0:0:0:
435,357,165410,1,2,0:1:0:0:
480,179,165556,1,0,0:0:0:0:
318,342,165702,2,0,P|268:359|223:338,1,104.500003189087,8|0,0:0|0:0,0:0:0:0:
236,95,165995,6,0,B|297:64|352:109|352:109|397:100|398:49,1,209.000006378174,4|8,0:0|0:0,0:0:0:0:
229,87,166434,1,0,0:0:0:0:
283,179,166581,2,0,B|273:230|273:230|277:253|277:253|269:288,1,104.500003189087,2|0,0:1|0:0,0:0:0:0:
78,353,166873,1,8,0:0:0:0:
74,323,166946,1,0,0:0:0:0:
70,293,167020,1,0,0:0:0:0:
66,263,167093,1,0,0:0:0:0:
63,233,167166,6,0,P|98:201|152:206,1,104.500003189087,4|0,0:3|0:0,0:0:0:0:
270,309,167459,2,0,P|319:314|358:281,1,104.500003189087,8|0,0:0|0:0,0:0:0:0:
415,115,167751,1,2,0:1:0:0:
473,229,167898,1,0,0:0:0:0:
473,229,167971,1,0,0:0:0:0:
473,229,168044,1,8,0:0:0:0:
458,26,168190,1,0,0:0:0:0:
358,202,168337,6,0,B|328:236|258:235|230:182|230:182|194:189|183:215,1,209.000006378174,4|8,0:0|0:0,0:0:0:0:
169,318,168776,1,0,0:0:0:0:
306,149,168922,2,0,P|321:104|297:56,1,104.500003189087,2|0,0:1|0:0,0:0:0:0:
227,24,169142,1,0,0:0:0:0:
227,24,169215,2,0,L|123:39,1,104.500003189087,8|0,0:0|0:0,0:0:0:0:
325,258,169507,6,0,B|365:249|365:249|387:238|387:238|424:232,1,104.500003189087,4|0,0:3|0:0,0:0:0:0:
181,355,169800,2,0,B|222:346|222:346|244:334|244:334|281:329,1,104.500003189087,8|0,0:0|0:0,0:0:0:0:
329,261,170020,1,0,0:0:0:0:
329,261,170093,1,2,0:1:0:0:
98,224,170239,1,0,0:0:0:0:
286,152,170385,1,8,0:0:0:0:
310,126,170459,1,0,0:0:0:0:
316,92,170532,1,0,0:0:0:0:
310,57,170605,1,0,0:0:0:0:
286,31,170678,6,0,B|250:0|191:9|166:55|166:55|128:66|101:44,1,209.000006378174,4|8,0:0|0:0,0:0:0:0:
237,93,171117,1,0,0:0:0:0:
396,195,171263,1,2,0:1:0:0:
402,229,171337,1,0,0:0:0:0:
408,262,171410,1,0,0:0:0:0:
415,295,171483,1,0,0:0:0:0:
421,329,171556,2,0,P|373:363|333:351,1,104.500003189087,8|0,0:0|0:0,0:0:0:0:
205,184,171849,6,0,P|127:149|67:237,1,209.000006378174,4|8,0:3|0:0,0:0:0:0:
292,271,172288,1,0,0:0:0:0:
336,152,172434,2,0,B|352:41|352:41|330:1,2,156.750004783631,2|0|2,0:1|0:0|0:1,0:0:0:0:
240,331,173020,2,0,P|289:352|334:338,1,104.500003189087,4|0,0:0|0:0,0:0:0:0:
433,239,173312,1,8,0:0:0:0:
278,153,173459,1,0,0:1:0:0:
465,93,173605,1,2,0:1:0:0:
465,93,173678,1,0,0:0:0:0:
465,93,173751,1,0,0:0:0:0:
218,199,173898,2,0,P|201:149|219:103,1,104.500003189087,8|0,0:0|0:0,0:0:0:0:
474,282,174190,6,0,B|452:324|395:339|354:306|354:306|315:312|298:342,1,209.000006378174,4|8,0:3|0:0,0:0:0:0:
405,249,174629,1,0,0:0:0:0:
434,156,174776,2,0,B|456:50|456:50|439:3,2,156.750004783631,2|0|2,0:1|0:0|0:1,0:0:0:0:
317,347,175361,2,0,P|267:365|221:349,1,104.500003189087,4|0,0:0|0:0,0:0:0:0:
174,287,175581,1,0,0:0:0:0:
174,287,175654,1,8,0:0:0:0:
201,148,175800,1,0,0:0:0:0:
60,184,175946,1,2,0:1:0:0:
60,184,176020,1,0,0:0:0:0:
60,184,176093,1,0,0:0:0:0:
258,98,176239,2,0,P|276:146|261:193,1,104.500003189087,8|0,0:0|0:0,0:0:0:0:
84,30,176532,6,0,B|144:13|144:13|187:16,2,104.500003189087,4|0|8,0:3|0:0|0:0,0:0:0:0:
15,67,176898,1,0,0:0:0:0:
15,67,176971,2,0,P|-16:148|23:194,1,156.750004783631,2|0,0:1|0:0,0:0:0:0:
100,228,177263,2,0,P|142:288|108:355,1,156.750004783631,2|0,0:1|0:0,0:0:0:0:
32,369,177556,1,0,0:0:0:0:
123,137,177702,1,4,0:0:0:0:
243,274,177849,1,0,0:0:0:0:
243,274,177922,1,0,0:0:0:0:
243,274,177995,2,0,P|285:292|337:273,1,104.500003189087,8|0,0:0|0:0,0:0:0:0:
453,55,178288,2,0,P|411:37|357:57,1,104.500003189087,2|0,0:1|0:0,0:0:0:0:
431,360,178581,1,8,0:0:0:0:
484,226,178727,1,8,0:0:0:0:
262,344,178873,5,4,0:3:0:0:
224,356,178946,1,0,0:0:0:0:
186,349,179019,1,0,0:0:0:0:
155,325,179092,1,0,0:0:0:0:
139,289,179165,1,8,0:0:0:0:
142,250,179238,1,0,0:0:0:0:
164,217,179312,1,0,0:0:0:0:
198,199,179385,1,0,0:0:0:0:
237,198,179458,5,2,0:3:0:0:
276,197,179532,1,0,0:0:0:0:
310,179,179605,1,0,0:0:0:0:
332,146,179679,1,0,0:0:0:0:
335,107,179752,1,8,0:0:0:0:
319,71,179825,1,0,0:0:0:0:
288,47,179898,1,0,0:0:0:0:
250,40,179971,1,0,0:0:0:0:
211,47,180044,5,2,0:3:0:0:
170,75,180117,1,0,0:0:0:0:
145,117,180190,1,0,0:0:0:0:
138,165,180263,1,0,0:0:0:0:
152,213,180336,1,2,0:3:0:0:
184,250,180409,1,0,0:0:0:0:
228,271,180483,1,0,0:0:0:0:
277,273,180556,1,0,0:0:0:0:
323,255,180629,5,2,0:3:0:0:
394,189,181215,6,0,P|403:162|402:138,3,52.2500015945435,4|0|0|0,0:1|0:0|0:0|0:0,0:0:0:0:
349,57,181507,2,0,P|348:32|358:6,3,52.2500015945435,8|0|0|0,0:0|0:0|0:0|0:0,0:0:0:0:
493,135,181800,1,8,0:0:0:0:
500,178,181873,1,0,0:0:0:0:
490,221,181946,1,0,0:0:0:0:
462,256,182019,1,0,0:0:0:0:
424,277,182092,1,8,0:0:0:0:
380,281,182165,1,0,0:0:0:0:
338,266,182239,1,0,0:0:0:0:
305,236,182312,1,0,0:0:0:0:
288,195,182385,6,0,P|261:184|237:184,3,52.2500015945435,4|0|0|0,0:1|0:0|0:0|0:0,0:0:0:0:
133,211,182678,2,0,P|108:211|82:200,3,52.2500015945435,8|0|0|0,0:0|0:0|0:0|0:0,0:0:0:0:
36,55,182971,1,8,0:0:0:0:
79,47,183044,1,0,0:0:0:0:
122,39,183117,1,0,0:0:0:0:
165,31,183190,1,0,0:0:0:0:
204,51,183263,1,8,0:0:0:0:
243,71,183337,1,0,0:0:0:0:
286,63,183410,1,0,0:0:0:0:
329,55,183483,1,0,0:0:0:0:
372,47,183556,6,0,P|381:77|376:98,3,52.2500015945435,4|0|0|0,0:1|0:0|0:0|0:0,0:0:0:0:
329,185,183849,2,0,P|327:209|336:235,3,52.2500015945435,8|0|0|0,0:0|0:0|0:0|0:0,0:0:0:0:
453,189,184142,1,8,0:0:0:0:
439,147,184215,1,0,0:0:0:0:
412,112,184288,1,0,0:0:0:0:
375,89,184361,1,0,0:0:0:0:
332,81,184434,1,8,0:0:0:0:
289,87,184507,1,0,0:0:0:0:
251,108,184581,1,0,0:0:0:0:
222,141,184654,1,0,0:0:0:0:
207,182,184727,6,0,P|181:192|152:191,3,52.2500015945435,4|0|0|0,0:1|0:0|0:0|0:0,0:0:0:0:
34,137,185020,1,8,0:0:0:0:
30,166,185093,1,0,0:0:0:0:
27,195,185166,1,0,0:0:0:0:
24,224,185239,1,0,0:0:0:0:
37,250,185312,1,8,0:0:0:0:
51,276,185385,1,0,0:0:0:0:
48,305,185458,1,0,0:0:0:0:
45,334,185531,1,0,0:0:0:0:
57,361,185605,6,0,B|68:274|68:274|38:220|38:220|46:162,1,206.625006305695,8|0,0:0|0:0,0:0:0:0:
85,69,185898,6,0,P|114:61|136:66,3,52.2500015945435,4|0|0|0,0:1|0:0|0:0|0:0,0:0:0:0:
242,124,186190,2,0,P|268:127|295:117,3,52.2500015945435,8|0|0|0,0:0|0:0|0:0|0:0,0:0:0:0:
417,24,186483,1,8,0:0:0:0:
452,50,186556,1,0,0:0:0:0:
476,86,186629,1,0,0:0:0:0:
487,128,186702,1,0,0:0:0:0:
483,172,186775,1,8,0:0:0:0:
465,212,186848,1,0,0:0:0:0:
434,243,186922,1,0,0:0:0:0:
395,262,186995,1,0,0:0:0:0:
352,267,187068,6,0,P|324:268|301:259,3,52.2500015945435,4|0|0|0,0:1|0:0|0:0|0:0,0:0:0:0:
203,187,187361,2,0,P|179:178|152:182,3,52.2500015945435,8|0|0|0,0:0|0:0|0:0|0:0,0:0:0:0:
58,290,187654,1,8,0:0:0:0:
86,323,187727,1,0,0:0:0:0:
124,345,187800,1,0,0:0:0:0:
167,354,187873,1,0,0:0:0:0:
210,348,187946,1,8,0:0:0:0:
250,329,188019,1,0,0:0:0:0:
281,298,188093,1,0,0:0:0:0:
300,259,188166,1,0,0:0:0:0:
306,216,188239,6,0,P|331:208|356:210,3,52.2500015945435,4|0|0|0,0:1|0:0|0:0|0:0,0:0:0:0:
436,300,188532,2,0,P|461:304|487:293,3,52.2500015945435,8|0|0|0,0:0|0:0|0:0|0:0,0:0:0:0:
510,136,188824,1,8,0:0:0:0:
489,97,188897,1,0,0:0:0:0:
459,64,188970,1,0,0:0:0:0:
422,41,189043,1,0,0:0:0:0:
380,28,189116,1,8,0:0:0:0:
337,25,189189,1,0,0:0:0:0:
294,35,189263,1,0,0:0:0:0:
254,54,189336,1,0,0:0:0:0:
222,83,189410,6,0,B|212:118|212:118|215:150|215:150|205:186,1,104.500003189087,4|0,0:1|0:0,0:0:0:0:
177,257,189629,1,0,0:0:0:0:
177,257,189702,2,0,P|147:263|127:258,1,52.2500015945435,2|0,0:1|0:0,0:0:0:0:
64,212,189849,2,0,P|50:184|50:163,1,52.2500015945435
89,99,189995,1,2,0:1:0:0:
89,99,190068,1,0,0:0:0:0:
89,99,190142,1,0,0:0:0:0:
89,99,190215,1,0,0:0:0:0:
89,99,190288,6,0,B|118:67|191:67|218:134|218:134|246:117|272:123|272:123|292:144|326:145,1,275.500008407593,2|8,0:1|0:3,0:0:0:0:
431,124,190727,1,0,0:0:0:0:
310,245,190873,2,0,P|291:294|309:340,1,104.500003189087,8|0,0:0|0:0,0:0:0:0:
482,185,191166,5,8,0:0:0:0:
506,154,191239,1,0,0:0:0:0:
511,114,191312,1,0,0:0:0:0:
498,78,191385,1,0,0:0:0:0:
468,53,191458,1,8,0:0:0:0:
430,43,191531,1,0,0:0:0:0:
392,54,191605,1,0,0:0:0:0:
364,82,191678,1,0,0:0:0:0:
354,120,191751,6,0,P|331:134|299:135,3,52.2500015945435,4|0|0|0,0:1|0:0|0:0|0:0,0:0:0:0:
221,98,192044,2,0,B|179:90|179:90|154:77|154:77|121:71,1,104.500003189087,8|0,0:0|0:0,0:0:0:0:
218,170,192263,1,0,0:0:0:0:
218,170,192337,2,0,B|154:158|154:158|123:142|123:142|66:133,2,156.750004783631,8|0|2,0:0|0:0|0:1,0:0:0:0:
320,313,192922,2,0,B|382:301|382:301|414:285|414:285|471:276,2,156.750004783631,8|0|2,0:0|0:0|0:1,0:0:0:0:
113,315,193507,2,0,P|59:267|80:193,1,156.750004783631,8|0,0:0|0:0,0:0:0:0:
232,235,193800,2,0,L|128:246,1,104.500003189087,4|2,0:0|0:1,0:0:0:0:
348,160,194093,6,0,P|381:88|285:36,1,209.000006378174,4|8,0:0|0:0,0:0:0:0:
102,129,194532,1,0,0:0:0:0:
312,101,194678,1,2,0:1:0:0:
68,60,194824,1,0,0:0:0:0:
68,60,194898,1,0,0:0:0:0:
68,60,194971,6,0,B|29:73|1:139|50:189|50:189|24:207|20:232|20:232|34:253|26:280,1,256.50000097847,8|8,0:0|0:3,0:0:0:0:
5,365,195410,1,0,0:0:0:0:
129,260,195556,2,0,P|179:241|226:255,1,104.500003189087,8|0,0:0|0:0,0:0:0:0:
325,352,195849,1,4,0:0:0:0:
349,372,195922,1,0,0:0:0:0:
378,382,195995,1,0,0:0:0:0:
409,380,196068,1,0,0:0:0:0:
436,366,196141,1,8,0:0:0:0:
456,343,196214,1,0,0:0:0:0:
466,314,196288,1,0,0:0:0:0:
464,283,196361,1,0,0:0:0:0:
451,256,196434,6,0,B|447:217|447:217|454:190|454:190|449:152,1,104.500003189087,4|0,0:1|0:0,0:0:0:0:
441,72,196654,1,0,0:0:0:0:
441,72,196727,1,8,0:0:0:0:
250,15,196873,1,0,0:0:0:0:
94,103,197020,6,0,P|88:134|94:157,1,52.2500015945435,8|0,0:0|0:0,0:0:0:0:
126,231,197166,2,0,P|149:251|172:258,1,52.2500015945435,2|0,0:1|0:0,0:0:0:0:
252,267,197312,2,0,P|281:256|298:240,1,52.2500015945435,8|0,0:0|0:0,0:0:0:0:
346,175,197459,2,0,P|352:144|345:121,1,52.2500015945435,2|0,0:1|0:0,0:0:0:0:
312,50,197605,5,4,0:3:0:0:
312,50,197678,1,0,0:0:0:0:
312,50,197751,2,0,P|212:49|195:140,1,209.000006378174,0|0,0:3|0:0,0:0:0:0:
252,298,198190,2,0,P|211:357|136:343,2,156.750004783631,2|0|2,0:1|0:0|0:1,0:0:0:0:
157,106,198776,5,4,0:0:0:0:
124,78,198849,1,0,0:0:0:0:
82,73,198922,1,0,0:0:0:0:
44,94,198995,1,0,0:0:0:0:
25,132,199068,1,8,0:0:0:0:
30,174,199141,1,0,0:0:0:0:
59,205,199215,1,0,0:0:0:0:
100,215,199288,1,0,0:0:0:0:
140,200,199361,6,0,B|181:190|181:190|209:192|209:192|244:183,1,104.500003189087,4|0,0:1|0:0,0:0:0:0:
329,159,199581,1,0,0:0:0:0:
329,159,199654,2,0,B|368:148|368:148|396:150|396:150|430:141,1,104.500003189087,8|0,0:0|0:0,0:0:0:0:
484,26,199946,5,8,0:3:0:0:
481,231,200093,1,0,0:0:0:0:
481,231,200166,1,0,0:0:0:0:
481,231,200239,2,0,B|477:271|477:271|468:292|468:292|466:327,1,95,8|0,0:0|0:0,0:0:0:0:
307,274,200532,1,2,0:1:0:0:
302,242,200605,1,0,0:0:0:0:
297,210,200678,1,0,0:0:0:0:
292,178,200751,1,0,0:0:0:0:
287,146,200824,1,8,0:0:0:0:
282,114,200898,1,0,0:0:0:0:
277,82,200971,1,0,0:0:0:0:
273,50,201044,1,0,0:0:0:0:
269,18,201117,6,0,P|212:9|180:26,1,95
79,118,201410,1,8,0:0:0:0:
79,118,201483,1,0,0:0:0:0:
79,118,201556,1,0,0:0:0:0:
159,222,201702,6,0,P|166:255|159:284,1,63.3333333333333,2|0,0:1|0:0,0:0:0:0:
35,246,201898,2,0,B|76:115|76:115|114:78,1,190,4|0,0:0|0:0,0:0:0:0:
220,38,202288,5,4,0:1:0:0:
266,191,202434,1,0,0:0:0:0:
319,91,202581,1,8,0:0:0:0:
166,137,202727,1,0,0:0:0:0:
295,13,202873,1,2,0:1:0:0:
190,214,203019,1,0,0:0:0:0:
141,61,203166,1,8,0:0:0:0:
343,167,203312,1,0,0:0:0:0:
166,137,203459,6,0,B|132:135|132:135|104:144|104:144|72:142,1,95,4|0,0:0|0:0,0:0:0:0:
277,271,203751,1,8,0:0:0:0:
306,259,203824,1,0,0:0:0:0:
335,246,203898,1,0,0:0:0:0:
364,234,203971,1,0,0:0:0:0:
392,220,204044,2,0,B|434:190|424:129|385:104|385:104|392:79|423:71,1,190,2|4,0:1|0:0,0:0:0:0:
94,22,204629,6,0,B|44:23|12:65|4:109|30:160|72:177|124:169|124:169|143:234|94:280|94:280|166:240|261:282|270:355,1,598.49998173523,4|4,0:1|0:0,0:0:0:0:
99,95,205654,1,0,0:0:0:0:
205,175,205800,2,0,B|238:204|290:206|334:177|351:118|324:71|290:53|290:53|401:46|455:141|441:244|386:308,1,598.49998173523,4|4,0:1|0:0,0:0:0:0:
253,118,206824,6,0,P|211:100|137:204,1,199.499993911743,2|0,0:1|0:0,0:0:0:0:
168,276,207190,1,0,0:0:0:0:
168,276,207263,1,8,0:0:0:0:
49,357,207410,1,0,0:0:0:0:
233,316,207556,2,0,P|247:269|228:227,1,95,2|0,0:1|0:0,0:0:0:0:
60,117,207849,1,8,0:0:0:0:
60,117,207995,1,0,0:0:0:0:
316,171,208142,5,2,0:1:0:0:
79,238,208288,1,0,0:0:0:0:
166,55,208434,1,8,0:0:0:0:
297,247,208581,1,8,0:0:0:0:
23,288,208727,2,0,P|3:245|14:200,1,95,8|0,0:0|0:0,0:0:0:0:
268,43,209020,1,8,0:0:0:0:
299,40,209093,1,0,0:0:0:0:
330,37,209166,1,0,0:0:0:0:
361,34,209239,1,0,0:0:0:0:
392,32,209312,6,0,P|430:65|414:147,1,142.5,8|0,0:3|0:0,0:0:0:0:
347,204,209605,2,0,B|309:238|316:296|354:319|354:319|326:305|300:313,1,190,8|2,0:0|0:1,0:0:0:0:
395,260,210044,2,0,P|440:248|483:267,1,95,0|8,0:0|0:0,0:0:0:0:
230,352,210337,1,0,0:0:0:0:
111,271,210483,6,0,P|97:223|113:182,1,95,2|0,0:1|0:0,0:0:0:0:
293,173,210776,2,0,P|256:251|170:230,1,190,8|2,0:0|0:1,0:0:0:0:
214,73,211215,1,0,0:0:0:0:
335,57,211361,2,0,B|372:53|372:53|399:57|399:57|431:52,1,95,8|0,0:0|0:0,0:0:0:0:
214,73,211654,5,8,0:3:0:0:
296,238,211800,1,0,0:0:0:0:
153,249,211946,1,8,0:0:0:0:
286,96,212093,1,0,0:0:0:0:
228,274,212239,1,2,0:1:0:0:
142,107,212385,1,0,0:0:0:0:
321,165,212531,1,8,0:0:0:0:
120,181,212678,2,0,B|81:169|55:135|48:95|58:56|95:15|143:12|197:30|213:80|213:80|269:15|364:51,1,475,8|0,0:3|0:1,0:0:0:0:
475,180,213556,2,0,P|478:282|343:231,1,299.249990867615,8|4,0:3|0:1,0:0:0:0:
356,130,214142,5,0,0:0:0:0:
250,277,214288,2,0,P|205:298|163:285,1,95,8|0,0:0|0:0,0:0:0:0:
77,211,214581,1,2,0:1:0:0:
63,50,214727,1,0,0:0:0:0:
63,50,214800,1,0,0:0:0:0:
63,50,214873,2,0,B|97:40|97:40|119:39|119:39|154:28,1,95,8|0,0:0|0:0,0:0:0:0:
356,130,215166,2,0,B|390:120|390:120|412:119|412:119|447:108,1,95,4|0,0:0|0:0,0:0:0:0:
344,207,215459,2,0,P|277:146|309:62,1,190,8|4,0:0|0:0,0:0:0:0:
486,237,215898,2,0,B|478:297|478:297|457:324,1,95,0|8,0:0|0:0,0:0:0:0:
313,363,216190,1,0,0:0:0:0:
231,233,216337,6,0,P|167:200|106:226,1,142.5,8|0,0:3|0:0,0:0:0:0:
48,280,216629,2,0,B|35:322|35:322|41:347,2,63.3333333333333,8|0|0,0:0|0:0|0:0,0:0:0:0:
115,64,216922,2,0,P|157:41|200:50,1,95,2|0,0:1|0:0,0:0:0:0:
331,289,217215,2,0,P|281:295|242:270,1,95,8|0,0:0|0:0,0:0:0:0:
465,74,217507,6,0,B|506:108|488:173|454:191|454:191|492:227|474:277,1,227.999993041992,4|8,0:3|0:0,0:0:0:0:
414,127,217946,1,0,0:0:0:0:
290,318,218093,1,2,0:1:0:0:
186,117,218239,1,0,0:1:0:0:
397,246,218385,1,8,0:0:0:0:
397,246,218459,1,0,0:0:0:0:
397,246,218532,1,0,0:0:0:0:
128,172,218678,5,4,0:1:0:0:
110,133,218751,1,0,0:0:0:0:
113,90,218824,1,0,0:0:0:0:
138,56,218897,1,0,0:0:0:0:
177,41,218970,1,8,0:0:0:0:
219,46,219043,1,0,0:0:0:0:
251,73,219117,1,0,0:0:0:0:
262,113,219190,1,0,0:0:0:0:
255,154,219263,6,0,P|251:178|254:207,3,49.8749984779358,2|0|0|0,0:1|0:0|0:0|0:0,0:0:0:0:
321,315,219556,2,0,B|362:328|362:328|386:324,2,66.4999979705811,8|0|0,0:0|0:0|0:0,0:0:0:0:
171,267,219849,2,0,B|191:262|191:262|234:276,2,66.4999979705811,2|0|0,0:1|0:0|0:0,0:0:0:0:
50,303,220142,5,8,0:0:0:0:
50,303,220215,1,0,0:0:0:0:
50,303,220288,1,0,0:0:0:0:
50,303,220361,1,0,0:0:0:0:
50,303,220434,2,0,B|63:262|63:262|60:238,2,66.4999979705811,2|0|0,0:1|0:0|0:0,0:0:0:0:
46,153,220727,1,8,0:0:0:0:
46,153,220800,1,0,0:0:0:0:
46,153,220873,2,0,L|36:104,1,49.8749984779358
60,239,221020,6,0,P|219:233|103:81,1,437.000008335114,8|2,0:3|0:1,0:0:0:0:
64,99,221678,1,0,0:0:0:0:
77,139,221751,1,0,0:0:0:0:
90,179,221824,1,0,0:0:0:0:
103,219,221898,1,8,0:0:0:0:
144,226,221971,1,0,0:0:0:0:
185,233,222044,1,0,0:0:0:0:
198,273,222117,1,0,0:0:0:0:
211,313,222190,6,0,L|225:362,3,49.8749984779358,2|0|0|0,0:1|0:0|0:0|0:0,0:0:0:0:
279,197,222483,2,0,L|293:246,3,49.8749984779358,8|0|0|0,0:0|0:0|0:0|0:0,0:0:0:0:
200,193,222776,2,0,B|199:134|261:94|316:125|316:125|324:94|346:80|346:80|377:82|399:58,1,275.500008407593,8|8,0:3|0:0,0:0:0:0:
444,5,223215,1,0,0:0:0:0:
476,172,223361,5,4,0:1:0:0:
265,45,223507,1,0,0:0:0:0:
331,304,223654,1,8,0:0:0:0:
428,82,223800,1,0,0:0:0:0:
176,207,223946,5,2,0:1:0:0:
444,282,224093,1,0,0:0:0:0:
241,94,224239,1,8,0:0:0:0:
196,355,224385,1,0,0:0:0:0:
4,246,224532,5,4,0:1:0:0:
290,165,224678,1,0,0:0:0:0:
34,102,224824,1,8,0:0:0:0:
101,348,224971,1,0,0:0:0:0:
290,165,225117,5,2,0:1:0:0:
411,320,225263,1,0,0:0:0:0:
226,208,225410,2,0,P|212:163|229:116,1,99.7499969558717,8|0,0:0|0:0,0:0:0:0:
442,31,225702,5,4,0:0:0:0:
452,131,225849,1,0,0:0:0:0:
463,241,225995,1,8,0:0:0:0:
474,351,226142,1,0,0:1:0:0:
343,55,226288,1,2,0:1:0:0:
356,184,226434,1,0,0:0:0:0:
370,323,226580,1,8,0:0:0:0:
343,55,226727,1,0,0:0:0:0:
268,376,226873,5,4,0:0:0:0:
244,81,227020,1,0,0:0:0:0:
268,376,227166,1,8,0:0:0:0:
244,81,227312,5,0,0:0:0:0:
202,72,227385,1,0,0:0:0:0:
159,63,227459,1,4,0:0:0:0:
117,55,227532,1,0,0:0:0:0:
75,47,227605,2,0,L|26:57,1,49.8749984779358
57,133,227751,1,8,0:0:0:0:
57,133,227824,1,0,0:0:0:0:
57,133,227898,2,0,L|8:143,1,49.8749984779358
93,275,228044,6,0,B|138:311|203:269|195:208|195:208|236:251|292:224|292:224|343:196|383:224,1,356.25,8|0,0:3|0:0,0:0:0:0:
253,159,228629,2,0,P|236:110|253:68,1,99.7499969558717,2|0,0:1|0:0,0:0:0:0:
454,24,228922,1,8,0:0:0:0:
469,255,229068,1,0,0:0:0:0:
409,119,229215,6,0,B|373:113|373:113|341:120|341:120|309:114,1,99.7499969558717,2|0,0:1|0:0,0:0:0:0:
382,329,229507,1,8,0:0:0:0:
316,192,229654,2,0,B|280:186|280:186|248:193|248:193|216:187,1,99.7499969558717,2|0,0:1|0:0,0:0:0:0:
64,62,229946,1,2,0:1:0:0:
31,279,230093,1,8,0:0:0:0:
49,167,230239,1,0,0:0:0:0:
154,331,230385,6,0,P|193:348|246:332,1,99.7499969558717,4|0,0:0|0:0,0:0:0:0:
346,218,230678,1,8,0:0:0:0:
219,109,230824,1,0,0:0:0:0:
399,272,230971,2,0,P|422:225|408:176,1,99.7499969558717,2|0,0:1|0:0,0:0:0:0:
147,131,231263,2,0,P|176:174|224:185,1,99.7499969558717,8|0,0:0|0:0,0:0:0:0:
413,73,231556,1,8,0:3:0:0:
99,16,231702,1,0,0:0:0:0:
165,297,231849,1,8,0:0:0:0:
331,48,231995,1,0,0:0:0:0:
41,133,232142,6,0,B|41:171|7:187|7:187|57:178|83:205|83:205|12:246|14:338|68:382,1,356.25,8|0,0:3|0:0,0:0:0:0:
407,359,232727,5,4,0:1:0:0:
439,338,232800,1,0,0:0:0:0:
459,304,232873,1,0,0:0:0:0:
460,265,232946,1,0,0:0:0:0:
439,231,233019,1,8,0:0:0:0:
405,212,233092,1,0,0:0:0:0:
365,214,233166,1,0,0:0:0:0:
332,235,233239,1,0,0:0:0:0:
317,272,233312,5,2,0:1:0:0:
308,315,233385,1,0,0:0:0:0:
278,347,233458,1,0,0:0:0:0:
235,358,233532,1,0,0:0:0:0:
193,344,233605,1,8,0:0:0:0:
164,310,233678,1,0,0:0:0:0:
158,266,233751,1,0,0:0:0:0:
177,226,233824,1,0,0:0:0:0:
214,200,233898,5,2,0:1:0:0:
242,159,233971,1,0,0:0:0:0:
249,110,234044,1,0,0:0:0:0:
232,64,234117,1,0,0:0:0:0:
195,32,234190,1,8,0:0:0:0:
146,20,234263,1,0,0:0:0:0:
99,33,234337,1,0,0:0:0:0:
63,67,234410,1,0,0:0:0:0:
50,117,234483,5,2,0:1:0:0:
64,166,234556,1,0,0:0:0:0:
103,204,234629,1,0,0:0:0:0:
156,215,234702,1,0,0:0:0:0:
207,198,234775,1,8,0:0:0:0:
242,157,234848,1,0,0:0:0:0:
252,105,234922,1,0,0:0:0:0:
233,53,234995,1,0,0:0:0:0:
186,28,235068,6,0,B|222:33|222:33|246:44|246:44|282:49,1,99.7499969558717,4|0,0:1|0:0,0:0:0:0:
362,68,235288,1,0,0:0:0:0:
362,68,235361,2,0,L|411:76,3,49.8749984779358,8|0|0|0,0:0|0:0|0:0|0:0,0:0:0:0:
484,143,235654,1,2,0:1:0:0:
506,196,235727,1,0,0:0:0:0:
506,253,235800,1,0,0:0:0:0:
494,309,235873,1,0,0:0:0:0:
451,347,235946,6,0,P|380:383|317:268,1,237.5,8|4,0:0|0:0,0:0:0:0:
368,89,236385,1,0,0:0:0:0:
368,89,236459,1,0,0:0:0:0:
368,89,236532,1,8,0:0:0:0:
104,153,236678,1,8,0:0:0:0:
302,187,236824,5,2,0:1:0:0:
305,215,236897,1,0,0:0:0:0:
308,243,236970,1,0,0:0:0:0:
312,270,237043,1,0,0:0:0:0:
316,297,237117,1,8,0:0:0:0:
56,343,237263,1,8,0:0:0:0:
104,153,237410,5,8,0:3:0:0:
256,192,237483,12,8,240337,0:3:0:0:
302,66,240629,6,0,P|352:49|392:61,1,95,8|0,0:0|0:0,0:0:0:0:
352,308,240922,2,0,P|312:272|304:232,1,95,2|0,0:3|0:0,0:0:0:0:
499,91,241215,1,8,0:0:0:0:
382,235,241361,1,0,0:0:0:0:
225,40,241507,1,2,0:3:0:0:
197,37,241581,1,0,0:0:0:0:
170,34,241654,1,0,0:0:0:0:
143,31,241727,1,0,0:0:0:0:
116,29,241800,2,0,L|21:18,1,95,8|0,0:0|0:0,0:0:0:0:
149,256,242093,6,0,L|248:245,1,95,8|0,0:3|0:0,0:0:0:0:
348,338,242385,1,8,0:0:0:0:
439,149,242532,2,0,P|445:116|442:99,1,47.5
390,207,242678,2,0,B|326:201|326:201|300:185,1,95,2|0,0:1|0:0,0:0:0:0:
194,66,242971,1,8,0:0:0:0:
63,289,243117,1,0,0:0:0:0:
260,106,243263,6,0,P|273:63|256:17,1,95,2|0,0:3|0:0,0:0:0:0:
17,37,243556,1,8,0:0:0:0:
84,226,243702,1,0,0:0:0:0:
167,101,243849,2,0,B|193:93|193:93|261:106,1,95,2|0,0:3|0:0,0:0:0:0:
343,127,244068,1,0,0:0:0:0:
343,127,244142,2,0,B|409:137|409:137|435:130,1,95
363,330,244434,6,0,P|252:358|228:288,1,209.000006378174,4|8,0:3|0:0,0:0:0:0:
261,220,244800,1,0,0:0:0:0:
261,220,244873,1,0,0:0:0:0:
110,113,245020,1,2,0:1:0:0:
37,330,245166,1,0,0:0:0:0:
184,165,245312,1,8,0:0:0:0:
414,342,245459,1,0,0:0:0:0:
474,96,245605,5,8,0:0:0:0:
474,96,245678,1,8,0:0:0:0:
474,96,245751,2,0,L|477:40,1,52.2500015945435,8|0,0:0|0:0,0:0:0:0:
374,169,245898,2,0,P|322:180|280:154,1,104.500003189087,4|0,0:0|0:0,0:0:0:0:
161,54,246117,1,0,0:0:0:0:
161,54,246190,2,0,P|95:66|105:171,1,192.375000733852,4|0,0:0|0:0,0:0:0:0:
177,206,246483,6,0,B|187:233|174:264|174:264|203:260|232:272|232:272|214:290|206:317|206:317|226:340|221:375,1,232.274999822788,4|0,0:3|0:0,0:0:0:0:
269,191,246776,6,0,P|307:177|356:195,1,95,4|0,0:0|0:0,0:0:0:0:
454,340,247068,1,8,0:0:0:0:
479,146,247215,1,0,0:0:0:0:
479,146,247288,1,0,0:0:0:0:
479,146,247361,2,0,B|476:104|476:104|469:83|469:83|468:52,1,95,2|0,0:1|0:0,0:0:0:0:
468,240,247654,1,8,0:0:0:0:
250,41,247800,1,0,0:0:0:0:
137,230,247946,6,0,P|94:245|50:228,1,95,2|0,0:3|0:0,0:0:0:0:
19,99,248239,1,8,0:0:0:0:
228,165,248385,2,0,B|232:214|232:214|226:238|226:238|230:264,1,95,2|0,0:3|0:0,0:0:0:0:
313,384,248678,1,0,0:0:0:0:
410,237,248824,1,8,0:0:0:0:
125,357,248971,1,0,0:0:0:0:
184,107,249117,6,0,P|220:91|276:109,1,95,2|0,0:3|0:0,0:0:0:0:
324,172,249337,1,0,0:0:0:0:
324,172,249410,1,8,0:0:0:0:
122,159,249556,2,0,P|103:113|114:70,1,95,2|0,0:3|0:0,0:0:0:0:
325,15,249849,1,0,0:0:0:0:
184,107,249995,1,8,0:0:0:0:
467,176,250142,1,0,0:0:0:0:
283,357,250288,6,0,P|240:373|194:356,1,95,2|0,0:3|0:0,0:0:0:0:
144,181,250581,1,8,0:0:0:0:
144,181,250654,1,0,0:0:0:0:
144,181,250727,2,0,L|155:132,1,47.5
224,209,250873,2,0,B|244:285|244:285|240:306,1,95,2|0,0:1|0:0,0:0:0:0:
36,355,251166,1,8,0:0:0:0:
228,87,251312,1,8,0:0:0:0:
341,261,251459,6,0,P|406:281|449:159,1,227.999993041992,4|8,0:0|0:0,0:0:0:0:
385,118,251824,1,0,0:0:0:0:
385,118,251898,2,0,B|318:103|318:103|288:110,1,95,0|2,0:0|0:1,0:0:0:0:
103,180,252190,1,0,0:0:0:0:
142,48,252337,1,8,0:0:0:0:
180,331,252483,1,0,0:0:0:0:
46,227,252629,6,0,P|27:183|39:139,1,95,4|0,0:1|0:0,0:0:0:0:
266,42,252922,1,8,0:0:0:0:
352,218,253068,2,0,B|345:267|345:267|325:303|325:303|320:354,1,142.5,4|0,0:3|0:0,0:0:0:0:
414,341,253361,2,0,P|435:325|448:304,1,47.5,4|0,0:0|0:0,0:0:0:0:
472,229,253507,2,0,P|474:202|467:178,1,47.5,4|0,0:0|0:0,0:0:0:0:
422,112,253654,2,0,P|403:92|381:83,1,47.5,4|0,0:0|0:0,0:0:0:0:
294,61,253800,5,4,0:3:0:0:
258,52,253873,1,0,0:0:0:0:
222,58,253946,1,0,0:0:0:0:
190,78,254020,1,0,0:0:0:0:
170,107,254093,1,8,0:0:0:0:
147,135,254166,1,0,0:0:0:0:
118,158,254240,1,0,0:0:0:0:
82,165,254313,1,0,0:0:0:0:
45,157,254385,5,4,0:3:0:0:
69,119,254458,1,0,0:0:0:0:
108,97,254531,1,0,0:0:0:0:
152,96,254604,1,0,0:0:0:0:
193,115,254677,1,8,0:0:0:0:
220,150,254750,1,0,0:0:0:0:
227,194,254824,1,0,0:0:0:0:
214,237,254897,1,0,0:0:0:0:
182,268,254971,6,0,B|134:282|134:282|110:278|110:278|72:290,1,113.999996520996,4|0,0:3|0:0,0:0:0:0:
220,150,255263,1,8,0:0:0:0:
255,156,255337,1,0,0:0:0:0:
290,162,255410,1,0,0:0:0:0:
325,168,255483,1,0,0:0:0:0:
359,177,255556,2,0,B|405:206|406:278|359:304|359:304|372:343|349:375,1,227.999993041992,4|4,0:3|0:3,0:0:0:0:
286,334,255922,1,0,0:0:0:0:
286,334,255995,2,0,P|260:326|232:332,1,56.9999982604981
152,368,256142,6,0,P|107:379|69:361,1,90.2499975900651,4|0,0:1|0:0,0:0:0:0:
36,185,256434,1,8,0:0:0:0:
90,118,256581,1,0,0:0:0:0:
163,161,256727,1,2,0:1:0:0:
217,94,256873,1,0,0:0:0:0:
290,137,257020,1,8,0:0:0:0:
344,70,257166,1,0,0:0:0:0:
417,113,257312,6,0,P|434:157|425:197,1,90.2499975900651,4|0,0:0|0:0,0:0:0:0:
226,336,257605,1,8,0:0:0:0:
163,161,257751,2,0,L|174:70,1,90.2499975900651,8|2,0:3|0:1,0:0:0:0:
151,269,258044,1,0,0:0:0:0:
314,176,258190,1,8,0:0:0:0:
360,365,258337,1,0,0:0:0:0:
365,118,258483,6,0,P|326:97|281:104,1,90.2499975900651,4|0,0:1|0:0,0:0:0:0:
137,219,258776,1,8,0:0:0:0:
222,193,258922,1,0,0:0:0:0:
354,277,259068,1,2,0:1:0:0:
269,303,259214,1,0,0:0:0:0:
362,180,259361,1,8,0:0:0:0:
447,154,259507,1,0,0:0:0:0:
206,261,259654,6,0,P|193:302|207:347,1,90.2499975900651,4|0,0:3|0:0,0:0:0:0:
497,320,259946,1,8,0:0:0:0:
358,292,260093,2,0,L|269:302,1,90.2499975900651,4|2,0:1|0:1,0:0:0:0:
105,180,260385,2,0,L|194:191,1,90.2499975900651,0|8,0:0|0:0,0:0:0:0:
326,117,260678,1,0,0:0:0:0:
47,133,260824,6,0,P|30:171|41:219,1,90.2499975900651,8|0,0:3|0:0,0:0:0:0:
190,349,261117,1,8,0:0:0:0:
273,365,261263,1,0,0:0:0:0:
355,342,261410,1,2,0:1:0:0:
406,274,261556,1,0,0:0:0:0:
407,188,261702,1,8,0:0:0:0:
370,110,261849,1,0,0:0:0:0:
290,79,261995,6,0,B|255:74|255:74|225:80|225:80|200:76,1,90.2499975900651,8|0,0:3|0:0,0:0:0:0:
40,47,262288,1,8,0:0:0:0:
35,132,262434,1,0,0:0:0:0:
31,217,262581,1,2,0:1:0:0:
106,176,262727,1,0,0:0:0:0:
101,261,262873,1,8,0:0:0:0:
97,346,263020,1,0,0:0:0:0:
174,216,263166,6,0,P|217:204|257:220,1,90.2499975900651,4|0,0:1|0:0,0:0:0:0:
359,344,263459,1,8,0:0:0:0:
368,121,263605,1,0,0:0:0:0:
210,280,263751,1,2,0:1:0:0:
448,260,263898,1,0,0:0:0:0:
324,78,264044,1,8,0:0:0:0:
276,323,264190,6,0,P|202:358|137:253,1,227.999993041992,8|0,0:3|0:0,0:0:0:0:
273,71,264629,1,8,0:0:0:0:
398,240,264776,2,0,P|402:264|398:284,1,45.1249987950325
306,215,264922,1,4,0:0:0:0:
317,192,264995,1,0,0:0:0:0:
328,169,265068,1,0,0:0:0:0:
340,146,265142,1,0,0:0:0:0:
362,134,265215,1,4,0:0:0:0:
384,122,265288,1,0,0:0:0:0:
396,99,265361,1,0,0:0:0:0:
407,76,265434,1,0,0:0:0:0:
418,53,265507,6,0,P|381:34|334:42,1,90.2499975900651,4|0,0:1|0:0,0:0:0:0:
204,144,265800,1,8,0:0:0:0:
117,198,265946,1,0,0:0:0:0:
114,95,266093,1,2,0:1:0:0:
187,214,266239,1,0,0:0:0:0:
185,72,266385,1,8,0:0:0:0:
58,147,266532,1,0,0:0:0:0:
252,173,266678,6,0,P|265:214|249:258,1,90.2499975900651,8|0,0:3|0:0,0:0:0:0:
149,358,266971,1,8,0:0:0:0:
185,146,267117,2,0,B|199:103|244:78|301:95|322:147|322:147|361:155|377:186,1,246.999988693238,4|0,0:1|0:0,0:0:0:0:
392,303,267556,1,8,0:0:0:0:
149,358,267702,1,0,0:0:0:0:
455,348,267849,6,0,P|470:307|457:261,1,90.2499975900651,4|0,0:0|0:0,0:0:0:0:
354,124,268142,1,8,0:0:0:0:
316,235,268288,1,0,0:0:0:0:
259,49,268434,1,2,0:1:0:0:
354,124,268581,1,0,0:0:0:0:
166,121,268727,1,8,0:0:0:0:
259,49,268873,1,0,0:0:0:0:
205,229,269020,6,0,B|173:240|173:240|147:240|147:240|119:250,1,90.2499975900651,8|0,0:3|0:0,0:0:0:0:
46,354,269312,1,8,0:0:0:0:
267,267,269459,2,0,P|279:224|264:183,1,90.2499975900651,4|2,0:0|0:1,0:0:0:0:
98,125,269751,1,0,0:0:0:0:
51,263,269898,2,0,L|45:352,1,90.2499975900651,8|0,0:0|0:0,0:0:0:0:
145,64,270190,6,0,P|102:46|60:57,1,90.2499975900651,8|0,0:3|0:0,0:0:0:0:
94,260,270483,1,8,0:0:0:0:
247,226,270629,1,0,0:0:0:0:
177,275,270776,1,2,0:1:0:0:
400,192,270922,1,0,0:0:0:0:
330,241,271068,1,8,0:0:0:0:
483,207,271214,1,0,0:0:0:0:
313,150,271361,6,0,P|301:104|316:66,1,90.2499975900651,4|0,0:1|0:0,0:0:0:0:
479,292,271654,1,8,0:0:0:0:
379,353,271800,1,0,0:0:0:0:
286,286,271946,1,2,0:1:0:0:
186,347,272093,1,0,0:0:0:0:
93,280,272239,6,0,P|74:239|84:194,1,90.2499975900651,8|0,0:0|0:0,0:0:0:0:
305,137,272532,1,4,0:0:0:0:
147,230,272678,1,0,0:0:0:0:
373,170,272824,2,0,P|382:126|363:83,1,90.2499975900651,8|0,0:0|0:0,0:0:0:0:
157,24,273117,1,2,0:1:0:0:
336,236,273263,2,0,P|380:248|421:230,1,90.2499975900651,4|0,0:0|0:0,0:0:0:0:
293,73,273556,2,0,B|192:90|192:90|166:110|166:110|139:98|139:98|94:106,1,209.000006378174,4|0,0:1|0:0,0:0:0:0:
13,247,273995,5,8,0:0:0:0:
60,29,274142,1,2,0:1:0:0:
188,182,274288,1,2,0:1:0:0:
3,123,274434,1,0,0:0:0:0:
238,34,274581,1,8,0:0:0:0:
247,298,274727,1,2,0:1:0:0:
334,179,274873,6,0,P|353:173|381:177,3,47.5,4|0|0|0,0:0|0:0|0:0|0:0,0:0:0:0:
454,212,275459,2,0,P|476:214|500:208,3,47.5,0|0|0|0,0:1|0:0|0:0|0:0,0:0:0:0:
466,138,276044,1,0,0:0:0:0:
381,107,276190,1,0,0:0:0:0:
295,77,276337,1,0,0:0:0:0:
210,47,276483,1,0,0:0:0:0:
125,15,276629,2,0,L|77:30,1,47.5
93,108,276922,2,0,L|45:123,1,47.5
19,206,277215,5,0,0:0:0:0:
43,292,277361,1,0,0:0:0:0:
110,232,277507,2,0,P|141:225|160:229,1,47.5
242,270,277800,2,0,P|268:271|288:263,1,47.5
352,203,278093,1,0,0:0:0:0:
403,276,278239,1,0,0:0:0:0:
444,196,278385,5,0,0:0:0:0:
434,106,278532,1,0,0:0:0:0:
374,38,278678,1,0,0:0:0:0:
287,12,278824,1,0,0:0:0:0:
196,17,278971,1,0,0:0:0:0:
112,50,279117,1,0,0:0:0:0:
56,120,279263,1,0,0:0:0:0:
39,209,279410,1,0,0:0:0:0:
78,281,279556,6,0,P|103:289|125:287,1,47.5
211,248,279849,2,0,P|235:246|257:255,1,47.5
323,313,280142,1,0,0:0:0:0:
411,298,280288,1,0,0:0:0:0:
357,226,280434,1,0,0:0:0:0:
356,135,280581,1,0,0:0:0:0:
404,59,280727,6,0,P|423:50|449:50,1,47.5
356,135,281020,2,0,P|338:123|325:100,1,47.5
444,141,281312,1,0,0:0:0:0:
460,230,281459,1,0,0:0:0:0:
423,312,281605,2,0,L|379:328,1,47.5
291,352,281898,5,0,0:0:0:0:
201,361,282044,1,0,0:0:0:0:
113,342,282190,1,0,0:0:0:0:
44,282,282337,1,0,0:0:0:0:
22,194,282483,1,0,0:0:0:0:
36,105,282629,1,0,0:0:0:0:
91,33,282776,1,0,0:0:0:0:
178,13,282922,1,0,0:0:0:0:
262,52,283068,6,0,P|275:88|270:119,1,71.2500027179719,2|0,0:1|0:0,0:0:0:0:
189,208,283361,1,2,0:1:0:0:
383,272,283507,1,0,0:0:0:0:
391,94,283654,1,2,0:1:0:0:
265,301,283800,1,8,0:0:0:0:
471,176,283946,1,8,0:0:0:0:
271,85,284093,1,8,0:0:0:0:
470,267,284239,6,0,P|423:351|307:229,1,323.000006160736,2|2,0:3|0:3,0:0:0:0:
42,267,285410,2,0,P|89:351|205:229,1,323.000006160736,2|2,0:3|0:3,0:0:0:0:
41,116,286581,6,0,P|147:25|206:151,1,323.000006160736,2|2,0:3|0:3,0:0:0:0:
470,116,287752,2,0,P|364:25|305:151,1,323.000006160736,2|2,0:3|0:3,0:0:0:0:
377,244,288483,1,0,0:0:0:0:
383,112,288629,1,8,0:0:0:0:
371,372,288776,6,0,L|420:380,2,47.5,0|0|8,0:0|0:0|0:0,0:0:0:0:
141,372,289068,2,0,L|94:378,2,47.5,0|0|8,0:0|0:0|0:0,0:0:0:0:
414,292,289361,2,0,L|460:298,2,47.5,0|0|8,0:0|0:0|0:0,0:0:0:0:
98,292,289654,2,0,L|51:298,2,47.5,0|0|8,0:0|0:0|0:0,0:0:0:0:
459,209,289946,2,0,L|505:215,2,47.5,0|0|8,0:0|0:0|0:0,0:0:0:0:
53,209,290239,2,0,L|6:215,2,47.5,0|0|8,0:0|0:0|0:0,0:0:0:0:
479,119,290532,1,0,0:0:0:0:
479,119,290605,1,0,0:0:0:0:
479,119,290678,1,8,0:0:0:0:
33,119,290824,1,0,0:0:0:0:
33,119,290897,1,0,0:0:0:0:
33,119,290970,1,8,0:0:0:0:
428,42,291117,1,0,0:0:0:0:
84,42,291263,5,8,0:0:0:0:
328,139,291410,1,0,0:0:0:0:
328,139,291483,1,0,0:0:0:0:
328,139,291556,1,8,0:0:0:0:
192,293,291702,1,0,0:0:0:0:
279,70,291849,2,0,P|324:55|370:71,1,95,8|0,0:0|0:0,0:0:0:0:
401,342,292142,1,8,0:0:0:0:
154,145,292288,1,0,0:0:0:0:
50,316,292434,6,0,B|42:362|42:362|43:380,2,63.3333333333333,8|0|0,0:0|0:0|0:0,0:0:0:0:
84,81,292727,1,8,0:0:0:0:
305,208,292873,1,0,0:0:0:0:
138,294,293020,1,8,0:0:0:0:
222,60,293166,1,0,0:0:0:0:
378,229,293312,2,0,P|332:279|231:218,1,190.000007247925,8|0,0:0|0:0,0:0:0:0:
255,137,293605,6,0,B|322:111|322:111|355:116,1,104.500003189087,4|0,0:0|0:0,0:0:0:0:
443,133,293824,2,0,B|484:140|484:140|409:53,1,156.750004783631,2|0,0:1|0:0,0:0:0:0:
217,24,294190,1,4,0:0:0:0:
163,241,294337,1,0,0:0:0:0:
163,241,294410,1,0,0:0:0:0:
163,241,294483,1,8,0:0:0:0:
68,82,294629,1,0,0:0:0:0:
220,191,294776,6,0,P|240:240|226:287,1,104.500003189087,4|0,0:1|0:0,0:0:0:0:
153,162,294996,2,0,P|195:121|283:153,1,156.750004783631,2|0,0:1|0:0,0:0:0:0:
178,349,295361,2,0,B|107:362|107:362|76:354,1,104.500003189087,4|0,0:0|0:1,0:1:0:0:
3,326,295581,1,0,0:0:0:0:
3,326,295654,1,8,0:0:0:0:
49,130,295800,1,0,0:1:0:0:
327,198,295946,6,0,P|349:147|332:103,1,104.500003189087,4|0,0:0|0:0,0:0:0:0:
262,29,296166,2,0,B|257:51|269:67|269:67|289:32|335:21|370:39,1,156.750004783631,2|0,0:1|0:0,0:0:0:0:
479,204,296532,1,4,0:0:0:0:
337,351,296678,1,0,0:0:0:0:
337,351,296751,1,0,0:0:0:0:
337,351,296824,1,8,0:0:0:0:
297,164,296971,1,0,0:0:0:0:
230,324,297117,6,0,P|180:344|136:326,1,104.500003189087,4|0,0:1|0:0,0:0:0:0:
61,254,297337,2,0,B|83:249|99:261|99:261|63:281|53:328|71:363,1,156.750004783631,2|0,0:1|0:0,0:0:0:0:
354,211,297702,2,0,P|373:160|356:115,1,104.500003189087,4|0,0:0|0:0,0:0:0:0:
96,53,297995,1,8,0:0:0:0:
297,164,298142,1,8,0:0:0:0:
34,98,298288,6,0,P|20:45|41:2,1,104.500003189087,4|0,0:0|0:0,0:0:0:0:
101,130,298507,2,0,B|89:165|41:184|3:167|3:167|3:187|20:202,1,156.750004783631,2|0,0:1|0:0,0:0:0:0:
357,117,298873,1,4,0:0:0:0:
302,293,299020,1,0,0:0:0:0:
302,293,299093,1,0,0:0:0:0:
302,293,299166,1,8,0:0:0:0:
185,183,299312,1,0,0:0:0:0:
417,163,299459,6,0,P|432:110|412:66,1,104.500003189087,4|0,0:1|0:0,0:0:0:0:
350,195,299678,2,0,B|361:230|408:249|446:232|446:232|446:252|429:267,1,156.750004783631,2|0,0:1|0:0,0:0:0:0:
143,272,300044,2,0,P|122:227|138:178,1,104.500003189087,4|0,0:0|0:0,0:0:0:0:
314,120,300337,1,8,0:0:0:0:
107,41,300483,1,0,0:0:0:0:
368,66,300629,6,0,P|390:108|377:162,1,104.500003189087,4|0,0:0|0:0,0:0:0:0:
361,263,300849,2,0,B|344:248|344:228|344:228|382:245|429:226|444:189,1,156.750004783631,2|0,0:1|0:0,0:0:0:0:
478,27,301215,1,4,0:0:0:0:
257,60,301361,1,0,0:0:0:0:
257,60,301434,1,0,0:0:0:0:
257,60,301507,1,8,0:0:0:0:
228,212,301654,1,0,0:0:0:0:
43,150,301800,6,0,B|29:84|29:84|38:48,1,104.500003189087,4|0,0:1|0:0,0:0:0:0:
63,223,302020,2,0,B|90:332|90:332|55:306,1,156.750004783631,2|0,0:1|0:0,0:0:0:0:
121,166,302385,2,0,P|165:143|217:155,1,104.500003189087,4|0,0:0|0:0,0:0:0:0:
319,311,302678,1,8,0:0:0:0:
350,43,302824,1,8,0:0:0:0:
468,251,302971,6,0,B|481:317|481:317|472:353,1,104.500003189087,4|0,0:0|0:0,0:0:0:0:
448,178,303191,2,0,B|420:67|420:67|455:94,1,156.750004783631,2|0,0:1|0:0,0:0:0:0:
396,235,303556,1,4,0:0:0:0:
243,138,303702,1,0,0:0:0:0:
243,138,303776,1,0,0:0:0:0:
243,138,303849,1,8,0:0:0:0:
186,334,303995,1,0,0:0:0:0:
62,162,304142,6,0,P|42:115|59:67,1,104.500003189087,4|0,0:1|0:0,0:0:0:0:
137,185,304361,2,0,P|85:235|9:218,1,156.750004783631,2|0,0:1|0:0,0:0:0:0:
266,34,304727,2,0,B|306:39|306:39|336:35|336:35|369:40,1,104.500003189087,4|0,0:0|0:0,0:0:0:0:
157,40,305020,1,8,0:0:0:0:
476,153,305166,1,0,0:0:0:0:
258,268,305312,6,0,B|239:333|239:333|255:369,1,104.500003189087,4|0,0:0|0:0,0:0:0:0:
346,292,305532,2,0,B|356:248|356:248|322:167|322:167|327:143,1,156.750004783631,2|0,0:1|0:0,0:0:0:0:
413,335,305898,1,4,0:0:0:0:
270,98,306044,1,0,0:0:0:0:
270,98,306117,1,0,0:0:0:0:
270,98,306190,1,8,0:0:0:0:
152,218,306337,1,0,0:0:0:0:
328,145,306483,6,0,P|346:98|327:48,1,104.500003189087,4|0,0:1|0:0,0:0:0:0:
239,20,306702,2,0,B|179:47|192:110|192:110|184:132|157:139,1,156.750004783631,2|0,0:1|0:0,0:0:0:0:
239,262,307068,2,0,B|248:303|248:303|248:328|248:328|257:365,1,104.500003189087,4|0,0:0|0:0,0:0:0:0:
270,98,307361,1,8,0:0:0:0:
152,218,307507,1,8,0:0:0:0:
440,338,307654,6,0,P|471:298|463:248,1,104.500003189087,4|0,0:0|0:0,0:0:0:0:
352,234,307873,2,0,B|326:249|319:293|338:324|338:324|321:352|326:379,1,156.750004783631,2|0,0:1|0:0,0:0:0:0:
435,118,308239,1,4,0:0:0:0:
214,42,308385,1,0,0:0:0:0:
214,42,308459,1,0,0:0:0:0:
214,42,308532,1,8,0:0:0:0:
301,160,308678,1,0,0:0:0:0:
53,124,308824,6,0,P|35:77|53:28,1,104.500003189087,4|0,0:1|0:0,0:0:0:0:
122,162,309044,2,0,B|125:209|125:209|107:270|107:270|112:314,1,156.750004783631,2|0,0:1|0:0,0:0:0:0:
109,78,309410,1,4,0:0:0:0:
31,306,309556,1,0,0:0:0:0:
307,63,309702,1,8,0:0:0:0:
247,351,309849,1,8,0:0:0:0:
505,48,309995,5,4,0:1:0:0:
497,86,310068,1,0,0:0:0:0:
489,125,310142,1,0,0:0:0:0:
481,163,310215,1,0,0:0:0:0:
473,201,310288,1,8,0:0:0:0:
465,239,310361,1,0,0:0:0:0:
457,277,310434,1,0,0:0:0:0:
449,315,310507,1,0,0:0:0:0:
442,354,310581,5,8,0:0:0:0:
395,368,310654,1,0,0:0:0:0:
346,360,310727,1,0,0:0:0:0:
307,331,310800,1,0,0:0:0:0:
285,288,310873,1,8,0:0:0:0:
285,238,310946,1,0,0:0:0:0:
308,195,311020,1,0,0:0:0:0:
348,166,311093,1,0,0:0:0:0:
396,159,311166,6,0,P|402:132|396:106,1,52.2500015945435,8|0,0:0|0:0,0:0:0:0:
346,38,311312,1,0,0:0:0:0:
346,38,311385,1,0,0:0:0:0:
346,38,311459,1,8,0:0:0:0:
309,52,311532,1,0,0:0:0:0:
272,66,311605,1,0,0:0:0:0:
235,80,311678,1,0,0:0:0:0:
198,94,311751,6,0,L|146:89,1,52.2500015945435,8|0,0:0|0:0,0:0:0:0:
43,85,311898,1,0,0:0:0:0:
43,85,311971,1,0,0:0:0:0:
43,85,312044,1,8,0:0:0:0:
45,124,312117,1,0,0:0:0:0:
47,163,312190,1,0,0:0:0:0:
49,202,312263,1,0,0:0:0:0:
52,240,312337,6,0,P|100:268|148:255,1,109.250002083778,4|0,0:3|0:0,0:0:0:0:
268,149,312629,1,8,0:0:0:0:
400,242,312776,1,0,0:0:0:0:
400,242,312849,1,0,0:0:0:0:
400,242,312922,2,0,B|406:283|406:283|402:311|402:311|409:351,1,109.250002083778,2|0,0:1|0:0,0:0:0:0:
374,140,313215,1,8,0:0:0:0:
257,344,313361,1,0,0:0:0:0:
109,137,313507,6,0,B|96:89|135:44|185:44|185:44|159:9|114:16,1,218.500004167557,4|8,0:0|0:0,0:0:0:0:
184,122,313946,1,0,0:0:0:0:
302,206,314093,2,0,P|318:254|292:304,1,109.250002083778,2|0,0:1|0:0,0:0:0:0:
223,338,314312,1,0,0:0:0:0:
223,338,314385,1,8,0:0:0:0:
50,293,314532,1,0,0:0:0:0:
280,192,314678,6,0,B|319:186|319:186|355:193|355:193|387:185,1,109.250002083778,4|0,0:3|0:0,0:0:0:0:
470,169,314898,1,0,0:0:0:0:
470,169,314971,1,8,0:0:0:0:
328,64,315117,1,0,0:0:0:0:
268,294,315263,1,2,0:1:0:0:
459,252,315410,1,0,0:0:0:0:
201,120,315556,2,0,P|179:74|199:23,1,109.250002083778,8|0,0:0|0:0,0:0:0:0:
328,333,315849,6,0,P|267:365|205:259,1,218.500004167557,4|8,0:0|0:0,0:0:0:0:
383,125,316288,1,0,0:0:0:0:
194,36,316434,2,0,B|152:38|152:38|124:49|124:49|87:51,1,109.250002083778,2|0,0:1|0:0,0:0:0:0:
4,58,316654,1,0,0:0:0:0:
4,58,316727,1,8,0:0:0:0:
92,271,316873,1,0,0:0:0:0:
331,68,317020,6,0,P|369:48|455:159,1,218.500004167557,4|8,0:3|0:0,0:0:0:0:
346,301,317459,1,0,0:0:0:0:
186,205,317605,2,0,B|180:169|180:169|184:134|184:134|179:96,1,109.250002083778,2|0,0:1|0:0,0:0:0:0:
126,41,317824,1,0,0:0:0:0:
126,41,317898,1,8,0:0:0:0:
40,273,318044,1,0,0:0:0:0:
158,126,318190,6,0,B|205:105|264:134|274:190|274:190|304:212|336:200,1,218.500004167557,4|8,0:0|0:0,0:0:0:0:
204,280,318629,1,0,0:0:0:0:
405,159,318776,2,0,P|430:109|415:59,1,109.250002083778,2|0,0:1|0:0,0:0:0:0:
358,7,318995,1,0,0:0:0:0:
358,7,319068,1,8,0:0:0:0:
314,288,319215,1,0,0:0:0:0:
110,177,319361,6,0,P|84:125|94:76,1,109.250002083778,4|0,0:3|0:0,0:0:0:0:
335,50,319654,2,0,P|360:101|350:150,1,109.250002083778,8|0,0:0|0:0,0:0:0:0:
293,208,319873,1,0,0:0:0:0:
293,208,319946,2,0,B|283:246|283:246|284:281|284:281|276:315,1,109.250002083778,2|0,0:1|0:0,0:0:0:0:
84,376,320239,1,8,0:0:0:0:
76,341,320312,1,0,0:0:0:0:
69,306,320385,1,0,0:0:0:0:
61,271,320459,1,0,0:0:0:0:
55,235,320532,6,0,B|44:182|44:182|24:162|24:162|36:139,1,109.250002083778,4|0,0:0|0:0,0:0:0:0:
85,73,320751,1,0,0:0:0:0:
85,73,320824,2,0,P|130:52|184:68,1,109.250002083778,8|0,0:0|0:0,0:0:0:0:
287,263,321117,2,0,P|236:272|187:244,1,109.250002083778,2|0,0:1|0:0,0:0:0:0:
335,91,321410,1,8,0:0:0:0:
370,85,321483,1,0,0:0:0:0:
405,78,321556,1,0,0:0:0:0:
441,71,321629,1,0,0:0:0:0:
475,65,321702,6,0,B|514:97|504:151|464:174|464:174|492:211|475:247,1,209.000006378174,4|8,0:3|0:0,0:0:0:0:
412,356,322142,1,0,0:0:0:0:
352,235,322288,2,0,P|281:193|220:223,2,156.750004783631,2|0|2,0:1|0:0|0:1,0:0:0:0:
171,275,322873,2,0,P|149:228|163:180,1,104.500003189087,4|0,0:0|0:0,0:0:0:0:
255,69,323166,1,8,0:0:0:0:
83,36,323312,1,0,0:0:0:0:
285,150,323459,1,2,0:1:0:0:
285,150,323532,1,0,0:0:0:0:
285,150,323605,1,0,0:0:0:0:
452,105,323751,2,0,P|465:64|443:9,1,104.500003189087,8|0,0:0|0:0,0:0:0:0:
106,42,324044,6,0,B|73:78|81:136|126:162|126:162|136:200|114:227,1,209.000006378174,4|8,0:3|0:0,0:0:0:0:
18,289,324483,1,0,0:0:0:0:
164,93,324629,2,0,B|264:73|264:73|318:86,2,156.750004783631,2|0|2,0:1|0:0|0:1,0:0:0:0:
370,135,325215,2,0,P|390:91|373:39,1,104.500003189087,4|0,0:0|0:0,0:0:0:0:
130,27,325507,1,8,0:0:0:0:
88,253,325654,1,0,0:0:0:0:
178,117,325800,1,2,0:1:0:0:
178,117,325873,1,0,0:0:0:0:
178,117,325946,1,0,0:0:0:0:
32,164,326093,1,8,0:0:0:0:
279,241,326239,1,0,0:0:0:0:
17,149,326385,6,0,P|4:105|25:51,2,104.500003189087,4|0|8,0:3|0:0|0:0,0:0:0:0:
80,211,326751,1,0,0:0:0:0:
80,211,326824,2,0,B|121:246|131:300|131:300|157:306|181:288,1,156.750004783631,2|0,0:1|0:0,0:0:0:0:
243,236,327117,2,0,B|266:218|292:224|292:224|302:278|343:313,1,156.750004783631,2|0,0:1|0:0,0:0:0:0:
411,358,327410,1,0,0:0:0:0:
485,191,327556,6,0,B|496:125|496:125|486:89,1,104.500003189087,4|0,0:0|0:0,0:0:0:0:
459,17,327776,1,0,0:0:0:0:
459,17,327849,1,8,0:0:0:0:
399,245,327995,1,0,0:0:0:0:
285,71,328142,2,0,P|239:49|188:59,1,104.500003189087,2|0,0:1|0:0,0:0:0:0:
55,152,328434,1,8,0:0:0:0:
386,110,328581,1,8,0:0:0:0:
184,214,328727,5,4,0:3:0:0:
152,243,328800,1,0,0:0:0:0:
141,286,328873,1,0,0:0:0:0:
155,327,328946,1,0,0:0:0:0:
190,354,329019,1,8,0:0:0:0:
233,357,329092,1,0,0:0:0:0:
271,336,329166,1,0,0:0:0:0:
291,297,329239,1,0,0:0:0:0:
287,253,329312,5,4,0:3:0:0:
282,209,329386,1,0,0:0:0:0:
302,170,329459,1,0,0:0:0:0:
340,148,329533,1,0,0:0:0:0:
384,152,329606,1,8,0:0:0:0:
418,178,329679,1,0,0:0:0:0:
432,220,329752,1,0,0:0:0:0:
421,262,329825,1,0,0:0:0:0:
391,294,329898,5,2,0:3:0:0:
352,319,329971,1,0,0:0:0:0:
305,325,330044,1,0,0:0:0:0:
262,308,330117,1,0,0:0:0:0:
230,274,330190,1,2,0:3:0:0:
206,233,330263,1,0,0:0:0:0:
167,208,330336,1,0,0:0:0:0:
120,204,330409,1,0,0:0:0:0:
77,221,330483,5,2,0:3:0:0:
50,265,330556,1,0,0:0:0:0:
51,316,330629,1,0,0:0:0:0:
80,359,330702,1,0,0:0:0:0:
128,378,330775,1,2,0:3:0:0:
179,368,330848,1,0,0:0:0:0:
215,331,330922,1,0,0:0:0:0:
226,281,330995,1,0,0:0:0:0:
206,233,331068,5,4,0:0:0:0:
53,59,350268,6,0,P|86:49|116:57,1,66.4999979705811
193,112,350568,2,0,P|224:120|256:110,1,66.4999979705811
331,48,350868,2,0,L|397:51,1,66.4999979705811
475,141,351168,2,0,L|409:138,1,66.4999979705811
334,191,351468,2,0,P|319:224|325:258,1,66.4999979705811
389,322,351768,2,0,P|392:354|377:384,1,66.4999979705811
223,370,352068,2,0,P|205:309|245:253,1,132.999995941162
261,250,352443,1,0,0:0:0:0:
280,247,352518,2,0,P|290:233|294:217,2,33.2499989852906
219,93,352968,6,0,P|186:80|155:84,1,66.4999979705811
128,276,353268,2,0,P|161:289|192:285,1,66.4999979705811
63,235,353568,2,0,P|50:268|54:299,1,66.4999979705811
172,215,353868,2,0,P|185:182|181:151,1,66.4999979705811
90,42,354168,2,0,B|131:25|131:25|154:26,1,66.4999979705811
263,33,354468,2,0,B|368:39|368:39|392:55,1,132.999995941162
407,65,354843,1,0,0:0:0:0:
421,77,354918,2,0,L|447:96,2,33.2499989852906
312,192,355368,6,0,P|301:231|309:258,1,66.4999979705811
456,263,355668,2,0,P|467:224|459:197,1,66.4999979705811
362,70,355968,2,0,L|294:75,1,66.4999979705811
138,147,356268,2,0,L|206:152,1,66.4999979705811
427,103,356568,2,0,P|437:66|429:38,1,66.4999979705811
208,25,356868,2,0,P|188:97|204:151,1,132.999995941162
347,341,357468,5,0,0:0:0:0:
373,253,357618,1,0,0:0:0:0:
283,279,357768,2,0,L|212:268,1,66.4999979705811
92,204,358068,1,0,0:0:0:0:
69,118,358218,1,0,0:0:0:0:
158,139,358368,2,0,L|229:128,1,66.4999979705811
372,33,358668,5,0,0:0:0:0:
363,147,358968,1,0,0:0:0:0:
354,261,359268,1,0,0:0:0:0:
349,273,359343,1,0,0:0:0:0:
343,285,359418,2,0,L|329:316,1,33.2499989852906
257,335,359568,2,0,L|243:367,3,33.2499989852906
171,324,359868,6,0,P|160:290|168:260,1,66.4999979705811
232,141,360168,2,0,P|239:108|228:78,1,66.4999979705811
73,86,360468,2,0,P|65:118|76:148,1,66.4999979705811
167,261,360768,2,0,L|235:250,1,66.4999979705811
428,173,361068,2,0,L|360:161,1,66.4999979705811
197,67,361368,2,0,L|264:55,1,66.4999979705811
435,47,361668,2,0,P|466:102|441:165,1,132.999995941162
427,177,362043,1,0,0:0:0:0:
408,185,362118,2,0,L|379:200,2,33.2499989852906
151,145,362568,6,0,P|143:118|155:81,1,66.4999979705811
261,33,362868,2,0,P|288:39|314:68,1,66.4999979705811
302,184,363168,2,0,P|282:204|244:212,1,66.4999979705811
313,67,363468,2,0,L|380:73,1,66.4999979705811
506,212,363768,2,0,L|439:217,1,66.4999979705811
244,319,364068,2,0,B|334:327|334:327|377:318,1,132.999995941162
394,313,364443,1,0,0:0:0:0:
412,307,364518,2,0,L|443:298,2,33.2499989852906
396,81,364968,6,0,P|365:69|330:77,1,66.4999979705811
406,234,365268,2,0,P|431:213|442:178,1,66.4999979705811
268,166,365568,2,0,P|273:198|297:225,1,66.4999979705811
333,75,365868,2,0,L|263:66,1,66.4999979705811
89,173,366168,2,0,L|159:163,1,66.4999979705811
330,282,366468,2,0,L|193:263,1,132.999995941162
405,73,367068,5,0,0:0:0:0:
320,141,367218,1,0,0:0:0:0:
420,185,367368,2,0,P|427:229|417:255,1,66.4999979705811
219,355,367668,1,0,0:0:0:0:
134,287,367818,1,0,0:0:0:0:
234,243,367968,2,0,P|241:199|231:173,1,66.4999979705811
70,134,368268,6,0,P|50:71|128:22,1,170.999994781494
222,71,368658,1,0,0:0:0:0:
222,71,368755,1,0,0:0:0:0:
222,71,368853,2,0,L|264:64,3,42.7499986953736,8|0|0|0,0:0|0:0|0:0|0:0,0:0:0:0:
316,117,369146,2,0,L|359:109,3,42.7499986953736
442,46,369438,6,0,P|472:162|363:175,1,256.499992172241,8|0,0:3|0:0,0:0:0:0:
316,117,370024,1,8,0:0:0:0:
148,46,370316,1,0,0:0:0:0:
154,220,370609,2,0,B|138:290|138:290|118:314|118:314|103:382,1,170.999994781494
223,287,371048,1,0,0:0:0:0:
223,287,371194,2,0,B|242:204,1,85.4999973907472,8|0,0:0|0:0,0:0:0:0:
262,106,371487,2,0,L|271:65,3,42.7499986953736
345,106,371780,6,0,B|308:273,1,170.999994781494,2|0,0:3|0:0,0:0:0:0:
362,368,372219,1,0,0:0:0:0:
225,216,372365,2,0,P|150:195|99:260,1,170.999994781494,8|0,0:0|0:0,0:0:0:0:
442,323,372950,2,0,P|459:282|452:241,1,85.4999973907472
225,216,373243,2,0,P|252:251|291:265,1,85.4999973907472
383,17,373536,2,0,P|338:22|306:49,1,85.4999973907472,8|0,0:0|0:0,0:0:0:0:
452,242,373828,1,0,0:0:0:0:
452,242,373975,1,0,0:0:0:0:
461,124,374121,5,2,0:3:0:0:
335,233,374268,1,0,0:0:0:0:
452,242,374414,1,2,0:1:0:0:
344,116,374560,1,0,0:1:0:0:
335,233,374706,5,8,0:0:0:0:
129,145,374853,1,0,0:0:0:0:
276,86,374999,1,2,0:1:0:0:
188,292,375146,1,0,0:1:0:0:
181,56,375292,5,2,0:3:0:0:
88,294,375438,1,0,0:0:0:0:
253,221,375585,1,2,0:1:0:0:
15,128,375731,1,0,0:0:0:0:
259,113,375877,5,8,0:0:0:0:
193,316,376024,1,0,0:0:0:0:
462,180,376170,1,2,0:3:0:0:
395,383,376316,1,0,0:0:0:0:
199,161,376463,6,0,P|181:119|191:78,1,85.4999973907472,2|0,0:3|0:0,0:0:0:0:
408,18,376755,1,2,0:1:0:0:
408,18,376902,1,0,0:0:0:0:
421,251,377048,1,8,0:0:0:0:
474,120,377194,1,0,0:0:0:0:
335,323,377341,2,0,P|290:332|257:315,1,85.4999973907472,2|0,0:1|0:0,0:0:0:0:
151,45,377633,6,0,B|168:29|194:27|194:27|213:51|241:54|241:54|269:38|317:31|354:39|354:39|362:77|399:93|399:93|423:73|459:77,1,356.25,2|0,0:3|0:0,0:0:0:0:
352,156,378219,2,0,P|349:177|352:200,3,42.7499986953736
388,269,378511,2,0,P|389:295|384:312,3,42.7499986953736
325,362,378804,5,2,0:3:0:0:
325,362,378950,1,0,0:0:0:0:
156,326,379097,2,0,B|138:325|123:334|123:334|102:335|85:332|85:332|68:339,1,85.4999973907472,2|0,0:1|0:0,0:0:0:0:
265,227,379389,2,0,B|247:226|232:235|232:235|211:236|194:233|194:233|177:240,1,85.4999973907472,8|0,0:0|0:0,0:0:0:0:
374,128,379682,2,0,B|356:127|341:136|341:136|320:137|303:134|303:134|286:141,1,85.4999973907472,2|0,0:1|0:0,0:0:0:0:
483,29,379975,2,0,B|465:28|450:37|450:37|429:38|412:35|412:35|395:42,1,85.4999973907472,2|0,0:3|0:0,0:0:0:0:
265,227,380268,5,2,0:1:0:0:
321,59,380414,1,0,0:0:0:0:
475,189,380560,2,0,P|491:235|479:271,1,85.4999973907472,8|0,0:0|0:0,0:0:0:0:
241,354,380853,1,2,0:1:0:0:
241,354,380926,1,0,0:0:0:0:
241,354,380999,2,0,L|229:313,1,42.7499986953736
205,235,381146,5,2,0:3:0:0:
205,235,381292,1,0,0:0:0:0:
57,130,381438,2,0,B|51:109|52:90|52:90|42:70|43:46,1,85.4999973907472,2|0,0:1|0:0,0:0:0:0:
205,235,381731,2,0,B|199:214|200:195|200:195|190:175|191:151,1,85.4999973907472,8|0,0:0|0:0,0:0:0:0:
353,340,382024,2,0,B|347:319|348:300|348:300|338:280|339:256,1,85.4999973907472,2|0,0:1|0:0,0:0:0:0:
57,340,382316,6,0,B|63:319|62:300|62:300|72:280|71:256,1,85.4999973907472,2|0,0:3|0:0,0:0:0:0:
205,235,382609,2,0,B|211:214|210:195|210:195|220:175|219:151,1,85.4999973907472,2|0,0:1|0:1,0:1:0:0:
353,130,382902,2,0,B|359:109|358:90|358:90|368:70|367:46,1,85.4999973907472,8|0,0:0|0:0,0:0:0:0:
463,257,383194,1,2,0:1:0:0:
463,257,383268,1,0,0:0:0:0:
463,257,383341,2,0,L|456:300,1,42.7499986953736
445,378,383487,5,2,0:3:0:0:
445,378,383633,1,0,0:0:0:0:
301,276,383780,2,0,B|302:251|309:230|309:230|314:210|310:188,1,85.4999973907472,2|0,0:1|0:0,0:0:0:0:
178,35,384072,2,0,B|177:60|170:81|170:81|165:101|169:123,1,85.4999973907472,8|0,0:0|0:0,0:0:0:0:
393,77,384365,2,0,B|368:76|347:69|347:69|327:64|305:68,1,85.4999973907472,2|0,0:1|0:0,0:0:0:0:
91,240,384658,2,0,B|116:241|137:248|137:248|157:253|179:249,1,85.4999973907472,2|0,0:3|0:0,0:0:0:0:
445,171,384950,5,2,0:1:0:0:
261,236,385097,1,0,0:0:0:0:
509,210,385243,2,0,P|521:169|506:125,1,85.4999973907472,8|0,0:0|0:0,0:0:0:0:
221,100,385536,6,0,B|177:116|168:167|192:204|192:204|173:246|200:283,1,209.000006378174,2|2,0:3|0:3,0:0:0:0:
267,358,385975,1,0,0:0:0:0:
434,235,386121,1,2,0:1:0:0:
260,259,386268,1,0,0:0:0:0:
414,337,386414,1,8,0:0:0:0:
253,164,386560,1,0,0:0:0:0:
472,47,386707,1,2,0:1:0:0:
245,66,386853,1,0,0:0:0:0:
453,139,386999,5,2,0:3:0:0:
260,259,387146,2,0,B|216:267|178:247|178:247|155:256|132:257|132:257|97:243|64:252,1,199.499993911743,8|0,0:3|0:0,0:0:0:0:
240,171,387585,2,0,P|265:107|181:40,1,190,8|0,0:0|0:0,0:0:0:0:
159,46,387950,1,0,0:0:0:0:
135,52,388024,1,0,0:0:0:0:
112,58,388097,1,0,0:0:0:0:
88,65,388170,6,0,B|52:93|54:145|80:178|80:178|80:223|41:245,1,199.499993911743,2|8,0:0|0:0,0:0:0:0:
144,123,388609,2,0,B|186:97|235:118|235:118|254:108|278:106|278:106|309:119|337:112,1,199.499993911743,2|0,0:1|0:0,0:0:0:0:
192,189,389048,2,0,P|181:237|208:282,1,99.7499969558717,8|0,0:0|0:0,0:0:0:0:
383,170,389341,2,0,P|410:105|313:43,1,199.499993911743,2|8,0:1|0:0,0:0:0:0:
88,61,389926,5,2,0:1:0:0:
55,164,390072,1,0,0:0:0:0:
23,268,390219,2,0,B|31:317|92:342|139:306|139:306|121:326|122:359,1,199.499993911743,8|2,0:0|0:0,0:0:0:0:
259,123,390804,1,8,0:0:0:0:
214,205,390950,2,0,B|184:243|119:236|95:191|95:191|78:215|91:248,1,199.499993911743,2|0,0:1|0:0,0:0:0:0:
325,164,391389,2,0,P|337:115|313:69,1,99.7499969558717,8|0,0:0|0:0,0:0:0:0:
162,151,391682,2,0,B|164:178|147:198|147:198|137:253|158:302|158:302|147:324|145:349,1,199.499993911743,2|8,0:1|0:0,0:0:0:0:
495,146,392268,5,2,0:1:0:0:
449,241,392414,1,0,0:0:0:0:
388,150,392560,2,0,P|368:102|384:57,1,99.7499969558717,8|0,0:0|0:0,0:0:0:0:
449,241,392853,2,0,B|423:266|373:260|350:234|350:234|330:252|304:253|304:253|286:242|266:247,1,199.499993911743,2|8,0:0|0:0,0:0:0:0:
182,278,393292,2,0,P|156:311|255:325,1,199.499993911743,2|0,0:1|0:0,0:0:0:0:
235,143,393731,2,0,P|187:120|137:131,1,99.7499969558717,8|0,0:0|0:0,0:0:0:0:
284,209,394024,6,0,B|328:179|333:113|285:76|285:76|301:63|329:65,1,199.499993911743,2|8,0:1|0:0,0:0:0:0:
400,151,394463,2,0,B|402:196|376:228|376:228|385:242|387:263|387:263|364:292|353:334,1,199.499993911743,2|0,0:1|0:0,0:0:0:0:
475,203,394902,2,0,P|481:153|473:103,1,99.7499969558717,8|0,0:0|0:0,0:0:0:0:
234,25,395194,6,0,B|199:62|214:126|214:126|164:102|169:42,1,199.499993911743,2|8,0:0|0:0,0:0:0:0:
290,100,395633,2,0,B|324:136|309:200|309:200|359:176|354:126,1,199.499993911743,2|0,0:1|0:0,0:0:0:0:
234,25,396072,2,0,P|185:13|137:28,1,99.7499969558717,8|0,0:0|0:0,0:0:0:0:
40,230,396365,5,2,0:1:0:0:
32,137,396511,1,0,0:0:0:0:
49,323,396658,1,8,0:0:0:0:
43,317,396950,5,8,0:0:0:0:
39,270,397023,1,0,0:0:0:0:
34,224,397096,1,0,0:0:0:0:
31,178,397169,1,0,0:0:0:0:
26,131,397243,2,0,P|67:110|117:127,1,99.7499969558717,8|0,0:0|0:0,0:0:0:0:
219,272,397536,6,0,P|279:302|355:212,1,199.499993911743,2|8,0:0|0:0,0:0:0:0:
312,100,397975,2,0,B|258:96|231:135|231:135|281:165|280:225,1,199.499993911743,2|0,0:1|0:0,0:0:0:0:
157,104,398414,2,0,P|188:66|234:35,1,99.7499969558717,8|0,0:0|0:0,0:0:0:0:
465,155,398707,2,0,B|466:189|447:213|447:213|410:230|383:266|383:266|381:294|360:319,1,199.499993911743,2|8,0:1|0:0,0:0:0:0:
32,235,399292,5,2,0:1:0:0:
54,336,399438,1,0,0:0:0:0:
9,137,399585,2,0,P|12:85|23:39,1,99.7499969558717,8|0,0:0|0:0,0:0:0:0:
209,86,399877,2,0,P|199:155|138:268,1,199.499993911743,2|8,0:0|0:0,0:0:0:0:
150,40,400316,2,0,P|183:15|283:98,1,199.499993911743,2|0,0:1|0:0,0:0:0:0:
90,323,400755,2,0,P|65:277|77:231,1,99.7499969558717,8|0,0:0|0:0,0:0:0:0:
335,153,401048,2,0,B|373:189|372:242|372:242|332:286|344:345,1,199.499993911743,2|8,0:1|0:0,0:0:0:0:
377,89,401633,6,0,P|329:74|282:95,1,99.7499969558717,2|0,0:1|0:0,0:0:0:0:
168,263,401926,2,0,P|217:270|260:242,1,99.7499969558717,8|0,0:0|0:0,0:0:0:0:
159,186,402219,2,0,P|107:211|133:331,1,199.499993911743,2|8,0:0|0:0,0:0:0:0:
361,262,402658,2,0,B|379:236|380:209|380:209|359:171|357:116|357:116|370:97|374:71,1,199.499993911743,2|0,0:1|0:0,0:0:0:0:
402,322,403097,2,0,P|355:335|312:314,1,99.7499969558717,8|0,0:0|0:0,0:0:0:0:
159,78,403389,6,0,B|184:38|237:36|273:65|273:65|301:41|339:49,1,199.499993911743,2|8,0:1|0:0,0:0:0:0:
496,156,403828,2,0,B|470:195|417:197|381:168|381:168|353:192|315:184,1,199.499993911743,2|0,0:1|0:0,0:0:0:0:
107,132,404267,2,0,P|84:85|98:39,1,99.7499969558717,8|0,0:0|0:0,0:0:0:0:
214,185,404560,2,0,B|224:228|208:261|208:261|186:278|177:304|177:304|188:338|178:373,1,199.499993911743,2|8,0:0|0:0,0:0:0:0:
34,137,404999,2,0,P|56:78|172:93,1,199.499993911743,2|0,0:1|0:0,0:0:0:0:
102,305,405438,1,8,0:0:0:0:
107,132,405585,1,0,0:0:0:0:
52,358,405731,6,0,P|84:379|145:363,1,99.7499969558717,2|0,0:1|0:0,0:0:0:0:
356,206,406024,1,8,0:0:0:0:
360,190,406316,5,8,0:0:0:0:
364,170,406389,1,0,0:0:0:0:
369,150,406463,1,0,0:0:0:0:
374,130,406536,1,0,0:0:0:0:
379,110,406609,1,8,0:0:0:0:
159,272,406902,5,8,0:0:0:0:
318,302,407121,1,8,0:0:0:0:
374,149,407341,1,8,0:0:0:0:
234,68,407560,1,8,0:0:0:0:
130,192,407780,1,8,0:0:0:0:
233,316,407999,1,8,0:0:0:0:
374,235,408219,1,8,0:0:0:0:
319,83,408438,1,8,0:0:0:0:
159,111,408658,2,0,B|130:192|130:192|159:273,1,172.900005804138,8|0,0:0|0:0,0:0:0:0:
217,356,409097,5,0,0:0:0:0:
217,356,409243,2,0,B|248:372|288:366|311:333|311:333|330:367|368:369|368:369|382:335|412:322|412:322|441:337|477:325,1,304,4|0,0:3|0:0,0:0:0:0:
251,291,410121,5,0,0:0:0:0:
179,237,410414,2,0,B|148:194|173:146|173:146|159:120|124:110|124:110|139:77|125:38,2,228
432,324,411585,5,4,0:1:0:0:
481,157,411731,1,0,0:0:0:0:
319,342,411877,1,8,0:0:0:0:
268,82,412024,1,0,0:0:0:0:
368,218,412170,1,2,0:1:0:0:
129,158,412316,1,0,0:0:0:0:
331,122,412463,2,0,P|346:73|324:28,1,104.500003189087,8|0,0:0|0:0,0:0:0:0:
72,23,412755,5,2,0:1:0:0:
61,209,412902,1,0,0:0:0:0:
51,370,413048,1,8,0:0:0:0:
11,152,413194,2,0,P|51:133|126:245,1,209.000006378174
51,370,413633,1,8,0:0:0:0:
61,209,413780,1,0,0:0:0:0:
72,23,413926,5,4,0:3:0:0:
72,23,414072,1,0,0:0:0:0:
207,239,414219,1,8,0:0:0:0:
207,239,414365,1,0,0:0:0:0:
440,44,414511,1,2,0:1:0:0:
440,44,414658,1,0,0:0:0:0:
464,284,414804,1,8,0:0:0:0:
286,130,414950,6,0,B|261:95|215:93|185:113|185:113|195:87|178:67|178:67|152:69|128:51,1,209.000006378174,2|0,0:1|0:0,0:0:0:0:
65,8,415316,1,0,0:0:0:0:
65,8,415389,1,8,0:0:0:0:
286,130,415536,2,0,B|312:158|308:213|272:237|272:237|295:241|324:262|324:262|281:306|298:362,1,285.000010871888,2|0,0:1|0:0,0:0:0:0:
126,197,415975,2,0,B|160:188|160:188|188:188|188:188|227:177,1,104.500003189087,8|0,0:0|0:0,0:0:0:0:
80,256,416267,6,0,P|52:214|60:164,1,104.500003189087,4|0,0:3|0:0,0:0:0:0:
231,33,416560,1,8,0:0:0:0:
126,197,416707,1,0,0:0:0:0:
140,79,416853,1,2,0:1:0:0:
201,313,416999,1,0,0:0:0:0:
308,135,417146,1,8,0:0:0:0:
390,291,417292,1,0,0:0:0:0:
218,164,417438,5,2,0:1:0:0:
429,90,417585,1,0,0:0:0:0:
214,185,417731,1,8,0:0:0:0:
432,68,417878,1,0,0:0:0:0:
275,227,418024,5,2,0:1:0:0:
371,26,418171,1,0,0:0:0:0:
287,245,418317,1,8,0:0:0:0:
359,9,418464,1,0,0:0:0:0:
359,231,418609,6,0,P|408:245|453:219,1,104.500003189087,4|0,0:0|0:0,0:0:0:0:
268,46,418902,1,8,0:0:0:0:
268,46,419048,1,0,0:0:0:0:
153,238,419194,2,0,B|148:283|148:283|156:311|156:311|152:348,1,104.500003189087,4|0,0:0|0:0,0:0:0:0:
269,58,419487,1,8,0:0:0:0:
269,58,419633,1,0,0:0:0:0:
41,77,419780,6,0,P|32:45|45:11,2,69.6666687927247,4|0|0,0:1|0:0|0:0,0:0:0:0:
89,151,420072,2,0,L|75:260,1,104.500003189087,8|0,0:0|0:0,0:0:0:0:
172,95,420365,1,2,0:1:0:0:
172,95,420438,1,0,0:0:0:0:
172,95,420511,1,0,0:0:0:0:
259,302,420658,1,8,0:0:0:0:
412,67,420804,1,0,0:0:0:0:
324,334,420950,6,0,P|236:372|187:291,1,209.000006378174,8|8,0:3|0:0,0:0:0:0:
271,139,421389,1,0,0:0:0:0:
425,281,421536,1,2,0:1:0:0:
425,281,421682,1,0,0:0:0:0:
212,205,421828,1,8,0:0:0:0:
484,215,421975,1,0,0:0:0:0:
190,124,422121,5,2,0:1:0:0:
477,129,422267,1,2,0:1:0:0:
176,108,422414,1,8,0:0:0:0:
467,49,422560,1,2,0:1:0:0:
163,29,422706,1,2,0:1:0:0:
483,34,422853,1,0,0:0:0:0:
176,108,422999,1,8,0:0:0:0:
477,129,423146,1,0,0:0:0:0:
163,29,423292,5,4,0:0:0:0:
315,138,423438,1,0,0:0:0:0:
117,230,423585,1,8,0:0:0:0:
328,217,423731,1,0,0:0:0:0:
176,108,423877,1,4,0:0:0:0:
130,309,424024,1,0,0:0:0:0:
120,53,424170,2,0,P|158:30|215:40,1,104.500003189087,8|0,0:0|0:0,0:0:0:0:
181,372,424463,6,0,P|116:389|84:244,1,246.999988693238,4|8,0:1|0:0,0:0:0:0:
336,116,424902,2,0,B|362:145|354:188|340:205|340:205|373:199|409:209|409:209|371:250|386:304,1,265.999991882324,8|0,0:3|0:0,0:0:0:0:
273,163,425341,2,0,P|219:147|172:169,1,104.500003189087,8|0,0:0|0:0,0:0:0:0:
48,312,425633,6,0,B|82:337|121:332|121:332|149:315|184:310|184:310|213:322|247:316,1,209.000006378174,8|8,0:3|0:0,0:0:0:0:
41,176,426219,2,0,P|28:137|53:80,1,104.500003189087,2|0,0:1|0:0,0:0:0:0:
150,24,426511,1,8,0:0:0:0:
204,138,426658,1,0,0:0:0:0:
204,138,426731,1,0,0:0:0:0:
204,138,426804,2,0,P|257:163|321:54,1,209.000006378174,4|8,0:0|0:0,0:0:0:0:
93,56,427243,2,0,B|69:70|59:98|59:98|83:148|76:199|76:199|55:213|45:239,1,209.000006378174,4|0,0:0|0:0,0:0:0:0:
212,344,427682,1,8,0:0:0:0:
22,328,427828,1,0,0:0:0:0:
274,287,427975,6,0,P|292:230|180:227,1,209.000006378174,4|8,0:1|0:0,0:0:0:0:
212,344,428414,1,0,0:0:0:0:
368,282,428560,2,0,P|375:231|356:175,1,104.500003189087,0|0,0:1|0:0,0:0:0:0:
259,68,428853,1,8,0:0:0:0:
422,121,428999,6,0,P|457:212|442:324,1,209.000006378174,8|0,0:3|0:0,0:0:0:0:
390,382,429365,1,0,0:0:0:0:
390,382,429438,1,8,0:0:0:0:
201,293,429585,1,0,0:0:0:0:
359,170,429731,1,2,0:1:0:0:
359,170,429804,1,0,0:0:0:0:
359,170,429877,1,0,0:0:0:0:
325,295,430024,1,8,0:0:0:0:
180,174,430170,1,0,0:0:0:0:
456,101,430316,5,4,0:0:0:0:
256,192,430389,12,0,433828,0:0:0:0:
189,53,446707,6,0,P|115:33|61:71,2,142.5
257,144,447877,1,0,0:0:0:0:
355,202,448170,1,0,0:0:0:0:
465,172,448463,2,0,P|474:147|474:126,1,47.5,2|0,0:1|0:0,0:0:0:0:
355,202,448763,2,0,P|356:225|365:248,1,47.5,2|0,0:1|0:0,0:0:0:0:
380,97,449063,5,2,0:1:0:0:
223,35,449355,2,0,L|183:42,2,41.1666647822063
300,67,449648,1,0,0:1:0:0:
115,65,449941,2,0,P|110:41|114:21,2,41.1666647822063
146,137,450233,1,0,0:0:0:0:
108,328,450526,6,0,P|128:329|148:324,2,41.1666647822063
211,271,450819,2,0,P|232:266|252:268,2,41.1666647822063
327,310,451111,2,0,P|347:311|367:306,2,41.1666647822063
448,254,451404,6,0,P|462:202|422:150,1,123.499994346619
405,147,451794,1,0,0:0:0:0:
388,144,451892,1,0,0:0:0:0:
371,142,451989,1,0,0:0:0:0:
233,61,452282,1,0,0:0:0:0:
250,58,452380,1,0,0:0:0:0:
267,56,452477,1,0,0:0:0:0:
284,54,452575,1,0,0:0:0:0:
163,159,452867,5,0,0:0:0:0:
146,157,452965,1,0,0:0:0:0:
129,155,453063,1,0,0:0:0:0:
112,153,453160,2,0,L|72:148,2,41.1666647822063
187,60,453453,2,0,L|227:55,2,41.1666647822063
35,87,453745,6,0,P|-1:142|17:194,1,123.499994346619
74,249,454136,1,0,0:0:0:0:
74,249,454233,1,0,0:0:0:0:
74,249,454331,1,0,0:0:0:0:
203,155,454623,2,0,P|226:151|247:155,2,41.1666647822063
309,215,454916,6,0,L|278:337,1,123.499994346619
290,351,455306,1,0,0:0:0:0:
294,335,455404,1,0,0:0:0:0:
298,318,455502,1,0,0:0:0:0:
302,301,455599,1,0,0:0:0:0:
307,285,455697,1,0,0:0:0:0:
311,268,455794,1,0,0:0:0:0:
315,252,455892,1,0,0:0:0:0:
320,235,455989,1,0,0:0:0:0:
324,217,456087,6,0,P|363:187|432:205,1,123.499994346619
474,272,456477,1,0,0:0:0:0:
474,272,456575,1,0,0:0:0:0:
474,272,456672,2,0,P|437:220|452:164,1,123.499994346619
503,112,457063,1,0,0:0:0:0:
503,112,457160,1,0,0:0:0:0:
503,112,457258,1,0,0:0:0:0:
365,40,457550,5,0,0:0:0:0:
348,43,457648,1,0,0:0:0:0:
331,46,457745,1,0,0:0:0:0:
315,49,457843,2,0,L|274:39,2,41.1666647822063
170,114,458136,2,0,L|211:104,2,41.1666647822063
296,173,458428,6,0,P|319:225|291:285,1,123.499994346619
226,316,458819,1,0,0:0:0:0:
226,316,458916,1,0,0:0:0:0:
226,316,459014,1,0,0:0:0:0:
61,202,459306,2,0,L|15:201,2,41.1666647822063
125,251,459599,6,0,L|249:225,1,123.499994346619
271,234,459989,1,0,0:0:0:0:
254,238,460087,1,0,0:0:0:0:
237,241,460184,1,0,0:0:0:0:
220,245,460282,1,0,0:0:0:0:
203,250,460380,1,0,0:0:0:0:
186,253,460477,1,0,0:0:0:0:
169,257,460575,1,0,0:0:0:0:
154,260,460672,1,0,0:0:0:0:
137,265,460770,6,0,P|96:221|108:162,1,123.499994346619
177,119,461160,1,0,0:0:0:0:
177,119,461258,1,0,0:0:0:0:
177,119,461355,2,0,P|124:155|71:135,1,123.499994346619
33,69,461745,1,0,0:0:0:0:
33,69,461843,1,0,0:0:0:0:
33,69,461941,1,0,0:0:0:0:
245,157,462233,5,0,0:0:0:0:
248,172,462331,1,0,0:0:0:0:
251,188,462428,1,0,0:0:0:0:
254,203,462526,2,0,L|249:251,2,41.1666647822063
158,276,462819,6,0,L|154:226,1,55.277
72,161,463023,1,0,0:0:0:0:
72,161,463096,2,0,L|56:303,1,142.500005435944,4|0,0:1|0:0,0:0:0:0:
83,64,463681,5,0,0:0:0:0:
264,33,463827,1,0,0:0:0:0:
26,103,463974,2,0,P|14:69|21:35,1,71.2500027179719
264,33,464266,1,4,0:0:0:0:
83,64,464413,1,0,0:0:0:0:
408,106,464705,5,0,0:0:0:0:
408,106,464778,1,0,0:0:0:0:
408,106,464852,1,0,0:0:0:0:
227,137,464998,2,0,L|217:210,1,71.2500027179719
209,284,465217,1,0,0:0:0:0:
209,284,465291,1,8,0:0:0:0:
390,371,465437,6,0,P|451:334|438:264,1,152,4|0,0:1|0:0,0:0:0:0:
370,205,465827,1,0,0:0:0:0:
370,205,465925,1,0,0:0:0:0:
370,205,466022,2,0,B|326:203|326:203|307:209|307:209|268:206,2,101.333333333333,8|8|8,0:0|0:0|0:0,0:0:0:0:
132,124,466608,2,0,P|114:77|135:33,2,101.333333333333,8|8|8,0:0|0:0|0:0,0:0:0:0:
269,206,467193,2,0,P|278:241|274:259,2,50.6666666666667,8|8|8,0:0|0:0|0:0,0:0:0:0:
203,311,467486,2,0,P|200:336|208:359,2,50.6666666666667,8|8|8,0:0|0:0|0:0,0:0:0:0:
373,369,467778,5,4,0:3:0:0:
373,369,468949,5,2,0:3:0:0:
373,369,469535,5,2,0:3:0:0:
393,276,469730,1,2,0:3:0:0:
413,183,469925,1,2,0:3:0:0:
433,89,470120,6,0,P|380:50|314:116,1,170.999994781494,10|0,0:3|0:0,0:0:0:0:
322,145,470510,1,0,0:0:0:0:
330,178,470608,1,0,0:0:0:0:
338,211,470705,2,0,P|340:256|331:297,1,85.4999973907472,4|0,0:1|0:0,0:0:0:0:
169,141,470998,2,0,P|206:116|246:104,1,85.4999973907472,4|0,0:0|0:0,0:0:0:0:
192,322,471291,6,0,P|113:281|52:225,1,170.999994781494,4|0,0:3|0:0,0:0:0:0:
255,260,471681,1,0,0:0:0:0:
288,254,471778,1,0,0:0:0:0:
320,242,471876,1,4,0:0:0:0:
349,225,471974,1,0,0:0:0:0:
376,204,472071,1,0,0:0:0:0:
399,179,472169,1,4,0:0:0:0:
134,36,472461,6,0,B|90:80|90:80|73:191,1,170.999994781494,4|0,0:1|0:0,0:0:0:0:
63,318,472900,1,0,0:0:0:0:
156,244,473047,2,0,P|208:225|268:262,2,128.249996086121,8|0|2,0:0|0:0|0:1,0:0:0:0:
327,303,473632,2,0,P|341:258|330:220,1,85.4999973907472,4|0,0:0|0:0,0:0:0:0:
236,110,473925,1,0,0:0:0:0:
236,110,474071,1,0,0:0:0:0:
348,122,474217,2,0,P|408:115|434:107,2,85.4999973907472,8|0|0,0:0|0:0|0:0,0:0:0:0:
236,110,474656,1,0,0:0:0:0:
169,261,474803,6,0,P|109:297|39:237,1,170.999994781494,4|0,0:1|0:0,0:0:0:0:
41,111,475242,1,0,0:0:0:0:
183,153,475388,2,0,B|265:132|265:132|296:95,2,128.249996086121,8|0|0,0:0|0:0|0:0,0:0:0:0:
291,27,475974,2,0,P|360:67|346:146,1,170.999994781494,4|0,0:0|0:0,0:0:0:0:
267,300,476413,1,0,0:0:0:0:
219,193,476559,1,8,0:0:0:0:
219,193,476705,1,8,0:0:0:0:
156,358,476852,2,0,P|113:369|75:351,1,85.4999973907472,2|0,0:1|0:0,0:0:0:0:
272,251,477144,6,0,P|296:173|158:138,1,256.499992172241,4|0,0:1|0:0,0:0:0:0:
59,251,477730,1,8,0:0:0:0:
41,137,477949,1,0,0:0:0:0:
23,22,478169,1,0,0:0:0:0:
219,193,478315,2,0,P|282:206|333:122,1,170.999994781494,4|0,0:0|0:0,0:0:0:0:
306,40,478754,1,0,0:0:0:0:
306,40,478900,1,8,0:0:0:0:
468,240,479193,2,0,L|462:328,1,85.4999973907472,2|0,0:1|0:0,0:0:0:0:
473,142,479486,6,0,P|426:67|327:153,1,256.499992172241,4|0,0:1|0:0,0:0:0:0:
371,301,480071,1,8,0:0:0:0:
261,262,480291,1,0,0:0:0:0:
152,222,480510,1,0,0:0:0:0:
399,136,480656,2,0,P|415:73|334:18,1,170.999994781494,4|0,0:0|0:0,0:0:0:0:
250,41,481096,1,0,0:0:0:0:
250,41,481242,1,8,0:0:0:0:
61,243,481535,2,0,L|51:334,1,85.4999973907472,2|0,0:1|0:0,0:0:0:0:
240,202,481827,6,0,B|255:180|256:157|256:157|238:125|236:78|236:78|247:62|250:40,1,170.999994781494,4|0,0:1|0:0,0:0:0:0:
331,174,482266,2,0,P|319:215|293:256,1,85.4999973907472,0|8,0:0|0:0,0:0:0:0:
90,272,482559,2,0,P|144:227|243:201,1,170.999994781494,2|0,0:1|0:0,0:0:0:0:
425,247,482998,1,4,0:0:0:0:
435,136,483291,1,0,0:0:0:0:
443,25,483583,1,8,0:0:0:0:
452,277,483876,5,0,0:0:0:0:
462,166,484022,1,0,0:0:0:0:
470,55,484169,2,0,B|379:29|379:29|335:34,1,139.333337585449,8|0,0:0|0:0,0:0:0:0:
124,297,484559,1,0,0:0:0:0:
124,297,484656,1,0,0:0:0:0:
124,297,484754,2,0,B|224:275|224:275|264:248,1,151.999995361328,8|0,0:0|0:0,0:0:0:0:
334,34,485144,1,0,0:0:0:0:
116,365,485339,6,0,P|54:319|73:244,1,164.666659128825,8|0,0:0|0:0,0:0:0:0:
438,43,485730,1,0,0:0:0:0:
438,43,485827,1,0,0:0:0:0:
438,43,485925,1,8,0:0:0:0:
99,75,486120,1,0,0:0:0:0:
471,241,486315,1,0,0:0:0:0:
124,297,486510,6,0,B|79:293|79:293|54:281|54:281|14:278,1,109.250002083778,4|0,0:3|0:0,0:0:0:0:
212,302,486803,1,8,0:0:0:0:
348,184,486949,1,0,0:0:0:0:
348,184,487022,1,0,0:0:0:0:
348,184,487096,2,0,P|366:140|341:84,1,109.250002083778,2|0,0:1|0:0,0:0:0:0:
115,15,487388,1,8,0:0:0:0:
41,339,487535,1,0,0:0:0:0:
145,153,487681,6,0,B|174:112|233:114|265:153|265:153|275:111|248:80,1,218.500004167557,4|8,0:0|0:0,0:0:0:0:
115,15,488120,1,0,0:0:0:0:
204,198,488266,2,0,B|209:229|195:251|195:251|170:272|170:272|180:297,1,109.250002083778,2|0,0:1|0:0,0:0:0:0:
210,366,488486,1,0,0:0:0:0:
210,366,488559,1,8,0:0:0:0:
43,308,488705,1,0,0:0:0:0:
273,268,488852,6,0,P|285:223|273:161,1,109.250002083778,4|0,0:3|0:0,0:0:0:0:
235,96,489071,1,0,0:0:0:0:
235,96,489144,1,8,0:0:0:0:
425,50,489291,1,0,0:0:0:0:
159,53,489437,1,2,0:1:0:0:
376,128,489583,1,0,0:0:0:0:
105,106,489730,2,0,P|84:70|100:4,1,109.250002083778,8|0,0:0|0:0,0:0:0:0:
376,128,490022,6,0,B|400:169|377:219|339:241|339:241|321:285|350:321,1,218.500004167557,4|8,0:0|0:0,0:0:0:0:
485,367,490461,1,0,0:0:0:0:
301,163,490608,2,0,B|259:155|259:155|229:159|229:159|193:153,1,109.250002083778,2|0,0:1|0:0,0:0:0:0:
110,142,490827,1,0,0:0:0:0:
110,142,490900,1,8,0:0:0:0:
376,128,491047,1,0,0:0:0:0:
103,217,491193,6,0,P|30:148|86:65,1,218.500004167557,4|8,0:3|0:0,0:0:0:0:
345,19,491632,1,0,0:0:0:0:
270,204,491778,2,0,B|255:239|268:268|268:268|279:288|279:288|271:307,1,109.250002083778,2|0,0:1|0:0,0:0:0:0:
240,381,491998,1,0,0:0:0:0:
240,381,492071,1,8,0:0:0:0:
478,325,492217,1,0,0:0:0:0:
306,138,492364,6,0,B|269:112|220:130|201:166|201:166|176:151|148:155|148:155|131:170|108:169,1,218.500004167557,4|8,0:0|0:0,0:0:0:0:
32,298,492803,1,0,0:0:0:0:
372,182,492949,2,0,P|385:141|362:79,1,109.250002083778,2|0,0:1|0:0,0:0:0:0:
302,30,493169,1,0,0:0:0:0:
302,30,493242,1,8,0:0:0:0:
348,291,493388,1,0,0:0:0:0:
212,107,493535,6,0,P|166:83|110:97,1,109.250002083778,4|0,0:3|0:0,0:0:0:0:
251,319,493827,2,0,P|302:323|348:288,1,109.250002083778,8|0,0:0|0:0,0:0:0:0:
383,210,494047,1,0,0:0:0:0:
383,210,494120,2,0,B|396:162|365:127|365:127|374:107,1,109.250002083778,2|0,0:1|0:0,0:0:0:0:
159,16,494413,1,8,0:0:0:0:
143,56,494486,1,0,0:0:0:0:
128,96,494559,1,0,0:0:0:0:
113,138,494632,1,0,0:0:0:0:
97,178,494705,6,0,B|77:228|77:228|54:245|54:245|61:255|63:271,1,109.250002083778,4|0,0:0|0:0,0:0:0:0:
64,357,494925,1,0,0:0:0:0:
64,357,494998,2,0,P|113:381|161:359,1,109.250002083778,8|0,0:0|0:0,0:0:0:0:
301,113,495291,2,0,P|247:100|206:132,1,109.250002083778,2|0,0:1|0:0,0:0:0:0:
452,275,495583,1,8,0:0:0:0:
479,234,495656,1,0,0:0:0:0:
483,185,495730,1,0,0:0:0:0:
471,137,495803,1,0,0:0:0:0:
439,99,495876,6,0,B|390:73|326:96|314:163|314:163|314:133|301:113,1,218.500004167557,4|8,0:3|0:0,0:0:0:0:
192,19,496315,1,0,0:0:0:0:
398,172,496461,2,0,B|418:223|418:223|399:335,2,163.875003125668,2|0|0,0:1|0:0|0:0,0:0:0:0:
192,19,497047,2,0,P|135:9|92:43,1,109.250002083778,4|0,0:0|0:0,0:0:0:0:
49,272,497339,1,8,0:0:0:0:
154,79,497486,1,0,0:0:0:0:
173,223,497632,1,2,0:1:0:0:
173,223,497705,1,0,0:0:0:0:
173,223,497778,1,0,0:0:0:0:
301,89,497925,2,0,P|348:73|399:99,1,109.250002083778,8|0,0:0|0:0,0:0:0:0:
389,350,498217,6,0,B|353:383|295:375|269:330|269:330|225:318|195:347,1,218.500004167557,4|8,0:3|0:0,0:0:0:0:
69,352,498656,1,0,0:0:0:0:
338,289,498803,2,0,B|365:239|365:239|353:131,2,163.875003125668,2|0|0,0:1|0:0|0:0,0:0:0:0:
296,86,499388,2,0,P|338:59|397:73,1,109.250002083778,4|0,0:0|0:0,0:0:0:0:
497,230,499681,1,8,0:0:0:0:
209,140,499827,1,0,0:0:0:0:
281,271,499974,1,2,0:1:0:0:
281,271,500047,1,0,0:0:0:0:
281,271,500120,1,0,0:0:0:0:
389,189,500266,1,8,0:0:0:0:
93,259,500413,1,0,0:0:0:0:
355,312,500559,6,0,B|397:317|397:317|425:314|425:314|463:318,2,109.250002083778,4|0|8,0:3|0:0|0:0,0:0:0:0:
281,271,500925,1,0,0:0:0:0:
281,271,500998,2,0,P|241:219|292:144,1,163.875003125668,2|0,0:1|0:0,0:0:0:0:
365,112,501291,2,0,P|309:147|239:89,1,163.875003125668,2|0,0:1|0:0,0:0:0:0:
226,11,501583,1,0,0:0:0:0:
453,177,501730,6,0,B|471:217|454:246|454:246|462:264|462:264|458:281,1,109.250002083778,4|0,0:0|0:0,0:0:0:0:
456,367,501949,1,0,0:0:0:0:
456,367,502022,1,8,0:0:0:0:
386,86,502169,1,0,0:0:0:0:
289,302,502315,2,0,P|239:322|193:299,1,109.250002083778,2|0,0:1|0:0,0:0:0:0:
92,90,502608,1,8,0:0:0:0:
42,339,502754,1,0,0:0:0:0:
180,85,502900,5,4,0:3:0:0:
160,35,502974,1,0,0:0:0:0:
114,6,503047,1,0,0:0:0:0:
61,9,503120,1,0,0:0:0:0:
19,43,503193,1,8,0:0:0:0:
5,95,503266,1,0,0:0:0:0:
24,145,503339,1,0,0:0:0:0:
68,175,503413,1,0,0:0:0:0:
122,172,503486,5,4,0:3:0:0:
173,184,503559,1,0,0:0:0:0:
209,224,503632,1,0,0:0:0:0:
215,277,503705,1,0,0:0:0:0:
188,324,503778,1,8,0:0:0:0:
139,346,503852,1,0,0:0:0:0:
86,335,503925,1,0,0:0:0:0:
49,296,503998,1,0,0:0:0:0:
43,241,504071,5,2,0:3:0:0:
79,183,504144,1,0,0:0:0:0:
134,143,504217,1,0,0:0:0:0:
200,126,504291,1,0,0:0:0:0:
268,132,504364,1,2,0:3:0:0:
329,162,504437,1,0,0:0:0:0:
377,212,504510,1,0,0:0:0:0:
401,276,504583,1,0,0:0:0:0:
403,344,504656,5,2,0:3:0:0:
414,312,505242,6,0,B|425:269|425:269|421:243|421:243|430:203,1,109.250002083778,4|0,0:3|0:0,0:0:0:0:
468,45,505535,1,8,0:0:0:0:
319,292,505681,1,0,0:0:0:0:
455,130,505827,1,2,0:1:0:0:
455,130,505900,1,0,0:0:0:0:
455,130,505974,1,0,0:0:0:0:
170,28,506120,1,8,0:0:0:0:
394,72,506266,1,0,0:0:0:0:
146,44,506413,6,0,P|122:91|139:142,1,109.250002083778,4|0,0:1|0:0,0:0:0:0:
358,280,506705,1,8,0:0:0:0:
199,96,506852,1,0,0:0:0:0:
285,326,506998,1,2,0:1:0:0:
285,326,507071,1,0,0:0:0:0:
285,326,507144,1,0,0:0:0:0:
346,108,507291,1,8,0:0:0:0:
184,276,507437,1,0,0:0:0:0:
407,157,507583,6,0,P|425:116|407:57,1,109.250002083778,8|0,0:3|0:0,0:0:0:0:
202,39,507876,1,8,0:0:0:0:
317,205,508022,1,0,0:0:0:0:
82,169,508169,1,2,0:1:0:0:
82,169,508242,1,0,0:0:0:0:
82,169,508315,1,0,0:0:0:0:
266,102,508461,1,8,0:0:0:0:
202,350,508608,1,0,0:0:0:0:
109,103,508754,6,0,P|16:136|47:230,1,218.500004167557,4|8,0:3|0:0,0:0:0:0:
396,177,509193,2,0,P|416:116|344:54,1,163.875003125668,2|0,0:1|0:0,0:0:0:0:
257,233,509486,2,0,P|297:256|358:240,1,109.250002083778,0|8,0:0|0:0,0:0:0:0:
211,44,509778,1,0,0:0:0:0:
100,205,509925,6,0,B|92:249|92:249|97:277|97:277|90:314,1,109.250002083778,4|0,0:1|0:0,0:0:0:0:
159,140,510217,1,8,0:0:0:0:
192,357,510364,1,0,0:0:0:0:
334,297,510510,1,2,0:1:0:0:
334,297,510583,1,0,0:0:0:0:
334,297,510656,1,0,0:0:0:0:
174,247,510803,1,8,0:0:0:0:
423,176,510949,1,0,0:0:0:0:
159,140,511095,6,0,P|141:96|165:39,1,109.250002083778,8|0,0:3|0:0,0:0:0:0:
411,22,511388,1,8,0:0:0:0:
216,93,511535,1,0,0:0:0:0:
452,99,511681,1,2,0:1:0:0:
452,99,511754,1,0,0:0:0:0:
452,99,511827,1,0,0:0:0:0:
314,61,511974,1,8,0:0:0:0:
267,288,512120,1,0,0:0:0:0:
292,169,512266,5,4,0:3:0:0:
389,309,512413,1,0,0:0:0:0:
409,186,512559,1,8,0:0:0:0:
267,288,512705,1,0,0:0:0:0:
261,124,512852,5,8,0:0:0:0:
420,354,512998,1,0,0:0:0:0:
453,152,513144,1,8,0:0:0:0:
220,320,513291,1,0,0:0:0:0:
189,89,513437,5,4,0:3:0:0:
228,52,513510,1,0,0:0:0:0:
281,49,513583,1,0,0:0:0:0:
325,79,513656,1,0,0:0:0:0:
340,131,513730,1,8,0:0:0:0:
319,180,513803,1,0,0:0:0:0:
272,206,513876,1,0,0:0:0:0:
220,196,513949,1,0,0:0:0:0:
174,168,514022,5,2,0:3:0:0:
111,189,514095,1,0,0:0:0:0:
77,247,514169,1,0,0:0:0:0:
87,313,514242,1,0,0:0:0:0:
138,356,514315,2,0,B|165:368|198:370|198:370|225:366|225:366|253:371,1,109.250002083778,2|0,0:3|0:0,0:0:0:0:
398,265,514608,6,0,P|416:216|393:166,1,109.250002083778,4|0,0:1|0:0,0:0:0:0:
168,75,514900,1,8,0:0:0:0:
76,236,515047,1,0,0:0:0:0:
263,155,515193,1,2,0:1:0:0:
263,155,515266,1,0,0:0:0:0:
263,155,515339,1,0,0:0:0:0:
58,109,515486,1,8,0:0:0:0:
34,353,515632,1,0,0:0:0:0:
206,93,515778,6,0,P|247:73|309:98,1,109.250002083778,8|0,0:3|0:0,0:0:0:0:
400,304,516071,1,8,0:0:0:0:
454,143,516217,1,0,0:0:0:0:
305,195,516364,1,2,0:1:0:0:
305,195,516437,1,0,0:0:0:0:
305,195,516510,1,0,0:0:0:0:
488,249,516656,1,8,0:0:0:0:
488,20,516803,1,0,0:0:0:0:
348,255,516949,6,0,P|300:271|251:239,1,109.250002083778,8|0,0:3|0:0,0:0:0:0:
160,49,517242,1,8,0:0:0:0:
112,250,517388,1,0,0:0:0:0:
235,124,517535,1,2,0:1:0:0:
235,124,517608,1,0,0:0:0:0:
235,124,517681,1,0,0:0:0:0:
63,60,517827,1,8,0:0:0:0:
42,331,517974,1,0,0:0:0:0:
245,153,518120,5,4,0:3:0:0:
298,143,518193,1,0,0:0:0:0:
351,133,518266,1,0,0:0:0:0:
405,123,518339,1,0,0:0:0:0:
458,112,518413,2,0,B|484:140|483:188|483:188|463:213|463:213,1,109.250002083778,8|0,0:0|0:0,0:0:0:0:
399,282,518632,5,0,0:0:0:0:
399,282,518705,2,0,P|379:296|350:298,3,54.6250010418892,8|0|0|0,0:0|0:0|0:0|0:0,0:0:0:0:
248,191,518998,2,0,P|222:180|195:187,3,54.6250010418892,8|0|0|0,0:0|0:0|0:0|0:0,0:0:0:0:
85,271,519291,5,4,0:3:0:0:
138,269,519364,1,0,0:0:0:0:
181,236,519437,1,0,0:0:0:0:
197,185,519510,1,0,0:0:0:0:
181,134,519583,1,8,0:0:0:0:
138,101,519656,1,0,0:0:0:0:
84,99,519730,1,0,0:0:0:0:
39,129,519803,1,0,0:0:0:0:
20,179,519876,5,8,0:0:0:0:
59,217,519949,1,0,0:0:0:0:
111,234,520022,1,0,0:0:0:0:
165,229,520095,1,0,0:0:0:0:
215,209,520169,1,8,0:0:0:0:
265,189,520242,1,0,0:0:0:0:
319,185,520315,1,0,0:0:0:0:
371,200,520388,1,0,0:0:0:0:
411,237,520461,5,4,0:3:0:0:
395,287,520535,1,0,0:0:0:0:
356,323,520608,1,0,0:0:0:0:
303,334,520681,1,0,0:0:0:0:
252,316,520754,1,8,0:0:0:0:
219,274,520827,1,0,0:0:0:0:
211,220,520900,1,0,0:0:0:0:
233,171,520974,1,0,0:0:0:0:
278,140,521047,6,0,P|284:106|278:81,1,54.6250010418892,8|0,0:0|0:0,0:0:0:0:
235,20,521193,1,0,0:0:0:0:
235,20,521266,1,0,0:0:0:0:
235,20,521339,2,0,B|167:15|167:15|133:21|133:21|70:16,1,163.875003125668,4|0,0:0|0:0,0:0:0:0:
157,137,521632,6,0,B|147:193|85:247|48:246|4:220|-9:168|0:122|40:98|74:100|113:111|134:136|143:171|117:229|63:275,1,475,8|4,0:3|0:1,0:0:0:0:
355,137,522803,2,0,B|365:193|427:247|464:246|508:220|521:168|512:122|472:98|438:100|399:111|378:136|369:171|395:229|449:275,1,475,4|8,0:1|0:3,0:0:0:0:
341,51,523974,5,4,0:3:0:0:
290,39,524047,1,0,0:0:0:0:
238,39,524120,1,0,0:0:0:0:
188,51,524193,1,0,0:0:0:0:
145,79,524266,1,8,0:0:0:0:
117,122,524339,1,0,0:0:0:0:
118,173,524413,1,0,0:0:0:0:
155,210,524486,1,0,0:0:0:0:
206,213,524559,5,8,0:0:0:0:
187,162,524632,1,0,0:0:0:0:
143,130,524705,1,0,0:0:0:0:
89,128,524778,1,0,0:0:0:0:
43,155,524852,1,8,0:0:0:0:
19,204,524925,1,0,0:0:0:0:
26,257,524998,1,0,0:0:0:0:
62,298,525071,1,0,0:0:0:0:
113,313,525144,5,4,0:3:0:0:
177,317,525217,1,0,0:0:0:0:
237,291,525291,1,0,0:0:0:0:
276,240,525364,1,0,0:0:0:0:
287,176,525437,1,2,0:3:0:0:
266,114,525510,1,0,0:0:0:0:
217,72,525583,5,0,0:0:0:0:
193,132,525656,1,0,0:0:0:0:
195,197,525730,1,2,0:3:0:0:
223,256,525803,1,0,0:0:0:0:
273,298,525876,1,0,0:0:0:0:
335,318,525949,1,0,0:0:0:0:
400,310,526022,1,2,0:3:0:0:
456,278,526096,1,0,0:0:0:0:
495,226,526169,1,0,0:0:0:0:
509,162,526242,1,0,0:0:0:0:
498,98,526315,5,10,0:3:0:0:
462,42,526900,5,2,0:3:0:0:
146,129,527095,1,2,0:3:0:0:
446,259,527291,1,2,0:3:0:0:
63,347,527486,1,4,0:1:0:0:
