osu file format v14

[General]
AudioFilename: audio.mp3
AudioLeadIn: 0
PreviewTime: 1641
Countdown: 0
SampleSet: Soft
StackLeniency: 0.4
Mode: 0
LetterboxInBreaks: 0
WidescreenStoryboard: 0

[Editor]
DistanceSpacing: 0.5
BeatDivisor: 4
GridSize: 32
TimelineZoom: 1

[Metadata]
Title:Uta (Intro Ver.)
TitleUnicode:Uta (Intro Ver.)
Artist:Imperial Circus Dead Decadence
ArtistUnicode:Imperial Circus Dead Decadence
Creator:Sakura Blossom
Version:Normal
Source:
Tags:Sakura Blossom, Ameyy, uta, intro, ver,
BeatmapID:1945701
BeatmapSetID:929389

[Difficulty]
HPDrainRate:3
CircleSize:3.5
OverallDifficulty:4
ApproachRate:5.7
SliderMultiplier:1
SliderTickRate:1

[Events]
//Background and Video events
0,0,"Uta~.jpg",0,0
//Break Periods
//Storyboard Layer 0 (Background)
//Storyboard Layer 1 (Fail)
//Storyboard Layer 2 (Pass)
//Storyboard Layer 3 (Foreground)
//Storyboard Sound Samples

[TimingPoints]
1641,428.571428571429,4,2,1,5,1,0
2069,-133.333333333333,4,2,1,5,0,0
23926,458.015267175573,4,2,1,10,1,0
24842,468.75,4,2,1,15,1,8
25777,500,4,2,1,15,1,0
27777,545.454545454546,4,2,1,15,1,0
28867,555.555555555556,4,2,1,10,1,8
29973,845.070422535211,4,2,1,15,1,0
30184,-100,4,2,1,5,0,0

[Colours]
Combo1 : 255,128,0
Combo2 : 0,128,0
Combo3 : 255,128,64
Combo4 : 0,64,0

[HitObjects]
388,286,1641,5,2,0:0:0:0:
380,196,2069,2,0,P|367:162|349:128,1,75.0000028610231,2|0,0:0|0:0,0:0:0:0:
277,41,2926,1,2,0:0:0:0:
183,103,3355,1,2,0:0:0:0:
220,208,3783,6,0,L|176:235,1,37.5000014305115,2|0,0:0|0:0,0:0:0:0:
154,244,4212,1,2,0:0:0:0:
46,278,4641,1,2,0:0:0:0:
127,355,5069,1,2,0:0:0:0:
154,244,5498,6,0,B|152:200|152:200|146:169,1,75.0000028610231,2|0,0:0|0:0,0:0:0:0:
34,156,6355,2,0,B|36:112|36:112|42:81,1,75.0000028610231,2|0,0:0|0:0,0:0:0:0:
151,57,7212,1,2,0:0:0:0:
146,169,7641,1,2,0:0:0:0:
258,170,8069,6,0,P|256:122|260:88,1,75.0000028610231,2|0,0:0|0:0,0:0:0:0:
354,36,8926,2,0,P|402:34|436:38,1,75.0000028610231,2|0,0:0|0:0,0:0:0:0:
501,122,9783,2,0,P|503:170|499:204,1,75.0000028610231,2|0,0:0|0:0,0:0:0:0:
407,261,10641,2,0,L|355:262,1,37.5000014305115,2|0,0:0|0:0,0:0:0:0:
331,260,11070,1,2,0:0:0:0:
241,328,11498,5,2,0:0:0:0:
349,357,11926,1,2,0:0:0:0:
459,334,12355,2,0,L|457:282,1,37.5000014305115,2|0,0:0|0:0,0:0:0:0:
457,258,12784,1,2,0:0:0:0:
494,152,13212,5,2,0:0:0:0:
498,39,13641,2,0,L|497:7,2,18.7500007152558,2|0|2,0:0|0:0|0:0,0:0:0:0:
494,152,14069,1,2,0:0:0:0:
398,92,14498,1,2,0:0:0:0:
301,34,14926,1,2,0:0:0:0:
209,100,15355,6,0,B|207:144|207:144|201:175,1,75.0000028610231,2|0,0:0|0:0,0:0:0:0:
304,220,16212,2,0,B|306:264|306:264|312:295,1,75.0000028610231,2|0,0:0|0:0,0:0:0:0:
399,365,17069,2,0,B|413:322|413:322|417:289,1,75.0000028610231,2|0,0:0|0:0,0:0:0:0:
437,182,17926,5,2,0:0:0:0:
347,113,18355,1,2,0:0:0:0:
248,167,18783,1,2,0:0:0:0:
158,98,19212,2,0,L|122:74,1,37.5000014305115,2|0,0:0|0:0,0:0:0:0:
96,54,19641,1,2,0:0:0:0:
37,149,20069,6,0,L|-11:144,2,37.5000014305115,2|0|2,0:0|0:0|0:0,0:0:0:0:
119,225,20926,1,2,0:0:0:0:
228,200,21355,1,2,0:0:0:0:
252,309,21783,2,0,B|211:333|211:333|179:338,1,75.0000028610231,2|0,0:0|0:0,0:0:0:0:
70,337,22641,2,0,L|69:293,1,37.5000014305115,2|0,3:0|3:0,3:0:0:0:
70,261,23070,1,2,3:0:0:0:
91,150,23498,5,2,0:0:0:0:
194,55,23926,2,0,P|244:76|284:111,1,100,2|0,0:0|0:0,0:0:0:0:
424,93,24842,2,0,P|445:143|480:183,1,100,2|0,0:0|0:0,0:0:0:0:
354,251,25777,1,2,0:0:0:0:
269,374,26277,2,0,L|218:375,1,50,2|0,3:0|3:0,3:0:0:0:
168,372,26777,1,2,3:0:0:0:
109,290,27277,5,2,0:0:0:0:
153,209,27777,1,2,0:0:0:0:
77,144,28322,1,2,0:0:0:0:
164,99,28867,5,2,0:0:0:0:
210,79,29422,5,2,0:0:0:0:
210,46,29973,6,0,L|211:12,1,25,2|0,0:0|0:0,0:0:0:0:
256,192,30395,12,0,32085,0:0:0:0:
