osu file format v14

[General]
AudioFilename: audio.mp3
AudioLeadIn: 0
PreviewTime: 369438
Countdown: 0
SampleSet: None
StackLeniency: 0.4
Mode: 0
LetterboxInBreaks: 0
EpilepsyWarning: 1
WidescreenStoryboard: 1

[Editor]
Bookmarks: 527486,531583,533413,535242,536998,539266
DistanceSpacing: 1
BeatDivisor: 4
GridSize: 4
TimelineZoom: 1.6

[Metadata]
Title:Uta
TitleUnicode:謳
Artist:Imperial Circus Dead Decadence
ArtistUnicode:Imperial Circus Dead Decadence
Creator:Daxxel
Version:XX
Source:
Tags:
BeatmapID:1917729
BeatmapSetID:918325

[Difficulty]
HPDrainRate:5.8
CircleSize:4.2
OverallDifficulty:9.2
ApproachRate:9.3
SliderMultiplier:1.7
SliderTickRate:1

[Events]
//Background and Video events
0,0,"69494612_p0.jpg",0,0
//Break Periods
2,275073,282514
2,331268,349714
2,430516,448509
//Storyboard Layer 0 (Background)
//Storyboard Layer 1 (Fail)
//Storyboard Layer 2 (Pass)
//Storyboard Layer 3 (Foreground)
//Storyboard Sound Samples

[TimingPoints]
1641,428.571428571429,4,2,1,80,1,0
23926,458.015267175573,4,2,1,80,1,0
24842,468.75,4,2,1,80,1,0
25777,500,4,2,1,80,1,0
27777,545.454545454546,4,2,1,80,1,0
28867,555.555555555556,4,2,1,80,1,0
29973,310.880829015544,4,2,1,80,1,0
33703,292.682926829268,4,2,1,80,1,0
33703,-83.3333333333333,4,2,1,70,0,0
33995,-117.647058823529,4,2,1,50,0,0
35751,-83.3333333333333,4,2,1,70,0,0
36044,-62.5,4,2,1,70,0,0
36337,-117.647058823529,4,2,1,50,0,0
38093,-83.3333333333333,4,2,1,70,0,0
38385,-100,4,2,1,65,0,0
40727,-100,4,2,1,75,0,1
43068,-83.3333333333333,4,2,1,80,0,0
43361,-117.647058823529,4,2,1,50,0,0
45117,-83.3333333333333,4,2,1,70,0,0
45410,-62.5,4,2,1,70,0,0
45702,-117.647058823529,4,2,1,50,0,0
47459,-83.3333333333333,4,2,1,70,0,0
47751,-62.5,4,2,1,70,0,0
48044,-117.647058823529,4,2,1,40,0,0
50093,-83.3333333333333,4,2,1,70,0,0
51995,-44.4444444444445,4,2,1,80,0,0
52434,-90.9090909090909,4,2,1,80,0,1
61800,-90.9090909090909,4,2,1,80,0,1
65605,-76.9230769230769,4,2,1,70,0,1
66483,-90.9090909090909,4,2,1,80,0,1
68824,-111.111111111111,4,2,1,80,0,0
75263,-100,4,2,1,60,0,0
75629,-100,4,2,1,5,0,0
75849,-100,4,2,1,60,0,0
84922,-100,4,2,1,60,0,0
85215,-100,4,2,1,60,0,0
87263,-62.5,4,2,1,80,0,0
87483,-62.5,4,2,1,5,0,0
87556,-100,4,2,1,80,0,0
87702,-90.9090909090909,4,2,1,65,0,0
96629,-62.5,4,2,1,65,0,0
96922,-90.9090909090909,4,2,1,80,0,0
97068,-90.9090909090909,4,2,1,65,0,0
103946,-90.9090909090909,4,2,1,80,0,0
104532,-90.9090909090909,4,2,1,75,0,0
105117,-90.9090909090909,4,2,1,70,0,0
105410,-90.9090909090909,4,2,1,65,0,0
105702,-90.9090909090909,4,2,1,58,0,0
105995,-90.9090909090909,4,2,1,50,0,0
106288,-111.111111111111,4,2,1,60,0,0
123702,-90.9090909090909,4,2,1,60,0,0
124142,-100,4,2,1,60,0,0
125020,-111.111111111111,4,2,1,60,0,0
129117,-90.9090909090909,4,2,1,60,0,0
129702,-111.111111111111,4,2,1,60,0,0
133068,-83.3333333333333,4,2,1,70,0,0
133215,-83.3333333333333,4,2,1,5,0,0
133361,-105.263157894737,4,2,1,65,0,0
134385,-100,4,2,1,60,0,0
143751,-76.9230769230769,4,2,1,80,0,1
143824,-83.3333333333333,4,2,1,80,0,1
148142,-71.4285714285714,4,2,1,80,0,1
148288,-71.4285714285714,4,2,1,5,0,1
148434,-83.3333333333333,4,2,1,80,0,1
161312,-90.9090909090909,4,2,1,80,0,0
162483,-71.4285714285714,4,2,1,80,0,1
162922,-80,4,2,1,80,0,1
171849,-62.5,4,2,1,80,0,1
172288,-80,4,2,1,80,0,1
180629,-95.2380952380952,4,2,1,80,0,0
181215,-90.9090909090909,4,2,1,80,0,1
190581,-83.3333333333333,4,2,1,80,0,1
191020,-83.3333333333333,4,2,1,5,0,1
191166,-90.9090909090909,4,2,1,80,0,1
197605,-100,4,2,1,80,0,1
199946,-111.111111111111,4,2,1,80,0,0
204337,-125,4,2,1,65,0,0
204629,-100,4,2,1,70,0,0
205288,-100,4,2,1,5,0,0
205507,-100,4,2,1,70,0,0
206605,-100,4,2,1,5,0,0
206824,-105.263157894737,4,2,1,65,0,0
209312,-125,4,2,1,65,0,0
210849,-125,4,2,1,5,0,0
211068,-125,4,2,1,65,0,0
212678,-100,4,2,1,70,0,0
213776,-100,4,2,1,5,0,0
213995,-113.636363636364,4,2,1,70,0,0
215532,-113.636363636364,4,2,1,5,0,0
215751,-111.111111111111,4,2,1,70,0,0
216117,-111.111111111111,4,2,1,5,0,0
216337,-105.263157894737,4,2,1,70,0,0
217507,-100,4,2,1,80,0,0
217654,-100,4,2,1,5,0,0
217800,-111.111111111111,4,2,1,75,0,0
218678,-95.2380952380952,4,2,1,60,0,1
221020,-83.3333333333333,4,2,1,60,0,1
221385,-83.3333333333333,4,2,1,5,0,1
221605,-95.2380952380952,4,2,1,60,0,1
222776,-83.3333333333333,4,2,1,60,0,1
223142,-83.3333333333333,4,2,1,5,0,1
223361,-95.2380952380952,4,2,1,60,0,1
228044,-80,4,2,1,70,0,1
228410,-80,4,2,1,5,0,1
228629,-95.2380952380952,4,2,1,60,0,1
232142,-76.9230769230769,4,2,1,70,0,1
232727,-95.2380952380952,4,2,1,65,0,1
236239,-90.9090909090909,4,2,1,72,0,1
237410,-100,4,2,1,70,0,0
240629,-100,4,2,1,60,0,0
245605,-100,4,2,1,70,0,0
246776,-100,4,2,1,60,0,0
253800,-100,4,2,1,70,0,0
256142,-105.263157894737,4,2,1,60,0,0
264190,-100,4,2,1,65,0,0
265507,-105.263157894737,4,2,1,60,0,0
274873,-200,4,2,1,90,0,0
283068,-133.333333333333,4,2,1,60,0,0
284239,-117.647058823529,4,2,1,80,0,0
284459,-117.647058823529,4,2,1,55,0,0
284824,-117.647058823529,4,2,1,70,0,0
285044,-117.647058823529,4,2,1,55,0,0
285410,-117.647058823529,4,2,1,70,0,0
285629,-117.647058823529,4,2,1,55,0,0
285995,-117.647058823529,4,2,1,70,0,0
286215,-117.647058823529,4,2,1,55,0,0
286800,-117.647058823529,4,2,1,55,0,0
287166,-117.647058823529,4,2,1,70,0,0
287385,-117.647058823529,4,2,1,55,0,0
287751,-117.647058823529,4,2,1,65,0,0
288922,-100,4,2,1,80,0,0
293605,-90.9090909090909,4,2,1,80,0,1
309995,-90.9090909090909,4,2,1,70,0,0
311166,-90.9090909090909,4,2,1,80,0,0
312337,-76.9230769230769,4,2,1,80,0,1
331068,300,4,2,1,80,1,0
350268,-142.857142857143,4,2,1,32,0,0
368268,292.682926829268,4,2,1,45,1,0
368268,-137.931034482759,4,2,1,35,0,0
368560,-125,4,2,1,70,0,0
368926,-125,4,2,1,5,0,0
368999,-125,4,2,1,70,0,0
369219,-125,4,2,1,5,0,0
369438,-117.647058823529,4,2,1,60,0,0
373463,-117.647058823529,4,2,1,5,0,0
373536,-117.647058823529,4,2,1,60,0,0
373755,-117.647058823529,4,2,1,5,0,0
373828,-117.647058823529,4,2,1,60,0,0
373902,-117.647058823529,4,2,1,5,0,0
373975,-117.647058823529,4,2,1,60,0,0
374048,-117.647058823529,4,2,1,5,0,0
374121,-117.647058823529,4,2,1,60,0,0
388170,-83.3333333333333,4,2,1,80,0,1
406902,-111.111111111111,4,2,1,70,0,0
409243,-333.333333333333,4,2,1,80,0,1
409389,-333.333333333333,4,2,1,20,0,1
410121,-125,4,2,1,40,0,0
411585,-90.9090909090909,4,2,1,70,0,1
430316,-200,4,2,1,80,0,0
448463,300,4,2,1,40,1,0
449063,292.682926829268,4,2,1,36,1,0
449063,-153.846153846154,4,2,1,36,0,0
462950,292.682926829268,4,2,1,65,1,0
463096,292.682926829268,4,2,1,60,1,0
463096,-90.9090909090909,4,2,1,60,0,0
465144,-90.9090909090909,4,2,1,70,0,0
465437,-83.3333333333333,4,2,1,65,0,0
466608,-111.111111111111,4,2,1,65,0,0
467778,-125,4,2,1,75,0,1
467852,-125,4,2,1,75,0,0
469535,-117.647058823529,4,2,1,70,0,1
470120,-111.111111111111,4,2,1,65,0,0
472461,-111.111111111111,4,2,1,60,0,0
481827,-125,4,2,1,60,0,0
484169,-105.263157894737,4,2,1,65,0,0
484754,-90.9090909090909,4,2,1,70,0,0
485339,-80,4,2,1,75,0,0
485925,-71.4285714285714,4,2,1,80,0,0
486510,-86.9565217391304,4,2,1,84,0,1
495876,-86.9565217391304,4,2,1,84,0,1
500559,-86.9565217391304,4,2,1,84,0,1
504656,-86.9565217391304,4,2,1,80,0,0
505242,-86.9565217391304,4,2,1,85,0,1
509852,-86.9565217391304,4,2,1,70,0,0
509925,-80,4,2,1,85,0,1
512266,-100,4,2,1,70,0,0
514608,-86.9565217391304,4,2,1,80,0,1
519291,-86.9565217391304,4,2,1,70,0,1
521632,-71.4285714285714,4,2,1,80,0,0
521778,-71.4285714285714,4,2,1,60,0,0
522144,-71.4285714285714,4,2,1,80,0,0
522803,-71.4285714285714,4,2,1,80,0,0
522949,-71.4285714285714,4,2,1,60,0,0
523315,-71.4285714285714,4,2,1,80,0,0
523974,-80,4,2,1,90,0,1
525144,-80,4,2,1,85,0,1
525437,-80,4,2,1,88,0,1
525730,-80,4,2,1,92,0,1
526022,-80,4,2,1,96,0,1
526315,-86.9565217391304,4,2,1,100,0,0
526900,-100,4,2,1,98,0,1
527486,-100,4,2,2,100,0,1
528071,-100,4,2,1,80,0,0

[Colours]
Combo1 : 78,78,78
Combo2 : 240,77,89
Combo3 : 130,132,140
Combo4 : 226,16,21

[HitObjects]
265,365,33703,6,0,B|274:343|262:319|262:319|278:297|278:264,1,101.999996887207,6|0,0:3|0:0,0:0:0:0:
244,175,33995,6,0,L|152:170,1,72.2500013780594,2|0,0:0|0:0,0:0:0:0:
221,161,34288,2,0,L|130:168,1,72.2500013780594,0|0,0:0|0:0,0:0:0:0:
196,151,34581,2,0,L|107:171,1,72.2500013780594,2|0,0:0|0:0,0:0:0:0:
169,143,34873,2,0,L|83:175,1,72.2500013780594,0|0,0:0|0:0,0:0:0:0:
143,140,35166,2,0,L|63:184,1,72.2500013780594,2|0,0:0|0:0,0:0:0:0:
115,140,35459,2,0,L|42:194,1,72.2500013780594,0|0,0:0|0:0,0:0:0:0:
111,375,35751,6,0,B|123:341|123:341|110:314|115:274,1,101.999996887207,6|0,0:3|0:0,0:0:0:0:
243,154,36044,6,0,L|233:290,1,136,6|0,0:3|0:0,0:0:0:0:
135,157,36337,5,2,0:0:0:0:
135,157,36483,1,0,0:0:0:0:
241,56,36629,1,0,0:0:0:0:
241,56,36776,1,0,0:0:0:0:
328,167,36922,2,0,L|332:252,1,72.2500013780594,2|0,0:0|0:0,0:0:0:0:
413,121,37215,2,0,L|417:36,1,72.2500013780594,0|0,0:0|0:0,0:0:0:0:
490,313,37507,1,2,0:0:0:0:
490,313,37654,1,0,0:0:0:0:
371,367,37800,1,0,0:0:0:0:
371,367,37946,1,0,0:0:0:0:
270,301,38093,6,0,P|210:286|171:291,1,101.999996887207,6|0,0:3|0:0,0:0:0:0:
62,367,38385,6,0,B|66:318|91:288|91:288|74:248|84:196,2,170,6|2|2,0:3|0:0|0:0,0:0:0:0:
214,252,39263,1,2,0:0:0:0:
323,332,39556,2,0,L|497:344,2,170,2|2|2,0:0|0:0|0:0,0:0:0:0:
186,383,40434,1,2,0:0:0:0:
89,305,40727,5,2,0:0:0:0:
72,265,40800,1,0,0:0:0:0:
71,224,40873,1,0,0:0:0:0:
81,187,40946,1,0,0:0:0:0:
94,153,41020,1,8,0:0:0:0:
96,119,41093,1,0,0:0:0:0:
89,87,41166,1,0,0:0:0:0:
74,60,41239,1,0,0:0:0:0:
57,33,41312,2,0,P|58:4|64:-19,1,42.5,8|0,0:0|0:0,0:0:0:0:
201,49,41459,5,0,0:0:0:0:
203,78,41532,1,0,0:0:0:0:
205,107,41605,1,8,0:0:0:0:
207,136,41678,1,0,0:0:0:0:
209,165,41751,1,0,0:0:0:0:
211,194,41824,1,0,0:0:0:0:
213,223,41898,6,0,L|219:277,3,42.5,2|0|0|0,0:0|0:0|0:0|0:0,0:0:0:0:
309,263,42190,2,0,L|303:317,3,42.5,2|0|0|0,0:0|0:0|0:0|0:0,0:0:0:0:
405,303,42483,6,0,P|435:307|453:303,1,42.5,2|0,0:0|0:0,0:0:0:0:
507,209,42629,2,0,P|477:205|459:209,1,42.5,0|0,0:0|0:0,0:0:0:0:
469,369,42776,2,0,P|499:373|517:369,1,42.5,2|0,0:0|0:0,0:0:0:0:
443,143,42922,2,0,P|413:139|395:143,1,42.5,0|0,0:0|0:0,0:0:0:0:
314,383,43068,1,6,0:3:0:0:
314,383,43361,6,0,L|311:307,1,72.2500013780594,2|0,0:0|0:0,0:0:0:0:
188,316,43654,2,0,L|191:240,1,72.2500013780594,0|0,0:0|0:0,0:0:0:0:
326,363,43946,2,0,L|323:287,1,72.2500013780594,2|0,0:0|0:0,0:0:0:0:
200,296,44239,2,0,L|203:220,1,72.2500013780594,0|0,0:0|0:0,0:0:0:0:
371,160,44532,2,0,L|374:236,1,72.2500013780594,2|0,0:0|0:0,0:0:0:0:
272,130,44824,2,0,L|275:54,1,72.2500013780594,0|0,0:0|0:0,0:0:0:0:
470,51,45117,6,0,B|476:83|476:83|457:112|457:112|464:144,1,101.999996887207,6|0,0:3|0:0,0:0:0:0:
448,370,45410,6,0,B|438:326|438:326|399:301|399:301|390:258,1,136,6|0,0:3|0:0,0:0:0:0:
390,54,45702,5,2,0:0:0:0:
390,54,45849,1,0,0:0:0:0:
313,148,45995,2,0,L|320:242,1,72.2500013780594,0|0,0:0|0:0,0:0:0:0:
265,346,46288,1,2,0:0:0:0:
265,346,46434,1,0,0:0:0:0:
152,288,46581,2,0,L|147:187,1,72.2500013780594,0|0,0:0|0:0,0:0:0:0:
237,127,46873,2,0,L|242:26,1,72.2500013780594,2|0,0:0|0:0,0:0:0:0:
59,147,47166,2,0,L|62:219,1,72.2500013780594,0|0,0:0|0:0,0:0:0:0:
207,367,47459,6,0,P|232:321|221:268,1,101.999996887207,6|0,0:3|0:0,0:0:0:0:
249,162,47751,6,0,P|283:217|347:239,1,136,6|0,0:3|0:0,0:0:0:0:
496,148,48044,6,0,L|411:137,1,72.2500013780594,2|0,0:0|0:0,0:0:0:0:
440,60,48337,2,0,L|355:71,1,72.2500013780594,0|0,0:0|0:0,0:0:0:0:
292,165,48629,2,0,L|281:90,1,72.2500013780594,2|0,0:0|0:0,0:0:0:0:
194,225,48922,2,0,L|205:150,1,72.2500013780594,0|0,0:0|0:0,0:0:0:0:
311,374,49215,2,0,P|296:340|297:293,1,72.2500013780594,2|0,0:0|0:0,0:0:0:0:
342,300,49507,2,0,P|337:264|353:218,1,72.2500013780594,2|0,0:0|0:0,0:0:0:0:
394,240,49800,2,0,P|401:204|430:166,1,72.2500013780594,2|0,0:0|0:0,0:0:0:0:
512,384,50093,5,6,0:3:0:0:
319,310,50385,1,2,0:0:0:0:
298,311,50459,1,0,0:0:0:0:
277,312,50532,1,0,0:0:0:0:
256,313,50605,1,0,0:0:0:0:
235,315,50678,2,0,L|133:320,1,101.999996887207,8|0,0:0|0:0,0:0:0:0:
383,219,50971,5,2,0:0:0:0:
362,220,51045,1,0,0:0:0:0:
341,221,51118,1,0,0:0:0:0:
320,222,51191,1,0,0:0:0:0:
299,224,51263,1,2,0:0:0:0:
179,161,51410,5,0,0:0:0:0:
174,140,51483,1,0,0:0:0:0:
171,119,51556,1,2,0:0:0:0:
424,47,51702,1,2,0:0:0:0:
429,64,51776,1,2,0:0:0:0:
434,81,51848,1,2,0:0:0:0:
439,98,51922,1,2,0:0:0:0:
444,115,51995,6,0,B|439:140|450:158|450:158|445:178|414:204|414:204|481:201|552:259|540:348|495:447|351:409|352:354|336:334|336:334|313:368|266:370,1,573.750021886826,8|6,0:0|0:3,0:0:0:0:
95,294,52581,5,0,0:0:0:0:
293,196,52727,1,8,0:0:0:0:
94,151,52873,1,0,0:0:0:0:
94,151,52946,1,0,0:0:0:0:
94,151,53020,1,2,0:0:0:0:
212,315,53166,1,0,0:0:0:0:
287,115,53312,1,8,0:0:0:0:
341,335,53459,1,0,0:0:0:0:
341,335,53532,1,0,0:0:0:0:
341,335,53605,6,0,L|446:346,1,93.5000028533936,2|0,0:0|0:0,0:0:0:0:
220,199,53898,2,0,L|325:188,1,93.5000028533936,8|2,0:0|0:0,0:0:0:0:
171,328,54190,1,0,0:0:0:0:
80,167,54337,1,2,0:0:0:0:
80,167,54410,1,0,0:0:0:0:
80,167,54483,1,8,0:0:0:0:
320,97,54629,1,8,0:0:0:0:
263,232,54776,6,0,P|212:236|168:217,1,93.5000028533936,2|0,0:0|0:0,0:0:0:0:
266,35,55068,1,8,0:0:0:0:
372,221,55215,1,0,0:0:0:0:
372,221,55288,1,0,0:0:0:0:
372,221,55361,2,0,L|364:318,1,93.5000028533936,2|0,0:0|0:0,0:0:0:0:
491,109,55654,2,0,L|499:206,1,93.5000028533936,8|0,0:0|0:0,0:0:0:0:
437,331,55946,5,2,0:0:0:0:
297,257,56093,2,0,L|199:261,1,93.5000028533936,0|8,0:0|0:0,0:0:0:0:
44,311,56385,1,2,0:0:0:0:
225,372,56532,1,0,0:0:0:0:
129,208,56678,2,0,L|21:203,1,93.5000028533936,2|8,0:0|0:0,0:0:0:0:
178,81,56971,1,0,0:0:0:0:
178,81,57044,1,0,0:0:0:0:
178,81,57117,6,0,L|281:83,1,93.5000028533936,6|0,0:0|0:0,0:0:0:0:
223,333,57410,1,8,0:0:0:0:
145,175,57556,1,0,0:0:0:0:
366,345,57702,2,0,L|372:244,1,93.5000028533936,2|0,0:0|0:0,0:0:0:0:
271,82,57995,2,0,L|277:183,1,93.5000028533936,8|0,0:0|0:0,0:0:0:0:
409,54,58288,5,2,0:0:0:0:
181,134,58434,1,0,0:0:0:0:
181,134,58507,1,0,0:0:0:0:
181,134,58581,2,0,L|175:244,1,93.5000028533936,8|2,0:0|0:0,0:0:0:0:
279,308,58873,2,0,L|273:198,1,93.5000028533936,0|2,0:0|0:0,0:0:0:0:
86,291,59166,2,0,L|92:401,1,93.5000028533936,8|8,0:0|0:0,0:0:0:0:
236,379,59459,1,6,0:0:0:0:
340,188,59605,2,0,P|351:249|349:287,1,93.5000028533936,0|8,0:0|0:0,0:0:0:0:
200,226,59898,1,0,0:0:0:0:
306,101,60044,5,8,0:0:0:0:
361,84,60117,1,0,0:0:0:0:
416,101,60190,1,8,0:0:0:0:
453,145,60263,1,0,0:0:0:0:
459,202,60337,1,8,0:0:0:0:
442,242,60410,1,0,0:0:0:0:
439,286,60483,1,8,0:0:0:0:
451,328,60556,1,0,0:0:0:0:
477,363,60629,6,0,L|484:309,3,46.7500014266968,12|0|0|0,0:0|0:0|0:0|0:0,0:0:0:0:
379,379,60922,2,0,L|324:385,3,46.7500014266968,8|0|0|0,0:0|0:0|0:0|0:0,0:0:0:0:
230,318,61215,5,12,0:0:0:0:
200,315,61288,1,8,0:0:0:0:
171,313,61361,1,8,0:0:0:0:
142,311,61434,1,8,0:0:0:0:
108,322,61507,1,10,0:0:0:0:
70,295,61580,1,8,0:0:0:0:
52,252,61653,1,8,0:0:0:0:
58,207,61726,1,8,0:0:0:0:
87,171,61799,1,6,0:3:0:0:
349,230,61946,6,0,P|291:255|243:254,1,93.5000028533936,0|8,0:0|0:0,0:0:0:0:
360,81,62239,1,0,0:0:0:0:
447,211,62385,2,0,L|441:332,1,93.5000028533936,2|0,0:0|0:0,0:0:0:0:
253,159,62678,2,0,L|247:38,1,93.5000028533936,8|0,0:0|0:0,0:0:0:0:
323,16,62971,5,2,0:0:0:0:
149,74,63117,2,0,P|135:135|144:196,1,93.5000028533936,0|8,0:0|0:0,0:0:0:0:
165,283,63410,1,0,0:0:0:0:
165,283,63483,1,0,0:0:0:0:
165,283,63556,2,0,L|229:288,1,46.7500014266968,2|0,0:0|0:0,0:0:0:0:
297,342,63702,1,2,0:0:0:0:
330,337,63776,1,0,0:0:0:0:
360,332,63849,2,0,L|421:328,1,46.7500014266968,8|0,0:0|0:0,0:3:0:0:
508,372,63995,1,2,0:0:0:0:
508,372,64068,1,0,0:0:0:0:
508,372,64142,6,0,L|512:278,1,93.5000028533936,6|0,0:0|0:0,0:0:0:0:
401,180,64434,1,8,0:0:0:0:
499,71,64581,1,0,0:0:0:0:
499,71,64654,1,0,0:0:0:0:
499,71,64727,2,0,P|456:52|409:49,1,93.5000028533936,2|0,0:0|0:0,0:0:0:0:
220,172,65020,2,0,P|262:190|309:193,1,93.5000028533936,8|0,0:0|0:0,0:0:0:0:
263,48,65312,5,2,0:0:0:0:
230,52,65385,1,0,0:0:0:0:
197,56,65459,1,0,0:0:0:0:
164,60,65532,1,0,0:0:0:0:
125,65,65605,2,0,L|37:79,3,55.2499974708558,8|0|0|0,0:0|0:0|0:0|0:0,0:0:0:0:
83,162,65898,5,2,0:0:0:0:
73,180,65971,1,0,0:0:0:0:
70,200,66044,1,0,0:0:0:0:
74,220,66117,1,0,0:0:0:0:
85,238,66190,2,0,B|107:288|107:288|102:353,1,110.499994941712,8|0,0:0|0:0,0:0:0:0:
194,255,66483,5,6,0:3:0:0:
226,230,66556,1,0,0:0:0:0:
266,220,66629,1,0,0:0:0:0:
306,225,66702,1,0,0:0:0:0:
342,245,66776,1,8,0:0:0:0:
374,270,66849,1,0,0:0:0:0:
414,280,66922,1,0,0:0:0:0:
454,275,66995,1,0,0:0:0:0:
490,255,67068,5,8,0:0:0:0:
510,227,67141,1,0,0:0:0:0:
512,192,67214,1,0,0:0:0:0:
493,163,67287,1,0,0:0:0:0:
462,150,67361,1,8,0:0:0:0:
435,139,67434,1,0,0:0:0:0:
416,116,67507,1,0,0:0:0:0:
411,88,67580,1,0,0:0:0:0:
419,60,67654,5,6,0:3:0:0:
404,68,67727,1,0,0:0:0:0:
387,73,67800,1,0,0:0:0:0:
369,73,67873,1,0,0:0:0:0:
352,70,67947,1,8,0:0:0:0:
337,61,68020,1,0,0:0:0:0:
320,57,68093,1,0,0:0:0:0:
303,56,68166,1,0,0:0:0:0:
285,59,68239,5,2,0:0:0:0:
305,93,68312,1,0,0:0:0:0:
309,134,68385,1,0,0:0:0:0:
295,172,68458,1,0,0:0:0:0:
266,201,68532,1,8,0:0:0:0:
237,230,68605,1,0,0:0:0:0:
223,268,68678,1,0,0:0:0:0:
227,309,68751,1,0,0:0:0:0:
248,344,68824,1,6,0:3:0:0:
256,192,68898,12,4,71166,0:0:0:0:
256,192,71239,12,4,73507,0:0:0:0:
256,192,73581,12,4,74678,0:0:0:0:
183,75,75410,5,8,0:0:0:0:
183,75,75483,1,8,0:0:0:0:
183,75,75556,2,0,L|180:117,1,42.5,2|0,0:3|0:0,0:0:0:0:
110,243,75849,5,2,0:3:0:0:
134,267,75922,1,0,0:0:0:0:
164,283,75995,1,0,0:0:0:0:
198,290,76068,1,0,0:0:0:0:
232,286,76141,1,8,0:0:0:0:
264,273,76214,1,0,0:0:0:0:
290,251,76288,1,0,0:0:0:0:
308,222,76361,1,0,0:0:0:0:
318,189,76434,5,8,0:0:0:0:
319,204,76507,1,0,0:0:0:0:
320,220,76580,1,0,0:0:0:0:
322,236,76653,1,0,0:0:0:0:
323,252,76726,1,8,0:0:0:0:
324,268,76799,1,0,0:0:0:0:
326,284,76873,1,0,0:0:0:0:
327,300,76946,1,0,0:0:0:0:
328,316,77020,5,8,0:0:0:0:
295,288,77093,1,0,0:0:0:0:
255,276,77166,1,8,0:0:0:0:
213,282,77239,1,8,0:0:0:0:
177,304,77312,1,8,0:0:0:0:
141,326,77385,1,0,0:0:0:0:
99,332,77458,1,0,0:0:0:0:
59,320,77531,1,0,0:0:0:0:
27,293,77605,5,8,0:0:0:0:
73,260,77678,1,8,0:0:0:0:
102,212,77751,1,8,0:0:0:0:
102,155,77824,1,0,0:0:0:0:
78,102,77898,1,0,0:0:0:0:
85,46,77971,1,0,0:0:0:0:
130,12,78044,1,0,0:0:0:0:
186,13,78117,1,0,0:0:0:0:
222,56,78190,6,0,L|237:95,3,42.5,6|0|0|0,0:3|0:0|0:0|0:0,0:0:0:0:
202,113,78483,2,0,L|212:154,3,42.5,0|0|0|0,0:0|0:0|0:0|0:0,0:0:0:0:
177,166,78776,2,0,L|182:208,3,42.5,0|0|0|0,0:0|0:0|0:0|0:0,0:0:0:0:
147,217,79068,2,0,L|146:259,3,42.5,0|0|0|0,0:0|0:0|0:0|0:0,0:0:0:0:
89,330,79361,5,0,0:0:0:0:
102,332,79434,1,0,0:0:0:0:
115,332,79508,1,0,0:0:0:0:
128,334,79581,1,0,0:0:0:0:
143,333,79654,2,0,L|203:338,3,42.5,0|0|0|0,0:0|0:0|0:0|0:0,0:0:0:0:
241,286,79946,5,0,0:0:0:0:
254,284,80019,1,0,0:0:0:0:
267,284,80093,1,0,0:0:0:0:
280,282,80166,1,0,0:0:0:0:
295,283,80239,2,0,L|355:278,3,42.5,0|0|0|0,0:0|0:0|0:0|0:0,0:0:0:0:
422,289,80532,6,0,L|400:346,3,42.5,6|0|0|0,0:3|0:0|0:0|0:0,0:0:0:0:
431,204,80824,2,0,L|488:225,3,42.5,0|0|0|0,0:0|0:0|0:0|0:0,0:0:0:0:
347,194,81117,2,0,L|368:136,3,42.5,0|0|0|0,0:0|0:0|0:0|0:0,0:0:0:0:
337,279,81410,2,0,L|279:257,3,42.5,0|0|0|0,0:0|0:0|0:0|0:0,0:0:0:0:
256,343,81702,5,0,0:0:0:0:
231,354,81775,1,0,0:0:0:0:
205,356,81848,1,0,0:0:0:0:
179,351,81921,1,0,0:0:0:0:
157,337,81995,2,0,P|127:330|97:333,3,42.5,0|0|0|0,0:0|0:0|0:0|0:0,0:0:0:0:
151,259,82288,5,0,0:0:0:0:
126,247,82361,1,0,0:0:0:0:
100,245,82434,1,0,0:0:0:0:
74,250,82507,1,0,0:0:0:0:
52,265,82581,2,0,P|22:272|-8:269,3,42.5,0|0|0|0,0:0|0:0|0:0|0:0,0:0:0:0:
15,176,82873,6,0,L|11:107,3,42.5,6|0|0|0,0:3|0:0|0:0|0:0,0:0:0:0:
87,129,83166,2,0,L|91:60,3,42.5,0|0|0|0,0:0|0:0|0:0|0:0,0:0:0:0:
159,176,83459,2,0,L|163:107,3,42.5,0|0|0|0,0:0|0:0|0:0|0:0,0:0:0:0:
231,129,83751,2,0,L|227:60,3,42.5,0|0|0|0,0:0|0:0|0:0|0:0,0:0:0:0:
328,126,84044,5,6,0:3:0:0:
357,146,84117,1,0,0:0:0:0:
376,177,84190,1,0,0:0:0:0:
381,214,84263,1,0,0:0:0:0:
369,249,84336,1,0,0:0:0:0:
344,276,84409,1,0,0:0:0:0:
310,290,84483,1,0,0:0:0:0:
273,288,84556,1,0,0:0:0:0:
240,271,84629,6,0,L|234:215,3,42.5,2|0|0|0,0:0|0:0|0:0|0:0,0:0:0:0:
209,105,84922,1,10,0:0:0:0:
213,70,84995,1,2,0:0:0:0:
217,35,85068,1,2,0:0:0:0:
221,0,85142,1,2,0:0:0:0:
221,0,87263,6,0,B|216:27|216:27|229:51|217:77|217:77|240:95|240:95|217:108|217:108|236:134|216:182,1,204,8|0,0:0|0:0,0:0:0:0:
182,297,87556,5,6,0:3:0:0:
367,221,87702,1,0,0:0:0:0:
367,221,87776,1,0,0:0:0:0:
367,221,87849,1,8,0:0:0:0:
241,134,87995,2,0,P|196:121|150:126,1,93.5000028533936,0|2,0:0|0:0,0:0:0:0:
56,248,88288,1,0,0:0:0:0:
56,248,88361,1,0,0:0:0:0:
56,248,88434,2,0,L|63:347,1,93.5000028533936,8|0,0:0|0:0,0:0:0:0:
184,372,88727,6,0,B|213:368|213:368|233:343|233:343|264:341,1,93.5000028533936,2|0,0:0|0:0,0:0:0:0:
390,381,89020,1,8,0:0:0:0:
343,265,89166,2,0,P|337:211|348:168,1,93.5000028533936,2|0,0:0|0:0,0:0:0:0:
469,87,89459,1,0,0:0:0:0:
469,87,89532,1,0,0:0:0:0:
469,86,89605,2,0,P|403:73|375:78,1,93.5000028533936,8|0,0:0|0:0,0:0:0:0:
254,167,89898,5,2,0:0:0:0:
404,253,90044,1,0,0:0:0:0:
410,274,90117,1,0,0:0:0:0:
411,297,90190,2,0,P|404:346|377:391,1,93.5000028533936,8|0,0:0|0:0,0:0:0:0:
279,280,90483,1,2,0:0:0:0:
183,375,90629,1,0,0:0:0:0:
183,375,90702,1,0,0:0:0:0:
183,375,90776,2,0,L|175:274,1,93.5000028533936,8|0,0:0|0:0,0:0:0:0:
177,76,91068,5,2,0:0:0:0:
234,186,91215,1,0,0:0:0:0:
294,72,91361,1,8,0:0:0:0:
145,177,91507,1,0,0:0:0:0:
244,9,91654,1,2,0:0:0:0:
327,217,91800,1,0,0:0:0:0:
327,217,91873,1,0,0:0:0:0:
327,217,91946,2,0,L|321:327,1,93.5000028533936,8|0,0:0|0:0,0:0:0:0:
237,384,92239,5,4,0:0:0:0:
149,260,92385,1,0,0:0:0:0:
149,260,92459,1,0,0:0:0:0:
149,260,92532,1,8,0:0:0:0:
287,198,92678,2,0,P|336:216|389:208,1,93.5000028533936,0|2,0:0|0:0,0:0:0:0:
465,95,92971,1,0,0:0:0:0:
465,95,93044,1,0,0:0:0:0:
465,95,93117,2,0,L|470:189,1,93.5000028533936,8|0,0:0|0:0,0:0:0:0:
431,381,93410,6,0,P|415:332|427:285,1,93.5000028533936,8|0,0:0|0:0,0:0:0:0:
511,171,93702,1,2,0:0:0:0:
269,275,93849,2,0,P|285:226|273:179,1,93.5000028533936,8|0,0:0|0:0,0:0:0:0:
142,110,94142,1,2,0:0:0:0:
142,110,94215,1,0,0:0:0:0:
142,110,94288,2,0,L|133:223,1,93.5000028533936,8|0,0:0|0:0,0:0:0:0:
90,369,94581,6,0,P|80:320|47:287,1,93.5000028533936,8|0,0:0|0:0,0:0:0:0:
180,171,94873,1,2,0:0:0:0:
242,318,95020,2,0,P|252:269|285:236,1,93.5000028533936,8|0,0:0|0:0,0:0:0:0:
384,341,95312,1,0,0:0:0:0:
453,224,95459,2,0,L|450:113,1,93.5000028533936,8|0,0:0|0:0,0:0:0:0:
356,22,95751,5,8,0:0:0:0:
356,22,95824,1,8,0:0:0:0:
356,22,95898,1,8,0:0:0:0:
356,22,95971,1,8,0:0:0:0:
356,22,96044,2,0,L|351:68,3,46.7500014266968
294,146,96337,5,0,0:0:0:0:
294,146,96410,1,0,0:0:0:0:
294,146,96484,1,0,0:0:0:0:
294,146,96557,1,0,0:0:0:0:
294,146,96629,2,0,B|278:184|297:209|297:209|276:242|276:242|316:303|274:370|210:371,1,272,8|6,0:0|0:3,0:0:0:0:
125,275,97068,5,0,0:0:0:0:
125,275,97142,1,0,0:0:0:0:
125,275,97215,2,0,L|130:169,1,93.5000028533936,8|0,0:0|0:0,0:0:0:0:
104,38,97507,2,0,P|162:66|203:62,1,93.5000028533936,2|0,0:0|0:0,0:0:0:0:
281,15,97800,1,8,0:0:0:0:
332,159,97946,1,0,0:0:0:0:
431,62,98093,5,2,0:0:0:0:
500,223,98239,1,0,0:0:0:0:
500,223,98312,1,0,0:0:0:0:
500,223,98385,1,8,0:0:0:0:
421,307,98532,2,0,P|372:284|321:289,1,93.5000028533936,0|2,0:0|0:0,0:0:0:0:
254,359,98824,1,0,0:0:0:0:
150,253,98971,1,8,0:0:0:0:
324,212,99117,1,0,0:0:0:0:
351,213,99190,1,0,0:0:0:0:
378,214,99263,6,0,B|432:216|432:216|481:198,1,93.5000028533936,2|0,0:0|0:0,0:0:0:0:
419,35,99556,1,8,0:0:0:0:
330,129,99702,1,0,0:0:0:0:
330,129,99776,1,0,0:0:0:0:
330,129,99849,2,0,P|263:113|225:122,1,93.5000028533936,2|0,0:0|0:0,0:0:0:0:
142,184,100142,1,8,0:0:0:0:
204,34,100288,1,0,0:0:0:0:
264,219,100434,6,0,L|257:319,1,93.5000028533936,8|0,0:0|0:0,0:0:0:0:
405,382,100727,2,0,P|386:339|388:292,1,93.5000028533936,8|0,0:0|0:0,0:0:0:0:
508,186,101020,1,2,0:0:0:0:
508,186,101166,1,0,0:0:0:0:
302,109,101312,1,8,0:0:0:0:
478,74,101459,1,8,0:0:0:0:
478,74,101532,1,0,0:0:0:0:
478,74,101605,5,14,0:3:0:0:
356,209,101751,1,0,0:0:0:0:
356,209,101824,1,0,0:0:0:0:
356,209,101898,2,0,P|309:226|247:218,1,93.5000028533936,8|0,0:0|0:0,0:0:0:0:
160,133,102190,1,2,0:0:0:0:
112,239,102337,2,0,L|121:345,1,93.5000028533936,0|8,0:0|0:0,0:0:0:0:
21,188,102629,1,0,0:0:0:0:
212,280,102776,6,0,P|269:285|308:270,1,93.5000028533936,2|0,0:0|0:0,0:0:0:0:
383,152,103068,1,8,0:0:0:0:
424,291,103215,2,0,L|417:392,1,93.5000028533936,2|0,0:0|0:0,0:0:0:0:
286,377,103507,2,0,L|281:326,1,46.7500014266968,2|0,0:0|0:0,0:0:0:0:
228,222,103654,2,0,L|223:273,1,46.7500014266968,2|0,0:0|0:0,0:0:0:0:
153,347,103800,2,0,L|148:296,1,46.7500014266968,2|0,0:0|0:0,0:0:0:0:
92,208,103946,5,6,0:3:0:0:
117,176,104019,1,0,0:0:0:0:
128,137,104092,1,0,0:0:0:0:
123,96,104165,1,0,0:0:0:0:
102,61,104239,1,8,0:0:0:0:
65,46,104312,1,0,0:0:0:0:
30,64,104385,1,0,0:0:0:0:
21,102,104458,1,0,0:0:0:0:
44,134,104531,5,8,0:0:0:0:
72,124,104605,1,0,0:0:0:0:
99,114,104678,1,0,0:0:0:0:
128,112,104751,1,0,0:0:0:0:
156,118,104824,1,8,0:0:0:0:
183,128,104898,1,0,0:0:0:0:
210,138,104971,1,0,0:0:0:0:
239,140,105044,1,0,0:0:0:0:
267,134,105117,6,0,L|309:109,3,46.7500014266968,8|0|0|0,0:0|0:0|0:0|0:0,0:0:0:0:
333,178,105410,2,0,L|379:162,3,46.7500014266968,8|0|0|0,0:0|0:0|0:0|0:0,0:0:0:0:
388,234,105702,2,0,L|436:228,3,46.7500014266968,8|0|0|0,0:0|0:0|0:0|0:0,0:0:0:0:
430,300,105995,2,0,L|478:304,3,46.7500014266968,8|0|0|0,0:0|0:0|0:0|0:0,0:0:0:0:
389,380,106288,6,0,P|353:365|315:363,1,76.4999976654053,6|0,0:3|0:0,0:0:0:0:
208,380,106581,1,8,0:0:0:0:
207,379,106727,2,0,P|169:315|180:241,1,152.999995330811,0|0,0:0|0:0,0:0:0:0:
285,266,107166,2,0,P|334:274|365:265,1,76.4999976654053,8|0,0:0|0:0,0:0:0:0:
419,194,107459,6,0,P|395:125|428:39,1,152.999995330811,2|8,0:0|0:0,0:0:0:0:
315,104,107898,2,0,P|267:48|176:34,1,152.999995330811,8|0,0:0|0:0,0:0:0:0:
209,151,108337,2,0,L|215:233,1,76.4999976654053,8|0,0:0|0:0,0:0:0:0:
223,342,108629,5,2,0:0:0:0:
223,342,108776,1,0,0:0:0:0:
304,268,108922,1,8,0:0:0:0:
304,268,109068,1,0,0:0:0:0:
379,374,109215,2,0,P|412:354|450:349,1,76.4999976654053,2|0,0:0|0:0,0:0:0:0:
415,236,109507,2,0,P|385:212|348:201,1,76.4999976654053,8|0,0:0|0:0,0:0:0:0:
225,250,109800,6,0,P|143:267|74:231,1,152.999995330811,2|8,0:0|0:0,0:0:0:0:
161,151,110239,2,0,P|216:88|220:10,1,152.999995330811,2|0,0:0|0:0,0:0:0:0:
110,45,110678,1,8,0:0:0:0:
50,146,110824,1,0,0:0:0:0:
50,146,110971,6,0,B|58:178|58:178|52:209|52:209|68:253|50:308,1,152.999995330811,12|8,0:0|0:0,0:0:0:0:
74,378,111410,2,0,P|125:381|156:366,1,76.4999976654053,0|2,0:0|0:0,0:0:0:0:
203,217,111702,1,0,0:0:0:0:
203,217,111849,2,0,L|197:127,1,76.4999976654053,8|0,0:0|0:0,0:0:0:0:
196,48,112142,6,0,B|300:27|244:90|364:71,1,152.999995330811,8|8,0:0|0:0,0:0:0:0:
468,29,112581,2,0,B|440:68|455:115|455:115|442:149|442:149|441:202,1,152.999995330811,0|0,0:0|0:0,0:0:0:0:
503,254,113020,2,0,L|493:345,1,76.4999976654053,8|0,0:0|0:0,0:0:0:0:
429,372,113312,6,0,P|395:353|357:349,1,76.4999976654053,2|0,0:0|0:0,0:0:0:0:
215,292,113605,2,0,P|252:287|286:269,1,76.4999976654053,8|0,0:0|0:0,0:0:0:0:
375,149,113898,1,2,0:0:0:0:
235,197,114044,1,0,0:0:0:0:
400,294,114190,1,8,0:0:0:0:
234,378,114337,6,0,B|188:386|161:363|161:363|122:379|81:366,1,152.999995330811,8|0,0:0|0:0,0:0:0:0:
41,261,114776,2,0,P|65:209|63:178,1,76.4999976654053,8|0,0:0|0:0,0:0:0:0:
38,68,115068,1,2,0:0:0:0:
63,90,115141,1,0,0:0:0:0:
94,98,115214,1,0,0:0:0:0:
127,93,115287,1,0,0:0:0:0:
154,73,115361,2,0,P|189:51|242:55,1,76.4999976654053,8|0,0:0|0:0,0:0:0:0:
325,41,115654,6,0,B|326:73|315:92|315:92|326:129|313:165|313:165|311:195,1,152.999995330811,6|8,0:3|0:0,0:0:0:0:
393,298,116093,2,0,P|384:261|392:224,1,76.4999976654053,0|2,0:0|0:0,0:0:0:0:
491,104,116385,1,0,0:0:0:0:
490,103,116532,2,0,P|462:128|427:140,1,76.4999976654053,8|0,0:0|0:0,0:0:0:0:
353,74,116824,6,0,B|301:77|301:77|267:116|267:116|215:119,1,152.999995330811,8|8,0:0|0:0,0:0:0:0:
121,48,117263,2,0,B|132:93|132:93|127:127|127:127|139:164|139:164|135:210,1,152.999995330811,2|0,0:0|0:0,0:0:0:0:
54,313,117702,2,0,L|46:236,1,76.4999976654053,8|0,0:0|0:0,0:0:0:0:
190,370,117995,5,2,0:0:0:0:
190,370,118142,1,0,0:0:0:0:
354,293,118288,1,8,0:0:0:0:
238,227,118434,2,0,L|151:235,1,76.4999976654053,0|2,0:0|0:0,0:0:0:0:
14,303,118727,2,0,L|101:311,1,76.4999976654053,0|8,0:0|0:0,0:0:0:0:
31,182,119020,1,0,0:0:0:0:
31,182,119166,6,0,P|12:137|27:84,1,76.4999976654053,8|0,0:0|0:0,0:0:0:0:
119,9,119459,1,2,0:0:0:0:
155,127,119605,2,0,L|149:217,1,76.4999976654053,8|2,0:0|0:0,0:0:0:0:
241,210,119898,2,0,L|247:300,1,76.4999976654053,0|8,0:0|0:0,0:0:0:0:
143,373,120190,1,0,0:0:0:0:
143,373,120337,6,0,B|110:355|67:368|67:368|37:337|39:296,1,152.999995330811,8|8,0:0|0:0,0:0:0:0:
126,209,120776,1,0,0:0:0:0:
126,209,120922,2,0,P|148:160|145:121,1,76.4999976654053,2|0,0:0|0:0,0:0:0:0:
83,32,121215,2,0,L|159:36,1,76.4999976654053,8|0,0:0|0:0,0:0:0:0:
311,30,121507,6,0,P|287:110|330:169,1,152.999995330811,8|8,0:0|0:0,0:0:0:0:
428,112,121946,2,0,L|417:268,1,152.999995330811,0|0,0:0|0:0,0:0:0:0:
310,343,122385,2,0,L|304:265,1,76.4999976654053,8|0,0:0|0:0,0:0:0:0:
185,173,122678,5,2,0:0:0:0:
185,173,122824,1,0,0:0:0:0:
110,285,122971,2,0,L|117:374,1,76.4999976654053,8|0,0:0|0:0,0:0:0:0:
304,266,123263,1,2,0:0:0:0:
362,155,123410,2,0,L|359:71,1,76.4999976654053,8|8,0:0|0:0,0:0:0:0:
246,21,123702,6,0,B|230:44|201:49|201:49|168:35|137:46|137:46|119:84|143:122,1,187.000005706787,4|0,0:0|0:0,0:0:0:0:
220,283,124142,2,0,L|227:191,1,85,8|2,0:0|0:0,0:0:0:0:
137,292,124434,2,0,L|144:384,1,85,2|0,0:0|0:0,0:0:0:0:
325,268,124727,1,8,0:0:0:0:
142,173,124873,1,2,0:0:0:0:
330,124,125020,6,0,P|392:119|467:163,1,152.999995330811,6|8,0:3|0:0,0:0:0:0:
385,311,125459,1,0,0:0:0:0:
384,310,125605,2,0,L|376:233,1,76.4999976654053,0|0,0:0|0:0,0:0:0:0:
512,16,125898,2,0,L|502:120,1,76.4999976654053,8|0,0:0|0:0,0:0:0:0:
473,239,126190,5,0,0:0:0:0:
473,239,126337,1,0,0:0:0:0:
389,154,126483,2,0,P|354:138|316:134,1,76.4999976654053,8|0,0:0|0:0,0:0:0:0:
248,283,126776,2,0,P|278:260|300:229,1,76.4999976654053,0|0,0:0|0:0,0:0:0:0:
206,96,127068,2,0,P|209:133|225:168,1,76.4999976654053,8|0,0:0|0:0,0:0:0:0:
287,13,127361,6,0,B|256:9|233:0|233:0|194:19|194:19|154:2|105:15,1,152.999995330811,2|8,0:0|0:0,0:0:0:0:
2,75,127800,1,0,0:0:0:0:
131,143,127946,2,0,B|156:180|142:220|142:220|154:258|154:258|138:307,1,152.999995330811,2|8,0:0|0:0,0:0:0:0:
71,374,128385,1,0,0:0:0:0:
71,374,128532,6,0,L|77:269,1,76.4999976654053,8|0,0:0|0:0,0:0:0:0:
229,214,128824,2,0,L|235:319,1,76.4999976654053,8|0,0:0|0:0,0:0:0:0:
334,376,129117,1,2,0:0:0:0:
364,373,129190,1,0,0:0:0:0:
394,370,129263,1,0,0:0:0:0:
424,367,129337,1,0,0:0:0:0:
454,364,129410,2,0,B|500:358|500:358|521:314,1,93.5000028533936,8|0,0:0|0:0,0:0:0:0:
445,204,129702,5,6,0:3:0:0:
445,204,129849,2,0,L|450:118,1,76.4999976654053,0|8,0:0|0:0,0:0:0:0:
475,10,130142,1,0,0:0:0:0:
475,10,130288,2,0,P|442:29|399:29,1,76.4999976654053,2|0,0:0|0:0,0:0:0:0:
311,98,130581,1,8,0:0:0:0:
216,27,130727,1,0,0:0:0:0:
192,26,130800,1,0,0:0:0:0:
169,25,130873,6,0,B|117:22|117:22|79:56|79:56|76:108,1,152.999995330811,8|8,0:0|0:0,0:0:0:0:
171,217,131312,2,0,L|175:140,1,76.4999976654053,0|2,0:0|0:0,0:0:0:0:
62,231,131605,1,0,0:0:0:0:
62,231,131678,1,0,0:0:0:0:
62,231,131751,2,0,L|63:316,1,76.4999976654053,8|0,0:0|0:0,0:0:0:0:
129,384,132044,5,8,0:0:0:0:
129,384,132190,1,0,0:0:0:0:
234,308,132337,1,8,0:0:0:0:
234,308,132483,1,2,0:0:0:0:
133,241,132629,2,0,L|131:153,1,76.4999976654053,2|0,0:0|0:0,0:0:0:0:
231,79,132922,1,8,0:0:0:0:
231,79,133068,6,0,B|257:75|275:92|275:92|298:95|318:83|318:83|347:99|378:90,1,152.999995330811,4|0,0:0|0:0,0:0:0:0:
453,62,133361,1,0,0:0:0:0:
453,62,133434,1,0,0:0:0:0:
453,62,133507,2,0,L|455:127,3,40.3749989218712,8|0|0|0,0:0|0:0|0:0|0:0,0:0:0:0:
408,155,133800,2,0,L|406:220,3,40.3749989218712,2|0|0|0,0:0|0:0|0:0|0:0,0:0:0:0:
464,265,134093,1,2,0:0:0:0:
437,294,134166,1,0,0:0:0:0:
400,310,134239,1,0,0:0:0:0:
360,308,134312,1,0,0:0:0:0:
324,290,134385,6,0,B|283:279|283:279|236:282,1,85,6|0,0:3|0:0,0:0:0:0:
36,368,134678,2,0,B|77:379|77:379|124:376,1,85,8|2,0:0|0:0,0:0:0:0:
167,155,134971,1,8,0:0:0:0:
97,268,135117,1,2,0:0:0:0:
97,268,135190,1,0,0:0:0:0:
97,268,135263,1,8,0:0:0:0:
297,212,135410,1,0,0:0:0:0:
321,206,135483,1,0,0:0:0:0:
345,200,135556,2,0,B|394:188|394:188|452:192,1,85,8|0,0:0|0:0,0:0:0:0:
428,384,135849,6,0,P|420:330|442:296,1,85,8|0,0:0|0:0,0:0:0:0:
257,283,136142,2,0,P|252:228|222:201,1,85,8|0,0:0|0:0,0:0:0:0:
354,142,136434,2,0,P|371:90|405:70,1,85,8|0,0:0|0:0,0:0:0:0:
508,174,136727,5,2,0:0:0:0:
372,242,136873,1,0,0:0:0:0:
372,242,136946,1,0,0:0:0:0:
372,242,137020,2,0,L|381:337,1,85,8|0,0:0|0:0,0:0:0:0:
477,339,137312,1,2,0:0:0:0:
508,174,137459,2,0,P|472:131|426:118,1,85,0|8,0:0|0:0,0:0:0:0:
324,240,137751,1,0,0:0:0:0:
269,76,137898,1,8,0:0:0:0:
244,48,137971,1,0,0:0:0:0:
212,30,138044,1,0,0:0:0:0:
175,27,138117,1,0,0:0:0:0:
139,37,138190,6,0,P|146:90|124:124,1,85,8|0,0:0|0:0,0:0:0:0:
249,168,138483,2,0,P|253:222|283:249,1,85,2|0,0:0|0:0,0:0:0:0:
67,244,138776,2,0,P|49:295|15:315,1,85,8|0,0:0|0:0,0:0:0:0:
237,373,139068,5,2,0:0:0:0:
333,273,139215,2,0,P|349:234|350:192,1,85,0|8,0:0|0:0,0:0:0:0:
260,62,139507,2,0,L|254:173,1,85,0|2,0:0|0:0,0:0:0:0:
163,192,139800,2,0,L|169:303,1,85,0|8,0:0|0:0,0:0:0:0:
237,373,140093,1,0,0:0:0:0:
296,203,140239,1,2,0:0:0:0:
338,317,140385,1,0,0:0:0:0:
185,236,140532,6,0,P|177:186|187:136,1,85,8|0,0:0|0:0,0:0:0:0:
288,86,140824,1,8,0:0:0:0:
323,108,140897,1,0,0:0:0:0:
365,116,140970,1,8,0:0:0:0:
406,106,141043,1,0,0:0:0:0:
439,81,141117,2,0,L|492:81,3,42.5,8|0|8|0,0:0|0:0|0:0|0:0,0:0:0:0:
454,157,141410,5,8,0:0:0:0:
476,179,141483,1,0,0:0:0:0:
487,209,141556,1,0,0:0:0:0:
486,240,141629,1,0,0:0:0:0:
473,269,141703,1,8,0:0:0:0:
459,298,141776,1,0,0:0:0:0:
458,329,141849,1,0,0:0:0:0:
469,359,141922,1,0,0:0:0:0:
492,382,141995,6,0,L|440:387,3,42.5,8|0|0|0,0:0|0:0|0:0|0:0,0:0:0:0:
385,338,142288,2,0,L|333:333,3,42.5,8|0|0|0,0:0|0:0|0:0|0:0,0:0:0:0:
248,364,142581,5,8,0:0:0:0:
222,330,142654,1,0,0:0:0:0:
185,310,142727,1,0,0:0:0:0:
143,306,142800,1,0,0:0:0:0:
103,320,142873,1,2,0:0:0:0:
56,320,142946,1,0,0:0:0:0:
20,291,143019,1,0,0:0:0:0:
10,245,143092,1,0,0:0:0:0:
31,203,143166,5,8,0:0:0:0:
66,171,143239,1,0,0:0:0:0:
81,126,143312,1,0,0:0:0:0:
74,80,143385,1,0,0:0:0:0:
45,42,143459,1,8,0:0:0:0:
90,72,143532,1,8,0:0:0:0:
144,81,143605,1,8,0:0:0:0:
196,68,143678,1,8,0:0:0:0:
239,35,143751,6,0,P|291:15|346:19,1,110.499994941712,6|0,0:3|0:0,0:0:0:0:
457,122,144044,1,8,0:0:0:0:
258,192,144190,1,0,0:0:0:0:
258,192,144263,1,0,0:0:0:0:
258,192,144337,1,2,0:0:0:0:
426,238,144483,2,0,P|453:280|460:330,1,101.999996887207,0|8,0:0|0:0,0:0:0:0:
312,371,144776,1,0,0:0:0:0:
284,358,144849,1,0,0:0:0:0:
253,355,144922,6,0,P|181:369|148:355,1,101.999996887207,2|0,0:0|0:0,0:0:0:0:
68,273,145215,1,8,0:0:0:0:
255,220,145361,1,2,0:0:0:0:
127,118,145507,2,0,P|78:96|18:103,1,101.999996887207,2|0,0:0|0:0,0:0:0:0:
155,298,145800,1,8,0:0:0:0:
185,298,145873,1,0,0:0:0:0:
215,298,145946,1,2,0:0:0:0:
245,298,146020,1,0,0:0:0:0:
275,298,146093,6,0,L|376:297,1,101.999996887207,0|2,0:0|0:0,0:0:0:0:
493,188,146385,1,8,0:0:0:0:
319,115,146532,1,0,0:0:0:0:
319,115,146605,1,0,0:0:0:0:
319,115,146678,2,0,P|319:182|297:219,1,101.999996887207,2|0,0:0|0:0,0:0:0:0:
186,184,146971,2,0,P|131:160|74:162,1,101.999996887207,8|0,0:0|0:0,0:0:0:0:
34,332,147263,5,2,0:0:0:0:
56,343,147336,1,0,0:0:0:0:
81,349,147409,1,0,0:0:0:0:
106,349,147482,1,0,0:0:0:0:
131,342,147556,1,8,0:0:0:0:
153,330,147629,1,0,0:0:0:0:
178,324,147702,1,0,0:0:0:0:
203,324,147775,1,0,0:0:0:0:
228,331,147849,2,0,B|277:344,1,50.9999984436036,2|0,0:0|0:0,0:0:0:0:
396,251,147995,2,0,P|366:251|341:241,1,50.9999984436036,0|0,0:0|0:0,0:0:0:0:
269,175,148142,6,0,B|232:169|208:182|208:182|188:178|177:162|177:162|163:169|155:185|155:185|126:171|96:183,1,178.499994552612,8|0,0:0|0:0,0:0:0:0:
51,233,148434,5,12,0:0:0:0:
130,39,148581,1,10,0:0:0:0:
180,243,148727,5,10,0:0:0:0:
20,108,148873,1,8,0:0:0:0:
106,349,149020,5,10,0:0:0:0:
228,123,149167,1,8,0:0:0:0:
243,338,149312,5,8,0:0:0:0:
117,148,149459,1,10,0:0:0:0:
179,377,149605,5,8,0:0:0:0:
302,231,149751,2,0,L|310:125,1,101.999996887207,0|8,0:0|0:0,0:0:0:0:
449,334,150044,5,0,0:0:0:0:
449,334,150117,1,0,0:0:0:0:
449,334,150190,2,0,P|457:252|446:210,1,101.999996887207,2|0,0:0|0:0,0:0:0:0:
208,259,150483,2,0,P|200:177|211:135,1,101.999996887207,8|8,0:0|0:0,0:0:0:0:
301,61,150776,5,8,0:0:0:0:
368,218,150922,2,0,L|357:334,1,101.999996887207,0|10,0:0|0:0,0:0:0:0:
283,154,151215,1,2,0:0:0:0:
283,154,151288,1,2,0:0:0:0:
283,154,151361,1,8,0:0:0:0:
458,267,151507,2,0,L|447:383,1,101.999996887207,0|8,0:0|0:0,0:0:0:0:
279,319,151800,1,2,0:0:0:0:
250,308,151873,1,2,0:0:0:0:
219,309,151946,6,0,P|170:324|120:311,1,101.999996887207,8|0,0:0|0:0,0:0:0:0:
163,101,152239,2,0,L|169:203,1,101.999996887207,8|0,0:0|0:0,0:0:0:0:
68,126,152532,2,0,L|73:24,1,101.999996887207,8|0,0:0|0:0,0:0:0:0:
249,42,152824,1,8,0:0:0:0:
284,56,152897,1,0,0:0:0:0:
322,60,152970,1,8,0:0:0:0:
359,54,153044,1,0,0:0:0:0:
393,37,153117,6,0,L|399:154,1,101.999996887207,12|8,0:0|0:0,0:0:0:0:
169,116,153410,2,0,L|163:232,1,101.999996887207,10|8,0:0|0:0,0:0:0:0:
467,180,153702,2,0,L|472:296,1,101.999996887207,10|8,0:0|0:0,0:0:0:0:
84,32,153995,2,0,L|78:148,1,101.999996887207,8|8,0:0|0:0,0:0:0:0:
476,0,154288,2,0,L|481:116,1,101.999996887207,8|8,0:0|0:0,0:0:0:0:
251,331,154581,6,0,P|230:265|185:233,1,101.999996887207,8|8,0:0|0:0,0:0:0:0:
329,254,154873,2,0,P|354:189|401:160,1,101.999996887207,10|8,0:0|0:0,0:0:0:0:
253,134,155166,2,0,P|223:71|174:46,1,101.999996887207,8|8,0:0|0:0,0:0:0:0:
26,139,155459,5,8,0:0:0:0:
172,200,155605,1,0,0:0:0:0:
172,200,155678,1,0,0:0:0:0:
172,200,155751,2,0,L|178:303,1,101.999996887207,10|0,0:0|0:0,0:0:0:0:
378,133,156044,2,0,L|371:236,1,101.999996887207,8|0,0:0|0:0,0:0:0:0:
225,107,156337,1,8,0:0:0:0:
405,24,156483,1,2,0:0:0:0:
435,27,156556,1,2,0:0:0:0:
465,30,156629,6,0,B|497:69|497:69|492:141,1,101.999996887207,8|0,0:0|0:0,0:0:0:0:
295,210,156922,2,0,B|302:108,1,101.999996887207,8|0,0:0|0:0,0:0:0:0:
472,240,157215,1,8,0:0:0:0:
419,362,157361,2,0,L|356:371,1,50.9999984436036,0|0,0:0|0:0,0:0:0:0:
332,300,157507,2,0,L|269:291,1,50.9999984436036,8|0,0:0|0:0,0:0:0:0:
231,349,157654,2,0,L|168:358,1,50.9999984436036,0|0,0:0|0:0,0:0:0:0:
87,199,157800,5,12,0:0:0:0:
229,242,157946,1,10,0:0:0:0:
79,287,158093,5,10,0:0:0:0:
207,172,158239,1,8,0:0:0:0:
10,233,158385,5,10,0:0:0:0:
282,293,158531,1,8,0:0:0:0:
1,321,158677,5,8,0:0:0:0:
278,187,158824,1,10,0:0:0:0:
106,128,158971,6,0,P|53:124|4:139,1,101.999996887207,8|8,0:0|0:0,0:0:0:0:
287,65,159263,2,0,P|340:61|389:76,1,101.999996887207,8|8,0:0|0:0,0:0:0:0:
465,212,159556,5,8,0:0:0:0:
465,227,159629,1,0,0:0:0:0:
466,243,159702,1,8,0:0:0:0:
467,259,159775,1,0,0:0:0:0:
467,275,159848,1,8,0:0:0:0:
468,291,159921,1,0,0:0:0:0:
469,307,159995,1,8,0:0:0:0:
469,323,160068,1,0,0:0:0:0:
469,338,160142,6,0,L|470:392,3,50.9999984436036,4|0|0|0,0:0|0:0|0:0|0:0,0:0:0:0:
390,333,160434,2,0,L|391:278,3,50.9999984436036,8|0|0|0,0:0|0:0|0:0|0:0,0:0:0:0:
311,338,160727,2,0,L|312:392,3,50.9999984436036,8|0|0|0,0:0|0:0|0:0|0:0,0:0:0:0:
232,333,161019,2,0,L|233:278,3,50.9999984436036,8|0|0|0,0:0|0:0|0:0|0:0,0:0:0:0:
150,302,161312,5,4,0:0:0:0:
116,311,161385,1,0,0:0:0:0:
84,299,161458,1,0,0:0:0:0:
64,271,161531,1,0,0:0:0:0:
63,237,161605,1,8,0:0:0:0:
79,205,161678,1,0,0:0:0:0:
86,171,161751,1,0,0:0:0:0:
85,136,161824,1,0,0:0:0:0:
75,103,161898,5,8,0:0:0:0:
116,144,161971,1,0,0:0:0:0:
171,161,162044,1,0,0:0:0:0:
227,149,162117,1,0,0:0:0:0:
271,111,162190,1,8,0:0:0:0:
314,73,162263,1,0,0:0:0:0:
371,60,162336,1,0,0:0:0:0:
426,77,162409,1,0,0:0:0:0:
467,119,162483,6,0,B|502:175|475:229|475:229|490:252|490:252|466:298|493:349,1,237.999992736817,6|8,0:3|0:0,0:0:0:0:
397,280,162922,2,0,P|346:260|279:267,1,106.25,0|2,0:0|0:0,0:0:0:0:
205,367,163215,1,0,0:0:0:0:
157,239,163361,2,0,L|163:132,1,106.25,8|0,0:0|0:0,0:0:0:0:
225,21,163654,6,0,P|305:87|406:66,1,212.5,2|8,0:0|0:0,0:0:0:0:
509,4,164093,1,0,0:0:0:0:
447,144,164239,2,0,P|435:196|441:249,1,106.25,2|0,0:0|0:0,0:0:0:0:
512,372,164532,1,8,0:0:0:0:
398,322,164678,1,0,0:0:0:0:
372,303,164751,1,0,0:0:0:0:
342,292,164824,6,0,P|274:297|233:325,1,106.25,2|0,0:0|0:0,0:0:0:0:
103,382,165117,1,8,0:0:0:0:
192,257,165263,1,0,0:0:0:0:
200,225,165337,1,0,0:0:0:0:
208,194,165410,2,0,L|202:82,1,106.25,2|0,0:0|0:0,0:0:0:0:
54,21,165702,2,0,L|60:133,1,106.25,8|0,0:0|0:0,0:0:0:0:
39,295,165995,5,2,0:0:0:0:
208,194,166142,1,0,0:0:0:0:
208,194,166216,1,0,0:0:0:0:
208,194,166289,2,0,L|333:199,1,106.25,8|0,0:0|0:0,0:0:0:0:
455,268,166581,1,2,0:0:0:0:
487,245,166654,1,0,0:0:0:0:
502,209,166727,1,0,0:0:0:0:
496,170,166800,1,0,0:0:0:0:
471,140,166874,1,8,0:0:0:0:
446,110,166946,1,0,0:0:0:0:
440,71,167021,1,0,0:0:0:0:
455,35,167094,1,0,0:0:0:0:
487,12,167166,6,0,B|434:56|370:28|370:28|330:40|330:40|303:31|277:35,1,212.5,10|8,0:0|0:0,0:0:0:0:
99,94,167605,1,0,0:0:0:0:
295,150,167751,1,2,0:0:0:0:
150,193,167898,1,0,0:0:0:0:
125,212,167971,1,0,0:0:0:0:
107,237,168044,2,0,P|83:304|91:338,1,106.25,8|0,0:0|0:0,0:0:0:0:
228,369,168337,6,0,P|285:342|349:349,1,106.25,2|0,0:0|0:0,0:0:0:0:
472,381,168629,2,0,B|493:331|493:331|490:269,1,106.25,8|0,0:0|0:0,0:0:0:0:
345,188,168922,1,2,0:0:0:0:
323,151,168995,1,0,0:0:0:0:
321,108,169068,1,0,0:0:0:0:
339,70,169141,1,0,0:0:0:0:
371,44,169215,1,8,0:0:0:0:
411,32,169288,1,0,0:0:0:0:
453,41,169361,1,0,0:0:0:0:
486,66,169434,1,0,0:0:0:0:
504,106,169507,6,0,L|498:231,1,106.25,2|0,0:0|0:0,0:0:0:0:
374,382,169800,2,0,L|368:275,1,106.25,8|0,0:0|0:0,0:0:0:0:
415,126,170093,1,2,0:0:0:0:
490,291,170239,1,0,0:0:0:0:
490,291,170312,1,0,0:0:0:0:
490,291,170385,2,0,P|479:364|443:392,1,106.25,8|0,0:0|0:0,0:0:0:0:
287,363,170678,5,2,0:0:0:0:
262,353,170751,1,0,0:0:0:0:
235,349,170824,1,0,0:0:0:0:
209,351,170897,1,0,0:0:0:0:
184,359,170970,1,8,0:0:0:0:
175,334,171044,1,0,0:0:0:0:
172,308,171117,1,0,0:0:0:0:
176,282,171190,1,0,0:0:0:0:
187,257,171263,5,2,0:0:0:0:
214,226,171337,1,0,0:0:0:0:
220,184,171411,1,0,0:0:0:0:
205,145,171484,1,0,0:0:0:0:
174,116,171556,1,8,0:0:0:0:
231,148,171629,1,0,0:0:0:0:
296,154,171702,1,0,0:0:0:0:
358,133,171775,1,0,0:0:0:0:
406,87,171849,6,0,B|449:62|485:68|485:68|453:110|455:151|455:151|510:186|492:273,1,272,6|8,0:3|0:0,0:0:0:0:
470,377,172288,2,0,P|412:340|359:340,1,106.25,0|2,0:0|0:0,0:0:0:0:
259,378,172581,1,2,0:0:0:0:
219,244,172727,1,8,0:0:0:0:
221,217,172800,1,0,0:0:0:0:
224,190,172873,1,2,0:0:0:0:
226,163,172946,1,0,0:0:0:0:
229,136,173020,6,0,L|240:16,1,106.25,2|0,0:0|0:0,0:0:0:0:
318,169,173312,2,0,L|329:289,1,106.25,8|0,0:0|0:0,0:0:0:0:
127,205,173605,2,0,L|138:85,1,106.25,2|0,0:0|0:0,0:0:0:0:
284,57,173898,1,8,0:0:0:0:
318,75,173971,1,0,0:0:0:0:
358,80,174044,1,0,0:0:0:0:
396,71,174117,1,0,0:0:0:0:
429,49,174190,6,0,P|484:32|539:55,1,106.25,2|0,0:0|0:0,0:0:0:0:
372,173,174483,1,8,0:0:0:0:
507,237,174629,1,0,0:0:0:0:
507,237,174702,1,0,0:0:0:0:
507,237,174776,2,0,L|498:344,1,106.25,2|0,0:0|0:0,0:0:0:0:
375,285,175068,1,8,0:0:0:0:
285,373,175215,1,2,0:0:0:0:
258,375,175288,1,0,0:0:0:0:
231,377,175361,6,0,L|110:375,1,106.25,2|0,0:0|0:0,0:0:0:0:
325,203,175654,2,0,L|446:205,1,106.25,8|0,0:0|0:0,0:0:0:0:
196,260,175946,2,0,P|166:206|168:150,1,106.25,2|0,0:0|0:0,0:0:0:0:
366,23,176239,1,8,0:0:0:0:
363,49,176312,1,0,0:0:0:0:
361,75,176385,1,0,0:0:0:0:
359,102,176458,1,0,0:0:0:0:
357,128,176532,6,0,L|361:241,1,106.25,6|0,0:0|0:0,0:0:0:0:
478,121,176824,1,8,0:0:0:0:
271,47,176971,2,0,P|207:36|165:50,1,106.25,2|0,0:0|0:0,0:0:0:0:
170,242,177263,2,0,P|206:203|221:153,1,106.25,2|0,0:0|0:0,0:0:0:0:
83,131,177556,1,0,0:0:0:0:
83,131,177629,1,0,0:0:0:0:
83,131,177702,6,0,L|91:250,1,106.25,6|0,0:0|0:0,0:0:0:0:
249,265,177995,2,0,L|241:384,1,106.25,8|0,0:0|0:0,0:0:0:0:
369,110,178288,2,0,L|377:229,1,106.25,2|0,0:0|0:0,0:0:0:0:
496,384,178581,2,0,L|504:265,1,106.25,8|8,0:0|0:0,0:0:0:0:
499,63,178873,5,6,0:0:0:0:
479,69,178946,1,0,0:0:0:0:
458,72,179019,1,0,0:0:0:0:
437,69,179092,1,0,0:0:0:0:
417,62,179166,1,8,0:0:0:0:
397,55,179239,1,0,0:0:0:0:
376,53,179312,1,0,0:0:0:0:
355,55,179385,1,0,0:0:0:0:
337,65,179459,5,2,0:0:0:0:
350,87,179532,1,0,0:0:0:0:
355,113,179605,1,0,0:0:0:0:
353,139,179678,1,0,0:0:0:0:
342,164,179751,1,8,0:0:0:0:
328,186,179824,1,0,0:0:0:0:
323,212,179897,1,0,0:0:0:0:
325,238,179970,1,0,0:0:0:0:
336,263,180044,5,6,0:0:0:0:
304,239,180117,1,0,0:0:0:0:
265,230,180190,1,0,0:0:0:0:
226,237,180263,1,0,0:0:0:0:
193,259,180337,1,2,0:0:0:0:
160,281,180410,1,0,0:0:0:0:
121,288,180483,1,0,0:0:0:0:
82,279,180556,1,0,0:0:0:0:
51,256,180629,1,8,0:0:0:0:
51,256,181215,6,0,L|4:260,3,46.7500014266968,14|0|0|0,0:3|0:0|0:0|0:0,0:0:0:0:
93,183,181507,2,0,L|46:179,3,46.7500014266968,8|0|0|0,0:0|0:0|0:0|0:0,0:0:0:0:
160,128,181800,5,8,0:0:0:0:
201,106,181873,1,0,0:0:0:0:
247,100,181946,1,0,0:0:0:0:
292,111,182019,1,0,0:0:0:0:
331,137,182093,1,8,0:0:0:0:
351,148,182166,1,0,0:0:0:0:
373,155,182239,1,0,0:0:0:0:
396,157,182312,1,0,0:0:0:0:
419,154,182385,6,0,L|424:105,3,46.7500014266968,8|0|0|0,0:0|0:0|0:0|0:0,0:0:0:0:
505,220,182678,2,0,L|500:171,3,46.7500014266968,8|0|0|0,0:0|0:0|0:0|0:0,0:0:0:0:
429,277,182971,5,8,0:0:0:0:
394,307,183044,1,0,0:0:0:0:
349,322,183117,1,0,0:0:0:0:
303,318,183190,1,0,0:0:0:0:
262,296,183263,1,8,0:0:0:0:
241,285,183336,1,0,0:0:0:0:
219,279,183409,1,0,0:0:0:0:
196,277,183482,1,0,0:0:0:0:
173,281,183556,6,0,L|110:275,3,46.7500014266968,8|0|0|0,0:0|0:0|0:0|0:0,0:0:0:0:
120,200,183849,2,0,L|57:206,3,46.7500014266968,8|0|0|0,0:0|0:0|0:0|0:0,0:0:0:0:
161,110,184142,5,8,0:0:0:0:
197,139,184215,1,0,0:0:0:0:
242,148,184288,1,0,0:0:0:0:
286,135,184361,1,0,0:0:0:0:
320,103,184434,2,0,P|346:91|369:91,3,46.7500014266968,8|0|0|0,0:0|0:0|0:0|0:0,0:0:0:0:
434,120,184727,5,8,0:0:0:0:
432,144,184800,1,0,0:0:0:0:
429,170,184873,1,0,0:0:0:0:
427,195,184946,1,0,0:0:0:0:
409,217,185020,5,8,0:0:0:0:
411,239,185093,1,0,0:0:0:0:
413,262,185166,1,0,0:0:0:0:
414,285,185239,1,0,0:0:0:0:
434,298,185312,5,8,0:0:0:0:
432,317,185385,1,0,0:0:0:0:
430,338,185458,1,0,0:0:0:0:
429,359,185531,1,0,0:0:0:0:
412,384,185605,5,8,0:0:0:0:
368,341,185678,1,0,0:0:0:0:
310,321,185751,1,0,0:0:0:0:
249,327,185824,1,0,0:0:0:0:
197,359,185898,6,0,L|191:296,3,46.7500014266968,12|0|0|0,0:0|0:0|0:0|0:0,0:0:0:0:
142,300,186190,2,0,L|148:237,3,46.7500014266968,8|0|0|0,0:0|0:0|0:0|0:0,0:0:0:0:
73,251,186483,5,8,0:0:0:0:
47,212,186556,1,0,0:0:0:0:
39,166,186629,1,0,0:0:0:0:
50,121,186702,1,0,0:0:0:0:
78,85,186776,1,8,0:0:0:0:
88,64,186849,1,0,0:0:0:0:
91,41,186922,1,0,0:0:0:0:
86,18,186995,1,0,0:0:0:0:
73,0,187068,6,0,L|22:-5,3,46.7500014266968,8|0|0|0,0:0|0:0|0:0|0:0,0:0:0:0:
160,31,187361,2,0,L|206:26,3,46.7500014266968,8|0|0|0,0:0|0:0|0:0|0:0,0:0:0:0:
220,110,187654,5,8,0:0:0:0:
256,137,187727,1,0,0:0:0:0:
271,181,187800,1,0,0:0:0:0:
260,225,187873,1,0,0:0:0:0:
226,256,187946,1,8,0:0:0:0:
209,272,188019,1,0,0:0:0:0:
201,294,188092,1,0,0:0:0:0:
203,317,188165,1,0,0:0:0:0:
216,336,188239,6,0,L|269:343,3,46.7500014266968,8|0|0|0,0:0|0:0|0:0|0:0,0:0:0:0:
332,383,188532,2,0,L|385:376,3,46.7500014266968,8|0|0|0,0:0|0:0|0:0|0:0,0:0:0:0:
474,345,188824,5,8,0:0:0:0:
433,323,188897,1,0,0:0:0:0:
407,284,188970,1,0,0:0:0:0:
402,238,189043,1,0,0:0:0:0:
419,195,189117,1,8,0:0:0:0:
430,175,189190,1,0,0:0:0:0:
436,152,189263,1,0,0:0:0:0:
436,129,189336,1,0,0:0:0:0:
430,106,189410,6,0,L|425:57,3,46.7500014266968,2|0|0|0,0:0|0:0|0:0|0:0,0:0:0:0:
343,122,189702,5,8,0:0:0:0:
310,134,189775,1,0,0:0:0:0:
275,133,189848,1,0,0:0:0:0:
244,118,189921,1,0,0:0:0:0:
222,91,189995,5,2,0:0:0:0:
220,108,190068,1,0,0:0:0:0:
219,126,190141,1,0,0:0:0:0:
218,143,190214,1,0,0:0:0:0:
216,161,190288,5,8,0:0:0:0:
230,204,190361,1,0,0:0:0:0:
218,249,190434,1,0,0:0:0:0:
183,279,190507,1,0,0:0:0:0:
137,284,190581,6,4,B|75:247|11:273|11:273|72:229|61:167|61:167|76:156|86:139|86:139|64:106|86:59,1,356.999989105225,12|4,0:0|0:0,0:0:0:0:
164,9,191166,5,8,0:0:0:0:
165,32,191239,1,0,0:0:0:0:
166,55,191312,1,0,0:0:0:0:
167,79,191385,1,0,0:0:0:0:
179,101,191459,1,8,0:0:0:0:
178,124,191532,1,0,0:0:0:0:
177,147,191605,1,0,0:0:0:0:
176,171,191678,1,0,0:0:0:0:
164,193,191752,1,8,0:0:0:0:
165,216,191825,1,0,0:0:0:0:
166,239,191898,1,0,0:0:0:0:
167,263,191971,1,0,0:0:0:0:
179,285,192044,1,8,0:0:0:0:
178,308,192117,1,0,0:0:0:0:
177,331,192190,1,0,0:0:0:0:
176,355,192263,1,0,0:0:0:0:
164,377,192337,6,0,P|122:343|75:344,1,93.5000028533936,8|0,0:0|0:0,0:0:0:0:
285,254,192629,2,0,P|327:220|374:221,1,93.5000028533936,2|2,0:0|0:0,0:0:0:0:
308,342,192922,1,8,0:0:0:0:
207,210,193068,2,0,L|215:94,1,93.5000028533936,0|0,0:0|0:0,0:0:0:0:
377,16,193361,1,2,0:0:0:0:
377,16,193507,6,0,P|396:85|384:122,1,93.5000028533936,8|0,0:0|0:0,0:0:0:0:
306,189,193800,2,0,P|287:120|299:83,1,93.5000028533936,2|2,0:0|0:0,0:0:0:0:
440,183,194093,1,2,0:0:0:0:
362,302,194239,1,0,0:0:0:0:
362,302,194312,1,0,0:0:0:0:
362,302,194385,2,0,L|252:310,1,93.5000028533936,8|0,0:0|0:0,0:0:0:0:
177,347,194678,2,0,L|126:345,1,46.7500014266968,2|0,0:0|0:0,0:0:0:0:
34,371,194824,6,0,B|37:348|29:329|29:329|41:303|64:285|64:285|41:252|51:218|51:218|42:187|42:187|54:157|54:157|43:134|46:105,1,280.500008560181,8|8,0:0|0:0,0:0:0:0:
158,21,195410,2,0,L|171:127,1,93.5000028533936,0|8,0:0|0:0,0:0:0:0:
137,212,195702,1,0,0:0:0:0:
233,280,195849,5,2,0:0:0:0:
264,294,195922,1,0,0:0:0:0:
299,293,195995,1,0,0:0:0:0:
330,277,196068,1,0,0:0:0:0:
350,250,196142,1,8,0:0:0:0:
370,223,196215,1,0,0:0:0:0:
401,207,196288,1,0,0:0:0:0:
436,206,196361,1,0,0:0:0:0:
468,221,196434,5,2,0:0:0:0:
453,202,196507,1,0,0:0:0:0:
446,180,196580,1,0,0:0:0:0:
447,157,196653,1,0,0:0:0:0:
455,135,196727,1,8,0:0:0:0:
463,113,196800,1,0,0:0:0:0:
464,90,196873,1,0,0:0:0:0:
457,68,196946,1,0,0:0:0:0:
443,49,197020,5,8,0:0:0:0:
414,78,197093,1,0,0:0:0:0:
377,93,197166,1,2,0:0:0:0:
336,93,197239,1,0,0:0:0:0:
299,76,197312,1,8,0:0:0:0:
271,46,197385,1,0,0:0:0:0:
234,31,197458,1,2,0:0:0:0:
193,31,197531,1,0,0:0:0:0:
156,48,197605,6,0,B|115:107|155:163|155:163|158:191|148:206|148:206|168:252|150:301,1,255,2|0,0:0|0:0,0:0:0:0:
54,378,198190,2,0,B|33:319|33:319|44:243,2,127.5,8|0|2,0:0|0:0|0:0,0:0:0:0:
200,324,198776,5,2,0:0:0:0:
218,313,198849,1,0,0:0:0:0:
238,307,198922,1,0,0:0:0:0:
259,307,198995,1,0,0:0:0:0:
279,313,199068,1,8,0:0:0:0:
299,319,199141,1,0,0:0:0:0:
320,319,199214,1,0,0:0:0:0:
340,313,199287,1,0,0:0:0:0:
358,302,199361,5,8,0:0:0:0:
331,269,199434,1,0,0:0:0:0:
324,228,199507,1,0,0:0:0:0:
337,188,199580,1,0,0:0:0:0:
369,160,199654,1,8,0:0:0:0:
401,132,199727,1,0,0:0:0:0:
414,92,199800,1,0,0:0:0:0:
407,51,199873,1,0,0:0:0:0:
381,19,199946,6,0,P|332:36|282:23,1,76.4999976654053,6|0,0:3|0:0,0:0:0:0:
207,53,200239,1,2,0:0:0:0:
207,53,200312,1,0,0:0:0:0:
207,53,200385,2,0,L|211:159,1,76.4999976654053,0|8,0:0|0:0,0:0:0:0:
298,160,200678,1,0,0:0:0:0:
298,160,200751,1,0,0:0:0:0:
298,160,200824,2,0,L|294:266,1,76.4999976654053,2|0,0:0|0:0,0:0:0:0:
207,310,201117,5,2,0:0:0:0:
194,295,201190,1,0,0:0:0:0:
178,286,201263,1,0,0:0:0:0:
159,284,201336,1,0,0:0:0:0:
141,289,201410,1,2,0:0:0:0:
123,294,201483,1,0,0:0:0:0:
104,292,201556,1,0,0:0:0:0:
88,283,201629,1,0,0:0:0:0:
75,268,201702,6,0,L|83:160,1,76.4999976654053,8|0,0:0|0:0,0:0:0:0:
167,108,201995,2,0,L|175:216,1,76.4999976654053,0|0,0:0|0:0,0:0:0:0:
82,63,202288,5,2,0:0:0:0:
173,6,202434,1,0,0:0:0:0:
267,57,202581,1,0,0:0:0:0:
368,26,202727,1,0,0:0:0:0:
344,128,202873,5,8,0:0:0:0:
353,233,203019,1,0,0:0:0:0:
458,223,203166,1,0,0:0:0:0:
449,117,203312,1,0,0:0:0:0:
257,188,203459,6,0,L|262:264,1,76.4999976654053,2|0,0:0|0:0,0:0:0:0:
358,309,203751,2,0,L|352:232,1,76.4999976654053
197,335,204044,2,0,P|160:345|122:343,1,76.4999976654053,8|0,0:0|0:0,0:0:0:0:
36,301,204337,6,0,P|56:273|60:240,1,68
0,164,204629,6,0,B|45:145|43:94|43:94|33:60|46:27|46:27|115:56|161:26|161:26|184:65|184:65|223:25|287:28,1,425,6|0,0:0|0:0,0:0:0:0:
402,53,205507,1,8,0:0:0:0:
274,134,205654,1,8,0:0:0:0:
404,186,205800,6,0,B|458:203|499:174|499:174|464:221|456:289|456:289|451:387|537:370|543:300|504:279|452:291|452:291|416:337|354:319,1,510,6|4,0:0|0:0,0:0:0:0:
301,277,206824,6,0,P|263:261|223:264,1,80.7499978437424,8|0,0:0|0:0,0:0:0:0:
127,352,207117,1,2,0:0:0:0:
127,352,207190,1,2,0:0:0:0:
127,352,207263,2,0,L|119:260,1,80.7499978437424,8|0,0:0|0:0,0:0:0:0:
78,177,207556,1,8,0:0:0:0:
220,97,207702,1,0,0:0:0:0:
58,76,207849,1,8,0:0:0:0:
177,186,207995,1,0,0:0:0:0:
145,32,208142,6,0,L|137:-13,3,40.3749989218712,2|0|0|0,0:0|0:0|0:0|0:0,0:0:0:0:
58,76,208434,2,0,L|56:30,3,40.3749989218712,8|0|0|0,0:0|0:0|0:0|0:0,0:0:0:0:
113,138,208727,6,0,P|132:171|132:213,1,80.7499978437424,8|0,0:0|0:0,0:0:0:0:
73,291,209020,1,8,0:0:0:0:
70,306,209093,1,0,0:0:0:0:
67,321,209166,1,0,0:0:0:0:
64,336,209239,1,0,0:0:0:0:
61,351,209312,6,0,B|119:344|164:370|164:370|209:369|231:347|231:347|266:340|307:367|307:367|257:313|268:225|359:172|433:233|433:233|421:173|439:134|439:134|416:118|404:101|404:101|376:122|336:109,1,748,6|0,0:0|0:0,0:0:0:0:
260,117,211068,5,8,0:0:0:0:
129,152,211215,1,0,0:0:0:0:
265,130,211360,1,0,0:0:0:0:
123,138,211507,1,0,0:0:0:0:
189,41,211654,5,2,0:0:0:0:
231,208,211800,1,0,0:0:0:0:
196,47,211946,1,0,0:0:0:0:
156,233,212093,1,0,0:0:0:0:
270,118,212239,5,8,0:0:0:0:
200,301,212385,1,0,0:0:0:0:
117,125,212532,1,2,0:0:0:0:
302,230,212678,6,0,B|373:273|430:238|430:238|402:180|451:142|451:142|534:181|504:294|504:294|463:306|438:333|438:333|423:366|423:366|376:339|333:360|333:360|298:367|264:353,1,680,8|0,0:0|0:0,0:0:0:0:
193,381,213995,6,0,B|192:333|172:303|172:303|196:276|193:236|193:236|257:122|151:33|151:33|147:26|147:26|155:26|155:26|42:132|107:228|107:228|62:293|91:363|91:363|61:336|13:341,1,822.800025109864,2|0,0:3|0:0,0:0:0:0:
0,257,215751,6,0,B|25:199|6:143|6:143|36:89|20:34,1,229.499992996216,8|0,0:0|0:0,0:0:0:0:
121,1,216337,6,0,P|112:36|125:78,1,80.7499978437424,2|0,0:0|0:0,0:0:0:0:
196,125,216629,1,2,0:0:0:0:
206,150,216702,1,0,0:0:0:0:
211,178,216775,1,0,0:0:0:0:
210,206,216848,1,0,0:0:0:0:
200,231,216922,2,0,P|190:267|196:312,1,80.7499978437424,8|0,0:0|0:0,0:0:0:0:
311,152,217215,2,0,P|321:116|316:72,1,80.7499978437424,8|0,0:0|0:0,0:0:0:0:
176,47,217507,6,0,B|121:78|121:78|47:67,1,127.5,2|0,0:0|0:0,0:0:0:0:
35,87,217800,6,0,P|25:124|30:162,1,76.4999976654053,8|0,0:0|0:0,0:0:0:0:
146,228,218093,2,0,P|155:191|150:153,1,76.4999976654053,2|0,0:0|0:0,0:0:0:0:
44,303,218385,1,8,0:0:0:0:
81,304,218458,1,2,0:0:0:0:
119,306,218531,1,2,0:0:0:0:
157,308,218604,1,2,0:0:0:0:
195,310,218678,6,0,L|259:313,3,44.6249986381531,6|0|0|0,0:3|0:0|0:0|0:0,0:0:0:0:
265,347,218971,2,0,L|329:344,3,44.6249986381531,8|0|0|0,0:0|0:0|0:0|0:0,0:0:0:0:
376,306,219263,5,2,0:0:0:0:
395,279,219336,1,0,0:0:0:0:
403,246,219409,1,0,0:0:0:0:
396,214,219482,1,0,0:0:0:0:
377,187,219556,1,8,0:0:0:0:
358,160,219629,1,0,0:0:0:0:
351,128,219702,1,0,0:0:0:0:
359,95,219775,1,0,0:0:0:0:
378,68,219849,6,0,L|435:64,3,44.6249986381531,2|0|0|0,0:0|0:0|0:0|0:0,0:0:0:0:
427,105,220142,2,0,L|483:112,3,44.6249986381531,8|0|0|0,0:0|0:0|0:0|0:0,0:0:0:0:
467,151,220434,2,0,L|520:170,3,44.6249986381531,2|0|0|0,0:0|0:0|0:0|0:0,0:0:0:0:
447,228,220727,1,8,0:0:0:0:
449,250,220800,1,0,0:0:0:0:
451,272,220873,1,0,0:0:0:0:
453,294,220946,1,0,0:0:0:0:
455,316,221020,6,0,B|435:334|405:339|405:339|381:326|354:329|354:329|341:346|321:351|321:351|286:335|244:352|244:352|220:336|220:336|191:350|151:343,1,305.999990661621,8|0,0:0|0:0,0:0:0:0:
64,383,221605,5,2,0:0:0:0:
53,360,221678,1,0,0:0:0:0:
51,335,221751,1,0,0:0:0:0:
58,311,221824,1,0,0:0:0:0:
74,292,221898,1,8,0:0:0:0:
90,273,221971,1,0,0:0:0:0:
97,249,222044,1,0,0:0:0:0:
95,224,222117,1,0,0:0:0:0:
84,201,222190,6,0,L|81:142,3,44.6249986381531,2|0|0|0,0:0|0:0|0:0|0:0,0:0:0:0:
153,117,222483,2,0,L|156:58,3,44.6249986381531,8|0|0|0,0:0|0:0|0:0|0:0,0:0:0:0:
259,129,222776,6,0,P|336:223|213:221,1,305.999990661621,8|0,0:0|0:0,0:0:0:0:
50,191,223361,5,6,0:0:0:0:
154,282,223507,1,0,0:0:0:0:
181,146,223654,1,8,0:0:0:0:
54,148,223800,5,0,0:0:0:0:
137,258,223946,1,2,0:0:0:0:
192,131,224093,1,2,0:0:0:0:
68,107,224239,5,8,0:0:0:0:
126,232,224385,1,0,0:0:0:0:
206,119,224532,1,2,0:0:0:0:
89,70,224678,5,0,0:0:0:0:
120,204,224824,1,8,0:0:0:0:
222,110,224971,1,0,0:0:0:0:
118,38,225117,6,0,L|26:44,1,89.2499972763062,2|0,0:0|0:0,0:0:0:0:
239,105,225410,2,0,L|331:99,1,89.2499972763062,8|0,0:0|0:0,0:0:0:0:
387,11,225702,5,2,0:0:0:0:
387,11,225849,1,2,0:0:0:0:
502,104,225995,1,8,0:0:0:0:
502,104,226142,1,0,0:0:0:0:
411,185,226288,6,0,P|358:196|310:189,1,89.2499972763062,2|0,0:0|0:0,0:0:0:0:
195,96,226581,2,0,P|248:85|296:92,1,89.2499972763062,8|0,0:0|0:0,0:0:0:0:
190,250,226873,5,2,0:0:0:0:
97,137,227020,1,0,0:0:0:0:
97,137,227093,1,0,0:0:0:0:
97,137,227166,2,0,L|101:32,1,89.2499972763062,8|0,0:0|0:0,0:0:0:0:
217,26,227459,5,2,0:0:0:0:
236,35,227532,1,0,0:0:0:0:
258,39,227605,1,0,0:0:0:0:
280,37,227678,1,0,0:0:0:0:
304,28,227751,1,8,0:0:0:0:
346,16,227824,1,0,0:0:0:0:
389,27,227897,1,0,0:0:0:0:
420,58,227970,1,0,0:0:0:0:
431,102,228044,6,0,B|409:160|446:204|446:204|428:249|428:249|436:285|467:308|467:308|418:342|373:318,1,318.75,12|0,0:0|0:0,0:0:0:0:
257,362,228629,5,2,0:0:0:0:
162,260,228775,1,0,0:0:0:0:
297,229,228922,1,8,0:0:0:0:
216,374,229068,5,0,0:0:0:0:
144,255,229214,1,2,0:0:0:0:
283,253,229361,1,0,0:0:0:0:
173,378,229507,5,8,0:0:0:0:
128,247,229653,1,0,0:0:0:0:
264,274,229800,1,2,0:0:0:0:
131,374,229946,5,0,0:0:0:0:
113,236,230092,1,8,0:0:0:0:
240,291,230239,1,0,0:0:0:0:
90,361,230385,6,0,B|51:340|51:340|40:287,1,89.2499972763062,2|0,0:0|0:0,0:0:0:0:
219,172,230678,2,0,B|220:216|220:216|179:252,1,89.2499972763062,8|0,0:0|0:0,0:0:0:0:
126,133,230971,2,0,L|121:43,1,89.2499972763062,2|0,0:0|0:0,0:0:0:0:
307,122,231263,2,0,L|302:211,1,89.2499972763062,8|0,0:0|0:0,0:0:0:0:
458,334,231556,5,2,0:0:0:0:
378,176,231702,1,2,0:0:0:0:
350,352,231849,1,8,0:0:0:0:
475,226,231995,1,2,0:0:0:0:
299,254,232142,2,0,B|264:271|224:257|224:257|223:277|223:277|195:268|195:268|152:285|109:273|109:273|118:295|118:295|77:279|22:292,1,331.499984825135,8|0,0:0|0:0,0:0:0:0:
0,148,232727,5,6,0:3:0:0:
15,153,232800,1,0,0:0:0:0:
32,155,232873,1,0,0:0:0:0:
49,155,232946,1,0,0:0:0:0:
64,150,233020,1,8,0:0:0:0:
80,146,233093,1,0,0:0:0:0:
97,145,233166,1,0,0:0:0:0:
113,148,233239,1,0,0:0:0:0:
129,153,233312,5,2,0:0:0:0:
159,166,233385,1,0,0:0:0:0:
192,167,233458,1,0,0:0:0:0:
222,154,233531,1,0,0:0:0:0:
245,129,233605,1,8,0:0:0:0:
268,104,233678,1,0,0:0:0:0:
298,91,233751,1,0,0:0:0:0:
331,92,233824,1,0,0:0:0:0:
362,106,233898,6,0,L|376:169,3,44.6249986381531,6|0|0|0,0:0|0:0|0:0|0:0,0:0:0:0:
316,204,234190,2,0,L|302:267,3,44.6249986381531,8|0|0|0,0:0|0:0|0:0|0:0,0:0:0:0:
358,326,234483,5,2,0:0:0:0:
331,354,234556,1,0,0:0:0:0:
295,369,234629,1,0,0:0:0:0:
256,368,234702,1,0,0:0:0:0:
221,351,234776,1,8,0:0:0:0:
191,327,234849,1,0,0:0:0:0:
154,317,234922,1,0,0:0:0:0:
115,324,234995,1,0,0:0:0:0:
83,345,235068,5,6,0:0:0:0:
105,313,235141,1,0,0:0:0:0:
111,275,235214,1,0,0:0:0:0:
100,238,235287,1,0,0:0:0:0:
74,209,235361,1,8,0:0:0:0:
48,180,235434,1,0,0:0:0:0:
37,143,235507,1,0,0:0:0:0:
43,105,235580,1,0,0:0:0:0:
66,74,235654,6,0,L|119:72,3,44.6249986381531,2|0|0|0,0:0|0:0|0:0|0:0,0:0:0:0:
154,136,235946,2,0,L|207:138,3,44.6249986381531,8|0|0|0,0:0|0:0|0:0|0:0,0:0:0:0:
294,88,236239,5,6,0:0:0:0:
296,111,236312,1,0,0:0:0:0:
298,134,236385,1,0,0:0:0:0:
301,157,236458,1,0,0:0:0:0:
287,178,236532,1,8,0:0:0:0:
285,201,236605,1,0,0:0:0:0:
283,224,236678,1,8,0:0:0:0:
280,247,236751,1,0,0:0:0:0:
286,273,236824,5,2,0:0:0:0:
264,300,236897,1,0,0:0:0:0:
233,315,236970,1,0,0:0:0:0:
198,313,237043,1,0,0:0:0:0:
168,296,237117,1,8,0:0:0:0:
138,279,237190,1,0,0:0:0:0:
103,277,237263,1,8,0:0:0:0:
72,292,237336,1,0,0:0:0:0:
50,319,237409,1,6,0:3:0:0:
256,192,237483,12,0,239751,0:0:0:0:
175,98,240629,6,0,L|179:182,1,85,8|0,0:0|0:0,0:0:0:0:
290,341,240922,2,0,L|294:256,1,85,8|0,0:0|0:0,0:0:0:0:
377,279,241215,2,0,L|372:194,1,85,8|0,0:0|0:0,0:0:0:0:
456,207,241507,2,0,L|442:123,1,85,8|0,0:0|0:0,0:0:0:0:
335,48,241800,1,8,0:0:0:0:
308,49,241873,1,0,0:0:0:0:
281,50,241946,1,0,0:0:0:0:
255,51,242019,1,0,0:0:0:0:
228,53,242093,6,0,L|129:57,1,85,12|0,0:0|0:0,0:0:0:0:
35,136,242385,1,8,0:0:0:0:
29,165,242459,1,0,0:0:0:0:
35,194,242532,2,0,P|47:240|36:288,1,85,8|2,0:0|0:0,0:0:0:0:
49,380,242824,1,0,0:0:0:0:
147,335,242971,2,0,L|259:342,1,85,8|0,0:0|0:0,0:0:0:0:
383,356,243263,6,0,P|364:295|370:263,1,85,2|0,0:0|0:0,0:0:0:0:
245,236,243556,2,0,P|244:172|228:143,1,85,8|0,0:0|0:0,0:0:0:0:
408,156,243849,2,0,P|428:95|452:73,1,85,2|0,0:0|0:0,0:0:0:0:
302,47,244142,1,2,0:0:0:0:
280,56,244215,1,0,0:0:0:0:
256,60,244288,1,0,0:0:0:0:
233,58,244361,1,0,0:0:0:0:
211,49,244434,6,0,P|161:36|113:51,1,85,8|0,0:0|0:0,0:0:0:0:
235,154,244727,1,2,0:0:0:0:
102,224,244873,2,0,P|94:271|111:320,1,85,8|2,0:0|0:0,0:0:0:0:
234,382,245166,2,0,L|240:294,1,85,8|2,0:0|0:0,0:0:0:0:
364,221,245459,1,8,0:0:0:0:
235,154,245605,5,8,0:0:0:0:
210,164,245678,1,0,0:0:0:0:
184,169,245751,1,0,0:0:0:0:
158,168,245824,1,0,0:0:0:0:
132,161,245898,2,0,L|88:155,3,42.5,8|0|0|0,0:0|0:0|0:0|0:0,0:0:0:0:
100,236,246190,5,8,0:0:0:0:
101,257,246263,1,0,0:0:0:0:
102,278,246336,1,0,0:0:0:0:
104,299,246409,1,0,0:0:0:0:
105,320,246483,1,8,0:0:0:0:
141,341,246556,1,0,0:0:0:0:
183,347,246629,1,0,0:0:0:0:
224,338,246702,1,0,0:0:0:0:
259,314,246776,6,0,P|299:302|341:307,1,85,2|0,0:0|0:0,0:0:0:0:
423,384,247068,1,8,0:0:0:0:
464,378,247141,1,0,0:0:0:0:
494,349,247214,1,0,0:0:0:0:
502,308,247287,1,0,0:0:0:0:
484,270,247361,2,0,P|469:230|471:188,1,85,2|0,0:0|0:0,0:0:0:0:
450,83,247654,2,0,P|423:116|385:135,1,85,8|0,0:0|0:0,0:0:0:0:
278,51,247946,5,2,0:0:0:0:
235,172,248093,2,0,L|242:273,1,85,0|8,0:0|0:0,0:0:0:0:
335,195,248385,1,2,0:0:0:0:
203,88,248532,2,0,P|157:82|112:93,1,85,0|0,0:0|0:0,0:0:0:0:
28,117,248824,2,0,P|55:148|71:188,1,85,8|0,0:0|0:0,0:0:0:0:
39,320,249117,5,2,0:0:0:0:
157,253,249263,1,0,0:0:0:0:
186,255,249337,1,0,0:0:0:0:
215,257,249410,2,0,B|255:262|255:262|306:250,1,85,8|2,0:0|0:0,0:0:0:0:
406,176,249702,1,0,0:0:0:0:
486,293,249849,2,0,L|479:393,1,85,0|8,0:0|0:0,0:0:0:0:
362,377,250142,1,0,0:0:0:0:
335,363,250215,1,0,0:0:0:0:
305,360,250288,6,0,P|248:374|202:362,1,85,2|0,0:0|0:0,0:0:0:0:
136,299,250581,1,8,0:0:0:0:
229,154,250727,1,0,0:0:0:0:
254,282,250873,1,2,0:0:0:0:
141,161,251020,1,0,0:0:0:0:
141,161,251093,1,0,0:0:0:0:
141,161,251166,2,0,L|147:58,1,85,8|8,0:0|0:0,0:0:0:0:
247,13,251459,6,0,P|301:37|339:33,1,85,2|0,0:0|0:0,0:0:0:0:
453,38,251751,1,8,0:0:0:0:
453,38,251824,1,0,0:0:0:0:
453,38,251898,2,0,P|405:72|389:107,1,85,0|2,0:0|0:0,0:0:0:0:
439,214,252190,1,0,0:0:0:0:
442,243,252263,1,0,0:0:0:0:
446,272,252337,2,0,L|458:373,1,85,8|0,0:0|0:0,0:0:0:0:
303,344,252629,6,0,P|320:293|318:255,1,85,2|0,0:0|0:0,0:0:0:0:
180,243,252922,2,0,P|152:196|146:159,1,85,8|2,0:0|0:0,0:0:0:0:
302,88,253215,1,0,0:0:0:0:
328,105,253288,1,0,0:0:0:0:
358,114,253361,1,2,0:0:0:0:
390,114,253434,1,0,0:0:0:0:
421,105,253507,2,0,L|470:103,3,42.5,8|0|8|0,0:0|0:0|0:0|0:0,0:0:0:0:
473,170,253800,5,8,0:0:0:0:
448,189,253873,1,0,0:0:0:0:
432,217,253946,1,0,0:0:0:0:
428,248,254019,1,0,0:0:0:0:
435,279,254093,1,8,0:0:0:0:
449,306,254166,1,0,0:0:0:0:
449,338,254239,1,0,0:0:0:0:
433,365,254312,1,0,0:0:0:0:
405,381,254385,5,8,0:0:0:0:
375,389,254458,1,0,0:0:0:0:
344,383,254531,1,0,0:0:0:0:
317,366,254604,1,0,0:0:0:0:
301,339,254678,1,8,0:0:0:0:
284,312,254751,1,0,0:0:0:0:
258,294,254824,1,0,0:0:0:0:
227,290,254897,1,0,0:0:0:0:
196,296,254971,6,0,L|191:254,3,42.5,8|0|0|0,0:0|0:0|0:0|0:0,0:0:0:0:
114,230,255263,2,0,L|119:187,3,42.5,8|0|0|0,0:0|0:0|0:0|0:0,0:0:0:0:
173,127,255556,5,8,0:0:0:0:
204,125,255629,1,0,0:0:0:0:
236,123,255702,1,0,0:0:0:0:
268,121,255775,1,0,0:0:0:0:
299,139,255848,1,8,0:0:0:0:
331,141,255921,1,8,0:0:0:0:
362,143,255995,1,8,0:0:0:0:
394,144,256068,1,8,0:0:0:0:
425,131,256141,5,6,0:3:0:0:
499,241,256288,1,0,0:0:0:0:
499,241,256434,2,0,L|496:335,1,80.7499978437424,8|0,0:0|0:0,0:0:0:0:
412,383,256727,1,2,0:0:0:0:
325,319,256873,1,0,0:0:0:0:
237,374,257020,2,0,P|198:382|159:374,1,80.7499978437424,8|0,0:0|0:0,0:0:0:0:
86,312,257312,6,0,P|109:280|114:241,1,80.7499978437424,2|0,0:0|0:0,0:0:0:0:
28,176,257605,1,2,0:0:0:0:
28,176,257751,2,0,P|1:100|73:47,1,161.499995687485,8|0,0:0|0:0,0:0:0:0:
136,121,258190,2,0,P|186:129|238:108,1,80.7499978437424,8|0,0:0|0:0,0:0:0:0:
319,38,258483,5,2,0:0:0:0:
319,38,258629,1,0,0:0:0:0:
422,118,258776,1,8,0:0:0:0:
422,118,258922,1,0,0:0:0:0:
316,188,259068,2,0,L|309:274,1,80.7499978437424,2|0,0:0|0:0,0:0:0:0:
415,344,259361,2,0,L|408:258,1,80.7499978437424,8|0,0:0|0:0,0:0:0:0:
276,365,259654,6,0,P|211:320|134:339,1,161.499995687485,2|8,0:0|0:0,0:0:0:0:
0,313,260093,2,0,P|70:278|92:203,1,161.499995687485,2|0,0:0|0:0,0:0:0:0:
31,57,260532,2,0,L|22:147,1,80.7499978437424,8|0,0:0|0:0,0:0:0:0:
148,77,260824,6,0,P|183:60|223:64,1,80.7499978437424,2|0,0:0|0:0,0:0:0:0:
290,162,261117,1,8,0:0:0:0:
290,162,261263,1,0,0:0:0:0:
369,50,261410,1,2,0:0:0:0:
369,50,261556,1,0,0:0:0:0:
411,191,261702,2,0,L|415:287,1,80.7499978437424,8|0,0:0|0:0,0:0:0:0:
340,383,261995,5,8,0:0:0:0:
278,290,262142,2,0,P|275:242|289:203,1,80.7499978437424,0|8,0:0|0:0,0:0:0:0:
290,113,262434,2,0,P|249:139|209:146,1,80.7499978437424,0|2,0:0|0:0,0:0:0:0:
116,67,262727,1,0,0:0:0:0:
116,67,262873,2,0,L|121:178,1,80.7499978437424,8|0,0:0|0:0,0:0:0:0:
62,266,263166,5,2,0:0:0:0:
62,266,263312,1,0,0:0:0:0:
168,336,263459,1,8,0:0:0:0:
168,336,263605,1,0,0:0:0:0:
265,256,263751,1,2,0:0:0:0:
359,336,263898,2,0,P|396:349|435:341,1,80.7499978437424,0|8,0:0|0:0,0:0:0:0:
492,259,264190,6,0,B|437:162|524:187|471:68,1,170,8|0,0:0|0:0,0:0:0:0:
397,29,264629,2,0,P|343:55|307:52,1,85,8|0,0:0|0:0,0:0:0:0:
197,87,264922,1,2,0:0:0:0:
197,87,264995,1,2,0:0:0:0:
197,87,265068,1,2,0:0:0:0:
197,87,265142,1,2,0:0:0:0:
197,87,265215,2,0,L|202:188,1,85,8|0,0:0|0:0,0:0:0:0:
201,271,265507,6,0,P|235:251|275:249,1,80.7499978437424,6|0,0:0|0:0,0:0:0:0:
376,353,265800,1,8,0:0:0:0:
436,239,265946,2,0,L|439:158,1,80.7499978437424,0|2,0:0|0:0,0:0:0:0:
369,30,266239,1,0,0:0:0:0:
369,30,266385,1,8,0:0:0:0:
207,91,266532,1,0,0:0:0:0:
345,152,266679,6,0,P|362:187|361:227,1,80.7499978437424,2|0,0:0|0:0,0:0:0:0:
226,344,266971,1,8,0:0:0:0:
226,344,267117,2,0,L|230:252,1,80.7499978437424,8|0,0:0|0:0,0:0:0:0:
172,178,267410,1,0,0:0:0:0:
172,178,267557,2,0,P|203:129|200:92,1,80.7499978437424,8|0,0:0|0:0,0:0:0:0:
117,74,267849,5,2,0:0:0:0:
117,74,267995,1,0,0:0:0:0:
8,160,268142,1,8,0:0:0:0:
8,160,268288,1,0,0:0:0:0:
154,225,268434,2,0,L|234:221,1,80.7499978437424,2|0,0:0|0:0,0:0:0:0:
348,318,268727,2,0,L|268:314,1,80.7499978437424,8|0,0:0|0:0,0:0:0:0:
397,174,269020,6,0,P|433:158|473:156,1,80.7499978437424,8|0,0:0|0:0,0:0:0:0:
458,302,269312,1,8,0:0:0:0:
314,243,269459,2,0,B|301:163|301:163|328:85,1,161.499995687485,8|0,0:0|0:0,0:0:0:0:
472,156,269898,2,0,P|436:172|396:174,1,80.7499978437424,8|0,0:0|0:0,0:0:0:0:
247,81,270190,5,8,0:0:0:0:
247,81,270337,1,0,0:0:0:0:
182,189,270483,2,0,L|187:289,1,80.7499978437424,8|0,0:0|0:0,0:0:0:0:
284,229,270776,1,2,0:0:0:0:
341,384,270922,1,0,0:0:0:0:
394,255,271068,2,0,L|396:164,1,80.7499978437424,8|0,0:0|0:0,0:0:0:0:
437,65,271361,6,0,B|341:44|386:105|275:78,1,161.499995687485,2|8,0:0|0:0,0:0:0:0:
164,5,271800,2,0,B|193:80|193:80|160:154,1,161.499995687485,0|0,0:0|0:0,0:0:0:0:
66,225,272239,1,8,0:0:0:0:
66,225,272385,1,0,0:0:0:0:
189,280,272532,6,0,P|242:270|271:277,1,80.7499978437424,2|0,0:0|0:0,0:0:0:0:
397,384,272824,2,0,L|400:287,1,80.7499978437424,8|0,0:0|0:0,0:0:0:0:
337,224,273117,1,2,0:0:0:0:
506,141,273263,1,8,0:0:0:0:
506,141,273410,1,0,0:0:0:0:
358,67,273556,6,0,P|313:57|267:63,1,80.7499978437424,8|0,0:0|0:0,0:0:0:0:
197,154,273849,1,8,0:0:0:0:
195,182,273922,1,8,0:0:0:0:
193,210,273995,2,0,L|190:297,1,80.7499978437424,8|2,0:0|0:0,0:0:0:0:
72,384,274288,2,0,L|69:297,1,80.7499978437424,2|0,0:0|0:0,0:0:0:0:
124,143,274581,5,8,0:0:0:0:
268,216,274727,1,2,0:0:0:0:
0,256,274873,1,6,0:0:0:0:
0,256,283068,5,0,0:0:0:0:
48,182,283215,2,0,L|52:118,2,63.7500024318696
108,261,283654,1,2,0:0:0:0:
179,172,283799,5,8,0:0:0:0:
228,335,283946,1,8,0:0:0:0:
301,129,284093,1,8,0:0:0:0:
301,129,284239,6,0,L|322:271,1,144.500002756119,2|0,0:3|0:0,0:0:0:0:
367,78,284824,2,0,L|373:222,1,144.500002756119,2|0,0:3|0:0,0:0:0:0:
437,35,285410,2,0,L|428:179,1,144.500002756119,2|0,0:3|0:0,0:0:0:0:
512,0,285995,2,0,L|488:142,1,144.500002756119,2|0,0:3|0:0,0:0:0:0:
413,297,286581,6,0,P|343:318|272:288,1,144.500002756119,2|0,0:3|0:0,0:0:0:0:
99,87,287166,2,0,P|169:66|240:96,1,144.500002756119,2|0,0:3|0:0,0:0:0:0:
163,338,287751,5,2,0:3:0:0:
109,265,287898,2,0,L|114:191,1,72.2500013780594,0|0,0:0|0:0,0:0:0:0:
200,108,288190,1,0,0:0:0:0:
200,108,288263,1,0,0:0:0:0:
200,108,288337,2,0,P|247:121|281:111,1,72.2500013780594,2|0,0:0|0:0,0:0:0:0:
346,37,288629,1,8,0:0:0:0:
413,161,288776,1,0,0:0:0:0:
413,161,288849,1,0,0:0:0:0:
413,161,288922,6,0,L|411:260,1,85,14|0,0:3|0:0,0:0:0:0:
99,161,289215,2,0,L|101:260,1,85,8|0,0:0|0:0,0:0:0:0:
349,61,289507,6,0,L|336:159,1,85,8|0,0:0|0:0,0:0:0:0:
163,61,289800,2,0,L|175:159,1,85,8|0,0:0|0:0,0:0:0:0:
276,105,290093,5,8,0:0:0:0:
326,297,290239,1,0,0:0:0:0:
272,86,290385,5,8,0:0:0:0:
228,322,290532,1,0,0:0:0:0:
162,158,290678,6,0,P|145:119|145:77,1,85,8|0,0:0|0:0,0:0:0:0:
350,158,290971,2,0,P|366:119|366:77,1,85,8|0,0:0|0:0,0:0:0:0:
256,60,291263,5,8,0:0:0:0:
190,203,291410,2,0,L|196:308,1,85,0|8,0:0|0:0,0:0:0:0:
128,93,291702,5,0,0:0:0:0:
288,265,291849,2,0,L|282:370,1,85,8|0,0:0|0:0,0:0:0:0:
373,112,292142,5,8,0:0:0:0:
232,202,292288,1,0,0:0:0:0:
232,202,292361,1,0,0:0:0:0:
232,201,292434,6,0,P|191:212|149:208,1,85,8|0,0:0|0:0,0:0:0:0:
17,94,292727,2,0,P|57:83|99:87,1,85,8|0,0:0|0:0,0:0:0:0:
49,233,293020,5,8,0:0:0:0:
49,233,293093,1,0,0:0:0:0:
49,233,293166,1,0,0:0:0:0:
49,233,293239,1,0,0:0:0:0:
49,233,293312,2,0,P|40:280|49:317,1,85,8|0,0:0|0:0,0:0:0:0:
164,384,293605,5,6,0:3:0:0:
229,298,293751,2,0,L|223:197,1,93.5000028533936,0|0,0:0|0:0,0:0:0:0:
168,104,294044,1,0,0:0:0:0:
168,104,294117,1,0,0:0:0:0:
168,104,294190,6,0,P|107:119|65:109,1,93.5000028533936,8|0,0:0|0:0,0:0:0:0:
208,10,294483,2,0,P|269:-5|311:5,1,93.5000028533936
406,65,294776,5,2,0:0:0:0:
286,128,294922,1,0,0:0:0:0:
286,128,294995,1,2,0:0:0:0:
286,128,295068,2,0,L|281:231,1,93.5000028533936,0|0,0:0|0:0,0:0:0:0:
290,335,295361,5,8,0:0:0:0:
325,353,295434,1,0,0:0:0:0:
364,347,295507,1,0,0:0:0:0:
391,317,295580,1,0,0:0:0:0:
394,277,295654,1,0,0:0:0:0:
397,237,295727,1,0,0:0:0:0:
424,207,295800,1,0,0:0:0:0:
463,201,295873,1,0,0:0:0:0:
499,220,295946,5,6,0:0:0:0:
356,126,296093,1,0,0:0:0:0:
356,126,296166,1,2,0:0:0:0:
356,125,296239,2,0,P|314:147|268:144,1,93.5000028533936
190,54,296532,5,8,0:0:0:0:
143,154,296678,2,0,L|146:251,1,93.5000028533936
220,341,296971,1,0,0:0:0:0:
220,341,297044,1,0,0:0:0:0:
219,341,297117,6,0,P|261:320|309:326,1,93.5000028533936,2|0,0:0|0:0,0:0:0:0:
431,383,297410,1,0,0:0:0:0:
506,263,297556,1,0,0:0:0:0:
506,263,297702,2,0,P|486:206|505:156,1,93.5000028533936,8|0,0:0|0:0,0:0:0:0:
488,64,297995,2,0,P|461:101|418:119,1,93.5000028533936,0|8,0:0|0:0,0:0:0:0:
316,38,298288,5,6,0:0:0:0:
316,38,298434,2,0,L|223:43,1,93.5000028533936
112,101,298727,1,0,0:0:0:0:
280,154,298873,5,8,0:0:0:0:
153,203,299020,1,0,0:0:0:0:
153,203,299093,1,0,0:0:0:0:
153,203,299166,2,0,P|142:264|159:314,1,93.5000028533936
308,366,299459,6,0,L|320:269,1,93.5000028533936,2|0,0:0|0:0,0:0:0:0:
228,112,299751,2,0,L|240:209,1,93.5000028533936,0|0,0:0|0:0,0:0:0:0:
395,235,300044,5,8,0:0:0:0:
396,211,300117,1,0,0:0:0:0:
397,188,300190,1,0,0:0:0:0:
398,164,300263,1,0,0:0:0:0:
407,141,300337,1,0,0:0:0:0:
408,117,300410,1,0,0:0:0:0:
409,94,300483,1,0,0:0:0:0:
410,70,300556,1,0,0:0:0:0:
400,48,300629,6,0,P|342:69|304:61,1,93.5000028533936,6|0,0:0|0:0,0:0:0:0:
201,8,300922,1,0,0:0:0:0:
201,8,300995,1,0,0:0:0:0:
201,8,301068,2,0,L|205:110,1,93.5000028533936,0|8,0:0|0:0,0:0:0:0:
155,200,301361,5,0,0:0:0:0:
155,200,301434,1,0,0:0:0:0:
155,200,301507,2,0,P|138:260|143:304,1,93.5000028533936
221,372,301800,6,0,P|269:352|320:360,1,93.5000028533936,2|0,0:0|0:0,0:0:0:0:
452,383,302093,1,0,0:0:0:0:
377,268,302239,1,0,0:0:0:0:
377,268,302312,1,0,0:0:0:0:
377,268,302385,6,0,L|374:168,1,93.5000028533936,8|0,0:0|0:0,0:0:0:0:
477,62,302678,2,0,L|474:162,1,93.5000028533936,0|8,0:0|0:0,0:0:0:0:
325,95,302971,6,0,P|263:116|229:110,1,93.5000028533936,6|0,0:0|0:0,0:0:0:0:
155,29,303263,1,0,0:0:0:0:
119,156,303410,1,0,0:0:0:0:
119,156,303483,1,0,0:0:0:0:
119,156,303556,6,0,L|122:258,1,93.5000028533936,8|0,0:0|0:0,0:0:0:0:
131,361,303849,1,0,0:0:0:0:
131,361,303995,2,0,P|172:334|218:332,1,93.5000028533936,0|2,0:0|0:0,0:0:0:0:
316,381,304288,6,0,L|322:279,1,93.5000028533936,0|0,0:0|0:0,0:0:0:0:
268,173,304581,1,0,0:0:0:0:
268,173,304654,1,0,0:0:0:0:
268,173,304727,6,0,P|300:127|301:74,1,93.5000028533936,8|0,0:0|0:0,0:0:0:0:
222,19,305020,1,0,0:0:0:0:
197,43,305093,1,0,0:0:0:0:
165,57,305166,1,0,0:0:0:0:
130,58,305239,1,0,0:0:0:0:
98,45,305312,6,0,P|51:34|1:51,1,93.5000028533936,6|0,0:0|0:0,0:0:0:0:
146,148,305605,1,0,0:0:0:0:
146,148,305751,1,0,0:0:0:0:
2,219,305898,6,0,L|7:326,1,93.5000028533936,8|0,0:0|0:0,0:0:0:0:
101,381,306190,1,0,0:0:0:0:
125,365,306263,1,0,0:0:0:0:
153,358,306336,1,0,0:0:0:0:
183,358,306410,1,0,0:0:0:0:
211,366,306483,6,0,P|263:379|302:368,1,93.5000028533936,2|0,0:0|0:0,0:0:0:0:
390,279,306776,1,0,0:0:0:0:
268,226,306922,1,0,0:0:0:0:
268,226,306995,1,0,0:0:0:0:
268,226,307068,6,0,L|267:130,1,93.5000028533936,8|0,0:0|0:0,0:0:0:0:
476,199,307361,2,0,L|475:295,1,93.5000028533936,0|8,0:0|0:0,0:0:0:0:
365,182,307654,6,0,P|360:128|375:85,1,93.5000028533936,6|0,0:0|0:0,0:0:0:0:
486,40,307946,1,0,0:0:0:0:
310,3,308093,1,0,0:0:0:0:
310,3,308166,1,0,0:0:0:0:
310,3,308239,6,0,B|264:-6|264:-6|216:0,1,93.5000028533936,8|0,0:0|0:0,0:0:0:0:
128,89,308532,1,0,0:0:0:0:
130,107,308605,1,0,0:0:0:0:
132,125,308678,1,0,0:0:0:0:
134,143,308751,1,0,0:0:0:0:
137,161,308824,6,0,P|132:224|108:265,1,93.5000028533936,2|0,0:0|0:0,0:0:0:0:
26,177,309117,1,0,0:0:0:0:
225,141,309263,1,0,0:0:0:0:
225,141,309337,1,0,0:0:0:0:
225,141,309410,6,0,B|271:137|271:137|318:146,1,93.5000028533936,8|0,0:0|0:0,0:0:0:0:
425,199,309702,1,8,0:0:0:0:
422,233,309775,1,0,0:0:0:0:
420,268,309848,1,8,0:0:0:0:
418,303,309921,1,0,0:0:0:0:
416,338,309995,6,0,L|411:421,3,46.7500014266968,6|0|0|0,0:3|0:0|0:0|0:0,0:0:0:0:
338,318,310288,2,0,L|333:234,3,46.7500014266968,8|0|0|0,0:0|0:0|0:0|0:0,0:0:0:0:
260,338,310581,2,0,L|265:421,3,46.7500014266968,8|0|0|0,0:0|0:0|0:0|0:0,0:0:0:0:
182,318,310873,2,0,L|187:234,3,46.7500014266968,8|0|0|0,0:0|0:0|0:0|0:0,0:0:0:0:
49,346,311166,5,10,0:3:0:0:
85,316,311239,1,0,0:0:0:0:
105,275,311312,1,0,0:0:0:0:
105,228,311385,1,0,0:0:0:0:
85,186,311459,1,8,0:0:0:0:
59,148,311532,1,0,0:0:0:0:
52,103,311605,1,0,0:0:0:0:
67,59,311678,1,0,0:0:0:0:
101,27,311751,5,8,0:0:0:0:
145,13,311824,1,0,0:0:0:0:
190,21,311898,1,0,0:0:0:0:
227,49,311971,1,0,0:0:0:0:
247,91,312044,1,8,0:0:0:0:
270,131,312117,1,0,0:0:0:0:
309,157,312190,1,0,0:0:0:0:
355,162,312263,1,0,0:0:0:0:
398,145,312337,6,0,P|436:101|435:25,1,110.499994941712,6|0,0:3|0:0,0:0:0:0:
491,234,312629,1,8,0:0:0:0:
343,60,312776,1,0,0:0:0:0:
343,60,312849,1,0,0:0:0:0:
343,60,312922,2,0,L|230:66,1,110.499994941712,2|0,0:0|0:0,0:0:0:0:
67,137,313215,1,8,0:0:0:0:
251,181,313361,1,0,0:0:0:0:
107,240,313507,6,0,P|77:290|79:351,1,110.499994941712,2|0,0:0|0:0,0:0:0:0:
205,382,313800,1,8,0:0:0:0:
317,315,313946,1,0,0:0:0:0:
317,315,314020,1,0,0:0:0:0:
317,315,314093,2,0,L|431:323,1,110.499994941712,2|0,0:0|0:0,0:0:0:0:
217,232,314385,2,0,L|103:240,1,110.499994941712,8|0,0:0|0:0,0:0:0:0:
357,183,314678,6,0,P|390:125|284:40,1,220.999989883423,2|8,0:0|0:0,0:0:0:0:
217,125,315117,1,0,0:0:0:0:
217,125,315190,1,0,0:0:0:0:
217,125,315263,2,0,P|228:195|213:237,1,110.499994941712,2|0,0:0|0:0,0:0:0:0:
141,180,315556,1,8,0:0:0:0:
316,234,315702,1,0,0:0:0:0:
155,315,315849,6,0,B|100:316|100:316|52:288,1,110.499994941712,2|0,0:0|0:0,0:0:0:0:
3,112,316142,1,8,0:0:0:0:
141,180,316288,1,0,0:0:0:0:
141,180,316361,1,0,0:0:0:0:
141,180,316434,2,0,P|212:195|260:179,1,110.499994941712,2|0,0:0|0:0,0:0:0:0:
354,63,316727,2,0,P|283:48|235:64,1,110.499994941712,8|0,0:0|0:0,0:0:0:0:
401,188,317020,5,2,0:3:0:0:
333,302,317166,1,0,0:0:0:0:
333,302,317239,1,0,0:0:0:0:
333,302,317312,2,0,P|271:278|222:292,1,110.499994941712,8|0,0:0|0:0,0:0:0:0:
170,378,317605,1,2,0:0:0:0:
129,247,317751,1,0,0:0:0:0:
129,247,317824,1,0,0:0:0:0:
129,247,317897,2,0,L|126:136,1,110.499994941712,8|0,0:0|0:0,0:0:0:0:
83,34,318190,5,2,0:0:0:0:
256,99,318337,1,0,0:0:0:0:
256,99,318410,1,0,0:0:0:0:
256,99,318483,2,0,P|239:160|255:213,1,110.499994941712,8|0,0:0|0:0,0:0:0:0:
439,174,318776,2,0,L|432:63,1,110.499994941712,2|0,0:0|0:0,0:0:0:0:
337,229,319068,2,0,L|343:339,1,110.499994941712,8|0,0:0|0:0,0:0:0:0:
427,282,319361,5,2,0:0:0:0:
252,241,319507,1,0,0:0:0:0:
252,241,319581,1,0,0:0:0:0:
252,241,319654,2,0,P|234:189|240:134,1,110.499994941712,8|0,0:0|0:0,0:0:0:0:
345,28,319946,2,0,P|362:79|356:134,1,110.499994941712,2|0,0:0|0:0,0:0:0:0:
215,33,320239,1,8,0:0:0:0:
193,35,320312,1,0,0:0:0:0:
171,37,320385,1,0,0:0:0:0:
148,39,320459,1,0,0:0:0:0:
126,42,320532,6,0,B|71:47|71:47|26:103,1,110.499994941712,2|0,0:0|0:0,0:0:0:0:
185,170,320824,1,8,0:0:0:0:
12,238,320971,1,0,0:0:0:0:
12,238,321044,1,0,0:0:0:0:
12,238,321117,2,0,L|15:353,1,110.499994941712,2|0,0:0|0:0,0:0:0:0:
132,371,321410,1,8,0:0:0:0:
157,338,321483,1,0,0:0:0:0:
193,319,321556,1,0,0:0:0:0:
234,319,321629,1,0,0:0:0:0:
271,335,321702,6,0,P|350:352|404:311,1,110.499994941712,6|0,0:3|0:0,0:0:0:0:
266,219,321995,1,8,0:0:0:0:
445,166,322142,1,0,0:0:0:0:
445,166,322215,1,0,0:0:0:0:
445,166,322288,2,0,P|466:115|447:58,1,110.499994941712,2|0,0:0|0:0,0:0:0:0:
249,91,322581,2,0,P|281:134|334:147,1,110.499994941712,8|2,0:0|0:0,0:0:0:0:
313,3,322873,6,0,L|186:9,1,110.499994941712,2|0,0:0|0:0,0:0:0:0:
49,55,323166,2,0,P|111:89|121:144,1,110.499994941712,8|0,0:0|0:0,0:0:0:0:
56,244,323459,1,2,0:0:0:0:
56,244,323532,1,0,0:0:0:0:
56,244,323605,1,0,0:0:0:0:
56,244,323678,1,0,0:0:0:0:
56,244,323751,2,0,P|77:290|146:299,1,110.499994941712,8|0,0:0|0:0,0:0:0:0:
221,234,324044,6,0,P|283:215|338:232,1,110.499994941712,2|0,0:0|0:0,0:0:0:0:
409,325,324337,1,8,0:0:0:0:
485,198,324483,1,0,0:0:0:0:
485,198,324556,1,0,0:0:0:0:
485,198,324629,2,0,L|475:87,1,110.499994941712,2|0,0:0|0:0,0:0:0:0:
382,5,324922,1,8,0:0:0:0:
309,165,325068,1,2,0:0:0:0:
309,165,325142,1,0,0:0:0:0:
309,164,325215,6,0,P|257:180|204:167,1,110.499994941712,2|0,0:0|0:0,0:0:0:0:
200,0,325507,2,0,P|241:36|256:89,1,110.499994941712,8|0,0:0|0:0,0:0:0:0:
113,176,325800,2,0,P|124:122|162:83,1,110.499994941712,2|0,0:0|0:0,0:0:0:0:
249,282,326093,1,8,0:0:0:0:
249,282,326166,1,0,0:0:0:0:
249,282,326239,1,0,0:0:0:0:
249,282,326312,1,0,0:0:0:0:
249,282,326385,6,0,B|197:299|197:299|130:292,1,110.499994941712,6|0,0:0|0:0,0:0:0:0:
43,205,326678,1,8,0:0:0:0:
43,205,326824,2,0,L|56:88,1,110.499994941712,2|0,0:0|0:0,0:0:0:0:
153,0,327117,2,0,L|166:117,1,110.499994941712,2|0,0:0|0:0,0:0:0:0:
239,258,327410,1,0,0:0:0:0:
239,258,327483,1,0,0:0:0:0:
239,258,327556,6,0,B|278:219|278:219|285:165,1,110.499994941712,2|0,0:0|0:0,0:0:0:0:
466,213,327849,2,0,B|412:198|412:198|362:219,1,110.499994941712,8|0,0:0|0:0,0:0:0:0:
314,39,328142,2,0,B|328:92|328:92|371:125,1,110.499994941712,8|0,0:0|0:0,0:0:0:0:
220,2,328434,1,2,0:0:0:0:
220,2,328507,1,2,0:0:0:0:
220,2,328581,1,2,0:0:0:0:
220,2,328654,1,2,0:0:0:0:
220,2,328727,6,0,L|216:57,3,55.2499974708558,2|0|0|0,0:3|0:0|0:0|0:0,0:0:0:0:
142,81,329020,2,0,L|145:136,3,55.2499974708558,8|0|0|0,0:0|0:0|0:0|0:0,0:0:0:0:
222,158,329312,5,8,0:0:0:0:
220,182,329385,1,0,0:0:0:0:
219,206,329458,1,0,0:0:0:0:
218,230,329531,1,0,0:0:0:0:
217,254,329604,1,8,0:0:0:0:
216,278,329677,1,0,0:0:0:0:
215,302,329751,1,0,0:0:0:0:
213,327,329824,1,0,0:0:0:0:
213,350,329898,6,0,P|183:358|148:354,3,55.2499974708558,2|0|0|0,0:3|0:0|0:0|0:0,0:0:0:0:
129,290,330190,2,0,P|98:285|67:267,3,55.2499974708558,2|0|0|0,0:0|0:0|0:0|0:0,0:0:0:0:
146,174,330483,5,2,0:3:0:0:
183,144,330556,1,0,0:0:0:0:
230,134,330629,1,0,0:0:0:0:
276,148,330702,1,0,0:0:0:0:
310,181,330776,1,2,0:0:0:0:
354,210,330849,1,0,0:0:0:0:
407,200,330922,1,0,0:0:0:0:
438,156,330995,1,0,0:0:0:0:
429,103,331068,1,6,0:0:0:0:
31,277,350268,6,0,L|32:342,1,59.4999981842042,0|0,0:0|0:0,0:0:0:0:
109,257,350568,2,0,L|110:322,1,59.4999981842042,0|0,0:0|0:0,0:0:0:0:
188,238,350868,2,0,L|189:303,1,59.4999981842042,0|0,0:0|0:0,0:0:0:0:
267,219,351168,2,0,L|268:284,1,59.4999981842042,0|0,0:0|0:0,0:0:0:0:
346,200,351468,2,0,L|347:265,1,59.4999981842042,0|0,0:0|0:0,0:0:0:0:
425,181,351768,2,0,L|426:246,1,59.4999981842042,0|0,0:0|0:0,0:0:0:0:
504,162,352068,2,0,L|502:96,1,59.4999981842042,0|0,0:0|0:0,0:0:0:0:
401,22,352368,5,0,0:0:0:0:
401,22,352443,1,0,0:0:0:0:
401,22,352518,1,0,0:0:0:0:
401,22,352593,1,0,0:0:0:0:
401,21,352668,2,0,P|373:33|344:37,1,59.4999981842042,0|0,0:0|0:0,0:0:0:0:
258,5,352968,6,0,L|262:77,1,59.4999981842042,0|0,0:0|0:0,0:0:0:0:
157,34,353268,2,0,L|161:106,1,59.4999981842042,0|0,0:0|0:0,0:0:0:0:
243,79,353568,2,0,L|247:151,1,59.4999981842042,0|0,0:0|0:0,0:0:0:0:
142,108,353868,2,0,L|146:180,1,59.4999981842042,0|0,0:0|0:0,0:0:0:0:
228,153,354168,2,0,L|232:225,1,59.4999981842042,0|0,0:0|0:0,0:0:0:0:
127,182,354468,2,0,L|131:254,1,59.4999981842042,0|0,0:0|0:0,0:0:0:0:
252,340,354768,5,0,0:0:0:0:
252,340,354843,1,0,0:0:0:0:
252,340,354918,1,0,0:0:0:0:
252,340,354993,1,0,0:0:0:0:
252,340,355068,2,0,P|289:330|321:333,1,59.4999981842042,0|0,0:0|0:0,0:0:0:0:
388,374,355368,6,0,L|385:298,1,59.4999981842042,0|0,0:0|0:0,0:0:0:0:
512,294,355668,2,0,L|447:334,1,59.4999981842042,0|0,0:0|0:0,0:0:0:0:
381,227,355968,2,0,L|448:262,1,59.4999981842042,0|0,0:0|0:0,0:0:0:0:
300,263,356268,2,0,L|297:198,1,59.4999981842042,0|0,0:0|0:0,0:0:0:0:
212,263,356568,2,0,L|215:198,1,59.4999981842042,0|0,0:0|0:0,0:0:0:0:
140,296,356868,2,0,L|143:361,1,59.4999981842042,0|0,0:0|0:0,0:0:0:0:
52,296,357168,2,0,L|49:361,1,59.4999981842042,0|0,0:0|0:0,0:0:0:0:
3,219,357468,6,0,L|61:209,2,59.4999981842042,0|0|0,0:0|0:0|0:0,0:0:0:0:
104,149,357918,2,0,L|162:158,2,59.4999981842042,0|0|0,0:0|0:0|0:0,0:0:0:0:
207,216,358368,2,0,L|265:206,1,59.4999981842042,0|0,0:0|0:0,0:0:0:0:
341,143,358668,6,0,L|348:276,1,118.999996368408,0|0,0:0|0:0,0:0:0:0:
460,153,359268,5,0,0:0:0:0:
460,153,359343,1,0,0:0:0:0:
460,153,359418,1,0,0:0:0:0:
460,153,359493,1,0,0:0:0:0:
460,153,359568,1,0,0:0:0:0:
460,153,359643,1,0,0:0:0:0:
460,153,359718,1,0,0:0:0:0:
460,153,359793,1,0,0:0:0:0:
460,153,359868,2,0,P|416:164|383:158,1,59.4999981842042,0|0,0:0|0:0,0:0:0:0:
320,122,360168,6,0,L|310:195,1,59.4999981842042,0|0,0:0|0:0,0:0:0:0:
235,85,360468,2,0,L|240:158,1,59.4999981842042,0|0,0:0|0:0,0:0:0:0:
144,66,360768,2,0,L|164:136,1,59.4999981842042,0|0,0:0|0:0,0:0:0:0:
65,92,361068,2,0,L|36:39,1,59.4999981842042,0|0,0:0|0:0,0:0:0:0:
46,165,361368,2,0,L|29:107,1,59.4999981842042,0|0,0:0|0:0,0:0:0:0:
12,232,361668,2,0,L|7:172,1,59.4999981842042,0|0,0:0|0:0,0:0:0:0:
137,302,361968,5,0,0:0:0:0:
137,302,362043,1,0,0:0:0:0:
137,302,362118,1,0,0:0:0:0:
137,302,362193,1,0,0:0:0:0:
137,302,362268,2,0,L|210:298,1,59.4999981842042,0|0,0:0|0:0,0:0:0:0:
305,213,362568,6,0,P|321:177|351:159,1,59.4999981842042,0|0,0:0|0:0,0:0:0:0:
448,240,362868,2,0,P|419:246|391:238,1,59.4999981842042,0|0,0:0|0:0,0:0:0:0:
401,103,363168,2,0,P|424:134|424:169,1,59.4999981842042,0|0,0:0|0:0,0:0:0:0:
257,138,363468,2,0,L|252:63,1,59.4999981842042,0|0,0:0|0:0,0:0:0:0:
159,194,363768,2,0,L|164:119,1,59.4999981842042,0|0,0:0|0:0,0:0:0:0:
243,276,364068,2,0,L|238:201,1,59.4999981842042,0|0,0:0|0:0,0:0:0:0:
118,326,364368,5,0,0:0:0:0:
118,326,364443,1,0,0:0:0:0:
118,326,364518,1,0,0:0:0:0:
118,326,364593,1,0,0:0:0:0:
118,326,364668,2,0,P|78:337|38:326,1,59.4999981842042,0|0,0:0|0:0,0:0:0:0:
65,227,364968,6,0,L|56:151,1,59.4999981842042,0|0,0:0|0:0,0:0:0:0:
137,178,365268,2,0,L|137:101,1,59.4999981842042,0|0,0:0|0:0,0:0:0:0:
214,138,365568,2,0,L|223:62,1,59.4999981842042,0|0,0:0|0:0,0:0:0:0:
295,173,365868,2,0,L|280:230,1,59.4999981842042,0|0,0:0|0:0,0:0:0:0:
360,230,366168,2,0,L|351:306,1,59.4999981842042,0|0,0:0|0:0,0:0:0:0:
428,176,366468,2,0,L|428:99,1,59.4999981842042,0|0,0:0|0:0,0:0:0:0:
505,136,366768,2,0,L|514:60,1,59.4999981842042,0|0,0:0|0:0,0:0:0:0:
507,238,367068,6,0,L|502:305,2,59.4999981842042,0|0|0,0:0|0:0|0:0,0:0:0:0:
424,312,367518,2,0,L|429:379,2,59.4999981842042,0|0|0,0:0|0:0|0:0,0:0:0:0:
345,281,367968,2,0,L|340:214,1,59.4999981842042,0|0,0:0|0:0,0:0:0:0:
415,172,368268,2,0,L|420:105,1,61.6250018806458,0|0,0:0|0:0,0:0:0:0:
369,30,368560,5,0,0:0:0:0:
355,29,368633,1,0,0:0:0:0:
341,28,368707,1,0,0:0:0:0:
327,27,368780,1,0,0:0:0:0:
313,26,368853,2,0,L|279:25,1,34,2|0,0:0|0:0,0:0:0:0:
164,65,368999,2,0,P|216:102|223:181,1,136,10|0,0:0|0:0,0:0:0:0:
111,338,369438,6,0,L|104:188,1,144.500002756119,6|0,0:3|0:0,0:0:0:0:
232,274,369877,5,0,0:0:0:0:
232,274,370024,2,0,P|255:232|293:218,1,72.2500013780594,8|0,0:0|0:0,0:0:0:0:
208,148,370316,2,0,P|185:106|147:92,1,72.2500013780594,0|0,0:0|0:0,0:0:0:0:
277,47,370609,2,0,L|362:52,1,72.2500013780594,0|0,0:0|0:0,0:0:0:0:
355,133,370902,2,0,L|440:128,1,72.2500013780594,0|0,0:0|0:0,0:0:0:0:
304,213,371194,2,0,L|389:218,1,72.2500013780594,8|0,0:0|0:0,0:0:0:0:
369,301,371487,6,0,L|411:298,3,36.1250006890297,0|0|0|0,0:0|0:0|0:0|0:0,0:0:0:0:
356,336,371780,2,0,P|314:349|272:332,1,72.2500013780594,2|0,0:0|0:0,0:0:0:0:
214,288,372072,6,0,L|221:214,1,72.2500013780594,0|0,0:0|0:0,0:0:0:0:
303,130,372365,2,0,L|310:204,1,72.2500013780594,8|0,0:0|0:0,0:0:0:0:
191,117,372658,2,0,L|198:43,1,72.2500013780594,0|0,0:0|0:0,0:0:0:0:
100,149,372950,2,0,L|93:75,1,72.2500013780594,0|0,0:0|0:0,0:0:0:0:
17,186,373243,5,0,0:0:0:0:
17,186,373389,2,0,L|20:238,1,36.1250006890297,0|0,0:0|0:0,0:0:0:0:
100,280,373536,1,8,0:0:0:0:
100,280,373682,2,0,L|103:332,1,36.1250006890297,0|0,0:0|0:0,0:0:0:0:
184,384,373828,2,0,L|187:332,1,36.1250006890297,0|0,0:0|0:0,0:0:0:0:
259,258,373975,2,0,L|262:310,1,36.1250006890297,0|0,0:0|0:0,0:0:0:0:
382,373,374121,5,2,0:0:0:0:
451,273,374268,1,0,0:0:0:0:
331,263,374414,1,2,0:0:0:0:
401,164,374561,1,0,0:0:0:0:
395,363,374707,5,8,0:0:0:0:
464,263,374854,1,0,0:0:0:0:
344,253,375000,1,2,0:0:0:0:
414,154,375147,1,0,0:0:0:0:
294,143,375292,5,2,0:0:0:0:
224,242,375438,1,0,0:0:0:0:
125,172,375585,1,2,0:0:0:0:
195,73,375731,1,0,0:0:0:0:
281,153,375877,5,8,0:0:0:0:
211,252,376024,1,0,0:0:0:0:
331,262,376170,1,2,0:0:0:0:
262,362,376317,1,0,0:0:0:0:
141,351,376463,5,2,0:0:0:0:
90,241,376609,1,0,0:0:0:0:
211,252,376755,1,2,0:0:0:0:
160,142,376902,1,0,0:0:0:0:
128,341,377048,5,8,0:0:0:0:
197,241,377195,1,0,0:0:0:0:
77,231,377341,1,2,0:0:0:0:
147,132,377488,1,0,0:0:0:0:
27,50,377633,6,0,B|26:96|26:96|5:125|5:125|15:160|15:160|9:203,1,144.500002756119,2|0,0:0|0:0,0:0:0:0:
51,281,378072,1,0,0:0:0:0:
51,281,378219,5,0,0:0:0:0:
154,232,378366,1,0,0:0:0:0:
146,346,378512,1,0,0:0:0:0:
249,297,378658,1,0,0:0:0:0:
249,297,378731,1,0,0:0:0:0:
249,297,378804,6,0,L|330:303,1,72.2500013780594,2|0,0:0|0:0,0:0:0:0:
401,262,379097,2,0,P|385:219|390:189,1,72.2500013780594,2|0,0:0|0:0,0:0:0:0:
485,197,379389,2,0,P|501:154|496:124,1,72.2500013780594,8|0,0:0|0:0,0:0:0:0:
313,165,379682,2,0,L|311:91,1,72.2500013780594,2|0,0:0|0:0,0:0:0:0:
209,130,379975,2,0,L|211:56,1,72.2500013780594,2|0,0:0|0:0,0:0:0:0:
152,208,380268,2,0,L|154:282,1,72.2500013780594,2|0,0:0|0:0,0:0:0:0:
102,94,380560,2,0,L|100:20,1,72.2500013780594,8|0,0:0|0:0,0:0:0:0:
44,188,380853,5,2,0:0:0:0:
44,188,380926,1,0,0:0:0:0:
44,188,380999,1,0,0:0:0:0:
44,188,381072,1,0,0:0:0:0:
44,188,381146,2,0,L|48:283,1,72.2500013780594,2|0,0:0|0:0,0:0:0:0:
131,352,381438,6,0,P|159:331|195:327,1,72.2500013780594,2|0,0:0|0:0,0:0:0:0:
342,200,381731,2,0,P|313:221|277:225,1,72.2500013780594,8|0,0:0|0:0,0:0:0:0:
313,381,382024,2,0,P|291:352|287:316,1,72.2500013780594,2|0,0:0|0:0,0:0:0:0:
160,171,382316,2,0,P|181:199|185:235,1,72.2500013780594,2|0,0:0|0:0,0:0:0:0:
44,188,382609,2,0,L|48:108,1,72.2500013780594,2|0,0:0|0:0,0:0:0:0:
121,22,382902,2,0,P|172:39|207:28,1,72.2500013780594,8|0,0:0|0:0,0:0:0:0:
295,1,383194,6,0,L|339:4,3,36.1250006890297,2|0|0|0,0:0|0:0|0:0|0:0,0:0:0:0:
386,48,383487,1,2,0:0:0:0:
386,48,383633,1,0,0:0:0:0:
449,124,383780,6,0,P|435:156|435:192,1,72.2500013780594,2|0,0:0|0:0,0:0:0:0:
498,309,384072,2,0,P|512:276|512:240,1,72.2500013780594,8|0,0:0|0:0,0:0:0:0:
397,288,384365,2,0,L|404:365,1,72.2500013780594,2|0,0:0|0:0,0:0:0:0:
309,313,384658,2,0,L|302:390,1,72.2500013780594,2|0,0:0|0:0,0:0:0:0:
224,296,384950,2,0,P|187:281|153:285,1,72.2500013780594,2|0,0:0|0:0,0:0:0:0:
95,155,385243,2,0,P|100:194|120:221,1,72.2500013780594,8|0,0:0|0:0,0:0:0:0:
38,338,385536,2,0,P|69:313|83:282,1,72.2500013780594,2|0,0:0|0:0,0:0:0:0:
13,177,385828,5,2,0:0:0:0:
13,177,385975,2,0,L|19:87,2,72.2500013780594,0|2|0,0:0|0:0|0:0,0:0:0:0:
122,266,386414,1,8,0:0:0:0:
122,266,386561,2,0,L|116:176,2,72.2500013780594,0|2|0,0:0|0:0|0:0,0:0:0:0:
228,347,386999,5,2,0:0:0:0:
279,263,387146,2,0,L|280:174,1,72.2500013780594,8|0,0:0|0:0,0:0:0:0:
244,55,387438,1,0,0:0:0:0:
244,55,387511,1,0,0:0:0:0:
243,55,387585,2,0,P|227:87|224:123,1,72.2500013780594,8|0,0:0|0:0,0:0:0:0:
358,206,387877,1,0,0:0:0:0:
372,234,387950,1,0,0:0:0:0:
378,266,388023,1,0,0:0:0:0:
375,298,388096,1,0,0:0:0:0:
363,328,388170,6,0,B|314:373|248:339|248:339|206:318|141:342,1,203.999993774414,6|8,0:3|0:0,0:0:0:0:
54,372,388609,2,0,P|90:326|93:281,1,101.999996887207,2|0,0:0|0:0,0:0:0:0:
1,108,388902,1,0,0:0:0:0:
1,108,389048,2,0,L|4:211,1,101.999996887207,8|0,0:0|0:0,0:0:0:0:
128,190,389341,6,0,B|251:157|189:243|328:200,1,203.999993774414,2|8,0:0|0:0,0:0:0:0:
407,69,389780,1,0,0:0:0:0:
407,69,389926,2,0,L|417:180,1,101.999996887207,2|0,0:0|0:0,0:0:0:0:
499,268,390219,2,0,L|509:157,1,101.999996887207,8|0,0:0|0:0,0:0:0:0:
327,139,390511,6,0,B|196:171|268:85|123:116,1,203.999993774414,2|8,0:0|0:0,0:0:0:0:
13,206,390950,2,0,P|68:238|118:231,1,101.999996887207,2|0,0:0|0:0,0:0:0:0:
232,258,391243,1,0,0:0:0:0:
251,260,391316,1,0,0:0:0:0:
271,263,391389,2,0,B|321:270|321:270|371:263,1,101.999996887207,8|0,0:0|0:0,0:0:0:0:
480,212,391682,6,0,P|430:145|538:125,1,203.999993774414,2|8,0:0|0:0,0:0:0:0:
438,305,392121,1,0,0:0:0:0:
342,245,392267,2,0,P|323:191|333:142,1,101.999996887207,2|0,0:0|0:0,0:0:0:0:
231,1,392560,2,0,P|250:55|240:104,1,101.999996887207,8|0,0:0|0:0,0:0:0:0:
125,157,392853,5,2,0:0:0:0:
125,157,392999,2,0,L|128:270,1,101.999996887207,0|8,0:0|0:0,0:0:0:0:
166,339,393292,2,0,P|204:306|254:300,1,101.999996887207,2|0,0:0|0:0,0:0:0:0:
358,375,393585,1,0,0:0:0:0:
488,319,393731,1,8,0:0:0:0:
488,319,393877,1,0,0:0:0:0:
391,220,394024,6,0,P|343:202|292:203,1,101.999996887207,2|0,0:0|0:0,0:0:0:0:
198,314,394316,1,8,0:0:0:0:
160,197,394463,2,0,L|164:89,1,101.999996887207,2|0,0:0|0:0,0:0:0:0:
241,0,394755,1,0,0:0:0:0:
241,0,394828,1,0,0:0:0:0:
241,0,394902,2,0,P|271:58|266:114,1,101.999996887207,8|0,0:0|0:0,0:0:0:0:
239,186,395194,6,0,P|291:214|400:132,1,203.999993774414,2|8,0:0|0:0,0:0:0:0:
510,64,395633,2,0,B|480:150|480:150|496:274,1,203.999993774414,2|0,0:0|0:0,0:0:0:0:
507,371,396072,2,0,P|453:343|408:353,1,101.999996887207,8|0,0:0|0:0,0:0:0:0:
297,383,396365,1,2,0:0:0:0:
404,268,396511,1,0,0:0:0:0:
254,302,396658,2,0,B|203:307|203:307|154:298,1,101.999996887207,8|0,0:0|0:0,0:0:0:0:
107,222,396950,5,8,0:0:0:0:
137,204,397023,1,0,0:0:0:0:
153,174,397096,1,0,0:0:0:0:
150,139,397169,1,0,0:0:0:0:
129,112,397243,1,8,0:0:0:0:
108,85,397316,1,0,0:0:0:0:
105,50,397389,1,0,0:0:0:0:
121,20,397462,1,0,0:0:0:0:
151,2,397536,6,0,L|257:10,1,101.999996887207,6|0,0:3|0:0,0:0:0:0:
393,67,397828,1,8,0:0:0:0:
297,156,397975,2,0,P|289:218|322:279,1,101.999996887207,2|0,0:0|0:0,0:0:0:0:
407,199,398268,1,0,0:0:0:0:
277,83,398414,2,0,L|170:85,1,101.999996887207,8|0,0:0|0:0,0:0:0:0:
88,150,398707,6,0,B|42:259|139:237|92:345,1,203.999993774414,2|8,0:0|0:0,0:0:0:0:
16,296,399146,1,0,0:0:0:0:
182,246,399292,2,0,L|297:253,1,101.999996887207,2|0,0:0|0:0,0:0:0:0:
378,341,399585,2,0,L|276:347,1,101.999996887207,8|0,0:0|0:0,0:0:0:0:
301,157,399877,6,0,P|397:181|433:273,1,203.999993774414,2|8,0:0|0:0,0:0:0:0:
216,303,400316,2,0,L|228:93,1,203.999993774414,2|0,0:0|0:0,0:0:0:0:
299,8,400755,1,8,0:0:0:0:
140,85,400902,1,0,0:0:0:0:
140,85,401048,6,0,L|144:207,1,101.999996887207,2|0,0:0|0:0,0:0:0:0:
82,276,401341,1,8,0:0:0:0:
249,308,401487,1,0,0:0:0:0:
249,308,401560,1,0,0:0:0:0:
248,308,401633,2,0,P|296:291|345:302,1,101.999996887207,2|0,0:0|0:0,0:0:0:0:
437,378,401926,2,0,L|431:268,1,101.999996887207,8|0,0:0|0:0,0:0:0:0:
358,144,402219,6,0,L|366:23,1,101.999996887207,2|0,0:0|0:0,0:0:0:0:
472,150,402511,1,8,0:0:0:0:
370,238,402658,2,0,P|314:241|261:214,1,101.999996887207,2|0,0:0|0:0,0:0:0:0:
184,129,402950,2,0,L|176:230,1,101.999996887207,0|8,0:0|0:0,0:0:0:0:
234,345,403243,1,0,0:0:0:0:
234,345,403316,1,0,0:0:0:0:
234,345,403389,6,0,P|164:360|127:349,1,101.999996887207,2|0,0:0|0:0,0:0:0:0:
51,233,403682,1,8,0:0:0:0:
172,181,403828,2,0,B|224:172|224:172|274:181,1,101.999996887207,2|0,0:0|0:0,0:0:0:0:
372,298,404121,1,0,0:0:0:0:
372,298,404267,2,0,P|354:243|370:193,1,101.999996887207,8|0,0:0|0:0,0:0:0:0:
509,59,404560,6,0,B|505:162|505:162|446:244,1,203.999993774414,2|8,0:0|0:0,0:0:0:0:
349,139,404999,2,0,P|298:118|247:120,1,101.999996887207,2|0,0:0|0:0,0:0:0:0:
163,245,405292,2,0,P|214:266|265:264,1,101.999996887207,0|8,0:0|0:0,0:0:0:0:
157,124,405585,1,0,0:0:0:0:
73,207,405731,2,0,B|69:259|69:259|76:308,1,101.999996887207,2|0,0:0|0:0,0:0:0:0:
230,366,406024,2,0,B|234:314|234:314|226:264,1,101.999996887207,8|0,0:0|0:0,0:0:0:0:
92,124,406316,5,8,0:0:0:0:
111,91,406389,1,0,0:0:0:0:
144,72,406462,1,0,0:0:0:0:
182,68,406535,1,0,0:0:0:0:
217,83,406608,1,8,0:0:0:0:
252,97,406682,1,0,0:0:0:0:
290,93,406755,1,0,0:0:0:0:
323,73,406828,1,0,0:0:0:0:
343,42,406902,6,0,B|392:16|392:16|454:26,2,114.749996498108,10|8|8,0:3|0:0|0:0,0:0:0:0:
412,137,407560,6,0,B|410:192|410:192|370:241,2,114.749996498108,10|8|8,0:3|0:0|0:0,0:0:0:0:
295,149,408219,6,0,B|247:119|247:119|225:60,2,114.749996498108,10|8|8,0:3|0:0|0:0,0:0:0:0:
120,308,408950,6,0,L|128:402,1,76.4999976654053,2|0,0:3|0:0,0:0:0:0:
27,288,409243,6,0,L|35:127,1,152.999995330811,6|0,0:3|0:0,0:0:0:0:
34,135,411585,5,6,0:3:0:0:
143,200,411731,1,0,0:0:0:0:
145,73,411877,1,8,0:0:0:0:
32,262,412024,1,0,0:0:0:0:
142,328,412170,2,0,L|247:321,1,93.5000028533936,2|0,0:0|0:0,0:0:0:0:
335,190,412463,2,0,L|230:197,1,93.5000028533936,8|0,0:0|0:0,0:0:0:0:
365,317,412755,5,2,0:0:0:0:
506,245,412902,1,0,0:0:0:0:
506,245,413048,1,8,0:0:0:0:
406,171,413194,2,0,P|389:126|396:76,1,93.5000028533936,0|0,0:0|0:0,0:0:0:0:
458,0,413487,1,0,0:0:0:0:
316,78,413633,1,8,0:0:0:0:
316,78,413780,1,0,0:0:0:0:
235,7,413926,6,0,P|181:0|138:16,1,93.5000028533936,2|0,0:0|0:0,0:0:0:0:
156,171,414219,2,0,P|185:135|197:91,1,93.5000028533936,8|0,0:0|0:0,0:0:0:0:
52,20,414511,2,0,P|68:63|101:95,1,93.5000028533936,2|0,0:0|0:0,0:0:0:0:
282,132,414804,1,8,0:0:0:0:
282,132,414950,2,0,L|291:228,1,93.5000028533936,2|0,0:0|0:0,0:0:0:0:
231,327,415243,5,0,0:0:0:0:
231,327,415316,1,0,0:0:0:0:
231,327,415389,1,8,0:0:0:0:
231,327,415463,1,0,0:0:0:0:
232,326,415536,2,0,B|271:320|305:337|305:337|345:325|345:325|394:344|427:324,1,187.000005706787,2|0,0:0|0:0,0:0:0:0:
506,243,415975,1,8,0:0:0:0:
506,243,416121,1,0,0:0:0:0:
341,135,416267,5,2,0:0:0:0:
341,135,416414,2,0,P|329:77|336:31,1,93.5000028533936,0|8,0:0|0:0,0:0:0:0:
197,208,416707,1,0,0:0:0:0:
258,65,416853,1,2,0:0:0:0:
297,260,416999,1,0,0:0:0:0:
192,109,417146,1,8,0:0:0:0:
142,284,417292,1,0,0:0:0:0:
142,284,417438,6,0,L|257:299,1,93.5000028533936,2|0,0:0|0:0,0:0:0:0:
253,133,417731,2,0,L|182:225,1,93.5000028533936,8|0,0:0|0:0,0:0:0:0:
328,305,418024,2,0,L|283:197,1,93.5000028533936,2|0,0:0|0:0,0:0:0:0:
88,379,418316,2,0,L|203:364,1,93.5000028533936,8|0,0:0|0:0,0:0:0:0:
322,383,418609,5,2,0:0:0:0:
322,383,418755,1,2,0:0:0:0:
383,272,418902,2,0,L|388:176,1,93.5000028533936,8|0,0:0|0:0,0:0:0:0:
314,52,419194,1,2,0:0:0:0:
314,52,419341,1,2,0:0:0:0:
236,147,419487,2,0,P|231:199|245:245,1,93.5000028533936,8|0,0:0|0:0,0:0:0:0:
323,187,419780,5,2,0:0:0:0:
149,126,419926,1,0,0:0:0:0:
149,126,419999,1,0,0:0:0:0:
149,126,420072,2,0,L|143:224,1,93.5000028533936,8|0,0:0|0:0,0:0:0:0:
143,332,420365,1,2,0:0:0:0:
173,315,420438,1,0,0:0:0:0:
207,308,420511,1,0,0:0:0:0:
242,314,420584,1,0,0:0:0:0:
273,330,420658,2,0,P|335:353|401:331,1,93.5000028533936,8|0,0:0|0:0,0:0:0:0:
454,270,420950,6,0,P|430:227|442:173,1,93.5000028533936,6|0,0:3|0:0,0:0:0:0:
490,88,421243,1,8,0:0:0:0:
490,88,421389,1,0,0:0:0:0:
370,156,421536,1,2,0:0:0:0:
370,156,421682,1,0,0:0:0:0:
305,20,421828,1,8,0:0:0:0:
305,20,421975,1,0,0:0:0:0:
230,124,422121,5,2,0:0:0:0:
230,124,422267,2,0,L|237:222,1,93.5000028533936,2|8,0:0|0:0,0:0:0:0:
360,337,422560,1,2,0:0:0:0:
360,337,422706,2,0,L|367:239,1,93.5000028533936,2|0,0:0|0:0,0:0:0:0:
265,294,422999,1,8,0:0:0:0:
450,339,423146,1,0,0:0:0:0:
256,384,423292,6,0,L|162:379,1,93.5000028533936,2|0,0:0|0:0,0:0:0:0:
65,221,423585,2,0,L|158:225,1,93.5000028533936,8|0,0:0|0:0,0:0:0:0:
81,303,423877,1,2,0:0:0:0:
28,133,424024,1,0,0:0:0:0:
28,133,424170,2,0,P|79:114|139:119,1,93.5000028533936,8|0,0:0|0:0,0:0:0:0:
213,181,424463,6,0,B|338:222|274:122|430:176,1,187.000005706787,2|8,0:0|0:0,0:0:0:0:
425,321,424902,2,0,P|367:340|404:252,1,187.000005706787,2|2,0:0|0:0,0:0:0:0:
512,384,425341,1,8,0:0:0:0:
512,384,425633,5,2,0:0:0:0:
512,384,425780,2,0,L|517:289,1,93.5000028533936,0|8,0:0|0:0,0:0:0:0:
377,171,426072,1,0,0:0:0:0:
377,171,426219,2,0,L|382:266,1,93.5000028533936,2|0,0:0|0:0,0:0:0:0:
492,118,426511,2,0,P|453:91|408:82,1,93.5000028533936,8|0,0:0|0:0,0:0:0:0:
302,156,426804,6,0,P|238:180|160:93,1,187.000005706787,2|8,0:0|0:0,0:0:0:0:
152,0,427243,2,0,B|75:52|75:52|69:170,1,187.000005706787,2|0,0:0|0:0,0:0:0:0:
115,289,427682,2,0,B|138:247|138:247|127:189,1,93.5000028533936,8|0,0:0|0:0,0:0:0:0:
15,358,427975,6,0,P|74:382|129:368,1,93.5000028533936,6|0,0:0|0:0,0:0:0:0:
297,296,428267,2,0,P|238:272|183:286,1,93.5000028533936,8|0,0:0|0:0,0:0:0:0:
339,382,428560,1,0,0:0:0:0:
415,271,428707,1,0,0:0:0:0:
415,271,428853,2,0,L|405:170,1,93.5000028533936,8|0,0:0|0:0,0:0:0:0:
454,50,429146,5,2,0:0:0:0:
312,149,429292,1,0,0:0:0:0:
312,149,429365,1,0,0:0:0:0:
312,148,429438,2,0,P|268:163|222:155,1,93.5000028533936,8|0,0:0|0:0,0:0:0:0:
158,42,429731,1,2,0:0:0:0:
158,42,429804,1,0,0:0:0:0:
158,42,429877,1,0,0:0:0:0:
70,138,430024,2,0,L|62:245,1,93.5000028533936,8|0,0:0|0:0,0:0:0:0:
0,0,430316,1,6,0:3:0:0:
155,324,449063,6,0,B|183:273|164:228|164:228|178:186|178:186|156:140|176:101,1,220.999989883423,2|0,0:0|0:0,0:0:0:0:
304,145,449941,1,0,0:0:0:0:
304,145,450233,2,0,B|327:225|327:225|305:318,2,165.749992412568,0|0|0,0:0|0:0|0:0,0:0:0:0:
226,189,451404,2,0,P|166:208|98:138,2,165.749992412568,0|0|0,0:0|0:0|0:0,0:0:0:0:
189,2,452575,1,0,0:0:0:0:
189,2,453160,6,0,L|181:116,1,110.499994941712,0|0,0:0|0:0,0:0:0:0:
149,255,453745,2,0,B|201:244|201:244|234:197|234:197|287:188,2,165.749992412568,0|0|0,0:0|0:0|0:0,0:0:0:0:
57,121,454916,2,0,P|66:191|112:143,2,165.749992412568,0|0|0,0:0|0:0|0:0,0:0:0:0:
165,67,456087,2,0,B|244:46|244:46|324:85,2,165.749992412568,0|0|0,0:0|0:0|0:0,0:0:0:0:
0,0,457258,1,0,0:0:0:0:
0,0,457843,6,0,P|38:37|37:96,1,110.499994941712,0|0,0:0|0:0,0:0:0:0:
0,190,458428,2,0,L|13:365,2,165.749992412568,0|0|0,0:0|0:0|0:0,0:0:0:0:
113,273,459599,1,0,0:0:0:0:
113,273,460184,6,0,P|168:288|216:267,1,110.499994941712,0|0,0:0|0:0,0:0:0:0:
276,174,460770,2,0,B|296:254|296:254|382:280,2,165.749992412568,0|0|0,0:0|0:0|0:0,0:0:0:0:
406,148,461941,1,0,0:0:0:0:
406,148,462526,2,0,P|351:158|286:142,1,110.499994941712,0|0,0:0|0:0,0:0:0:0:
206,211,462950,5,0,0:0:0:0:
206,211,463023,1,0,0:0:0:0:
206,211,463096,2,0,L|199:316,1,93.5000028533936,8|0,0:0|0:0,0:0:0:0:
79,101,463388,1,0,0:0:0:0:
79,101,463681,6,0,L|74:147,3,46.7500014266968,0|0|0|0,0:0|0:0|0:0|0:0,0:0:0:0:
109,174,463974,1,8,0:0:0:0:
118,201,464047,1,0,0:0:0:0:
118,230,464120,1,8,0:0:0:0:
107,257,464193,1,8,0:0:0:0:
87,278,464266,2,0,P|53:334|56:373,1,93.5000028533936,8|0,0:0|0:0,0:0:0:0:
275,177,464705,5,0,0:0:0:0:
275,177,464778,1,0,0:0:0:0:
275,177,464852,2,0,L|278:79,1,93.5000028533936,0|0,0:0|0:0,0:0:0:0:
391,153,465144,5,0,0:0:0:0:
392,184,465217,1,0,0:0:0:0:
393,216,465290,1,8,0:0:0:0:
394,248,465363,1,8,0:0:0:0:
395,280,465437,2,0,B|395:331|395:331|355:362,1,101.999996887207,8|0,0:0|0:0,0:0:0:0:
271,310,465730,5,0,0:0:0:0:
250,309,465803,1,0,0:0:0:0:
229,308,465876,1,0,0:0:0:0:
208,307,465949,1,0,0:0:0:0:
187,306,466022,2,0,B|111:303|111:303|45:353,2,152.999995330811,8|0|0,0:0|0:0|0:0,0:0:0:0:
290,380,466608,6,0,P|328:335|312:220,1,152.999995330811,8|0,0:0|0:0,0:0:0:0:
227,163,467047,1,0,0:0:0:0:
227,163,467120,1,0,0:0:0:0:
227,163,467193,6,0,L|224:95,2,50.9999984436036,8|8|8,0:0|0:0|0:0,0:0:0:0:
153,218,467486,2,0,L|150:286,2,50.9999984436036,8|8|8,0:0|0:0|0:0,0:0:0:0:
30,107,467778,5,6,0:3:0:0:
30,107,468949,1,2,0:3:0:0:
30,107,469535,5,2,0:3:0:0:
61,171,469730,5,2,0:3:0:0:
92,236,469925,5,2,0:3:0:0:
123,301,470120,6,0,P|66:317|23:303,1,76.4999976654053,6|0,0:3|0:0,0:0:0:0:
165,128,470413,1,0,0:0:0:0:
244,284,470559,1,0,0:0:0:0:
244,284,470632,1,0,0:0:0:0:
244,284,470705,2,0,L|240:383,1,76.4999976654053,8|0,0:0|0:0,0:0:0:0:
362,283,470998,2,0,L|358:184,1,76.4999976654053
299,52,471291,5,2,0:0:0:0:
238,150,471437,1,2,0:0:0:0:
238,150,471510,1,2,0:0:0:0:
238,150,471583,2,0,L|241:207,3,38.2499988327027,2|0|0|0,0:0|0:0|0:0|0:0,0:0:0:0:
175,227,471876,2,0,L|172:284,3,38.2499988327027,8|0|0|0,0:0|0:0|0:0|0:0,0:0:0:0:
252,319,472169,2,0,P|287:306|325:306,1,76.4999976654053,8|0,0:0|0:0,0:0:0:0:
420,384,472461,6,0,P|476:337|467:264,1,152.999995330811,6|0,0:3|0:0,0:0:0:0:
355,190,472900,1,0,0:0:0:0:
355,190,472974,1,0,0:0:0:0:
355,190,473047,2,0,B|346:134|346:134|368:65,2,114.749996498108,8|0|2,0:0|0:0|0:0,0:0:0:0:
365,291,473632,6,0,P|332:272|294:272,1,76.4999976654053,8|0,0:0|0:0,0:0:0:0:
214,358,473925,1,0,0:0:0:0:
214,358,474071,1,0,0:0:0:0:
162,242,474217,2,0,L|167:155,1,76.4999976654053,8|0,0:0|0:0,0:0:0:0:
126,27,474510,1,0,0:0:0:0:
294,102,474656,1,0,0:0:0:0:
294,102,474803,6,0,P|316:173|288:242,1,152.999995330811,2|0,0:0|0:0,0:0:0:0:
174,319,475242,1,0,0:0:0:0:
326,367,475388,2,0,L|440:359,2,114.749996498108,8|0|0,0:0|0:0|0:0,0:0:0:0:
174,319,475974,6,0,P|216:263|178:174,1,152.999995330811,2|0,0:0|0:0,0:0:0:0:
77,242,476413,1,0,0:0:0:0:
77,242,476559,2,0,L|75:137,1,76.4999976654053,8|8,0:0|0:0,0:0:0:0:
47,67,476852,1,2,0:0:0:0:
153,112,476998,1,0,0:0:0:0:
250,39,477144,6,0,P|295:26|392:69,1,152.999995330811,6|0,0:0|0:0,0:0:0:0:
335,178,477583,1,0,0:0:0:0:
335,178,477730,2,0,L|341:298,2,114.749996498108,8|0|0,0:0|0:0|0:0,0:0:0:0:
222,240,478315,6,0,P|214:307|269:376,1,152.999995330811,2|0,0:0|0:0,0:0:0:0:
130,346,478754,1,0,0:0:0:0:
130,346,478900,2,0,L|33:350,1,76.4999976654053,8|0,0:0|0:0,0:0:0:0:
13,247,479193,1,2,0:0:0:0:
76,168,479339,1,0,0:0:0:0:
19,84,479486,6,0,P|21:31|122:-1,1,152.999995330811,2|0,0:0|0:0,0:0:0:0:
190,79,479925,1,0,0:0:0:0:
190,79,480071,2,0,B|246:90|246:90|304:80,2,114.749996498108,8|0|0,0:0|0:0|0:0,0:0:0:0:
115,128,480656,6,0,P|158:188|138:259,1,152.999995330811,2|0,0:0|0:0,0:0:0:0:
204,359,481096,1,0,0:0:0:0:
270,280,481242,2,0,L|274:174,1,76.4999976654053,8|0,0:0|0:0,0:0:0:0:
213,85,481535,1,2,0:0:0:0:
213,85,481681,1,0,0:0:0:0:
213,85,481827,6,0,P|268:110|339:83,1,136,6|0,0:3|0:0,0:0:0:0:
425,11,482266,2,0,B|448:74|448:74|438:148,1,136,8|10,0:0|0:0,0:0:0:0:
225,272,482852,1,8,0:0:0:0:
225,272,482998,2,0,B|228:338|228:338|286:379,2,136,2|2|8,0:0|0:0|0:0,0:0:0:0:
396,345,483876,1,0,0:0:0:0:
396,345,484022,1,0,0:0:0:0:
396,345,484169,6,0,L|384:237,2,107.666663791657,10|0|0,0:3|0:0|0:0,0:0:0:0:
222,297,484754,6,0,L|234:172,2,124.666670471192,10|0|0,0:3|0:0|0:0,0:0:0:0:
481,226,485339,6,0,L|466:85,2,141.666666666667,10|0|0,0:3|0:0|0:0,0:0:0:0:
312,157,485925,6,0,L|328:0,2,158.666661824544,10|0|0,0:3|0:0|0:0,0:0:0:0:
387,283,486510,6,0,P|338:333|281:328,1,97.7500018644333,6|0,0:3|0:0,0:0:0:0:
221,267,486803,1,8,0:0:0:0:
128,373,486949,1,0,0:0:0:0:
128,373,487022,1,0,0:0:0:0:
128,373,487096,2,0,L|122:272,1,97.7500018644333,2|0,0:0|0:0,0:0:0:0:
81,189,487388,1,8,0:0:0:0:
108,164,487461,1,0,0:0:0:0:
122,131,487534,1,0,0:0:0:0:
121,94,487607,1,0,0:0:0:0:
105,62,487681,6,0,P|164:35|216:44,1,97.7500018644333,2|0,0:0|0:0,0:0:0:0:
262,123,487974,1,8,0:0:0:0:
294,138,488047,1,0,0:0:0:0:
331,142,488120,1,0,0:0:0:0:
366,133,488193,1,0,0:0:0:0:
397,113,488266,2,0,P|446:96|521:122,1,97.7500018644333,2|0,0:0|0:0,0:0:0:0:
364,210,488559,1,8,0:0:0:0:
512,280,488705,1,0,0:0:0:0:
512,280,488778,1,0,0:0:0:0:
512,280,488852,6,0,L|509:384,1,97.7500018644333,2|0,0:0|0:0,0:0:0:0:
363,289,489144,1,8,0:0:0:0:
258,361,489291,1,0,0:0:0:0:
258,361,489364,1,0,0:0:0:0:
258,361,489437,2,0,P|319:384|361:374,1,97.7500018644333,2|0,0:0|0:0,0:0:0:0:
208,228,489729,2,0,P|147:205|105:215,1,97.7500018644333,8|0,0:0|0:0,0:0:0:0:
29,340,490022,5,2,0:0:0:0:
56,337,490096,1,0,0:0:0:0:
82,335,490169,1,0,0:0:0:0:
109,333,490242,1,0,0:0:0:0:
136,330,490315,2,0,L|187:327,3,48.8750009322167,8|0|0|0,0:0|0:0|0:0|0:0,0:0:0:0:
257,358,490608,5,2,0:0:0:0:
276,344,490681,1,0,0:0:0:0:
300,336,490754,1,0,0:0:0:0:
324,336,490827,1,0,0:0:0:0:
347,344,490900,1,8,0:0:0:0:
392,362,490973,1,0,0:0:0:0:
436,345,491046,1,0,0:0:0:0:
459,303,491119,1,0,0:0:0:0:
446,257,491193,6,0,P|428:212|433:164,1,97.7500018644333,2|0,0:3|0:0,0:0:0:0:
508,60,491486,1,8,0:0:0:0:
373,0,491632,1,0,0:0:0:0:
373,0,491778,2,0,P|280:8|253:121,1,195.500003728867,2|8,0:0|0:0,0:0:0:0:
334,179,492217,1,0,0:0:0:0:
334,179,492291,1,0,0:0:0:0:
334,179,492364,6,0,L|327:283,1,97.7500018644333,2|0,0:0|0:0,0:0:0:0:
255,365,492656,1,8,0:0:0:0:
222,343,492730,1,0,0:0:0:0:
183,337,492803,1,0,0:0:0:0:
145,346,492876,1,0,0:0:0:0:
113,369,492949,2,0,P|55:379|8:260,1,195.500003728867,2|8,0:0|0:0,0:0:0:0:
136,180,493388,1,0,0:0:0:0:
136,180,493461,1,0,0:0:0:0:
136,180,493535,6,0,P|188:192|233:180,1,97.7500018644333,2|0,0:0|0:0,0:0:0:0:
398,49,493827,2,0,P|346:37|301:49,1,97.7500018644333,8|0,0:0|0:0,0:0:0:0:
338,167,494120,1,2,0:0:0:0:
355,191,494193,1,0,0:0:0:0:
362,221,494266,1,0,0:0:0:0:
356,250,494339,1,0,0:0:0:0:
339,275,494412,1,8,0:0:0:0:
322,300,494486,1,0,0:0:0:0:
316,329,494559,1,0,0:0:0:0:
323,359,494632,1,0,0:0:0:0:
341,384,494705,6,0,L|400:380,3,48.8750009322167,2|0|0|0,0:0|0:0|0:0|0:0,0:0:0:0:
238,337,494998,2,0,L|179:333,3,48.8750009322167,8|0|0|0,0:0|0:0|0:0|0:0,0:0:0:0:
224,235,495291,5,2,0:0:0:0:
202,246,495364,1,0,0:0:0:0:
178,249,495437,1,0,0:0:0:0:
154,243,495510,1,0,0:0:0:0:
134,229,495583,1,8,0:0:0:0:
83,215,495656,1,0,0:0:0:0:
43,248,495729,1,0,0:0:0:0:
46,301,495802,1,0,0:0:0:0:
92,328,495875,5,6,0:3:0:0:
248,384,496022,1,0,0:0:0:0:
248,384,496096,1,0,0:0:0:0:
248,384,496169,2,0,P|273:337|276:290,1,97.7500018644333,8|0,0:0|0:0,0:0:0:0:
189,203,496461,1,2,0:0:0:0:
324,154,496608,2,0,L|432:159,1,97.7500018644333,0|8,0:0|0:0,0:0:0:0:
411,274,496900,1,0,0:0:0:0:
411,274,496974,1,0,0:0:0:0:
411,274,497047,6,0,P|401:333|414:373,1,97.7500018644333,2|0,0:0|0:0,0:0:0:0:
508,213,497339,2,0,P|518:154|505:114,1,97.7500018644333,8|0,0:0|0:0,0:0:0:0:
315,227,497632,2,0,L|319:336,1,97.7500018644333,2|0,0:0|0:0,0:0:0:0:
236,368,497925,1,8,0:0:0:0:
207,344,497998,1,0,0:0:0:0:
173,333,498071,1,0,0:0:0:0:
136,335,498144,1,0,0:0:0:0:
103,349,498217,6,0,P|57:364|13:346,1,97.7500018644333,2|0,0:0|0:0,0:0:0:0:
154,245,498510,1,8,0:0:0:0:
5,174,498656,1,0,0:0:0:0:
5,174,498730,1,0,0:0:0:0:
5,174,498803,2,0,L|3:72,1,97.7500018644333,2|0,0:0|0:0,0:0:0:0:
102,171,499095,1,8,0:0:0:0:
204,34,499242,1,0,0:0:0:0:
204,34,499315,1,0,0:0:0:0:
204,34,499388,6,0,P|262:22|313:35,1,97.7500018644333,2|0,0:0|0:0,0:0:0:0:
389,157,499681,2,0,P|331:169|280:156,1,97.7500018644333,8|0,0:0|0:0,0:0:0:0:
457,57,499974,1,2,0:0:0:0:
459,85,500047,1,0,0:0:0:0:
461,114,500120,1,0,0:0:0:0:
463,143,500193,1,0,0:0:0:0:
465,172,500266,1,8,0:0:0:0:
468,201,500339,1,0,0:0:0:0:
470,230,500413,1,0,0:0:0:0:
472,259,500486,1,0,0:0:0:0:
474,287,500559,6,0,L|480:384,1,97.7500018644333,6|0,0:3|0:0,0:0:0:0:
281,330,500852,1,8,0:0:0:0:
363,211,500998,2,0,P|390:262|386:308,1,97.7500018644333,2|0,0:0|0:0,0:0:0:0:
251,191,501291,2,0,P|224:140|228:94,1,97.7500018644333,2|0,0:0|0:0,0:0:0:0:
335,31,501583,1,0,0:0:0:0:
335,31,501656,1,0,0:0:0:0:
335,31,501730,6,0,L|342:132,1,97.7500018644333,6|0,0:0|0:0,0:0:0:0:
190,240,502022,2,0,L|197:139,1,97.7500018644333,8|0,0:0|0:0,0:0:0:0:
363,211,502315,2,0,L|370:312,1,97.7500018644333,2|0,0:0|0:0,0:0:0:0:
267,374,502608,2,0,P|226:342|175:341,1,97.7500018644333,8|0,0:0|0:0,0:0:0:0:
83,381,502900,5,6,0:3:0:0:
37,366,502973,1,0,0:0:0:0:
7,327,503046,1,0,0:0:0:0:
4,279,503119,1,0,0:0:0:0:
29,238,503193,1,8,0:0:0:0:
63,204,503266,1,0,0:0:0:0:
79,158,503339,1,0,0:0:0:0:
73,110,503412,1,0,0:0:0:0:
48,68,503486,5,8,0:0:0:0:
79,105,503559,1,0,0:0:0:0:
124,123,503632,1,0,0:0:0:0:
172,116,503705,1,0,0:0:0:0:
211,87,503778,1,8,0:0:0:0:
242,50,503851,1,0,0:0:0:0:
287,32,503924,1,0,0:0:0:0:
335,39,503997,1,0,0:0:0:0:
374,68,504071,5,8,0:0:0:0:
372,98,504144,1,0,0:0:0:0:
370,128,504217,1,0,0:0:0:0:
368,159,504290,1,0,0:0:0:0:
387,185,504364,1,2,0:0:0:0:
388,215,504437,1,0,0:0:0:0:
390,245,504510,1,0,0:0:0:0:
392,276,504583,1,0,0:0:0:0:
368,308,504656,5,12,0:0:0:0:
368,308,505242,5,6,0:3:0:0:
439,194,505388,2,0,L|437:86,1,97.7500018644333,0|8,0:0|0:0,0:0:0:0:
289,164,505681,1,0,0:0:0:0:
289,164,505754,1,0,0:0:0:0:
289,164,505827,2,0,P|227:175|183:155,1,97.7500018644333,2|0,0:0|0:0,0:0:0:0:
54,108,506120,2,0,P|94:156|99:204,1,97.7500018644333,8|0,0:0|0:0,0:0:0:0:
40,378,506413,5,2,0:0:0:0:
3,262,506559,1,0,0:0:0:0:
162,378,506705,1,8,0:0:0:0:
199,261,506852,1,0,0:0:0:0:
199,261,506925,1,0,0:0:0:0:
199,261,506998,2,0,L|195:148,1,97.7500018644333,2|0,0:0|0:0,0:0:0:0:
316,65,507291,2,0,L|312:178,1,97.7500018644333,8|0,0:0|0:0,0:0:0:0:
397,32,507583,5,2,0:0:0:0:
230,88,507730,1,0,0:0:0:0:
415,170,507876,1,8,0:0:0:0:
282,254,508022,1,0,0:0:0:0:
282,254,508095,1,0,0:0:0:0:
282,254,508169,2,0,P|272:314|280:355,1,97.7500018644333,2|0,0:0|0:0,0:0:0:0:
166,244,508461,2,0,P|176:184|168:143,1,97.7500018644333,8|0,0:0|0:0,0:0:0:0:
43,70,508754,5,2,0:0:0:0:
0,189,508900,2,0,L|7:290,1,97.7500018644333,0|8,0:0|0:0,0:0:0:0:
87,371,509193,2,0,P|141:339|193:343,1,97.7500018644333,2|0,0:0|0:0,0:0:0:0:
329,345,509486,2,0,P|274:314|251:267,1,97.7500018644333,0|8,0:0|0:0,0:0:0:0:
307,106,509778,1,0,0:0:0:0:
399,220,509925,6,0,L|406:346,1,106.25,6|0,0:3|0:0,0:0:0:0:
481,133,510217,1,8,0:0:0:0:
289,257,510364,1,0,0:0:0:0:
289,257,510437,1,0,0:0:0:0:
289,257,510510,2,0,P|232:273|168:255,1,106.25,2|0,0:0|0:0,0:0:0:0:
87,143,510803,2,0,P|144:127|208:145,1,106.25,8|0,0:0|0:0,0:0:0:0:
112,384,511095,5,2,0:0:0:0:
49,211,511242,1,0,0:0:0:0:
5,347,511388,1,8,0:0:0:0:
186,264,511535,1,0,0:0:0:0:
186,264,511608,1,0,0:0:0:0:
186,264,511681,2,0,P|238:272|289:257,1,106.25,2|0,0:0|0:0,0:0:0:0:
420,90,511974,2,0,P|367:81|317:97,1,106.25,8|0,0:0|0:0,0:0:0:0:
464,281,512266,6,0,L|469:196,1,85,8|0,0:0|0:0,0:0:0:0:
365,300,512559,2,0,L|370:384,1,85,8|0,0:0|0:0,0:0:0:0:
286,262,512852,2,0,L|284:212,1,42.5,8|0,0:0|0:0,0:0:0:0:
220,308,512998,2,0,L|218:358,1,42.5,8|0,0:0|0:0,0:0:0:0:
154,262,513144,2,0,L|152:212,1,42.5,8|0,0:0|0:0,0:0:0:0:
88,308,513291,2,0,L|86:358,1,42.5,8|0,0:0|0:0,0:0:0:0:
22,262,513437,5,8,0:0:0:0:
4,223,513510,1,0,0:0:0:0:
10,182,513583,1,0,0:0:0:0:
38,151,513656,1,0,0:0:0:0:
78,140,513730,1,8,0:0:0:0:
119,130,513803,1,0,0:0:0:0:
147,99,513876,1,0,0:0:0:0:
153,58,513949,1,0,0:0:0:0:
136,20,514022,5,10,0:0:0:0:
160,54,514095,1,0,0:0:0:0:
196,74,514168,1,0,0:0:0:0:
239,76,514241,1,0,0:0:0:0:
277,59,514315,1,2,0:0:0:0:
315,42,514388,1,8,0:0:0:0:
358,44,514461,1,8,0:0:0:0:
394,64,514534,1,8,0:0:0:0:
419,99,514607,5,6,0:3:0:0:
352,191,514754,2,0,P|345:245|367:299,1,97.7500018644333,0|8,0:0|0:0,0:0:0:0:
490,254,515047,1,0,0:0:0:0:
490,254,515120,1,0,0:0:0:0:
490,254,515193,2,0,L|483:355,1,97.7500018644333,2|0,0:0|0:0,0:0:0:0:
348,375,515486,2,0,P|304:341|246:333,1,97.7500018644333,8|0,0:0|0:0,0:0:0:0:
100,373,515778,5,2,0:0:0:0:
211,213,515925,1,0,0:0:0:0:
205,384,516071,1,8,0:0:0:0:
86,243,516217,1,0,0:0:0:0:
86,243,516291,1,0,0:0:0:0:
86,243,516364,2,0,P|80:187|103:133,1,97.7500018644333,2|0,0:0|0:0,0:0:0:0:
218,131,516656,1,8,0:0:0:0:
250,147,516729,1,0,0:0:0:0:
286,151,516802,1,0,0:0:0:0:
321,142,516875,1,0,0:0:0:0:
351,121,516949,6,0,P|406:102|455:109,1,97.7500018644333,2|0,0:0|0:0,0:0:0:0:
474,244,517242,1,8,0:0:0:0:
334,329,517388,1,0,0:0:0:0:
334,329,517461,1,0,0:0:0:0:
334,329,517535,2,0,L|326:227,1,97.7500018644333,2|0,0:0|0:0,0:0:0:0:
412,68,517827,2,0,L|404:170,1,97.7500018644333,8|0,0:0|0:0,0:0:0:0:
295,157,518120,5,2,0:0:0:0:
269,171,518193,1,0,0:0:0:0:
238,173,518266,1,0,0:0:0:0:
209,165,518339,1,0,0:0:0:0:
186,146,518413,2,0,P|162:132|133:131,3,48.8750009322167,8|0|0|0,0:0|0:0|0:0|0:0,0:0:0:0:
76,192,518705,5,2,0:0:0:0:
78,228,518778,1,0,0:0:0:0:
80,264,518852,1,0,0:0:0:0:
82,300,518925,1,0,0:0:0:0:
85,336,518998,2,0,L|90:384,3,48.8750009322167,8|0|0|0,0:0|0:0|0:0|0:0,0:0:0:0:
183,323,519291,5,6,0:3:0:0:
208,339,519364,1,0,0:0:0:0:
238,342,519437,1,0,0:0:0:0:
267,331,519510,1,0,0:0:0:0:
288,310,519583,1,0,0:0:0:0:
309,289,519656,1,0,0:0:0:0:
338,278,519729,1,0,0:0:0:0:
368,281,519802,1,0,0:0:0:0:
394,298,519876,6,0,P|422:310|445:311,3,48.8750009322167,8|0|0|0,0:0|0:0|0:0|0:0,0:0:0:0:
444,234,520169,2,0,P|473:227|492:214,3,48.8750009322167,2|0|0|0,0:0|0:0|0:0|0:0,0:0:0:0:
402,169,520461,5,6,0:3:0:0:
428,129,520534,1,0,0:0:0:0:
424,81,520607,1,0,0:0:0:0:
391,47,520681,1,0,0:0:0:0:
343,41,520753,1,0,0:0:0:0:
300,64,520827,1,0,0:0:0:0:
268,100,520900,1,0,0:0:0:0:
223,120,520973,1,0,0:0:0:0:
176,110,521047,6,0,L|123:100,3,48.8750009322167,8|0|0|0,0:0|0:0|0:0|0:0,0:0:0:0:
108,171,521339,2,0,L|55:181,3,48.8750009322167,2|0|0|0,0:0|0:0|0:0|0:0,0:0:0:0:
93,257,521632,6,0,B|105:317|196:326|196:326|263:320|258:227|181:217|135:270|179:323|179:323|206:329|267:327|303:389,1,475.999985473633,6|6,0:3|0:3,0:0:0:0:
512,145,522803,2,0,B|499:205|408:214|408:214|341:208|346:115|423:105|469:158|425:211|425:211|398:217|337:215|301:277,1,475.999985473633,6|6,0:3|0:3,0:0:0:0:
177,327,523974,5,6,0:3:0:0:
202,308,524047,1,0,0:0:0:0:
214,279,524120,1,0,0:0:0:0:
209,248,524193,1,0,0:0:0:0:
189,224,524267,1,2,0:0:0:0:
168,200,524340,1,0,0:0:0:0:
163,169,524413,1,0,0:0:0:0:
175,140,524486,1,0,0:0:0:0:
200,121,524559,6,0,L|254:113,3,53.125,8|0|0|0,0:0|0:0|0:0|0:0,0:0:0:0:
279,83,524852,2,0,L|333:91,3,53.125,2|2|2|2,0:0|0:0|0:0|0:0,0:0:0:0:
389,141,525144,5,6,0:3:0:0:
402,191,525217,1,0,0:0:0:0:
387,241,525290,1,0,0:0:0:0:
347,276,525363,1,0,0:0:0:0:
295,286,525436,1,2,0:0:0:0:
246,267,525509,1,0,0:0:0:0:
215,224,525583,1,0,0:0:0:0:
209,172,525656,1,0,0:0:0:0:
234,125,525730,5,10,0:0:0:0:
255,172,525803,1,2,0:0:0:0:
248,235,525876,1,2,0:0:0:0:
212,284,525950,1,2,0:0:0:0:
152,308,526023,1,2,0:0:0:0:
91,296,526096,1,2,0:0:0:0:
44,254,526169,1,2,0:0:0:0:
25,194,526242,1,2,0:0:0:0:
42,134,526315,1,14,0:3:0:0:
42,134,526900,5,2,0:3:0:0:
300,209,527095,5,2,0:3:0:0:
159,319,527291,5,2,0:3:0:0:
220,15,527486,5,6,0:3:0:0:
