osu file format v14

[General]
AudioFilename: audio.mp3
AudioLeadIn: 0
PreviewTime: 4694
Countdown: 1
SampleSet: Soft
StackLeniency: 0.7
Mode: 0
LetterboxInBreaks: 0
WidescreenStoryboard: 1

[Editor]
DistanceSpacing: 0.5
BeatDivisor: 3
GridSize: 4
TimelineZoom: 1

[Metadata]
Title:Uta
TitleUnicode:謳
Artist:Imperial Circus Dead Decadence
ArtistUnicode:Imperial Circus Dead Decadence
Creator:Bunnz
Version:Normal
Source:
Tags:
BeatmapID:2134379
BeatmapSetID:1013964

[Difficulty]
HPDrainRate:5
CircleSize:3
OverallDifficulty:5
ApproachRate:6
SliderMultiplier:0.7
SliderTickRate:1

[Events]
//Background and Video events
0,0,"Uta.png",0,0
//Break Periods
//Storyboard Layer 0 (Background)
//Storyboard Layer 1 (Fail)
//Storyboard Layer 2 (Pass)
//Storyboard Layer 3 (Foreground)
//Storyboard Layer 4 (Overlay)
//Storyboard Sound Samples

[TimingPoints]
85,292.682926829268,4,2,1,70,1,0
18816,-90.9090909090909,4,2,1,80,0,0
35206,-90.9090909090909,4,3,1,80,0,0
36377,-90.9090909090909,4,2,1,80,0,0
56280,-90.9090909090909,4,3,1,80,0,0
58621,-90.9090909090909,4,2,1,80,0,0

[Colours]
Combo1 : 232,32,37
Combo2 : 240,240,0
Combo3 : 192,192,192

[HitObjects]
232,176,85,5,2,0:0:0:0:
232,176,1255,5,2,0:0:0:0:
232,176,1841,6,0,B|252:152|252:152|260:120,2,46.6666666666667,2|0|0,0:0|0:0|0:0,0:0:0:0:
148,196,2426,6,0,P|128:224|120:264,1,70
136,340,2865,1,0,0:0:0:0:
136,340,3011,2,0,P|184:352|220:348,1,70
336,332,3597,2,0,P|356:320|368:268,1,70
332,168,4182,2,0,P|312:156|300:104,1,70
388,24,4767,6,0,L|436:84,1,70
488,144,5206,1,0,0:0:0:0:
488,144,5353,2,0,L|488:220,1,70
488,300,5792,1,0,0:0:0:0:
488,300,5938,2,0,B|436:272|408:324|352:284,1,140
280,228,6816,1,0,0:0:0:0:
260,140,7109,6,0,B|208:144|184:168|184:168|208:180,1,105
280,228,7694,6,0,L|244:256,2,35
348,184,8133,1,0,0:0:0:0:
348,184,8280,2,0,L|412:132,1,70
468,84,8719,1,0,0:0:0:0:
468,84,8865,2,0,L|404:48,1,70
296,4,9450,6,0,P|296:48|276:80,1,70
220,128,9889,1,0,0:0:0:0:
220,128,10036,2,0,P|180:144|152:136,1,70
48,96,10621,2,0,L|44:168,1,70
140,224,11206,2,0,L|136:296,1,70
224,280,11645,5,0,0:0:0:0:
224,280,11792,2,0,P|272:260|296:272,1,70
372,280,12231,1,0,0:0:0:0:
372,280,12377,2,0,P|376:320|344:344,1,70
224,348,12963,6,0,B|152:308|144:372|88:312|88:312,1,140
91,315,13841,5,0,0:0:0:0:
91,315,13987,1,0,0:0:0:0:
91,315,14133,2,0,P|111:283|116:272,1,35
108,232,14426,2,0,P|124:216|132:200,2,35
28,248,14865,1,0,0:0:0:0:
24,136,15158,5,0,0:0:0:0:
24,136,15304,2,0,P|52:132|64:120,1,35
96,84,15597,2,0,P|116:84|136:72,1,35
0,48,15889,1,0,0:0:0:0:
128,0,16182,1,0,0:0:0:0:
244,56,16475,6,0,L|244:108,2,46.6666666666667
332,84,17060,6,0,L|332:140,2,46.6666666666667
420,112,17645,6,0,L|420:168,2,46.6666666666667
508,164,18231,6,0,P|508:208|500:220,2,46.6666666666667
500,80,18816,6,0,P|500:56|480:36,1,38.5000011749268
420,8,19109,2,0,P|392:4|376:12,1,38.5000011749268
312,40,19402,2,0,P|296:60|296:80,1,38.5000011749268
284,152,19694,2,0,B|280:176|280:176|264:192|264:192,3,38.5000011749268
192,156,20280,6,0,P|200:136|200:112,1,38.5000011749268
184,40,20572,2,0,P|168:28|148:24,1,38.5000011749268
68,28,20865,2,0,P|48:40|44:64,1,38.5000011749268
64,136,21158,2,0,B|64:160|64:160|84:180|88:180,3,38.5000011749268
12,228,21743,6,0,P|32:248|32:264,1,38.5000011749268
28,340,22036,2,0,L|80:352,1,38.5000011749268
112,280,22328,2,0,L|152:276,1,38.5000011749268
148,360,22621,2,0,L|188:364,1,38.5000011749268
236,268,22914,2,0,L|276:260,1,38.5000011749268
268,364,23206,2,0,L|308:368,1,38.5000011749268
420,368,23499,6,0,P|436:356|440:336,1,38.5000011749268
420,256,23792,2,0,B|412:232|416:208|416:208,1,38.5000011749268
444,136,24084,2,0,P|452:116|448:96,2,38.5000011749268
364,156,24524,1,0,0:0:0:0:
364,156,24670,6,0,L|312:160,1,38.5000011749268
320,76,24963,2,0,L|280:76,1,38.5000011749268
244,164,25255,2,0,L|192:168,1,38.5000011749268
200,72,25548,2,0,L|160:72,1,38.5000011749268
64,72,25841,6,0,P|44:76|28:100,1,38.5000011749268
0,168,26133,2,0,P|4:188|24:200,1,38.5000011749268
100,220,26426,2,0,P|128:220|140:212,1,38.5000011749268
210,172,26719,2,0,P|230:160|250:168,1,38.5000011749268
328,196,27011,6,0,B|344:188|344:188|344:208|344:208|368:192|368:192|368:216|368:216|384:200|384:200|388:216,1,115.50000352478
464,232,27597,2,0,B|452:252|452:252|468:260|468:260|452:268|452:268|476:280|476:280,1,77.0000023498536
472,360,28036,1,0,0:0:0:0:
472,360,28182,6,0,P|448:368|436:360,1,38.5000011749268
360,332,28475,2,0,P|336:320|320:320,1,38.5000011749268
240,328,28767,2,0,P|216:332|200:328,1,38.5000011749268
128,288,29060,2,0,P|104:276|88:276,1,38.5000011749268
8,268,29353,2,0,L|44:184,1,77.0000023498536
120,172,29792,1,0,0:0:0:0:
120,172,29938,2,0,L|132:96,1,77.0000023498536
140,12,30377,1,0,0:0:0:0:
140,12,30524,6,0,P|164:8|184:24,1,38.5000011749268
240,72,30816,2,0,P|260:84|284:84,1,38.5000011749268
360,80,31109,2,0,P|384:84|396:104,1,38.5000011749268
440,164,31402,2,0,P|448:188|464:200,1,38.5000011749268
512,264,31694,6,0,L|436:308,1,77.0000023498536
360,268,32133,1,0,0:0:0:0:
360,268,32280,2,0,L|308:328,1,77.0000023498536
224,300,32719,1,0,0:0:0:0:
224,300,32865,6,0,L|184:264,1,38.5000011749268
128,224,33158,2,0,L|132:176,1,38.5000011749268
184,116,33450,2,0,L|228:104,1,38.5000011749268
308,116,33743,2,0,B|320:132|320:132|344:136,2,38.5000011749268
216,200,34328,5,0,0:0:0:0:
360,268,34621,1,0,0:0:0:0:
444,140,34914,5,0,0:0:0:0:
444,140,35060,1,0,0:0:0:0:
444,140,35206,2,0,L|460:112,16,19.2500005874634
400,32,36670,1,0,0:0:0:0:
504,20,36963,1,0,0:0:0:0:
460,104,37255,1,0,0:0:0:0:
312,112,37548,6,0,L|312:72,1,38.5000011749268
232,112,37841,2,0,L|232:72,1,38.5000011749268
312,150,38133,2,0,L|312:110,1,38.5000011749268
232,150,38426,2,0,L|232:110,1,38.5000011749268
232,24,38719,6,0,L|188:20,1,38.5000011749268
156,92,39011,2,0,L|116:100,1,38.5000011749268
112,20,39304,2,0,L|64:20,1,38.5000011749268
40,92,39597,2,0,L|4:116,1,38.5000011749268
0,200,39889,6,0,L|0:252,1,38.5000011749268
84,200,40182,2,0,L|84:244,1,38.5000011749268
0,232,40475,2,0,L|0:284,1,38.5000011749268
84,232,40768,2,0,L|84:276,1,38.5000011749268
88,352,41060,6,0,P|120:360|152:340,1,57.7500017623902
168,332,41353,2,0,P|184:320|224:312,1,57.7500017623902
248,320,41645,2,0,L|304:336,2,57.7500017623902
264,236,42231,6,0,B|236:216|236:216|240:176|212:124|212:124|240:120|272:88|320:104,1,231.000007049561
392,124,43255,1,0,0:0:0:0:
392,124,43402,2,0,B|384:168|420:212|420:212|456:176|456:176|484:216|476:272,1,231.000007049561
468,344,44426,1,0,0:0:0:0:
468,344,44572,2,0,B|384:340|356:304|356:304|300:332|300:332|320:276|276:216,1,308.000009399414
256,192,45816,12,0,46621,0:0:0:0:
208,172,46914,6,0,L|176:192,1,38.5000011749268
256,232,47206,2,0,L|224:256,1,38.5000011749268
112,240,47499,2,0,L|80:260,1,38.5000011749268
162,303,47791,2,0,L|130:327,1,38.5000011749268
68,372,48084,6,0,P|48:384|20:372,1,38.5000011749268
12,304,48377,2,0,P|0:280|8:256,1,38.5000011749268
24,188,48670,5,0,0:0:0:0:
24,188,49255,6,0,L|24:140,1,38.5000011749268
112,188,49548,2,0,L|112:144,1,38.5000011749268
20,72,49841,2,0,L|20:24,1,38.5000011749268
108,72,50134,2,0,L|108:28,1,38.5000011749268
20,20,50426,6,0,B|0:8|-64:28|-56:60|20:84|68:64|108:20|140:20|164:76,1,269.500008224488
188,156,51597,6,0,P|200:200|296:108,1,269.500008224488
256,40,52767,2,0,B|348:0|380:56|412:144|500:120,1,269.500008224488
476,36,53938,5,0,0:0:0:0:
380,180,54524,5,0,0:0:0:0:
200,180,55109,5,0,0:0:0:0:
288,316,55694,5,0,0:0:0:0:
296,316,56280,6,0,L|316:316,32,19.2500005874634
188,292,59206,6,0,B|200:264|200:264|196:232,2,51.3333348999024
84,292,59792,5,0,0:0:0:0:
