osu file format v14

[General]
AudioFilename: audio.mp3
AudioLeadIn: 0
PreviewTime: 4694
Countdown: 1
SampleSet: None
StackLeniency: 0.7
Mode: 0
LetterboxInBreaks: 0
WidescreenStoryboard: 1

[Editor]
DistanceSpacing: 0.5
BeatDivisor: 3
GridSize: 4
TimelineZoom: 1

[Metadata]
Title:Uta
TitleUnicode:謳
Artist:Imperial Circus Dead Decadence
ArtistUnicode:Imperial Circus Dead Decadence
Creator:Bunnz
Version:Extra
Source:
Tags:
BeatmapID:2122856
BeatmapSetID:1013964

[Difficulty]
HPDrainRate:5
CircleSize:4
OverallDifficulty:8
ApproachRate:9
SliderMultiplier:1.4
SliderTickRate:1

[Events]
//Background and Video events
0,0,"Uta.png",0,0
//Break Periods
//Storyboard Layer 0 (Background)
//Storyboard Layer 1 (Fail)
//Storyboard Layer 2 (Pass)
//Storyboard Layer 3 (Foreground)
//Storyboard Layer 4 (Overlay)
//Storyboard Sound Samples

[TimingPoints]
85,292.682926829268,4,2,1,70,1,0
2426,-83.3333333333333,4,2,1,70,0,0
4767,-90.9090909090909,4,2,1,70,0,0
18816,-133.333333333333,4,3,1,80,0,0
19987,-83.3333333333333,4,3,1,80,0,0
20280,-133.333333333333,4,3,1,80,0,0
21084,-83.3333333333333,4,3,1,80,0,0
22255,-133.333333333333,4,3,1,80,0,0
23792,-83.3333333333333,4,3,1,80,0,0
25255,-133.333333333333,4,3,1,80,0,0
26719,-83.3333333333333,4,3,1,80,0,0
27011,-133.333333333333,4,3,1,80,0,0
28182,-83.3333333333333,4,3,1,80,0,0
28474,-133.333333333333,4,3,1,80,0,0
33304,-83.3333333333333,4,3,1,80,0,0
44572,-74.0740740740741,4,3,1,80,0,0
46914,-83.3333333333333,4,3,1,80,0,0
56280,-100,4,3,1,80,0,0

[Colours]
Combo1 : 232,32,37
Combo2 : 240,240,0
Combo3 : 192,192,192

[HitObjects]
316,184,85,5,6,0:0:0:0:
328,184,1255,5,6,0:0:0:0:
336,184,1841,6,0,L|444:180|444:180,2,93.3333333333333,6|0|0,0:0|0:0|0:0,0:0:0:0:
328,184,2328,1,0,0:0:0:0:
320,184,2426,6,0,B|344:220|344:220|348:264,2,83.9999974365235
248,96,2865,5,0,0:0:0:0:
436,160,3011,1,0,0:0:0:0:
240,236,3158,1,0,0:0:0:0:
368,52,3304,2,0,P|340:96|340:144,1,83.9999974365235
368,260,3597,5,0,0:0:0:0:
368,260,3670,1,0,0:0:0:0:
368,260,3743,1,0,0:0:0:0:
220,268,3889,5,0,0:0:0:0:
428,192,4036,1,0,0:0:0:0:
224,164,4182,1,0,0:0:0:0:
360,336,4328,1,0,0:0:0:0:
336,156,4475,6,0,B|296:116|260:96|260:96,1,83.9999974365235
68,152,4767,6,0,P|96:192|92:232,1,77.0000023498536
84,324,5060,2,0,P|88:364|136:352,1,77.0000023498536
240,340,5353,2,0,P|284:320|320:328,1,77.0000023498536
320,328,5572,1,0,0:0:0:0:
328,332,5645,1,0,0:0:0:0:
184,256,5792,5,0,0:0:0:0:
432,344,5938,2,0,P|464:300|464:264,1,77.0000023498536
468,268,6158,1,0,0:0:0:0:
468,260,6231,1,0,0:0:0:0:
340,192,6377,5,0,0:0:0:0:
512,344,6524,2,0,L|420:344,1,77.0000023498536,8|0,3:3|0:0,0:0:0:0:
340,192,6816,2,0,L|248:192,1,77.0000023498536
460,120,7109,5,0,0:0:0:0:
396,248,7255,1,0,0:0:0:0:
344,36,7402,5,4,0:0:0:0:
500,216,7548,1,4,0:0:0:0:
320,120,7694,2,0,P|284:100|264:68,1,77.0000023498536
160,168,7987,2,0,P|196:188|216:220,1,77.0000023498536
232,356,8280,2,0,P|188:360|156:336,1,77.0000023498536
215,217,8572,2,0,P|259:213|291:237,1,77.0000023498536
144,264,8865,5,8,0:0:0:0:
64,164,9011,1,8,0:0:0:0:
92,40,9158,2,0,P|136:40|168:28,2,77.0000023498536
84,40,9524,1,0,0:0:0:0:
76,40,9597,1,0,0:0:0:0:
224,104,9743,6,0,L|180:104|180:104,1,38.5000011749268
0,104,9889,2,0,L|40:104|40:104,1,38.5000011749268
236,104,10036,5,0,0:0:0:0:
80,232,10182,1,0,0:0:0:0:
8,36,10328,1,0,0:0:0:0:
208,172,10475,1,0,0:0:0:0:
16,176,10621,6,0,B|4:216|4:216|20:280,1,77.0000023498536
224,262,10914,2,0,B|236:222|236:222|220:158,1,77.0000023498536
8,176,11206,2,0,B|-4:216|-4:216|12:280,1,77.0000023498536
232,264,11499,5,0,0:0:0:0:
288,96,11645,1,0,0:0:0:0:
152,264,11792,1,0,0:0:0:0:
152,340,11938,1,0,0:0:0:0:
76,344,12084,1,0,0:0:0:0:
76,268,12231,6,0,L|76:228,1,38.5000011749268
76,88,12377,2,0,L|76:128,1,38.5000011749268
76,276,12524,5,0,0:0:0:0:
180,144,12670,1,0,0:0:0:0:
0,276,12816,1,0,0:0:0:0:
256,144,12963,2,0,L|328:108,1,77.0000023498536
448,52,13255,6,0,L|448:100,1,38.5000011749268
448,228,13402,1,0,0:0:0:0:
324,36,13548,1,0,0:0:0:0:
320,228,13694,1,0,0:0:0:0:
512,124,13841,1,0,0:0:0:0:
256,136,13987,1,0,0:0:0:0:
412,328,14133,6,0,P|372:360|328:376,1,77.0000023498536
256,270,14426,2,0,P|296:238|344:222,1,77.0000023498536
412,328,14719,2,0,P|376:364|336:352,2,77.0000023498536
256,270,15158,6,0,P|292:234|336:244,1,77.0000023498536
412,328,15450,2,0,P|376:364|356:352,1,77.0000023498536
256,270,15743,2,0,P|292:234|312:246,1,77.0000023498536
412,328,16036,2,0,P|376:364|368:340,2,77.0000023498536
392,168,16475,5,0,0:0:0:0:
160,172,16670,5,0,0:0:0:0:
308,36,16865,6,0,L|308:96|308:96,2,51.3333348999024
252,248,17255,5,0,0:0:0:0:
480,156,17450,5,0,0:0:0:0:
208,336,17645,5,0,0:0:0:0:
156,92,17841,6,0,L|100:92|100:92,2,51.3333348999024
80,220,18231,2,0,L|88:344|88:344,2,102.666669799805
184,204,18816,5,0,0:0:0:0:
172,180,18889,1,0,0:0:0:0:
170,154,18962,1,0,0:0:0:0:
179,130,19035,1,0,0:0:0:0:
196,112,19109,2,0,B|216:96|228:96|228:96,7,26.2500010013581
312,68,19694,5,0,0:0:0:0:
311,94,19767,1,0,0:0:0:0:
310,120,19840,1,0,0:0:0:0:
309,146,19913,1,0,0:0:0:0:
312,176,19987,2,0,P|320:212|400:212,1,125.999996154785
416,196,20280,5,0,0:0:0:0:
432,176,20353,1,0,0:0:0:0:
457,167,20426,1,0,0:0:0:0:
480,168,20499,1,0,0:0:0:0:
500,184,20572,2,0,P|512:200|504:228,7,26.2500010013581
488,92,21158,6,0,B|440:24|360:112|320:24|320:24,1,167.999994873047
248,12,21597,2,0,L|248:56,1,41.9999987182618
172,12,21743,2,0,L|172:60,1,41.9999987182618
96,8,21889,2,0,L|96:52,1,41.9999987182618
20,8,22036,2,0,L|20:56,3,41.9999987182618
20,64,22328,5,0,0:0:0:0:
20,90,22401,1,0,0:0:0:0:
29,114,22474,1,0,0:0:0:0:
46,134,22547,1,0,0:0:0:0:
72,152,22621,2,0,L|104:160,1,26.2500010013581
172,172,22767,6,0,L|208:180,1,26.2500010013581
272,260,22914,2,0,L|236:252,3,26.2500010013581
256,332,23206,2,0,L|220:324,3,26.2500010013581
136,304,23499,5,0,0:0:0:0:
110,296,23572,1,0,0:0:0:0:
85,288,23645,1,0,0:0:0:0:
60,280,23718,1,0,0:0:0:0:
36,272,23792,2,0,P|16:232|88:196,1,125.999996154785
96,196,24084,2,0,P|148:204|212:152,1,125.999996154785
216,144,24377,2,0,L|260:56,2,83.9999974365235
344,84,24816,5,0,0:0:0:0:
296,180,24963,1,0,0:0:0:0:
432,76,25109,1,0,0:0:0:0:
436,192,25255,1,0,0:0:0:0:
436,218,25328,1,0,0:0:0:0:
437,244,25401,1,0,0:0:0:0:
438,270,25474,1,0,0:0:0:0:
440,296,25548,2,0,L|440:332,3,26.2500010013581
360,364,25841,5,0,0:0:0:0:
363,338,25914,1,0,0:0:0:0:
362,311,25987,1,0,0:0:0:0:
355,286,26060,1,0,0:0:0:0:
344,264,26133,2,0,L|328:236,1,26.2500010013581
240,212,26280,2,0,L|272:192,1,26.2500010013581
236,104,26426,2,0,L|264:120,1,26.2500010013581
312,36,26572,2,0,L|324:72,1,26.2500010013581
416,52,26719,2,0,L|376:144,1,83.9999974365235
356,184,27011,5,0,0:0:0:0:
369,161,27084,1,0,0:0:0:0:
390,146,27157,1,0,0:0:0:0:
416,139,27230,1,0,0:0:0:0:
444,144,27304,2,0,P|464:144|480:160,3,26.2500010013581
512,88,27597,2,0,L|480:80,3,26.2500010013581
408,56,27889,6,0,L|376:56,1,26.2500010013581
276,16,28036,2,0,L|308:16,1,26.2500010013581
476,16,28182,6,0,L|352:92,1,125.999996154785
352,92,28475,1,0,0:0:0:0:
329,104,28548,1,0,0:0:0:0:
303,111,28621,1,0,0:0:0:0:
277,110,28694,1,0,0:0:0:0:
256,104,28767,2,0,L|224:96,3,26.2500010013581
196,172,29060,2,0,L|224:180,3,26.2500010013581
240,184,29353,5,0,0:0:0:0:
265,191,29426,1,0,0:0:0:0:
290,199,29499,1,0,0:0:0:0:
315,207,29572,1,0,0:0:0:0:
344,216,29645,2,0,L|376:228,1,26.2500010013581
456,248,29792,6,0,L|456:280,1,26.2500010013581
384,292,29938,2,0,L|384:324,1,26.2500010013581
312,332,30084,2,0,L|312:360,1,26.2500010013581
216,264,30231,5,0,0:0:0:0:
184,376,30377,1,0,0:0:0:0:
512,368,30524,5,0,0:0:0:0:
485,368,30597,1,0,0:0:0:0:
459,368,30670,1,0,0:0:0:0:
433,368,30743,1,0,0:0:0:0:
412,368,30816,2,0,L|368:368,3,26.2500010013581
312,332,31109,2,0,L|312:296,3,26.2500010013581
368,232,31402,2,0,L|368:192|368:192,3,26.2500010013581
368,180,31694,5,0,0:0:0:0:
368,153,31767,1,0,0:0:0:0:
368,127,31840,1,0,0:0:0:0:
368,101,31913,1,0,0:0:0:0:
368,80,31987,2,0,L|368:40,3,26.2500010013581
368,32,32280,5,0,0:0:0:0:
351,12,32353,1,0,0:0:0:0:
326,3,32426,1,0,0:0:0:0:
301,9,32499,1,0,0:0:0:0:
280,32,32572,2,0,L|260:60,1,26.2500010013581
224,120,32719,2,0,L|204:152,1,26.2500010013581
164,208,32865,5,0,0:0:0:0:
148,229,32938,1,0,0:0:0:0:
133,251,33011,1,0,0:0:0:0:
118,272,33084,1,0,0:0:0:0:
108,288,33158,2,0,L|84:320,1,26.2500010013581
44,364,33304,6,0,P|20:324|28:256,1,83.9999974365235
20,164,33597,2,0,P|20:116|28:72,2,83.9999974365235
56,360,34036,2,0,L|152:360,1,83.9999974365235
92,136,34328,2,0,L|184:128,1,83.9999974365235
220,364,34621,5,0,0:0:0:0:
262,364,34694,1,0,0:0:0:0:
304,364,34767,1,0,0:0:0:0:
344,364,34840,1,0,0:0:0:0:
388,364,34914,2,0,L|384:304,1,41.9999987182618
376,244,35060,2,0,L|372:192,1,41.9999987182618
364,124,35206,5,0,0:0:0:0:
353,83,35279,1,0,0:0:0:0:
322,57,35352,1,0,0:0:0:0:
281,53,35425,1,0,0:0:0:0:
248,72,35499,1,0,0:0:0:0:
215,98,35572,1,0,0:0:0:0:
174,105,35645,1,0,0:0:0:0:
135,92,35718,1,0,0:0:0:0:
104,64,35792,2,0,L|72:28,3,41.9999987182618
8,100,36084,2,0,L|40:132,3,41.9999987182618
108,188,36377,2,0,L|164:236,3,41.9999987182618
288,168,36670,2,0,L|252:220,3,41.9999987182618
352,132,36963,6,0,L|252:272,1,167.999994873047
208,8,37548,5,8,0:0:0:0:
108,8,37694,1,4,0:0:0:0:
280,80,37841,1,8,0:0:0:0:
176,80,37987,1,4,0:0:0:0:
144,192,38133,5,8,0:0:0:0:
144,204,38206,1,0,0:0:0:0:
144,216,38280,1,4,0:0:0:0:
304,248,38426,5,8,0:0:0:0:
368,124,38572,1,4,0:0:0:0:
372,312,38719,1,8,0:0:0:0:
464,224,38865,1,4,0:0:0:0:
296,244,39011,1,8,0:0:0:0:
360,120,39158,1,4,0:0:0:0:
488,144,39304,5,8,0:0:0:0:
496,144,39377,1,0,0:0:0:0:
504,144,39450,1,4,0:0:0:0:
480,8,39597,5,8,0:0:0:0:
340,0,39743,1,4,0:0:0:0:
424,84,39889,1,8,0:0:0:0:
268,40,40036,1,4,0:0:0:0:
488,8,40182,1,8,0:0:0:0:
348,0,40328,1,4,0:0:0:0:
288,128,40475,5,8,0:0:0:0:
284,136,40548,1,0,0:0:0:0:
280,144,40621,1,4,0:0:0:0:
160,224,40767,5,8,0:0:0:0:
28,224,40914,1,4,0:0:0:0:
24,352,41060,1,8,0:0:0:0:
160,352,41206,1,4,0:0:0:0:
160,216,41353,1,8,0:0:0:0:
28,216,41500,1,4,0:0:0:0:
24,344,41645,5,8,0:0:0:0:
24,336,41719,1,0,0:0:0:0:
24,328,41792,1,4,0:0:0:0:
56,140,41938,2,0,L|128:136,1,41.9999987182618,8|0,0:0|0:0,0:0:0:0:
172,132,42084,6,0,L|272:124,1,83.9999974365235,8|4,0:0|0:0,0:0:0:0:
96,340,42377,2,0,L|188:344,1,83.9999974365235,8|4,0:0|0:0,0:0:0:0:
332,116,42670,2,0,L|424:108,1,83.9999974365235,8|4,0:0|0:0,0:0:0:0:
256,344,42963,2,0,L|348:348,1,83.9999974365235,8|4,0:0|0:0,0:0:0:0:
332,108,43255,6,0,L|232:100,1,83.9999974365235,8|4,0:0|0:0,0:0:0:0:
408,316,43548,2,0,L|316:320,1,83.9999974365235,8|4,0:0|0:0,0:0:0:0:
172,92,43841,2,0,L|80:84,1,83.9999974365235,8|4,0:0|0:0,0:0:0:0:
248,320,44134,2,0,L|156:324,2,83.9999974365235,8|4|0,0:0|0:0|0:0,0:0:0:0:
386,323,44572,6,0,B|382:283|422:223|422:223|402:191|422:151|422:151|386:95|398:47|398:47|354:67|266:67|226:51|226:51|242:99|210:159|210:159|234:195|210:231|210:231|254:283|250:355|250:355,2,756.000002883911,8|4|8,0:0|0:0|0:0,0:0:0:0:
316,192,47060,1,4,0:0:0:0:
148,196,47206,1,8,0:0:0:0:
104,84,47353,1,4,0:0:0:0:
48,264,47499,1,8,0:0:0:0:
176,344,47645,1,4,0:0:0:0:
40,280,47792,1,8,0:0:0:0:
184,328,47938,1,4,0:0:0:0:
8,172,48084,6,0,P|24:116|32:76,1,83.9999974365235,8|4,0:0|0:0,0:0:0:0:
148,196,48377,2,0,P|196:208|240:212,1,83.9999974365235,8|4,0:0|0:0,0:0:0:0:
360,220,48670,2,0,B|412:216|440:192|440:192,1,83.9999974365235
448,188,48889,1,0,0:0:0:0:
456,180,48963,1,0,0:0:0:0:
468,48,49109,6,0,L|424:40,1,41.9999987182618
344,24,49255,6,0,L|244:28,1,83.9999974365235,8|4,0:0|0:0,0:0:0:0:
88,132,49548,2,0,L|188:136,1,83.9999974365235,8|4,0:0|0:0,0:0:0:0:
456,152,49841,5,8,0:0:0:0:
468,152,49914,1,0,0:0:0:0:
480,152,49987,1,4,0:0:0:0:
476,264,50133,6,0,L|384:252,1,83.9999974365235,8|4,0:0|0:0,0:0:0:0:
80,220,50426,2,0,L|172:208,1,83.9999974365235,8|4,0:0|0:0,0:0:0:0:
480,152,50719,2,0,L|388:140,1,83.9999974365235,8|4,0:0|0:0,0:0:0:0:
152,108,51011,1,8,0:0:0:0:
192,288,51158,1,4,0:0:0:0:
332,112,51304,1,8,0:0:0:0:
296,288,51450,1,4,0:0:0:0:
344,112,51597,6,0,L|388:112,7,41.9999987182618
376,20,52182,2,0,L|432:20,7,41.9999987182618
212,24,52767,6,0,L|184:72,1,41.9999987182618
192,24,52914,2,0,L|164:72,1,41.9999987182618
172,24,53060,2,0,L|144:72,1,41.9999987182618
152,24,53207,2,0,L|124:72,1,41.9999987182618
76,168,53353,6,0,L|104:120,1,41.9999987182618
96,168,53500,2,0,L|124:120,1,41.9999987182618
116,168,53646,2,0,L|144:120,1,41.9999987182618,14|0,1:1|0:0,0:0:0:0:
136,168,53793,2,0,L|164:120,1,41.9999987182618
216,24,53938,6,0,P|240:80|308:28,1,167.999994873047
296,360,54524,6,0,P|272:304|204:356,1,167.999994873047
16,120,55109,6,0,L|16:220,1,83.9999974365235
504,312,55694,6,0,L|504:212,1,83.9999974365235
416,16,56280,5,0,0:0:0:0:
450,13,56353,1,0,0:0:0:0:
482,27,56426,1,0,0:0:0:0:
505,53,56499,1,0,0:0:0:0:
515,86,56572,1,0,0:0:0:0:
509,120,56645,1,0,0:0:0:0:
489,148,56719,1,0,0:0:0:0:
458,165,56792,1,0,0:0:0:0:
424,164,56865,2,0,L|380:152,3,35
284,104,57158,2,0,L|268:136,7,35
220,216,57743,5,0,0:0:0:0:
203,246,57816,1,0,0:0:0:0:
173,263,57889,1,0,0:0:0:0:
139,260,57962,1,0,0:0:0:0:
111,240,58035,1,0,0:0:0:0:
99,207,58108,1,0,0:0:0:0:
107,174,58182,1,0,0:0:0:0:
132,150,58255,1,0,0:0:0:0:
168,144,58328,2,0,L|208:132|208:132,3,35
356,92,58621,5,0,0:0:0:0:
384,96,59206,5,0,0:0:0:0:
312,224,59402,5,0,0:0:0:0:
136,48,59597,5,0,0:0:0:0:
64,292,59792,5,0,0:0:0:0:
