osu file format v14

[General]
AudioFilename: audio.mp3
AudioLeadIn: 0
PreviewTime: 387585
Countdown: 1
SampleSet: Normal
StackLeniency: 0.7
Mode: 1
LetterboxInBreaks: 0
WidescreenStoryboard: 0

[Editor]
DistanceSpacing: 1
BeatDivisor: 4
GridSize: 32
TimelineZoom: 4.499998

[Metadata]
Title:Uta
TitleUnicode:謳
Artist:Imperial Circus Dead Decadence
ArtistUnicode:Imperial Circus Dead Decadence
Creator:Backfire
Version:Taikoclysm
Source:
Tags:nanomortis extol ou song declare express Ode To The Dreadful Sacrament 惨劇の血に赫く染まった愛と絶望の黒い死とが紡ぐ最期の物語 Sangeki no Chi ni Kagayaku Somatta Ai to Zetsubou no Kuroi Shitoga Tsumugu Saigo no Monogatari Rib:y(uhki) L.G.C. KIM Kylie Hull VAGUEDGE Another Stream Kimiko PEATH2 TOME あにょ REINO Hellnear
BeatmapID:1464741
BeatmapSetID:692207

[Difficulty]
HPDrainRate:4
CircleSize:2
OverallDifficulty:7
ApproachRate:5
SliderMultiplier:1.4
SliderTickRate:1

[Events]
//Background and Video events
0,0,"Heart-of-Stone-by-Nano-Mortis.png",0,58
//Break Periods
//Storyboard Layer 0 (Background)
//Storyboard Layer 1 (Fail)
//Storyboard Layer 2 (Pass)
//Storyboard Layer 3 (Foreground)
//Storyboard Sound Samples

[TimingPoints]
1641,428.571428571429,4,1,0,50,1,0
23926,458.015267175573,4,1,0,50,1,0
24842,468.75,4,1,0,45,1,8
25777,500,4,1,0,40,1,0
27777,545.454545454546,4,1,0,35,1,0
28867,555.555555555556,4,1,0,35,1,8
29973,310.880829015544,4,1,0,30,1,0
29973,-185.185185185185,4,1,0,30,0,0
33703,292.682926829268,4,1,0,80,1,0
51946,-99.502487562189,4,1,0,80,0,0
52044,-99.009900990099,4,1,0,80,0,0
52142,-98.0392156862745,4,1,0,80,0,0
52239,-97.0873786407767,4,1,0,80,0,0
52337,-96.1538461538461,4,1,0,80,0,0
52434,-95.2380952380952,4,1,0,80,0,1
68824,-111.111111111111,4,1,0,80,0,0
69117,-121.212121212121,4,1,0,80,0,0
69410,-133.333333333333,4,1,0,80,0,0
71166,-125,4,1,0,80,0,0
73507,-117.647058823529,4,1,0,80,0,0
74678,-111.111111111111,4,1,0,80,0,0
75849,-100,4,1,0,80,0,0
85196,292.682926829268,4,1,0,80,1,0
87537,292.682926829268,4,1,0,80,1,8
87556,292.682926829268,4,1,0,80,1,0
143458,-99.009900990099,4,1,0,80,0,0
143531,-98.0392156862745,4,1,0,80,0,0
143604,-97.0873786407767,4,1,0,80,0,0
143677,-96.1538461538461,4,1,0,80,0,0
143751,-95.2380952380952,4,1,0,80,0,0
161312,-95.2380952380952,4,1,0,80,0,0
162190,-94.3396226415094,4,1,0,80,0,0
162263,-93.4579439252336,4,1,0,80,0,0
162336,-92.5925925925926,4,1,0,80,0,0
162409,-91.743119266055,4,1,0,80,0,0
162482,-90.9090909090909,4,1,0,80,0,1
180629,-90.9090909090909,4,1,0,80,0,0
180921,-95.2380952380952,4,1,0,80,0,0
181214,-100,4,1,0,80,0,1
199946,-100,4,1,0,80,0,0
237409,-100,4,1,0,80,0,0
274287,-105.263157894737,4,1,0,80,0,0
274434,-111.111111111111,4,1,0,80,0,0
274580,-117.647058823529,4,1,0,80,0,0
274726,-125,4,1,0,80,0,0
274873,-133.333333333333,4,1,0,80,0,0
283068,-128.205128205128,4,1,0,80,0,0
283214,-123.456790123457,4,1,0,80,0,0
283360,-119.047619047619,4,1,0,80,0,0
283507,-114.942528735632,4,1,0,80,0,0
283653,-112.359550561798,4,1,0,80,0,0
283799,-109.89010989011,4,1,0,80,0,0
283946,-106.382978723404,4,1,0,80,0,0
284092,-103.092783505155,4,1,0,80,0,0
284238,-100,4,1,0,80,0,0
284824,-90.9090909090909,4,1,0,80,0,0
285409,-83.3333333333333,4,1,0,80,0,0
285995,-76.9230769230769,4,1,0,80,0,0
286580,-71.4285714285714,4,1,0,80,0,0
287165,-66.6666666666667,4,1,0,80,0,0
287751,-100,4,1,0,80,0,0
292434,-99.009900990099,4,1,0,80,0,0
292531,-98.0392156862745,4,1,0,80,0,0
292629,-97.0873786407767,4,1,0,80,0,0
292726,-96.1538461538461,4,1,0,80,0,0
292824,-95.2380952380951,4,1,0,80,0,0
292921,-94.3396226415094,4,1,0,80,0,0
293019,-93.4579439252336,4,1,0,80,0,0
293116,-92.5925925925926,4,1,0,80,0,0
293214,-91.743119266055,4,1,0,80,0,0
293312,-90.9090909090909,4,1,0,80,0,0
293604,-90.9090909090909,4,1,0,80,0,0
311751,-90.9090909090909,4,1,0,80,0,0
312336,-90.9090909090909,4,1,0,80,0,1
331068,-90.9090909090909,4,1,0,80,0,0
331143,300,4,1,0,80,1,8
332268,-200,4,1,0,50,0,0
347943,-200,4,1,0,25,0,0
350300,300,4,1,0,70,1,0
350300,-133.333333333333,4,1,0,70,0,0
368268,292.682926829268,4,1,0,70,1,0
368268,-136.986301369863,4,1,0,70,0,0
368365,-133.333333333333,4,1,0,70,0,0
368463,-130.718954248366,4,1,0,70,0,0
368560,-128.205128205128,4,1,0,70,0,0
368658,-125.786163522013,4,1,0,70,0,0
368755,-122.699386503067,4,1,0,70,0,0
368853,-120.481927710843,4,1,0,80,0,0
368999,-108.695652173913,4,1,0,80,0,0
369438,-100,4,1,0,80,0,0
386999,-95.2380952380952,4,1,0,80,0,0
387292,-90.9090909090909,4,1,0,80,0,0
387585,-90.0900900900901,4,1,0,80,0,0
387731,-89.2857142857143,4,1,0,80,0,0
387877,-88.4955752212389,4,1,0,80,0,0
388024,-87.719298245614,4,1,0,80,0,0
388170,-86.9565217391304,4,1,0,80,0,1
389341,-76.9230769230769,4,1,0,80,0,1
389926,-86.9565217391304,4,1,0,80,0,1
391682,-68.9655172413793,4,1,0,80,0,1
392268,-86.9565217391304,4,1,0,80,0,1
396365,-66.6666666666667,4,1,0,80,0,1
396950,-86.9565217391304,4,1,0,80,0,1
398707,-60.6060606060606,4,1,0,80,0,1
399292,-86.9565217391304,4,1,0,80,0,1
401048,-55.5555555555556,4,1,0,80,0,1
401633,-86.9565217391304,4,1,0,80,0,1
405731,-50,4,1,0,80,0,1
406316,-86.9565217391304,4,1,0,80,0,1
408950,-90.9090909090909,4,1,0,80,0,1
409097,-95.2380952380952,4,1,0,80,0,1
409243,-100,4,1,0,80,0,0
411585,-100,4,1,0,80,0,1
429731,-105.263157894737,4,1,0,80,0,1
429877,-111.111111111111,4,1,0,80,0,1
430024,-117.647058823529,4,1,0,80,0,1
430170,-125,4,1,0,80,0,1
430316,-133.333333333333,4,1,0,40,0,0
448463,300,4,1,0,60,1,8
448463,-125,4,1,0,60,0,0
448613,-117.647058823529,4,1,0,60,0,0
448763,-111.111111111111,4,1,0,60,0,0
448913,-105.263157894737,4,1,0,60,0,0
449063,292.682926829268,4,1,0,70,1,0
449063,-100,4,1,0,70,0,0
462950,292.682926829268,4,1,0,80,1,8
463096,292.682926829268,4,1,0,80,1,0
463096,-100,4,1,0,80,0,0
472461,-100,4,1,0,80,0,1
484169,-95.2380952380951,4,1,0,80,0,1
484656,-93.0232558139535,4,1,0,80,0,1
484754,-90.9090909090909,4,1,0,80,0,1
485339,-86.9565217391304,4,1,0,80,0,1
486510,-83.3333333333333,4,1,0,80,0,1
504656,-86.9565217391304,4,1,0,80,0,0
505242,-90.9090909090909,4,1,0,80,0,1
521632,-83.3333333333333,4,1,0,80,0,1
522217,-76.9230769230769,4,1,0,80,0,1
522803,-71.4285714285714,4,1,0,80,0,1
523388,-66.6666666666667,4,1,0,80,0,1
523974,-80,4,1,0,80,0,1
526315,-66.6666666666667,4,1,0,80,0,0
526900,-57.1428571428571,4,1,0,80,0,0
527095,-50,4,1,0,80,0,0
527291,-44.4444444444445,4,1,0,80,0,0
527486,-40,4,1,0,80,0,1
527778,-33.3333333333333,4,1,0,80,0,0

[HitObjects]
352,160,1641,5,8,0:0:0:0:
384,160,2069,1,0,0:0:0:0:
384,160,2498,1,0,0:0:0:0:
384,160,2926,1,8,0:0:0:0:
352,160,3355,1,8,0:0:0:0:
352,160,3783,1,0,0:0:0:0:
352,160,3998,1,8,0:0:0:0:
288,192,4212,1,0,0:0:0:0:
352,128,4426,1,0,0:0:0:0:
352,128,4641,1,8,0:0:0:0:
352,128,5069,1,8,0:0:0:0:
352,128,5498,1,0,0:0:0:0:
352,128,5926,1,0,0:0:0:0:
352,128,6355,1,8,0:0:0:0:
352,128,6783,1,8,0:0:0:0:
352,128,7212,1,0,0:0:0:0:
352,128,7641,1,8,0:0:0:0:
384,160,7855,1,0,0:0:0:0:
384,160,8069,1,8,0:0:0:0:
384,96,8498,1,8,0:0:0:0:
384,96,8926,1,0,0:0:0:0:
384,96,9355,1,0,0:0:0:0:
384,96,9783,1,8,0:0:0:0:
384,96,10212,1,8,0:0:0:0:
384,96,10641,1,0,0:0:0:0:
416,128,10855,1,8,0:0:0:0:
352,128,11069,1,0,0:0:0:0:
384,128,11498,1,8,0:0:0:0:
384,128,11926,1,8,0:0:0:0:
384,128,12355,1,0,0:0:0:0:
384,128,12569,1,8,0:0:0:0:
416,160,12783,1,0,0:0:0:0:
416,160,12998,1,0,0:0:0:0:
384,128,13212,1,8,0:0:0:0:
384,128,13641,1,8,0:0:0:0:
384,160,13748,1,8,0:0:0:0:
384,160,13855,1,8,0:0:0:0:
384,128,14069,1,0,0:0:0:0:
384,128,14498,1,8,0:0:0:0:
384,128,14712,1,0,0:0:0:0:
416,160,14926,1,8,0:0:0:0:
448,160,15355,1,8,0:0:0:0:
384,160,15783,1,0,0:0:0:0:
384,128,16212,1,0,0:0:0:0:
384,160,16641,1,8,0:0:0:0:
384,160,17069,1,8,0:0:0:0:
384,160,17498,1,0,0:0:0:0:
384,160,17926,1,8,0:0:0:0:
384,160,18141,1,0,0:0:0:0:
384,160,18355,1,8,0:0:0:0:
384,160,18783,1,8,0:0:0:0:
384,128,19212,1,0,0:0:0:0:
384,128,19426,1,8,0:0:0:0:
384,128,19855,1,0,0:0:0:0:
384,128,20069,1,8,0:0:0:0:
416,192,20498,1,8,0:0:0:0:
416,160,20926,1,0,0:0:0:0:
448,160,21355,1,8,0:0:0:0:
448,160,21569,1,0,0:0:0:0:
448,160,21783,1,8,0:0:0:0:
448,160,22212,1,8,0:0:0:0:
448,160,22641,1,0,0:0:0:0:
416,160,22855,1,0,0:0:0:0:
416,160,23283,1,0,0:0:0:0:
416,160,23498,1,8,0:0:0:0:
416,160,23926,1,8,0:0:0:0:
416,128,24384,1,0,0:0:0:0:
384,128,24842,1,8,0:0:0:0:
384,128,25310,1,8,0:0:0:0:
384,128,25777,1,8,0:0:0:0:
384,128,26277,1,0,0:0:0:0:
384,128,26527,1,8,0:0:0:0:
384,128,27027,1,0,0:0:0:0:
384,128,27277,1,8,0:0:0:0:
384,160,27777,1,8,0:0:0:0:
384,160,28322,1,0,0:0:0:0:
384,160,28867,1,8,0:0:0:0:
384,160,29422,1,0,0:0:0:0:
384,128,29973,1,8,0:0:0:0:
416,192,30076,1,8,0:0:0:0:
320,128,30180,1,8,0:0:0:0:
256,192,30283,12,0,33470,0:0:0:0:
352,128,33703,5,4,0:0:0:0:
352,160,33849,1,0,0:0:0:0:
384,160,33995,1,8,0:0:0:0:
384,128,34142,1,0,0:0:0:0:
384,128,34288,1,0,0:0:0:0:
384,128,34434,1,0,0:0:0:0:
384,128,34581,1,8,0:0:0:0:
384,128,34727,1,0,0:0:0:0:
384,128,34873,1,0,0:0:0:0:
384,128,35020,1,0,0:0:0:0:
384,128,35166,1,8,0:0:0:0:
384,128,35312,1,0,0:0:0:0:
384,128,35459,1,0,0:0:0:0:
384,128,35605,1,0,0:0:0:0:
384,128,35751,1,12,0:0:0:0:
384,128,35898,1,0,0:0:0:0:
416,128,36044,1,4,0:0:0:0:
288,160,36190,1,0,0:0:0:0:
352,128,36337,1,8,0:0:0:0:
352,160,36483,1,0,0:0:0:0:
384,160,36629,1,0,0:0:0:0:
384,160,36776,1,0,0:0:0:0:
384,128,36922,1,8,0:0:0:0:
384,160,37068,1,0,0:0:0:0:
384,128,37215,1,0,0:0:0:0:
384,128,37361,1,0,0:0:0:0:
384,128,37507,1,8,0:0:0:0:
384,128,37654,1,0,0:0:0:0:
384,128,37800,1,8,0:0:0:0:
384,128,37946,1,0,0:0:0:0:
384,128,38093,1,12,0:0:0:0:
384,128,38239,1,0,0:0:0:0:
384,128,38385,1,4,0:0:0:0:
384,128,38532,1,0,0:0:0:0:
384,128,38678,1,8,0:0:0:0:
384,128,38824,1,0,0:0:0:0:
384,128,38971,1,0,0:0:0:0:
384,128,39117,1,0,0:0:0:0:
384,128,39263,1,8,0:0:0:0:
384,128,39410,1,0,0:0:0:0:
384,128,39556,1,0,0:0:0:0:
384,128,39702,1,0,0:0:0:0:
384,128,39849,1,8,0:0:0:0:
384,128,39995,1,0,0:0:0:0:
384,128,40142,1,8,0:0:0:0:
384,128,40288,1,0,0:0:0:0:
384,128,40434,1,8,0:0:0:0:
384,128,40581,1,8,0:0:0:0:
320,128,40727,1,0,0:0:0:0:
320,128,40800,1,0,0:0:0:0:
320,128,40873,1,0,0:0:0:0:
320,128,40946,1,0,0:0:0:0:
320,128,41020,1,8,0:0:0:0:
320,128,41093,1,8,0:0:0:0:
320,128,41166,1,0,0:0:0:0:
320,128,41239,1,0,0:0:0:0:
320,128,41312,1,8,0:0:0:0:
320,128,41459,1,8,0:0:0:0:
320,128,41532,1,8,0:0:0:0:
320,128,41605,1,8,0:0:0:0:
320,128,41678,1,8,0:0:0:0:
320,128,41751,1,8,0:0:0:0:
384,128,41824,1,8,0:0:0:0:
320,128,41898,1,0,0:0:0:0:
416,128,41971,1,8,0:0:0:0:
384,128,42044,1,0,0:0:0:0:
320,128,42117,1,0,0:0:0:0:
352,96,42190,1,8,0:0:0:0:
352,128,42263,1,0,0:0:0:0:
288,128,42337,1,0,0:0:0:0:
288,96,42410,1,8,0:0:0:0:
352,128,42483,1,0,0:0:0:0:
320,96,42556,1,0,0:0:0:0:
320,96,42629,1,8,0:0:0:0:
384,128,42702,1,0,0:0:0:0:
320,96,42776,1,8,0:0:0:0:
352,160,42849,1,8,0:0:0:0:
320,96,42922,1,0,0:0:0:0:
320,96,43068,1,4,0:0:0:0:
384,160,43215,1,0,0:0:0:0:
384,160,43361,1,8,0:0:0:0:
384,160,43507,1,0,0:0:0:0:
384,160,43654,1,0,0:0:0:0:
384,160,43800,1,0,0:0:0:0:
384,160,43946,1,8,0:0:0:0:
384,160,44093,1,0,0:0:0:0:
384,128,44239,1,0,0:0:0:0:
384,160,44385,1,0,0:0:0:0:
384,160,44532,1,8,0:0:0:0:
384,160,44678,1,0,0:0:0:0:
384,160,44824,1,0,0:0:0:0:
416,160,44971,1,0,0:0:0:0:
416,160,45117,1,12,0:0:0:0:
416,160,45263,1,0,0:0:0:0:
416,160,45410,1,4,0:0:0:0:
416,160,45556,1,0,0:0:0:0:
416,160,45702,1,8,0:0:0:0:
448,160,45849,1,0,0:0:0:0:
448,160,45995,1,0,0:0:0:0:
448,160,46142,1,0,0:0:0:0:
448,160,46288,1,8,0:0:0:0:
448,160,46434,1,0,0:0:0:0:
448,160,46581,1,0,0:0:0:0:
448,160,46727,1,0,0:0:0:0:
448,160,46873,1,8,0:0:0:0:
448,160,47020,1,0,0:0:0:0:
448,160,47166,1,8,0:0:0:0:
448,160,47312,1,0,0:0:0:0:
448,160,47459,1,12,0:0:0:0:
448,160,47605,1,0,0:0:0:0:
448,160,47751,1,4,0:0:0:0:
416,160,47898,1,0,0:0:0:0:
448,160,48044,1,8,0:0:0:0:
448,160,48190,1,0,0:0:0:0:
448,160,48337,1,0,0:0:0:0:
448,160,48483,1,0,0:0:0:0:
448,160,48629,1,8,0:0:0:0:
448,160,48776,1,0,0:0:0:0:
448,160,48922,1,8,0:0:0:0:
448,160,49068,1,0,0:0:0:0:
448,160,49215,1,8,0:0:0:0:
448,160,49361,1,8,0:0:0:0:
448,160,49507,1,0,0:0:0:0:
448,160,49654,1,0,0:0:0:0:
448,160,49800,1,8,0:0:0:0:
448,192,49946,1,0,0:0:0:0:
448,160,50093,1,12,0:0:0:0:
384,160,50239,1,0,0:0:0:0:
384,128,50385,1,0,0:0:0:0:
384,128,50459,1,0,0:0:0:0:
384,128,50532,1,0,0:0:0:0:
384,128,50605,1,0,0:0:0:0:
384,128,50678,1,8,0:0:0:0:
384,96,50971,1,0,0:0:0:0:
384,160,51117,1,8,0:0:0:0:
384,128,51263,1,0,0:0:0:0:
384,128,51337,1,0,0:0:0:0:
384,128,51410,1,0,0:0:0:0:
384,128,51483,1,0,0:0:0:0:
384,128,51556,1,8,0:0:0:0:
384,128,51702,1,0,0:0:0:0:
384,128,51849,1,8,0:0:0:0:
352,128,51946,1,8,0:0:0:0:
384,128,52044,1,0,0:0:0:0:
384,128,52142,1,8,0:0:0:0:
384,128,52239,1,8,0:0:0:0:
384,128,52337,1,8,0:0:0:0:
384,128,52434,1,4,0:0:0:0:
352,160,52581,1,8,0:0:0:0:
352,160,52727,1,0,0:0:0:0:
352,160,52800,1,0,0:0:0:0:
352,160,52873,1,8,0:0:0:0:
352,160,53020,1,0,0:0:0:0:
352,160,53166,1,8,0:0:0:0:
352,160,53239,1,8,0:0:0:0:
352,160,53312,1,0,0:0:0:0:
352,128,53385,1,0,0:0:0:0:
352,128,53459,1,8,0:0:0:0:
352,128,53605,1,0,0:0:0:0:
384,128,53751,1,8,0:0:0:0:
416,128,53898,1,0,0:0:0:0:
416,128,53971,1,0,0:0:0:0:
416,128,54044,1,8,0:0:0:0:
416,128,54190,1,0,0:0:0:0:
416,128,54263,1,0,0:0:0:0:
416,128,54337,1,8,0:0:0:0:
448,128,54410,1,0,0:0:0:0:
416,128,54556,1,0,0:0:0:0:
288,160,54629,1,8,0:0:0:0:
448,128,54776,1,0,0:0:0:0:
480,128,54922,1,8,0:0:0:0:
480,128,55068,1,0,0:0:0:0:
480,128,55142,1,0,0:0:0:0:
480,128,55215,1,8,0:0:0:0:
480,128,55361,1,0,0:0:0:0:
416,128,55507,1,0,0:0:0:0:
416,128,55581,1,8,0:0:0:0:
416,128,55654,1,0,0:0:0:0:
416,128,55727,1,0,0:0:0:0:
352,128,55800,1,8,0:0:0:0:
352,128,55946,1,0,0:0:0:0:
352,128,56093,1,8,0:0:0:0:
384,128,56239,1,0,0:0:0:0:
352,128,56312,1,0,0:0:0:0:
352,128,56385,1,8,0:0:0:0:
384,160,56532,1,0,0:0:0:0:
288,128,56605,1,0,0:0:0:0:
384,192,56677,1,8,0:0:0:0:
384,128,56751,1,0,0:0:0:0:
384,128,56898,1,0,0:0:0:0:
384,128,56971,1,8,0:0:0:0:
416,192,57117,1,4,0:0:0:0:
416,160,57263,1,8,0:0:0:0:
416,160,57410,1,0,0:0:0:0:
416,192,57483,1,0,0:0:0:0:
416,192,57556,1,8,0:0:0:0:
416,192,57702,1,0,0:0:0:0:
416,160,57776,1,0,0:0:0:0:
416,160,57849,1,8,0:0:0:0:
416,160,57922,1,8,0:0:0:0:
416,160,57995,1,0,0:0:0:0:
416,160,58068,1,0,0:0:0:0:
416,160,58142,1,8,0:0:0:0:
416,160,58288,1,4,0:0:0:0:
416,160,58434,1,8,0:0:0:0:
416,160,58581,1,0,0:0:0:0:
416,160,58654,1,0,0:0:0:0:
416,160,58727,1,8,0:0:0:0:
416,160,58873,1,0,0:0:0:0:
416,160,58946,1,0,0:0:0:0:
416,160,59020,1,8,0:0:0:0:
416,160,59093,1,0,0:0:0:0:
416,160,59166,1,8,0:0:0:0:
416,160,59239,1,8,0:0:0:0:
416,160,59312,1,0,0:0:0:0:
416,160,59459,1,0,0:0:0:0:
416,160,59605,1,8,0:0:0:0:
384,128,59751,1,0,0:0:0:0:
384,128,59824,1,0,0:0:0:0:
384,128,59898,1,0,0:0:0:0:
384,128,60044,1,8,0:0:0:0:
384,128,60117,1,0,0:0:0:0:
384,128,60190,1,8,0:0:0:0:
384,128,60263,1,0,0:0:0:0:
416,128,60337,1,8,0:0:0:0:
416,128,60410,1,8,0:0:0:0:
416,128,60483,1,8,0:0:0:0:
416,128,60556,1,8,0:0:0:0:
416,128,60629,1,0,0:0:0:0:
416,160,60702,1,0,0:0:0:0:
416,160,60776,1,8,0:0:0:0:
416,160,60849,1,8,0:0:0:0:
416,160,60922,1,0,0:0:0:0:
416,96,60995,1,8,0:0:0:0:
416,128,61068,1,0,0:0:0:0:
416,128,61142,1,0,0:0:0:0:
448,128,61215,1,8,0:0:0:0:
448,128,61288,1,0,0:0:0:0:
448,128,61361,1,8,0:0:0:0:
448,160,61434,1,0,0:0:0:0:
448,160,61507,1,8,0:0:0:0:
320,128,61581,1,8,0:0:0:0:
448,128,61654,1,0,0:0:0:0:
448,128,61800,1,4,0:0:0:0:
384,128,61946,1,8,0:0:0:0:
384,128,62093,1,0,0:0:0:0:
320,128,62166,1,0,0:0:0:0:
320,128,62239,1,8,0:0:0:0:
352,128,62385,1,0,0:0:0:0:
352,128,62459,1,0,0:0:0:0:
352,128,62532,1,8,0:0:0:0:
352,128,62605,1,0,0:0:0:0:
352,128,62751,1,0,0:0:0:0:
352,128,62824,1,8,0:0:0:0:
352,128,62971,1,0,0:0:0:0:
352,128,63117,1,8,0:0:0:0:
352,128,63263,1,0,0:0:0:0:
352,128,63337,1,0,0:0:0:0:
352,128,63410,1,8,0:0:0:0:
352,128,63556,1,0,0:0:0:0:
352,128,63629,1,0,0:0:0:0:
352,96,63702,1,8,0:0:0:0:
352,96,63776,1,0,0:0:0:0:
352,96,63849,1,8,0:0:0:0:
352,96,63922,1,8,0:0:0:0:
352,96,63995,1,0,0:0:0:0:
352,96,64142,1,4,0:0:0:0:
352,96,64288,1,8,0:0:0:0:
352,96,64434,1,0,0:0:0:0:
352,96,64507,1,0,0:0:0:0:
352,96,64581,1,8,0:0:0:0:
320,160,64727,1,0,0:0:0:0:
384,160,64800,1,0,0:0:0:0:
320,160,64873,1,8,0:0:0:0:
320,128,64946,1,0,0:0:0:0:
352,160,65093,1,0,0:0:0:0:
352,160,65166,1,8,0:0:0:0:
384,160,65312,1,0,0:0:0:0:
416,160,65385,1,0,0:0:0:0:
384,160,65459,1,0,0:0:0:0:
416,160,65532,1,0,0:0:0:0:
416,160,65605,1,8,0:0:0:0:
416,160,65751,1,0,0:0:0:0:
384,192,65824,1,0,0:0:0:0:
416,160,65898,1,8,0:0:0:0:
416,160,65971,1,0,0:0:0:0:
416,160,66044,1,0,0:0:0:0:
416,160,66117,1,0,0:0:0:0:
416,160,66190,1,8,0:0:0:0:
416,160,66337,1,0,0:0:0:0:
448,160,66410,1,0,0:0:0:0:
448,128,66483,1,8,0:0:0:0:
448,128,66556,1,0,0:0:0:0:
448,128,66629,1,8,0:0:0:0:
448,128,66702,1,8,0:0:0:0:
480,128,66776,1,0,0:0:0:0:
480,128,66849,1,0,0:0:0:0:
480,128,66922,1,8,0:0:0:0:
480,128,66995,1,8,0:0:0:0:
480,128,67068,1,0,0:0:0:0:
480,128,67142,1,0,0:0:0:0:
480,128,67215,1,0,0:0:0:0:
480,128,67288,1,0,0:0:0:0:
480,128,67361,1,8,0:0:0:0:
480,128,67434,1,8,0:0:0:0:
480,128,67507,1,0,0:0:0:0:
512,96,67654,1,8,0:0:0:0:
320,128,67727,1,0,0:0:0:0:
320,128,67800,1,8,0:0:0:0:
320,128,67873,1,8,0:0:0:0:
352,128,67946,1,0,0:0:0:0:
352,128,68020,1,0,0:0:0:0:
352,128,68093,1,8,0:0:0:0:
352,128,68166,1,8,0:0:0:0:
352,128,68239,1,0,0:0:0:0:
352,128,68312,1,0,0:0:0:0:
352,128,68385,1,0,0:0:0:0:
352,128,68459,1,0,0:0:0:0:
448,160,68532,1,8,0:0:0:0:
448,160,68824,1,4,0:0:0:0:
384,128,69117,1,0,0:0:0:0:
384,128,69410,1,8,0:0:0:0:
384,128,69702,1,8,0:0:0:0:
384,128,69995,1,0,0:0:0:0:
384,128,70288,1,0,0:0:0:0:
384,128,70581,1,8,0:0:0:0:
384,128,70873,1,8,0:0:0:0:
384,128,71020,1,8,0:0:0:0:
384,128,71166,1,4,0:0:0:0:
384,128,71459,1,0,0:0:0:0:
384,128,71751,1,8,0:0:0:0:
384,128,72044,1,8,0:0:0:0:
384,128,72337,1,0,0:0:0:0:
384,128,72629,1,8,0:0:0:0:
384,128,72922,1,8,0:0:0:0:
352,160,73068,1,8,0:0:0:0:
384,128,73215,1,0,0:0:0:0:
384,128,73361,1,8,0:0:0:0:
384,128,73507,1,4,0:0:0:0:
352,96,73800,1,0,0:0:0:0:
352,96,74093,1,8,0:0:0:0:
352,128,74385,1,8,0:0:0:0:
352,128,74532,1,8,0:0:0:0:
352,128,74678,1,4,0:0:0:0:
352,96,74971,1,0,0:0:0:0:
352,96,75263,1,8,0:0:0:0:
320,96,75410,1,8,0:0:0:0:
352,128,75446,1,8,0:0:0:0:
320,96,75556,1,0,0:0:0:0:
352,128,75849,1,0,0:0:0:0:
352,128,75922,1,0,0:0:0:0:
352,128,75995,1,0,0:0:0:0:
352,128,76068,1,0,0:0:0:0:
352,128,76142,1,0,0:0:0:0:
352,128,76215,1,0,0:0:0:0:
352,128,76288,1,0,0:0:0:0:
352,128,76361,1,0,0:0:0:0:
352,128,76434,1,8,0:0:0:0:
352,128,76507,1,0,0:0:0:0:
352,128,76581,1,0,0:0:0:0:
352,128,76654,1,0,0:0:0:0:
352,128,76727,1,0,0:0:0:0:
352,128,76800,1,0,0:0:0:0:
352,128,76873,1,0,0:0:0:0:
352,128,76946,1,0,0:0:0:0:
352,128,77020,1,8,0:0:0:0:
320,128,77093,1,0,0:0:0:0:
320,128,77166,1,8,0:0:0:0:
320,128,77239,1,0,0:0:0:0:
288,128,77312,1,0,0:0:0:0:
320,128,77385,1,8,0:0:0:0:
320,128,77459,1,0,0:0:0:0:
416,160,77532,1,0,0:0:0:0:
320,96,77605,1,8,0:0:0:0:
320,96,77678,1,0,0:0:0:0:
416,128,77751,1,0,0:0:0:0:
320,96,77824,1,8,0:0:0:0:
320,96,77898,1,8,0:0:0:0:
320,96,77971,1,0,0:0:0:0:
320,128,78044,1,8,0:0:0:0:
320,96,78117,1,0,0:0:0:0:
320,96,78190,1,8,0:0:0:0:
320,128,78263,1,8,0:0:0:0:
320,128,78337,1,8,0:0:0:0:
320,128,78410,1,8,0:0:0:0:
320,128,78483,1,0,0:0:0:0:
320,128,78556,1,0,0:0:0:0:
320,128,78629,1,0,0:0:0:0:
320,128,78702,1,0,0:0:0:0:
320,128,78776,1,8,0:0:0:0:
384,96,78922,1,0,0:0:0:0:
384,96,78995,1,0,0:0:0:0:
384,96,79068,1,8,0:0:0:0:
352,96,79215,1,0,0:0:0:0:
352,128,79361,1,8,0:0:0:0:
352,128,79434,1,0,0:0:0:0:
352,128,79507,1,0,0:0:0:0:
352,128,79581,1,0,0:0:0:0:
352,128,79654,1,8,0:0:0:0:
352,128,79800,1,0,0:0:0:0:
352,128,79946,1,8,0:0:0:0:
352,128,80020,1,0,0:0:0:0:
352,128,80093,1,0,0:0:0:0:
352,128,80239,1,8,0:0:0:0:
384,128,80385,1,0,0:0:0:0:
384,128,80532,1,8,0:0:0:0:
384,160,80605,1,8,0:0:0:0:
384,128,80678,1,8,0:0:0:0:
384,128,80751,1,8,0:0:0:0:
384,128,80824,1,0,0:0:0:0:
384,128,80898,1,0,0:0:0:0:
384,128,80971,1,0,0:0:0:0:
384,160,81044,1,0,0:0:0:0:
384,128,81117,1,8,0:0:0:0:
416,160,81263,1,0,0:0:0:0:
384,160,81337,1,0,0:0:0:0:
384,160,81410,1,8,0:0:0:0:
416,160,81556,1,0,0:0:0:0:
416,160,81702,1,8,0:0:0:0:
384,128,81776,1,8,0:0:0:0:
384,128,81849,1,0,0:0:0:0:
384,128,81922,1,0,0:0:0:0:
384,128,81995,1,8,0:0:0:0:
384,128,82142,1,0,0:0:0:0:
384,128,82288,1,8,0:0:0:0:
384,128,82361,1,0,0:0:0:0:
384,128,82434,1,0,0:0:0:0:
416,128,82507,1,0,0:0:0:0:
384,96,82581,1,8,0:0:0:0:
384,96,82727,1,0,0:0:0:0:
384,96,82873,1,8,0:0:0:0:
416,128,82946,1,8,0:0:0:0:
416,128,83020,1,8,0:0:0:0:
416,128,83093,1,8,0:0:0:0:
384,128,83166,1,0,0:0:0:0:
416,128,83239,1,0,0:0:0:0:
416,128,83312,1,0,0:0:0:0:
416,128,83385,1,0,0:0:0:0:
384,128,83459,1,8,0:0:0:0:
320,96,83605,1,0,0:0:0:0:
320,96,83678,1,0,0:0:0:0:
320,96,83751,1,8,0:0:0:0:
352,96,83898,1,0,0:0:0:0:
352,96,84044,1,8,0:0:0:0:
352,96,84117,1,0,0:0:0:0:
352,96,84190,1,8,0:0:0:0:
352,96,84263,1,8,0:0:0:0:
352,96,84337,1,0,0:0:0:0:
352,96,84483,1,0,0:0:0:0:
352,160,84629,1,8,0:0:0:0:
448,160,84678,1,0,0:0:0:0:
448,128,84727,1,0,0:0:0:0:
352,128,84776,1,8,0:0:0:0:
352,128,84922,1,8,0:0:0:0:
416,160,85196,1,8,0:0:0:0:
416,160,85342,1,0,0:0:0:0:
320,128,85488,1,0,0:0:0:0:
320,128,85635,1,8,0:0:0:0:
320,128,85781,1,0,0:0:0:0:
320,128,85927,1,0,0:0:0:0:
320,128,86074,1,8,0:0:0:0:
320,128,86220,1,0,0:0:0:0:
320,128,86366,1,0,0:0:0:0:
320,128,86513,1,8,0:0:0:0:
320,128,86659,1,0,0:0:0:0:
320,128,86805,1,0,0:0:0:0:
352,128,86952,1,8,0:0:0:0:
320,160,87098,1,0,0:0:0:0:
384,160,87244,5,8,0:0:0:0:
384,160,87293,1,8,0:0:0:0:
384,160,87342,1,8,0:0:0:0:
384,160,87391,1,0,0:0:0:0:
352,128,87556,1,4,0:0:0:0:
384,160,87702,1,0,0:0:0:0:
384,160,87848,1,0,0:0:0:0:
384,160,87995,1,8,0:0:0:0:
384,160,88068,1,0,0:0:0:0:
384,160,88141,1,0,0:0:0:0:
384,160,88287,1,0,0:0:0:0:
384,160,88434,1,8,0:0:0:0:
384,160,88507,1,0,0:0:0:0:
384,160,88580,1,8,0:0:0:0:
384,160,88653,1,8,0:0:0:0:
384,160,88726,1,0,0:0:0:0:
384,160,88799,1,0,0:0:0:0:
384,160,88873,1,8,0:0:0:0:
384,160,89019,1,0,0:0:0:0:
384,160,89165,1,8,0:0:0:0:
384,160,89238,1,8,0:0:0:0:
384,160,89312,1,0,0:0:0:0:
384,160,89458,1,0,0:0:0:0:
384,160,89604,1,8,0:0:0:0:
384,160,89677,1,0,0:0:0:0:
384,160,89751,1,8,0:0:0:0:
384,160,89824,1,0,0:0:0:0:
384,160,89897,1,8,0:0:0:0:
384,160,89970,1,8,0:0:0:0:
384,160,90043,1,0,0:0:0:0:
384,160,90190,1,0,0:0:0:0:
384,160,90336,1,8,0:0:0:0:
384,160,90409,1,8,0:0:0:0:
384,160,90482,1,0,0:0:0:0:
384,160,90629,1,0,0:0:0:0:
384,160,90775,1,8,0:0:0:0:
384,160,90848,1,0,0:0:0:0:
384,160,90921,1,8,0:0:0:0:
384,160,90995,1,8,0:0:0:0:
384,160,91068,1,0,0:0:0:0:
384,160,91141,1,0,0:0:0:0:
384,160,91214,1,8,0:0:0:0:
384,160,91360,1,8,0:0:0:0:
384,128,91434,1,0,0:0:0:0:
384,160,91507,1,8,0:0:0:0:
384,160,91653,1,0,0:0:0:0:
384,160,91799,1,8,0:0:0:0:
384,160,91946,1,0,0:0:0:0:
384,160,92019,1,8,0:0:0:0:
384,160,92092,1,0,0:0:0:0:
384,160,92238,1,4,0:0:0:0:
352,160,92385,1,0,0:0:0:0:
352,160,92531,1,8,0:0:0:0:
384,160,92677,1,8,0:0:0:0:
384,160,92751,1,8,0:0:0:0:
384,160,92824,1,0,0:0:0:0:
384,160,92970,1,0,0:0:0:0:
384,160,93116,1,8,0:0:0:0:
384,160,93190,1,8,0:0:0:0:
384,160,93263,1,0,0:0:0:0:
384,160,93336,1,0,0:0:0:0:
384,160,93409,1,8,0:0:0:0:
384,160,93482,1,0,0:0:0:0:
384,160,93556,1,8,0:0:0:0:
352,160,93702,1,0,0:0:0:0:
384,160,93848,1,8,0:0:0:0:
384,160,93921,1,8,0:0:0:0:
384,160,93995,1,0,0:0:0:0:
384,160,94141,1,0,0:0:0:0:
384,160,94287,1,8,0:0:0:0:
384,160,94360,1,0,0:0:0:0:
384,160,94434,1,8,0:0:0:0:
384,160,94507,1,8,0:0:0:0:
384,160,94580,1,0,0:0:0:0:
384,160,94653,1,0,0:0:0:0:
384,160,94726,1,8,0:0:0:0:
384,192,94873,1,0,0:0:0:0:
352,160,94946,1,0,0:0:0:0:
352,160,95019,1,8,0:0:0:0:
352,160,95165,1,0,0:0:0:0:
320,160,95312,1,0,0:0:0:0:
352,128,95458,1,8,0:0:0:0:
352,128,95531,1,8,0:0:0:0:
352,128,95604,1,0,0:0:0:0:
320,128,95751,1,0,0:0:0:0:
320,128,95824,1,0,0:0:0:0:
320,128,95897,1,0,0:0:0:0:
320,128,95970,1,0,0:0:0:0:
320,128,96043,1,8,0:0:0:0:
320,128,96190,1,0,0:0:0:0:
320,128,96263,1,0,0:0:0:0:
320,128,96336,1,8,0:0:0:0:
320,128,96409,1,8,0:0:0:0:
320,128,96482,1,0,0:0:0:0:
320,128,96555,1,0,0:0:0:0:
288,192,96629,5,8,0:0:0:0:
288,192,96677,1,8,0:0:0:0:
288,192,96726,1,8,0:0:0:0:
288,192,96775,1,0,0:0:0:0:
320,128,96921,1,4,0:0:0:0:
320,160,97068,1,0,0:0:0:0:
352,160,97141,1,0,0:0:0:0:
352,160,97214,1,0,0:0:0:0:
352,128,97287,1,0,0:0:0:0:
352,160,97360,1,8,0:0:0:0:
352,128,97507,1,0,0:0:0:0:
352,128,97653,1,0,0:0:0:0:
352,128,97726,1,0,0:0:0:0:
352,128,97799,1,8,0:0:0:0:
352,128,97946,1,8,0:0:0:0:
352,128,98092,1,8,0:0:0:0:
352,128,98238,1,0,0:0:0:0:
352,128,98312,1,0,0:0:0:0:
352,128,98385,1,0,0:0:0:0:
352,128,98458,1,0,0:0:0:0:
352,128,98531,1,8,0:0:0:0:
352,128,98677,1,0,0:0:0:0:
352,128,98824,1,0,0:0:0:0:
352,160,98897,1,0,0:0:0:0:
352,160,98970,1,8,0:0:0:0:
352,160,99116,1,8,0:0:0:0:
352,160,99263,1,8,0:0:0:0:
352,160,99409,1,0,0:0:0:0:
352,160,99482,1,0,0:0:0:0:
352,160,99555,1,0,0:0:0:0:
352,160,99629,1,0,0:0:0:0:
352,160,99702,1,8,0:0:0:0:
384,160,99848,1,0,0:0:0:0:
384,160,99995,1,0,0:0:0:0:
384,128,100068,1,0,0:0:0:0:
384,160,100141,1,8,0:0:0:0:
384,128,100287,1,8,0:0:0:0:
384,128,100434,1,0,0:0:0:0:
384,128,100580,1,0,0:0:0:0:
384,128,100653,1,0,0:0:0:0:
384,128,100726,1,8,0:0:0:0:
384,128,100873,1,0,0:0:0:0:
384,128,101019,1,8,0:0:0:0:
384,128,101092,1,0,0:0:0:0:
384,128,101165,1,8,0:0:0:0:
384,128,101238,1,8,0:0:0:0:
384,128,101312,1,0,0:0:0:0:
384,128,101458,1,8,0:0:0:0:
384,128,101604,1,4,0:0:0:0:
384,128,101751,1,0,0:0:0:0:
384,128,101824,1,0,0:0:0:0:
384,128,101897,1,8,0:0:0:0:
384,128,101970,1,0,0:0:0:0:
384,128,102043,1,8,0:0:0:0:
384,128,102190,1,0,0:0:0:0:
384,128,102336,1,0,0:0:0:0:
384,128,102409,1,0,0:0:0:0:
384,128,102482,1,8,0:0:0:0:
384,128,102629,1,0,0:0:0:0:
384,128,102775,1,8,0:0:0:0:
384,128,102921,1,0,0:0:0:0:
384,128,102995,1,0,0:0:0:0:
384,128,103068,1,8,0:0:0:0:
384,128,103141,1,0,0:0:0:0:
384,128,103214,1,8,0:0:0:0:
384,128,103360,1,0,0:0:0:0:
352,128,103507,1,8,0:0:0:0:
352,128,103580,1,8,0:0:0:0:
352,128,103653,1,0,0:0:0:0:
352,160,103726,1,0,0:0:0:0:
352,160,103799,1,8,0:0:0:0:
352,160,103946,1,8,0:0:0:0:
352,160,104019,1,0,0:0:0:0:
352,160,104092,1,8,0:0:0:0:
352,160,104165,1,8,0:0:0:0:
352,160,104238,1,8,0:0:0:0:
352,160,104312,1,0,0:0:0:0:
352,160,104385,1,8,0:0:0:0:
352,160,104458,1,8,0:0:0:0:
352,160,104531,1,0,0:0:0:0:
352,160,104604,1,0,0:0:0:0:
352,160,104677,1,8,0:0:0:0:
352,192,104751,1,8,0:0:0:0:
352,192,104824,1,0,0:0:0:0:
352,160,104897,1,0,0:0:0:0:
352,160,104970,1,8,0:0:0:0:
352,160,105043,1,0,0:0:0:0:
352,160,105116,1,8,0:0:0:0:
352,160,105190,1,0,0:0:0:0:
352,160,105263,1,0,0:0:0:0:
352,160,105336,1,0,0:0:0:0:
352,160,105409,1,8,0:0:0:0:
352,160,105482,1,0,0:0:0:0:
352,160,105555,1,0,0:0:0:0:
352,160,105629,1,0,0:0:0:0:
352,160,105702,1,8,0:0:0:0:
384,160,105775,1,0,0:0:0:0:
384,160,105848,1,0,0:0:0:0:
384,160,105921,1,0,0:0:0:0:
384,160,105995,1,8,0:0:0:0:
384,160,106068,1,8,0:0:0:0:
384,160,106141,1,0,0:0:0:0:
384,160,106287,1,4,0:0:0:0:
384,128,106580,1,8,0:0:0:0:
384,128,106726,1,0,0:0:0:0:
384,128,106873,1,0,0:0:0:0:
384,128,107019,1,0,0:0:0:0:
384,128,107165,1,8,0:0:0:0:
384,128,107312,1,0,0:0:0:0:
384,128,107458,1,8,0:0:0:0:
416,160,107604,1,0,0:0:0:0:
416,160,107677,1,0,0:0:0:0:
416,160,107751,1,0,0:0:0:0:
416,160,107897,1,8,0:0:0:0:
416,160,108190,1,0,0:0:0:0:
416,160,108336,1,8,0:0:0:0:
416,160,108482,1,8,0:0:0:0:
416,160,108629,1,0,0:0:0:0:
416,160,108775,1,0,0:0:0:0:
416,160,108848,1,0,0:0:0:0:
416,160,108921,1,8,0:0:0:0:
448,160,109068,1,0,0:0:0:0:
448,160,109214,1,0,0:0:0:0:
448,160,109360,1,0,0:0:0:0:
448,160,109507,1,8,0:0:0:0:
448,160,109653,1,0,0:0:0:0:
448,160,109799,1,8,0:0:0:0:
448,160,109946,1,0,0:0:0:0:
448,160,110019,1,0,0:0:0:0:
448,160,110092,1,0,0:0:0:0:
448,160,110238,1,8,0:0:0:0:
448,160,110385,1,0,0:0:0:0:
320,128,110458,1,0,0:0:0:0:
320,160,110531,1,8,0:0:0:0:
448,128,110677,1,8,0:0:0:0:
448,128,110824,1,0,0:0:0:0:
448,128,110970,1,4,0:0:0:0:
448,128,111263,1,8,0:0:0:0:
384,160,111409,1,0,0:0:0:0:
384,160,111555,1,0,0:0:0:0:
384,160,111702,1,0,0:0:0:0:
416,128,111775,1,0,0:0:0:0:
384,160,111848,1,8,0:0:0:0:
384,160,111995,1,8,0:0:0:0:
384,160,112141,1,4,0:0:0:0:
416,128,112434,1,8,0:0:0:0:
416,128,112580,1,8,0:0:0:0:
416,128,112726,1,0,0:0:0:0:
416,128,112873,1,0,0:0:0:0:
416,128,112946,1,0,0:0:0:0:
416,128,113019,1,8,0:0:0:0:
416,128,113165,1,8,0:0:0:0:
416,128,113312,1,4,0:0:0:0:
384,64,113458,1,8,0:0:0:0:
416,128,113604,1,8,0:0:0:0:
416,96,113677,1,8,0:0:0:0:
416,128,113751,1,0,0:0:0:0:
416,128,113897,1,8,0:0:0:0:
416,96,114043,1,0,0:0:0:0:
416,96,114116,1,0,0:0:0:0:
416,96,114190,1,0,0:0:0:0:
416,96,114336,1,8,0:0:0:0:
416,160,114629,1,0,0:0:0:0:
416,128,114775,1,8,0:0:0:0:
416,128,114921,1,0,0:0:0:0:
416,128,115068,1,0,0:0:0:0:
416,128,115141,1,0,0:0:0:0:
416,128,115214,1,0,0:0:0:0:
416,128,115287,1,0,0:0:0:0:
416,128,115360,1,8,0:0:0:0:
416,128,115507,1,8,0:0:0:0:
416,128,115653,1,4,0:0:0:0:
352,160,115946,1,8,0:0:0:0:
352,160,116092,1,0,0:0:0:0:
352,160,116238,1,0,0:0:0:0:
352,160,116385,1,0,0:0:0:0:
352,160,116531,1,8,0:0:0:0:
352,160,116677,1,0,0:0:0:0:
384,160,116824,1,8,0:0:0:0:
384,160,116970,1,0,0:0:0:0:
352,128,117043,1,0,0:0:0:0:
384,160,117116,1,8,0:0:0:0:
416,192,117263,1,0,0:0:0:0:
416,192,117555,1,0,0:0:0:0:
416,192,117702,1,8,0:0:0:0:
416,160,117848,1,8,0:0:0:0:
416,160,117995,1,0,0:0:0:0:
416,160,118141,1,0,0:0:0:0:
416,160,118287,1,8,0:0:0:0:
416,160,118434,1,0,0:0:0:0:
416,160,118580,1,0,0:0:0:0:
416,160,118726,1,0,0:0:0:0:
416,160,118799,1,0,0:0:0:0:
416,160,118873,1,8,0:0:0:0:
416,160,119019,1,0,0:0:0:0:
416,160,119165,1,8,0:0:0:0:
416,160,119312,1,0,0:0:0:0:
416,160,119385,1,0,0:0:0:0:
416,160,119458,1,0,0:0:0:0:
416,160,119604,1,8,0:0:0:0:
416,160,119751,1,0,0:0:0:0:
416,160,119824,1,0,0:0:0:0:
416,160,119897,1,8,0:0:0:0:
352,160,120043,1,8,0:0:0:0:
384,160,120190,1,0,0:0:0:0:
384,160,120336,1,4,0:0:0:0:
320,160,120629,1,8,0:0:0:0:
320,128,120775,1,0,0:0:0:0:
320,128,120921,1,0,0:0:0:0:
320,160,121068,1,0,0:0:0:0:
320,128,121141,1,0,0:0:0:0:
320,160,121214,1,8,0:0:0:0:
320,128,121360,1,0,0:0:0:0:
320,128,121507,1,4,0:0:0:0:
384,128,121799,1,8,0:0:0:0:
384,128,121946,1,0,0:0:0:0:
416,128,122092,1,8,0:0:0:0:
416,128,122238,1,0,0:0:0:0:
416,128,122312,1,0,0:0:0:0:
416,128,122385,1,8,0:0:0:0:
416,160,122531,1,8,0:0:0:0:
416,128,122677,1,4,0:0:0:0:
416,128,122824,1,0,0:0:0:0:
416,128,122970,1,8,0:0:0:0:
416,128,123043,1,8,0:0:0:0:
416,128,123116,1,0,0:0:0:0:
416,128,123263,1,0,0:0:0:0:
416,128,123409,1,8,0:0:0:0:
416,128,123482,1,0,0:0:0:0:
416,128,123555,1,0,0:0:0:0:
384,160,123702,1,8,0:0:0:0:
416,128,123995,1,8,0:0:0:0:
256,192,124031,1,8,0:0:0:0:
320,160,124141,1,0,0:0:0:0:
352,160,124434,5,8,0:0:0:0:
352,160,124581,5,0,0:0:0:0:
352,160,124726,1,8,0:0:0:0:
352,160,124873,1,0,0:0:0:0:
384,160,125019,5,4,0:0:0:0:
416,160,125165,1,0,0:0:0:0:
416,160,125312,1,8,0:0:0:0:
416,160,125458,1,0,0:0:0:0:
416,160,125531,1,0,0:0:0:0:
416,128,125604,1,0,0:0:0:0:
416,128,125751,1,0,0:0:0:0:
384,128,125897,1,8,0:0:0:0:
384,160,126043,1,0,0:0:0:0:
384,160,126116,1,0,0:0:0:0:
384,160,126190,1,0,0:0:0:0:
384,160,126336,1,0,0:0:0:0:
416,160,126482,1,8,0:0:0:0:
384,160,126629,1,0,0:0:0:0:
384,160,126702,1,0,0:0:0:0:
384,160,126775,1,8,0:0:0:0:
384,160,126848,1,8,0:0:0:0:
384,160,126921,1,0,0:0:0:0:
384,128,126995,1,0,0:0:0:0:
384,128,127068,1,8,0:0:0:0:
384,128,127214,1,0,0:0:0:0:
384,128,127360,1,12,0:0:0:0:
384,128,127507,1,0,0:0:0:0:
384,128,127653,1,8,0:0:0:0:
384,128,127799,1,0,0:0:0:0:
384,128,127873,1,0,0:0:0:0:
384,128,127946,1,8,0:0:0:0:
384,128,128092,1,0,0:0:0:0:
384,128,128238,1,8,0:0:0:0:
384,128,128385,1,0,0:0:0:0:
384,128,128458,1,0,0:0:0:0:
384,128,128531,1,0,0:0:0:0:
384,128,128677,1,0,0:0:0:0:
384,128,128824,1,8,0:0:0:0:
384,128,128970,1,0,0:0:0:0:
384,128,129043,1,0,0:0:0:0:
384,128,129116,1,8,0:0:0:0:
384,96,129190,1,8,0:0:0:0:
384,96,129263,1,0,0:0:0:0:
384,96,129336,1,0,0:0:0:0:
384,96,129409,1,8,0:0:0:0:
384,96,129555,1,0,0:0:0:0:
416,96,129702,1,4,0:0:0:0:
384,96,129848,1,0,0:0:0:0:
320,128,129995,5,8,0:0:0:0:
320,128,130068,1,0,0:0:0:0:
320,128,130141,1,8,0:0:0:0:
352,160,130214,1,8,0:0:0:0:
320,128,130287,1,0,0:0:0:0:
320,128,130434,1,0,0:0:0:0:
352,128,130580,1,8,0:0:0:0:
352,128,130726,1,8,0:0:0:0:
352,128,130873,1,4,0:0:0:0:
352,128,131019,1,0,0:0:0:0:
352,128,131092,1,0,0:0:0:0:
352,128,131165,1,8,0:0:0:0:
352,160,131312,1,0,0:0:0:0:
352,160,131458,1,8,0:0:0:0:
352,160,131531,1,0,0:0:0:0:
352,160,131604,1,0,0:0:0:0:
352,160,131677,1,0,0:0:0:0:
352,160,131751,1,8,0:0:0:0:
352,160,131897,1,8,0:0:0:0:
352,160,132043,1,4,0:0:0:0:
352,160,132336,1,8,0:0:0:0:
352,160,132482,1,0,0:0:0:0:
352,160,132555,1,0,0:0:0:0:
352,160,132629,1,0,0:0:0:0:
352,160,132775,1,0,0:0:0:0:
352,160,132921,1,8,0:0:0:0:
352,160,133068,1,4,0:0:0:0:
352,160,133360,1,0,0:0:0:0:
352,160,133434,1,0,0:0:0:0:
352,160,133507,1,8,0:0:0:0:
352,160,133653,1,0,0:0:0:0:
384,160,133799,1,0,0:0:0:0:
384,160,133873,1,8,0:0:0:0:
384,160,133946,1,0,0:0:0:0:
384,160,134092,1,8,0:0:0:0:
384,160,134165,1,8,0:0:0:0:
384,160,134238,1,0,0:0:0:0:
384,160,134385,1,4,0:0:0:0:
384,160,134531,1,8,0:0:0:0:
384,160,134677,1,0,0:0:0:0:
384,128,134824,1,8,0:0:0:0:
384,128,134970,1,0,0:0:0:0:
384,160,135043,1,0,0:0:0:0:
384,128,135116,1,8,0:0:0:0:
384,128,135263,1,0,0:0:0:0:
384,128,135409,1,8,0:0:0:0:
384,128,135555,1,0,0:0:0:0:
320,128,135629,5,0,0:0:0:0:
352,96,135702,1,8,0:0:0:0:
384,96,135848,1,0,0:0:0:0:
384,128,135995,1,8,0:0:0:0:
416,128,136141,1,0,0:0:0:0:
352,128,136214,1,0,0:0:0:0:
352,128,136287,1,8,0:0:0:0:
352,128,136434,1,0,0:0:0:0:
320,128,136507,1,0,0:0:0:0:
352,128,136580,1,8,0:0:0:0:
384,96,136726,1,0,0:0:0:0:
384,160,136799,1,0,0:0:0:0:
384,96,136873,1,8,0:0:0:0:
384,96,137019,1,0,0:0:0:0:
384,96,137165,1,8,0:0:0:0:
384,96,137312,1,0,0:0:0:0:
384,160,137385,1,0,0:0:0:0:
384,160,137458,1,8,0:0:0:0:
416,128,137604,1,0,0:0:0:0:
416,160,137751,1,8,0:0:0:0:
352,160,137897,1,0,0:0:0:0:
384,128,137970,1,0,0:0:0:0:
352,160,138043,1,8,0:0:0:0:
416,160,138190,1,0,0:0:0:0:
416,160,138336,1,8,0:0:0:0:
384,128,138482,1,0,0:0:0:0:
384,128,138555,1,0,0:0:0:0:
352,128,138629,1,8,0:0:0:0:
384,128,138702,1,0,0:0:0:0:
352,128,138775,1,0,0:0:0:0:
384,128,138848,1,0,0:0:0:0:
384,128,138921,1,8,0:0:0:0:
384,128,139068,1,4,0:0:0:0:
384,128,139214,1,0,0:0:0:0:
384,128,139360,1,8,0:0:0:0:
416,128,139434,1,8,0:0:0:0:
384,128,139507,1,0,0:0:0:0:
416,128,139653,1,0,0:0:0:0:
416,128,139799,1,8,0:0:0:0:
448,160,139946,1,0,0:0:0:0:
448,128,140019,1,0,0:0:0:0:
448,160,140092,1,0,0:0:0:0:
448,160,140238,1,8,0:0:0:0:
448,160,140385,1,0,0:0:0:0:
448,160,140531,1,8,0:0:0:0:
384,128,140604,5,8,0:0:0:0:
416,160,140677,1,0,0:0:0:0:
416,160,140824,1,8,0:0:0:0:
416,160,140897,1,0,0:0:0:0:
416,160,140970,1,8,0:0:0:0:
416,160,141043,1,0,0:0:0:0:
416,160,141116,1,8,0:0:0:0:
416,160,141190,1,8,0:0:0:0:
416,160,141263,1,0,0:0:0:0:
416,160,141336,1,0,0:0:0:0:
352,160,141409,5,8,0:0:0:0:
352,160,141482,1,0,0:0:0:0:
352,160,141555,1,8,0:0:0:0:
352,160,141629,1,8,0:0:0:0:
352,160,141702,1,0,0:0:0:0:
352,160,141775,1,0,0:0:0:0:
352,160,141848,1,8,0:0:0:0:
352,160,141921,1,0,0:0:0:0:
352,160,141995,1,8,0:0:0:0:
352,128,142068,1,8,0:0:0:0:
384,128,142141,1,0,0:0:0:0:
352,160,142214,1,8,0:0:0:0:
384,160,142287,1,0,0:0:0:0:
384,128,142360,1,0,0:0:0:0:
384,128,142434,1,8,0:0:0:0:
384,128,142507,1,0,0:0:0:0:
384,128,142580,1,8,0:0:0:0:
384,128,142653,1,0,0:0:0:0:
384,128,142726,1,8,0:0:0:0:
384,160,142799,1,8,0:0:0:0:
384,160,142873,1,0,0:0:0:0:
384,160,142946,1,0,0:0:0:0:
384,128,143019,1,8,0:0:0:0:
384,160,143092,1,0,0:0:0:0:
384,160,143165,1,8,0:0:0:0:
384,160,143238,1,8,0:0:0:0:
384,128,143312,1,0,0:0:0:0:
384,128,143385,1,0,0:0:0:0:
384,128,143458,1,8,0:0:0:0:
384,128,143531,1,8,0:0:0:0:
384,128,143604,1,8,0:0:0:0:
384,128,143677,1,8,0:0:0:0:
384,128,143751,5,4,0:0:0:0:
352,128,143897,1,8,0:0:0:0:
352,128,143970,1,8,0:0:0:0:
352,128,144043,1,0,0:0:0:0:
352,128,144116,1,0,0:0:0:0:
352,128,144190,1,8,0:0:0:0:
384,128,144336,1,0,0:0:0:0:
384,128,144482,1,8,0:0:0:0:
384,128,144555,1,0,0:0:0:0:
384,128,144629,1,0,0:0:0:0:
384,128,144702,1,0,0:0:0:0:
384,128,144775,1,8,0:0:0:0:
384,128,144921,1,0,0:0:0:0:
384,128,145068,1,0,0:0:0:0:
384,128,145141,1,8,0:0:0:0:
384,128,145214,1,0,0:0:0:0:
384,128,145287,1,8,0:0:0:0:
384,128,145360,1,8,0:0:0:0:
384,128,145434,1,8,0:0:0:0:
384,128,145507,1,0,0:0:0:0:
384,128,145653,1,8,0:0:0:0:
384,128,145799,1,0,0:0:0:0:
384,128,145873,1,0,0:0:0:0:
384,128,145946,1,8,0:0:0:0:
384,128,146092,1,0,0:0:0:0:
384,128,146238,1,8,0:0:0:0:
384,128,146312,1,0,0:0:0:0:
384,128,146385,1,8,0:0:0:0:
384,128,146531,1,0,0:0:0:0:
384,128,146604,1,0,0:0:0:0:
384,128,146677,1,8,0:0:0:0:
384,128,146751,1,0,0:0:0:0:
384,128,146824,1,0,0:0:0:0:
384,128,146897,1,8,0:0:0:0:
384,128,146970,1,8,0:0:0:0:
384,128,147116,1,8,0:0:0:0:
384,128,147263,1,0,0:0:0:0:
384,128,147336,1,0,0:0:0:0:
384,128,147409,1,8,0:0:0:0:
384,128,147482,1,0,0:0:0:0:
384,128,147555,1,8,0:0:0:0:
384,128,147629,1,8,0:0:0:0:
384,128,147702,1,0,0:0:0:0:
384,128,147775,1,0,0:0:0:0:
384,128,147848,1,8,0:0:0:0:
384,96,147995,1,8,0:0:0:0:
384,96,148141,1,0,0:0:0:0:
416,160,148214,1,0,0:0:0:0:
384,128,148287,1,8,0:0:0:0:
384,128,148434,1,0,0:0:0:0:
384,128,148507,1,0,0:0:0:0:
384,128,148580,1,8,0:0:0:0:
384,128,148653,1,0,0:0:0:0:
384,128,148726,1,8,0:0:0:0:
384,128,148799,1,8,0:0:0:0:
384,128,148873,1,0,0:0:0:0:
384,128,148946,1,8,0:0:0:0:
384,128,149019,1,0,0:0:0:0:
384,128,149092,1,8,0:0:0:0:
384,128,149165,1,8,0:0:0:0:
384,128,149238,1,0,0:0:0:0:
384,128,149312,1,8,0:0:0:0:
384,128,149385,1,0,0:0:0:0:
384,96,149458,1,8,0:0:0:0:
384,96,149531,1,8,0:0:0:0:
384,96,149604,1,0,0:0:0:0:
384,96,149677,1,8,0:0:0:0:
384,96,149751,1,8,0:0:0:0:
384,96,149824,1,0,0:0:0:0:
384,96,149897,1,8,0:0:0:0:
384,96,150043,1,0,0:0:0:0:
384,96,150190,1,8,0:0:0:0:
384,96,150336,1,0,0:0:0:0:
448,128,150409,1,0,0:0:0:0:
384,96,150482,1,8,0:0:0:0:
384,96,150629,1,0,0:0:0:0:
384,96,150775,1,8,0:0:0:0:
384,96,150848,1,0,0:0:0:0:
352,128,150921,1,8,0:0:0:0:
384,128,150995,1,8,0:0:0:0:
384,128,151068,1,0,0:0:0:0:
384,128,151141,1,8,0:0:0:0:
384,128,151214,1,0,0:0:0:0:
384,128,151287,1,8,0:0:0:0:
384,128,151360,1,8,0:0:0:0:
384,128,151434,1,0,0:0:0:0:
384,128,151507,1,8,0:0:0:0:
384,128,151580,1,0,0:0:0:0:
384,128,151653,1,8,0:0:0:0:
384,128,151726,1,8,0:0:0:0:
384,128,151799,1,0,0:0:0:0:
384,128,151873,1,8,0:0:0:0:
384,128,151946,1,0,0:0:0:0:
448,128,152092,1,0,0:0:0:0:
384,128,152165,1,0,0:0:0:0:
480,128,152238,1,8,0:0:0:0:
352,96,152385,1,0,0:0:0:0:
352,96,152531,1,8,0:0:0:0:
352,96,152604,1,8,0:0:0:0:
352,96,152677,1,8,0:0:0:0:
384,96,152751,1,8,0:0:0:0:
352,96,152824,1,0,0:0:0:0:
352,96,152897,1,0,0:0:0:0:
352,96,152970,1,8,0:0:0:0:
352,96,153116,1,8,0:0:0:0:
352,96,153190,1,0,0:0:0:0:
352,96,153263,1,8,0:0:0:0:
352,96,153336,1,8,0:0:0:0:
352,96,153409,1,0,0:0:0:0:
352,96,153482,1,8,0:0:0:0:
352,96,153555,1,0,0:0:0:0:
352,96,153629,1,8,0:0:0:0:
352,96,153702,1,8,0:0:0:0:
352,96,153775,1,0,0:0:0:0:
352,96,153848,1,8,0:0:0:0:
352,96,153921,1,0,0:0:0:0:
352,96,153995,1,8,0:0:0:0:
352,96,154068,1,8,0:0:0:0:
352,128,154141,1,0,0:0:0:0:
352,128,154214,1,8,0:0:0:0:
352,128,154287,1,0,0:0:0:0:
352,128,154360,1,8,0:0:0:0:
352,128,154434,1,8,0:0:0:0:
352,128,154507,1,0,0:0:0:0:
352,128,154580,1,8,0:0:0:0:
352,128,154653,1,8,0:0:0:0:
352,128,154726,1,8,0:0:0:0:
352,160,154799,1,0,0:0:0:0:
352,160,154873,1,8,0:0:0:0:
384,160,155019,1,8,0:0:0:0:
384,160,155092,1,8,0:0:0:0:
384,160,155165,1,0,0:0:0:0:
384,160,155238,1,0,0:0:0:0:
384,128,155312,1,8,0:0:0:0:
384,128,155458,1,0,0:0:0:0:
384,128,155604,1,0,0:0:0:0:
384,128,155677,1,0,0:0:0:0:
384,128,155751,1,8,0:0:0:0:
384,128,155897,1,0,0:0:0:0:
384,128,156043,1,0,0:0:0:0:
384,128,156116,1,8,0:0:0:0:
384,128,156190,1,0,0:0:0:0:
384,128,156263,1,8,0:0:0:0:
384,128,156336,1,0,0:0:0:0:
416,128,156409,1,8,0:0:0:0:
416,128,156482,1,8,0:0:0:0:
416,96,156555,5,8,0:0:0:0:
384,128,156629,1,0,0:0:0:0:
384,128,156775,1,0,0:0:0:0:
384,128,156848,1,0,0:0:0:0:
384,128,156921,1,8,0:0:0:0:
384,96,157068,1,0,0:0:0:0:
416,128,157214,1,8,0:0:0:0:
384,96,157287,1,8,0:0:0:0:
384,96,157360,1,8,0:0:0:0:
384,96,157434,1,8,0:0:0:0:
352,160,157507,1,0,0:0:0:0:
384,160,157653,1,0,0:0:0:0:
384,160,157799,1,8,0:0:0:0:
384,160,157873,1,0,0:0:0:0:
416,96,157946,1,0,0:0:0:0:
416,128,158019,1,0,0:0:0:0:
416,96,158092,1,8,0:0:0:0:
352,128,158238,1,0,0:0:0:0:
352,128,158385,1,8,0:0:0:0:
352,128,158458,1,8,0:0:0:0:
352,128,158531,1,0,0:0:0:0:
352,128,158677,1,8,0:0:0:0:
352,128,158824,1,0,0:0:0:0:
352,128,158897,1,0,0:0:0:0:
352,128,158970,1,8,0:0:0:0:
352,128,159116,1,0,0:0:0:0:
352,128,159263,1,8,0:0:0:0:
352,128,159336,1,0,0:0:0:0:
352,128,159409,1,0,0:0:0:0:
352,128,159482,1,0,0:0:0:0:
352,128,159555,1,8,0:0:0:0:
352,128,159702,1,0,0:0:0:0:
352,128,159848,1,8,0:0:0:0:
352,128,159921,1,8,0:0:0:0:
352,128,159995,1,0,0:0:0:0:
352,128,160068,1,0,0:0:0:0:
416,128,160141,1,8,0:0:0:0:
416,128,160214,1,8,0:0:0:0:
416,128,160287,1,8,0:0:0:0:
416,128,160360,1,8,0:0:0:0:
416,128,160434,1,0,0:0:0:0:
416,128,160507,1,0,0:0:0:0:
416,128,160580,1,8,0:0:0:0:
416,96,160653,1,8,0:0:0:0:
416,96,160726,1,0,0:0:0:0:
416,96,160799,1,0,0:0:0:0:
416,96,160873,1,0,0:0:0:0:
416,96,160946,1,0,0:0:0:0:
416,96,161019,1,8,0:0:0:0:
416,96,161092,1,0,0:0:0:0:
416,96,161165,1,8,0:0:0:0:
416,96,161238,1,0,0:0:0:0:
416,96,161312,1,8,0:0:0:0:
352,128,161385,1,8,0:0:0:0:
352,128,161458,1,0,0:0:0:0:
352,128,161531,1,8,0:0:0:0:
352,128,161604,1,8,0:0:0:0:
352,160,161677,1,0,0:0:0:0:
352,160,161751,1,8,0:0:0:0:
352,160,161824,1,0,0:0:0:0:
352,160,161897,1,8,0:0:0:0:
384,160,162043,1,0,0:0:0:0:
416,160,162190,1,8,0:0:0:0:
416,160,162263,1,8,0:0:0:0:
416,160,162336,1,8,0:0:0:0:
416,160,162409,1,8,0:0:0:0:
416,160,162482,1,0,0:0:0:0:
320,160,162555,1,0,0:0:0:0:
352,160,162629,1,8,0:0:0:0:
352,160,162702,1,0,0:0:0:0:
352,160,162775,1,0,0:0:0:0:
352,160,162848,1,0,0:0:0:0:
352,160,162921,1,8,0:0:0:0:
352,160,162995,1,8,0:0:0:0:
352,160,163068,1,0,0:0:0:0:
352,160,163141,1,0,0:0:0:0:
352,160,163214,1,8,0:0:0:0:
352,160,163287,1,8,0:0:0:0:
384,160,163360,1,0,0:0:0:0:
384,160,163434,1,0,0:0:0:0:
384,160,163507,1,8,0:0:0:0:
384,160,163580,1,0,0:0:0:0:
384,160,163653,1,8,0:0:0:0:
384,160,163726,1,0,0:0:0:0:
384,160,163799,1,8,0:0:0:0:
384,160,163873,1,8,0:0:0:0:
352,160,163946,1,0,0:0:0:0:
352,160,164019,1,0,0:0:0:0:
352,160,164092,1,8,0:0:0:0:
352,160,164165,1,0,0:0:0:0:
352,160,164238,1,8,0:0:0:0:
352,160,164312,1,0,0:0:0:0:
352,160,164385,1,0,0:0:0:0:
352,160,164458,1,8,0:0:0:0:
352,160,164531,1,0,0:0:0:0:
352,160,164604,1,0,0:0:0:0:
352,160,164677,1,8,0:0:0:0:
352,160,164751,1,0,0:0:0:0:
352,160,164824,1,8,0:0:0:0:
352,160,164897,1,0,0:0:0:0:
352,160,164970,1,8,0:0:0:0:
352,160,165043,1,8,0:0:0:0:
320,128,165116,1,0,0:0:0:0:
320,128,165190,1,0,0:0:0:0:
320,128,165263,1,8,0:0:0:0:
320,128,165336,1,0,0:0:0:0:
352,128,165409,1,8,0:0:0:0:
352,128,165482,1,0,0:0:0:0:
320,128,165555,1,8,0:0:0:0:
352,128,165629,1,8,0:0:0:0:
352,128,165702,1,0,0:0:0:0:
320,128,165775,1,0,0:0:0:0:
320,128,165848,1,8,0:0:0:0:
320,128,165921,1,0,0:0:0:0:
320,128,165995,1,8,0:0:0:0:
320,128,166068,1,8,0:0:0:0:
320,128,166141,1,8,0:0:0:0:
352,160,166214,1,8,0:0:0:0:
320,128,166287,1,0,0:0:0:0:
384,128,166360,1,0,0:0:0:0:
320,128,166434,1,8,0:0:0:0:
320,128,166507,1,8,0:0:0:0:
320,128,166580,1,0,0:0:0:0:
320,128,166653,1,0,0:0:0:0:
320,128,166726,1,8,0:0:0:0:
320,160,166799,1,8,0:0:0:0:
320,128,166873,1,0,0:0:0:0:
320,128,167019,1,8,0:0:0:0:
320,128,167165,1,8,0:0:0:0:
320,128,167238,1,0,0:0:0:0:
320,128,167312,1,8,0:0:0:0:
320,128,167385,1,8,0:0:0:0:
320,128,167458,1,0,0:0:0:0:
320,128,167531,1,0,0:0:0:0:
352,128,167604,1,8,0:0:0:0:
320,128,167677,1,0,0:0:0:0:
352,128,167751,1,8,0:0:0:0:
352,128,167824,1,0,0:0:0:0:
352,128,167897,1,0,0:0:0:0:
352,128,167970,1,8,0:0:0:0:
352,128,168043,1,0,0:0:0:0:
352,128,168116,1,0,0:0:0:0:
352,128,168190,1,8,0:0:0:0:
352,128,168263,1,0,0:0:0:0:
352,128,168336,1,8,0:0:0:0:
352,128,168409,1,0,0:0:0:0:
352,128,168482,1,8,0:0:0:0:
352,160,168555,1,8,0:0:0:0:
352,128,168629,1,0,0:0:0:0:
352,128,168702,1,0,0:0:0:0:
352,128,168775,1,8,0:0:0:0:
352,128,168848,1,0,0:0:0:0:
320,128,168921,1,8,0:0:0:0:
320,128,168995,1,0,0:0:0:0:
320,128,169068,1,8,0:0:0:0:
320,128,169141,1,8,0:0:0:0:
320,128,169214,1,0,0:0:0:0:
320,128,169287,1,0,0:0:0:0:
320,128,169360,1,8,0:0:0:0:
320,128,169434,1,0,0:0:0:0:
320,128,169507,1,8,0:0:0:0:
320,128,169580,1,0,0:0:0:0:
320,128,169653,1,8,0:0:0:0:
320,128,169726,1,8,0:0:0:0:
320,128,169799,1,0,0:0:0:0:
384,160,169873,1,0,0:0:0:0:
384,160,169946,1,8,0:0:0:0:
384,160,170019,1,0,0:0:0:0:
384,160,170092,1,8,0:0:0:0:
384,160,170165,1,8,0:0:0:0:
352,128,170238,1,0,0:0:0:0:
352,128,170312,1,8,0:0:0:0:
352,128,170385,1,0,0:0:0:0:
352,128,170458,1,0,0:0:0:0:
352,128,170531,1,8,0:0:0:0:
352,128,170604,1,0,0:0:0:0:
352,128,170677,1,8,0:0:0:0:
352,128,170751,1,8,0:0:0:0:
352,128,170824,1,8,0:0:0:0:
352,128,170897,1,8,0:0:0:0:
352,128,170970,1,0,0:0:0:0:
352,128,171043,1,0,0:0:0:0:
352,128,171116,1,8,0:0:0:0:
352,128,171190,1,0,0:0:0:0:
352,128,171263,1,8,0:0:0:0:
352,128,171336,5,8,0:0:0:0:
352,128,171409,5,8,0:0:0:0:
320,128,171482,5,8,0:0:0:0:
320,128,171555,5,0,0:0:0:0:
320,128,171629,5,0,0:0:0:0:
320,128,171702,5,8,0:0:0:0:
352,160,171848,5,4,0:0:0:0:
352,160,171995,1,8,0:0:0:0:
352,160,172141,1,0,0:0:0:0:
384,160,172214,1,0,0:0:0:0:
352,160,172287,1,8,0:0:0:0:
384,160,172434,1,0,0:0:0:0:
384,160,172507,1,0,0:0:0:0:
384,160,172580,1,8,0:0:0:0:
384,160,172653,1,0,0:0:0:0:
384,160,172799,1,0,0:0:0:0:
384,160,172873,1,8,0:0:0:0:
384,160,173019,1,0,0:0:0:0:
384,160,173165,1,8,0:0:0:0:
384,160,173312,1,0,0:0:0:0:
384,160,173385,1,0,0:0:0:0:
416,160,173458,1,8,0:0:0:0:
352,128,173604,1,0,0:0:0:0:
352,128,173751,1,8,0:0:0:0:
352,128,173824,1,0,0:0:0:0:
352,128,173897,1,0,0:0:0:0:
352,128,173970,1,0,0:0:0:0:
384,128,174043,1,8,0:0:0:0:
384,128,174190,1,0,0:0:0:0:
384,160,174336,1,8,0:0:0:0:
384,160,174482,1,0,0:0:0:0:
384,160,174555,1,0,0:0:0:0:
384,160,174629,1,8,0:0:0:0:
384,160,174775,1,0,0:0:0:0:
384,160,174848,1,0,0:0:0:0:
384,128,174921,1,8,0:0:0:0:
384,160,174995,1,0,0:0:0:0:
384,160,175141,1,0,0:0:0:0:
384,128,175214,1,8,0:0:0:0:
384,128,175360,1,0,0:0:0:0:
352,160,175507,1,8,0:0:0:0:
384,160,175653,1,0,0:0:0:0:
384,160,175726,1,0,0:0:0:0:
384,160,175799,1,8,0:0:0:0:
384,160,175946,1,0,0:0:0:0:
384,160,176019,1,0,0:0:0:0:
384,160,176092,1,8,0:0:0:0:
384,128,176165,1,0,0:0:0:0:
384,128,176238,1,0,0:0:0:0:
384,128,176312,1,0,0:0:0:0:
384,128,176385,1,8,0:0:0:0:
384,128,176531,1,4,0:0:0:0:
384,128,176677,1,8,0:0:0:0:
384,160,176751,1,8,0:0:0:0:
384,160,176824,1,0,0:0:0:0:
416,128,176897,1,0,0:0:0:0:
384,160,176970,1,8,0:0:0:0:
384,160,177116,1,0,0:0:0:0:
416,128,177190,1,0,0:0:0:0:
416,160,177263,1,8,0:0:0:0:
416,128,177336,1,0,0:0:0:0:
416,128,177482,1,0,0:0:0:0:
416,160,177555,1,8,0:0:0:0:
352,160,177702,1,4,0:0:0:0:
352,160,177848,1,8,0:0:0:0:
384,160,177995,1,0,0:0:0:0:
320,160,178068,1,0,0:0:0:0:
384,160,178141,1,8,0:0:0:0:
384,160,178287,1,0,0:0:0:0:
384,160,178360,1,0,0:0:0:0:
384,160,178434,1,8,0:0:0:0:
384,160,178507,1,8,0:0:0:0:
384,160,178580,1,0,0:0:0:0:
384,128,178726,1,8,0:0:0:0:
384,128,178873,1,8,0:0:0:0:
384,128,178946,1,0,0:0:0:0:
384,128,179019,1,8,0:0:0:0:
384,128,179092,1,8,0:0:0:0:
384,128,179165,1,0,0:0:0:0:
384,128,179238,1,0,0:0:0:0:
384,128,179312,1,8,0:0:0:0:
384,128,179385,1,8,0:0:0:0:
384,128,179458,1,8,0:0:0:0:
384,128,179531,1,0,0:0:0:0:
384,128,179604,1,0,0:0:0:0:
384,128,179677,1,8,0:0:0:0:
384,128,179751,1,0,0:0:0:0:
384,128,179824,1,0,0:0:0:0:
384,160,179897,1,8,0:0:0:0:
384,128,179970,1,0,0:0:0:0:
416,128,180043,1,8,0:0:0:0:
416,128,180116,1,8,0:0:0:0:
416,128,180190,1,8,0:0:0:0:
416,128,180263,1,8,0:0:0:0:
416,128,180336,1,0,0:0:0:0:
416,128,180409,1,0,0:0:0:0:
416,128,180482,1,0,0:0:0:0:
384,128,180555,1,0,0:0:0:0:
384,128,180629,1,12,0:0:0:0:
384,128,180921,1,0,0:0:0:0:
352,128,181214,5,0,0:0:0:0:
352,128,181287,1,0,0:0:0:0:
352,128,181360,1,8,0:0:0:0:
352,128,181434,1,0,0:0:0:0:
384,96,181507,1,8,0:0:0:0:
352,96,181580,1,8,0:0:0:0:
384,96,181653,1,0,0:0:0:0:
384,96,181726,1,0,0:0:0:0:
320,160,181799,5,8,0:0:0:0:
320,160,181848,1,8,0:0:0:0:
288,160,181897,1,8,0:0:0:0:
288,160,181946,1,0,0:0:0:0:
352,96,182019,1,0,0:0:0:0:
352,96,182092,1,8,0:0:0:0:
384,96,182165,1,0,0:0:0:0:
384,96,182238,1,8,0:0:0:0:
384,96,182312,1,8,0:0:0:0:
384,96,182385,1,0,0:0:0:0:
384,96,182458,1,0,0:0:0:0:
384,96,182531,1,8,0:0:0:0:
384,96,182604,1,0,0:0:0:0:
384,96,182677,1,8,0:0:0:0:
384,96,182751,1,8,0:0:0:0:
384,96,182824,1,0,0:0:0:0:
384,96,182897,1,0,0:0:0:0:
320,128,182971,1,8,0:0:0:0:
320,128,183020,1,8,0:0:0:0:
320,128,183068,1,8,0:0:0:0:
288,160,183117,1,0,0:0:0:0:
320,160,183190,1,0,0:0:0:0:
320,160,183263,1,8,0:0:0:0:
320,128,183336,1,0,0:0:0:0:
320,160,183409,1,8,0:0:0:0:
320,128,183482,1,8,0:0:0:0:
320,128,183555,1,0,0:0:0:0:
320,128,183629,1,0,0:0:0:0:
320,128,183702,1,8,0:0:0:0:
320,128,183775,1,0,0:0:0:0:
320,128,183848,1,8,0:0:0:0:
320,128,183921,1,8,0:0:0:0:
320,128,183995,1,0,0:0:0:0:
320,128,184068,1,0,0:0:0:0:
288,160,184141,1,8,0:0:0:0:
288,160,184190,1,8,0:0:0:0:
320,160,184238,1,8,0:0:0:0:
320,160,184287,1,0,0:0:0:0:
320,128,184360,1,0,0:0:0:0:
320,128,184434,1,8,0:0:0:0:
320,128,184507,1,0,0:0:0:0:
320,128,184580,1,8,0:0:0:0:
320,128,184653,1,8,0:0:0:0:
320,128,184726,1,0,0:0:0:0:
320,128,184799,1,0,0:0:0:0:
320,128,184873,1,0,0:0:0:0:
320,128,184946,1,0,0:0:0:0:
320,128,185019,1,8,0:0:0:0:
320,128,185092,1,8,0:0:0:0:
320,128,185165,1,8,0:0:0:0:
320,128,185238,1,8,0:0:0:0:
320,128,185312,1,0,0:0:0:0:
320,128,185385,1,0,0:0:0:0:
320,128,185458,1,8,0:0:0:0:
352,128,185531,1,8,0:0:0:0:
352,128,185604,1,0,0:0:0:0:
352,128,185751,1,8,0:0:0:0:
352,128,185897,1,0,0:0:0:0:
352,128,185970,1,0,0:0:0:0:
352,128,186043,1,8,0:0:0:0:
352,96,186116,1,0,0:0:0:0:
352,96,186190,1,8,0:0:0:0:
352,96,186263,1,8,0:0:0:0:
352,96,186336,1,0,0:0:0:0:
352,96,186409,1,0,0:0:0:0:
320,160,186482,1,8,0:0:0:0:
320,160,186531,1,8,0:0:0:0:
320,160,186580,1,8,0:0:0:0:
320,160,186629,1,0,0:0:0:0:
320,96,186702,1,0,0:0:0:0:
320,128,186775,1,8,0:0:0:0:
320,128,186848,1,0,0:0:0:0:
320,128,186921,1,8,0:0:0:0:
320,128,186995,1,8,0:0:0:0:
320,128,187068,1,0,0:0:0:0:
320,128,187141,1,0,0:0:0:0:
320,96,187214,1,8,0:0:0:0:
320,96,187287,1,0,0:0:0:0:
320,96,187360,1,8,0:0:0:0:
320,96,187434,1,8,0:0:0:0:
320,96,187507,1,0,0:0:0:0:
320,96,187580,1,0,0:0:0:0:
320,128,187653,1,8,0:0:0:0:
320,128,187702,1,8,0:0:0:0:
320,128,187751,1,8,0:0:0:0:
320,128,187799,1,0,0:0:0:0:
320,128,187873,1,0,0:0:0:0:
320,128,187946,1,8,0:0:0:0:
320,128,188019,1,0,0:0:0:0:
320,128,188092,1,8,0:0:0:0:
320,128,188165,1,8,0:0:0:0:
320,128,188238,1,0,0:0:0:0:
320,128,188312,1,0,0:0:0:0:
320,96,188385,1,8,0:0:0:0:
320,128,188458,1,0,0:0:0:0:
320,96,188531,1,8,0:0:0:0:
320,96,188604,1,8,0:0:0:0:
320,96,188677,1,0,0:0:0:0:
320,96,188751,1,0,0:0:0:0:
320,128,188824,1,8,0:0:0:0:
320,128,188873,1,8,0:0:0:0:
320,128,188921,1,8,0:0:0:0:
320,128,188970,1,0,0:0:0:0:
384,96,189043,1,0,0:0:0:0:
384,96,189116,1,8,0:0:0:0:
384,96,189190,1,0,0:0:0:0:
384,96,189263,1,8,0:0:0:0:
384,96,189336,1,8,0:0:0:0:
384,96,189409,1,0,0:0:0:0:
384,96,189482,1,0,0:0:0:0:
384,96,189555,1,8,0:0:0:0:
384,128,189629,1,0,0:0:0:0:
384,96,189702,1,8,0:0:0:0:
384,96,189775,1,8,0:0:0:0:
384,96,189848,1,0,0:0:0:0:
384,96,189921,1,8,0:0:0:0:
384,96,189995,1,0,0:0:0:0:
384,96,190068,1,8,0:0:0:0:
416,96,190141,1,8,0:0:0:0:
416,96,190214,1,0,0:0:0:0:
416,96,190287,1,8,0:0:0:0:
416,96,190360,1,8,0:0:0:0:
416,96,190434,1,0,0:0:0:0:
416,96,190580,1,4,0:0:0:0:
416,96,190726,1,8,0:0:0:0:
416,96,190873,1,0,0:0:0:0:
416,96,190946,1,0,0:0:0:0:
416,96,191019,1,8,0:0:0:0:
416,96,191165,1,0,0:0:0:0:
416,96,191312,1,8,0:0:0:0:
384,160,191385,1,0,0:0:0:0:
288,128,191458,1,0,0:0:0:0:
352,128,191531,1,0,0:0:0:0:
352,128,191604,1,8,0:0:0:0:
352,128,191751,1,0,0:0:0:0:
352,128,191897,1,8,0:0:0:0:
352,128,191970,1,8,0:0:0:0:
352,128,192043,1,0,0:0:0:0:
352,128,192190,1,8,0:0:0:0:
352,128,192336,1,0,0:0:0:0:
352,128,192409,1,0,0:0:0:0:
352,128,192482,1,0,0:0:0:0:
352,128,192555,1,8,0:0:0:0:
352,128,192629,1,0,0:0:0:0:
352,128,192775,1,8,0:0:0:0:
352,128,192921,1,0,0:0:0:0:
384,128,192995,1,0,0:0:0:0:
384,128,193068,1,8,0:0:0:0:
352,128,193141,1,8,0:0:0:0:
352,128,193214,1,0,0:0:0:0:
352,128,193360,1,8,0:0:0:0:
352,128,193507,1,0,0:0:0:0:
352,128,193580,1,0,0:0:0:0:
352,128,193653,1,8,0:0:0:0:
352,128,193726,1,0,0:0:0:0:
352,128,193799,1,8,0:0:0:0:
352,128,193946,1,0,0:0:0:0:
384,128,194092,1,8,0:0:0:0:
384,128,194165,1,8,0:0:0:0:
384,128,194238,1,0,0:0:0:0:
384,128,194385,1,8,0:0:0:0:
352,128,194531,1,0,0:0:0:0:
352,128,194604,1,0,0:0:0:0:
352,128,194677,1,8,0:0:0:0:
384,128,194824,1,8,0:0:0:0:
320,128,194897,1,0,0:0:0:0:
320,128,194970,1,8,0:0:0:0:
384,128,195043,1,0,0:0:0:0:
384,128,195116,1,8,0:0:0:0:
384,128,195263,1,4,0:0:0:0:
384,128,195409,1,0,0:0:0:0:
384,128,195555,1,8,0:0:0:0:
416,160,195629,1,0,0:0:0:0:
416,160,195702,1,8,0:0:0:0:
416,160,195775,1,8,0:0:0:0:
416,160,195848,1,0,0:0:0:0:
416,160,195921,1,8,0:0:0:0:
416,160,195995,1,0,0:0:0:0:
416,160,196068,1,8,0:0:0:0:
416,160,196141,1,8,0:0:0:0:
416,160,196214,1,0,0:0:0:0:
416,128,196287,1,8,0:0:0:0:
416,128,196360,1,0,0:0:0:0:
448,160,196434,1,8,0:0:0:0:
384,192,196507,1,8,0:0:0:0:
352,128,196580,1,0,0:0:0:0:
352,128,196653,1,0,0:0:0:0:
384,192,196726,1,8,0:0:0:0:
352,128,196799,1,8,0:0:0:0:
352,128,196873,1,0,0:0:0:0:
352,128,196946,1,0,0:0:0:0:
384,192,197019,1,8,0:0:0:0:
352,128,197092,1,0,0:0:0:0:
384,128,197165,1,8,0:0:0:0:
384,192,197238,1,0,0:0:0:0:
352,192,197312,1,8,0:0:0:0:
384,128,197385,1,8,0:0:0:0:
384,160,197458,1,0,0:0:0:0:
384,160,197531,1,0,0:0:0:0:
384,160,197604,1,8,0:0:0:0:
384,192,197677,1,0,0:0:0:0:
384,160,197751,1,8,0:0:0:0:
384,160,197824,1,8,0:0:0:0:
384,160,197897,1,0,0:0:0:0:
352,160,197970,1,0,0:0:0:0:
384,192,198043,1,8,0:0:0:0:
384,192,198116,1,0,0:0:0:0:
384,192,198190,1,8,0:0:0:0:
384,160,198263,1,0,0:0:0:0:
384,192,198336,1,0,0:0:0:0:
416,192,198409,1,8,0:0:0:0:
416,192,198482,1,0,0:0:0:0:
416,160,198555,1,0,0:0:0:0:
384,160,198629,1,8,0:0:0:0:
384,160,198702,1,0,0:0:0:0:
384,160,198775,1,8,0:0:0:0:
352,160,198824,1,8,0:0:0:0:
384,160,198873,1,8,0:0:0:0:
384,160,198921,1,0,0:0:0:0:
384,160,198995,1,0,0:0:0:0:
416,192,199068,1,8,0:0:0:0:
384,160,199141,1,8,0:0:0:0:
416,192,199214,1,0,0:0:0:0:
416,192,199287,1,0,0:0:0:0:
416,192,199360,1,8,0:0:0:0:
384,160,199434,1,0,0:0:0:0:
416,192,199507,1,0,0:0:0:0:
416,192,199580,1,8,0:0:0:0:
384,160,199653,1,0,0:0:0:0:
416,192,199726,1,0,0:0:0:0:
384,160,199799,1,8,0:0:0:0:
384,160,199873,1,0,0:0:0:0:
320,192,199946,1,8,0:0:0:0:
352,160,200019,1,0,0:0:0:0:
352,160,200092,1,8,0:0:0:0:
352,160,200238,1,0,0:0:0:0:
352,160,200312,1,8,0:0:0:0:
352,160,200385,1,0,0:0:0:0:
352,160,200531,1,8,0:0:0:0:
384,128,200677,1,0,0:0:0:0:
384,128,200751,1,0,0:0:0:0:
384,128,200824,1,8,0:0:0:0:
384,128,200970,1,0,0:0:0:0:
384,128,201043,1,0,0:0:0:0:
384,128,201116,1,0,0:0:0:0:
384,128,201263,1,8,0:0:0:0:
288,160,201409,1,0,0:0:0:0:
320,160,201482,1,0,0:0:0:0:
320,160,201555,1,0,0:0:0:0:
320,160,201702,1,12,0:0:0:0:
320,160,201848,1,4,0:0:0:0:
320,160,202287,1,8,0:0:0:0:
320,160,202360,1,0,0:0:0:0:
320,160,202434,1,8,0:0:0:0:
320,160,202580,1,0,0:0:0:0:
320,160,202653,1,0,0:0:0:0:
320,160,202726,1,0,0:0:0:0:
320,160,202873,1,8,0:0:0:0:
320,160,203019,1,8,0:0:0:0:
320,160,203092,1,8,0:0:0:0:
320,160,203165,1,0,0:0:0:0:
320,160,203312,1,0,0:0:0:0:
320,160,203385,1,0,0:0:0:0:
320,160,203458,1,8,0:0:0:0:
320,160,203604,1,0,0:0:0:0:
320,160,203751,1,8,0:0:0:0:
320,160,203824,1,8,0:0:0:0:
320,160,203897,1,0,0:0:0:0:
320,160,204043,1,12,0:0:0:0:
320,160,204190,1,4,0:0:0:0:
320,160,204629,1,0,0:0:0:0:
288,128,204702,1,0,0:0:0:0:
288,128,204775,5,8,0:0:0:0:
288,128,204921,1,0,0:0:0:0:
288,128,204995,1,0,0:0:0:0:
288,128,205068,1,0,0:0:0:0:
288,128,205214,1,8,0:0:0:0:
320,128,205360,1,0,0:0:0:0:
320,128,205434,1,0,0:0:0:0:
320,128,205507,1,8,0:0:0:0:
320,128,205580,1,0,0:0:0:0:
320,128,205653,1,8,0:0:0:0:
320,128,205799,1,8,0:0:0:0:
320,96,205946,1,0,0:0:0:0:
320,96,206019,1,0,0:0:0:0:
320,96,206092,1,0,0:0:0:0:
320,96,206165,1,0,0:0:0:0:
320,96,206238,1,8,0:0:0:0:
320,96,206385,1,12,0:0:0:0:
352,128,206531,1,4,0:0:0:0:
352,128,206677,1,4,0:0:0:0:
384,160,206824,1,12,0:0:0:0:
320,160,207116,5,8,0:0:0:0:
320,160,207165,1,0,0:0:0:0:
320,160,207214,1,0,0:0:0:0:
320,160,207263,1,8,0:0:0:0:
352,128,207336,1,0,0:0:0:0:
320,128,207409,1,8,0:0:0:0:
352,128,207482,1,8,0:0:0:0:
352,128,207555,1,0,0:0:0:0:
352,160,207702,1,0,0:0:0:0:
352,128,207848,1,8,0:0:0:0:
320,64,207921,1,0,0:0:0:0:
352,128,207995,1,8,0:0:0:0:
320,160,208141,1,8,0:0:0:0:
320,160,208190,1,8,0:0:0:0:
320,160,208238,1,8,0:0:0:0:
320,160,208287,1,0,0:0:0:0:
384,128,208360,1,0,0:0:0:0:
384,128,208434,1,8,0:0:0:0:
384,128,208507,1,0,0:0:0:0:
384,128,208580,1,8,0:0:0:0:
384,128,208653,1,8,0:0:0:0:
384,128,208726,1,0,0:0:0:0:
384,160,208799,1,0,0:0:0:0:
384,128,208873,1,8,0:0:0:0:
384,128,208946,1,0,0:0:0:0:
384,128,209019,1,8,0:0:0:0:
384,128,209092,1,8,0:0:0:0:
384,128,209165,1,8,0:0:0:0:
384,128,209238,1,8,0:0:0:0:
384,128,209312,1,0,0:0:0:0:
384,128,209385,1,0,0:0:0:0:
384,128,209458,1,8,0:0:0:0:
384,128,209604,1,0,0:0:0:0:
384,128,209677,1,0,0:0:0:0:
384,128,209751,1,0,0:0:0:0:
384,128,209897,1,8,0:0:0:0:
384,128,210043,1,0,0:0:0:0:
384,128,210116,1,0,0:0:0:0:
384,128,210190,1,0,0:0:0:0:
384,128,210336,1,0,0:0:0:0:
384,128,210409,1,0,0:0:0:0:
384,128,210482,1,8,0:0:0:0:
384,128,210629,1,0,0:0:0:0:
384,128,210775,1,8,0:0:0:0:
384,96,210848,1,8,0:0:0:0:
384,128,210921,1,0,0:0:0:0:
384,96,211068,1,12,0:0:0:0:
384,96,211214,1,4,0:0:0:0:
320,160,211653,1,0,0:0:0:0:
352,128,211726,1,0,0:0:0:0:
384,160,211799,1,8,0:0:0:0:
352,128,211946,1,0,0:0:0:0:
352,128,212019,1,8,0:0:0:0:
352,128,212092,1,0,0:0:0:0:
352,128,212238,1,8,0:0:0:0:
352,128,212385,1,0,0:0:0:0:
352,128,212458,1,0,0:0:0:0:
352,128,212531,1,0,0:0:0:0:
384,160,212677,1,0,0:0:0:0:
384,160,212751,1,0,0:0:0:0:
384,160,212824,1,8,0:0:0:0:
384,160,212897,1,0,0:0:0:0:
352,128,212970,1,8,0:0:0:0:
352,128,213116,1,0,0:0:0:0:
352,128,213190,1,0,0:0:0:0:
384,128,213263,1,8,0:0:0:0:
352,128,213409,1,12,0:0:0:0:
352,128,213555,1,4,0:0:0:0:
352,128,213995,1,0,0:0:0:0:
352,128,214068,1,0,0:0:0:0:
352,128,214141,1,8,0:0:0:0:
384,128,214287,1,0,0:0:0:0:
384,128,214360,1,0,0:0:0:0:
384,128,214434,1,0,0:0:0:0:
384,128,214580,1,8,0:0:0:0:
384,128,214726,1,0,0:0:0:0:
384,128,214799,1,0,0:0:0:0:
384,128,214873,1,0,0:0:0:0:
384,128,215019,1,8,0:0:0:0:
384,128,215092,1,8,0:0:0:0:
384,128,215165,1,0,0:0:0:0:
384,128,215312,1,0,0:0:0:0:
384,128,215458,1,8,0:0:0:0:
384,128,215531,1,0,0:0:0:0:
384,128,215604,1,0,0:0:0:0:
384,128,215751,1,12,0:0:0:0:
384,128,215897,1,4,0:0:0:0:
384,160,216043,1,4,0:0:0:0:
384,160,216190,1,12,0:0:0:0:
384,160,216482,1,8,0:0:0:0:
384,160,216555,1,0,0:0:0:0:
384,160,216629,1,0,0:0:0:0:
384,160,216702,1,8,0:0:0:0:
384,160,216775,1,0,0:0:0:0:
384,160,216921,1,0,0:0:0:0:
384,160,217068,1,8,0:0:0:0:
416,160,217141,1,8,0:0:0:0:
416,160,217214,1,0,0:0:0:0:
416,160,217360,1,0,0:0:0:0:
416,160,217507,1,8,0:0:0:0:
416,160,217653,1,0,0:0:0:0:
416,160,217799,1,8,0:0:0:0:
384,128,217873,1,0,0:0:0:0:
416,160,217946,1,8,0:0:0:0:
384,128,218092,1,8,0:0:0:0:
352,128,218165,1,8,0:0:0:0:
352,128,218238,1,0,0:0:0:0:
352,128,218312,1,0,0:0:0:0:
352,128,218385,1,8,0:0:0:0:
352,128,218458,1,8,0:0:0:0:
352,128,218531,1,0,0:0:0:0:
352,128,218677,1,4,0:0:0:0:
352,128,218824,1,0,0:0:0:0:
352,128,218970,1,8,0:0:0:0:
352,128,219043,1,0,0:0:0:0:
352,128,219116,1,8,0:0:0:0:
352,128,219190,1,8,0:0:0:0:
352,128,219263,1,0,0:0:0:0:
352,128,219409,1,0,0:0:0:0:
352,128,219555,1,8,0:0:0:0:
352,128,219629,1,0,0:0:0:0:
352,128,219702,1,0,0:0:0:0:
352,128,219775,1,0,0:0:0:0:
352,128,219848,1,8,0:0:0:0:
352,128,219921,1,0,0:0:0:0:
352,128,219995,1,8,0:0:0:0:
384,128,220068,1,8,0:0:0:0:
384,160,220141,1,0,0:0:0:0:
384,128,220214,1,0,0:0:0:0:
384,128,220287,1,8,0:0:0:0:
352,128,220434,1,8,0:0:0:0:
352,128,220580,1,0,0:0:0:0:
352,128,220653,1,0,0:0:0:0:
352,128,220726,1,8,0:0:0:0:
352,128,220873,1,0,0:0:0:0:
352,128,221019,1,8,0:0:0:0:
352,128,221092,1,8,0:0:0:0:
352,128,221165,1,8,0:0:0:0:
352,128,221238,1,8,0:0:0:0:
352,128,221312,1,0,0:0:0:0:
352,128,221458,1,0,0:0:0:0:
352,128,221604,1,8,0:0:0:0:
352,128,221677,1,0,0:0:0:0:
352,128,221751,1,8,0:0:0:0:
352,128,221824,1,8,0:0:0:0:
352,128,221897,1,8,0:0:0:0:
352,128,221970,1,0,0:0:0:0:
352,128,222043,1,8,0:0:0:0:
352,128,222190,1,0,0:0:0:0:
352,128,222263,1,8,0:0:0:0:
352,128,222336,1,8,0:0:0:0:
352,128,222409,1,8,0:0:0:0:
352,128,222482,1,0,0:0:0:0:
352,128,222629,1,0,0:0:0:0:
352,128,222775,1,8,0:0:0:0:
352,128,222848,1,8,0:0:0:0:
352,128,222921,1,8,0:0:0:0:
352,128,222995,1,8,0:0:0:0:
352,128,223068,1,8,0:0:0:0:
352,128,223141,1,8,0:0:0:0:
352,128,223214,1,8,0:0:0:0:
416,192,223360,5,4,0:0:0:0:
416,160,223507,1,0,0:0:0:0:
416,160,223580,1,0,0:0:0:0:
416,160,223653,1,8,0:0:0:0:
416,160,223799,1,8,0:0:0:0:
416,160,223946,1,0,0:0:0:0:
448,192,224092,1,8,0:0:0:0:
416,160,224165,1,0,0:0:0:0:
416,160,224238,1,8,0:0:0:0:
416,160,224385,1,8,0:0:0:0:
416,160,224531,1,4,0:0:0:0:
448,160,224677,1,0,0:0:0:0:
448,160,224751,1,0,0:0:0:0:
448,160,224824,1,8,0:0:0:0:
448,160,224970,1,8,0:0:0:0:
448,160,225116,1,0,0:0:0:0:
448,192,225263,1,8,0:0:0:0:
448,192,225336,1,0,0:0:0:0:
448,192,225409,1,8,0:0:0:0:
448,192,225555,1,8,0:0:0:0:
384,160,225702,5,4,0:0:0:0:
384,160,225848,1,0,0:0:0:0:
416,160,225921,1,8,0:0:0:0:
384,160,225995,1,8,0:0:0:0:
384,160,226141,1,8,0:0:0:0:
384,160,226287,1,0,0:0:0:0:
384,128,226434,1,8,0:0:0:0:
416,160,226507,1,8,0:0:0:0:
384,128,226581,1,0,0:0:0:0:
384,160,226727,1,0,0:0:0:0:
384,160,226873,1,8,0:0:0:0:
448,160,226946,1,0,0:0:0:0:
448,160,227019,1,0,0:0:0:0:
448,160,227092,1,0,0:0:0:0:
416,160,227165,1,8,0:0:0:0:
416,160,227312,1,0,0:0:0:0:
416,160,227458,1,0,0:0:0:0:
416,160,227531,1,0,0:0:0:0:
416,160,227604,1,0,0:0:0:0:
448,160,227677,1,8,0:0:0:0:
448,160,227751,1,0,0:0:0:0:
448,160,227897,1,8,0:0:0:0:
448,160,228043,1,4,0:0:0:0:
448,160,228190,1,8,0:0:0:0:
448,160,228263,1,8,0:0:0:0:
448,160,228336,1,8,0:0:0:0:
448,160,228409,1,8,0:0:0:0:
448,160,228482,1,0,0:0:0:0:
448,160,228629,1,0,0:0:0:0:
448,160,228702,1,0,0:0:0:0:
448,160,228775,1,8,0:0:0:0:
416,160,228921,1,0,0:0:0:0:
416,160,229068,1,8,0:0:0:0:
416,160,229141,1,0,0:0:0:0:
416,160,229214,1,8,0:0:0:0:
416,160,229360,1,0,0:0:0:0:
384,128,229507,1,8,0:0:0:0:
384,160,229580,1,8,0:0:0:0:
384,160,229653,1,0,0:0:0:0:
384,160,229799,1,0,0:0:0:0:
384,160,229946,1,8,0:0:0:0:
384,160,230019,1,0,0:0:0:0:
384,160,230092,1,8,0:0:0:0:
384,160,230238,1,0,0:0:0:0:
384,160,230385,1,0,0:0:0:0:
384,160,230458,1,0,0:0:0:0:
384,160,230531,1,8,0:0:0:0:
384,160,230677,1,0,0:0:0:0:
384,160,230824,1,8,0:0:0:0:
384,160,230897,1,0,0:0:0:0:
384,160,230970,1,8,0:0:0:0:
416,160,231043,1,8,0:0:0:0:
384,160,231116,1,0,0:0:0:0:
416,160,231263,1,0,0:0:0:0:
416,160,231409,1,8,0:0:0:0:
416,160,231482,1,0,0:0:0:0:
416,160,231555,1,8,0:0:0:0:
416,160,231629,1,8,0:0:0:0:
416,192,231702,1,0,0:0:0:0:
416,192,231775,1,0,0:0:0:0:
416,192,231848,1,8,0:0:0:0:
416,192,231995,1,0,0:0:0:0:
416,160,232141,1,8,0:0:0:0:
448,128,232214,1,8,0:0:0:0:
448,96,232287,1,8,0:0:0:0:
448,128,232360,1,8,0:0:0:0:
416,160,232434,1,0,0:0:0:0:
448,128,232580,1,0,0:0:0:0:
352,192,232726,1,8,0:0:0:0:
384,160,232799,1,0,0:0:0:0:
384,160,232873,1,8,0:0:0:0:
384,160,232946,1,8,0:0:0:0:
384,160,233019,1,0,0:0:0:0:
416,64,233092,1,0,0:0:0:0:
384,96,233165,1,8,0:0:0:0:
384,128,233238,1,0,0:0:0:0:
384,128,233312,1,8,0:0:0:0:
384,128,233385,1,0,0:0:0:0:
384,128,233458,1,8,0:0:0:0:
288,128,233531,1,8,0:0:0:0:
288,128,233604,1,0,0:0:0:0:
384,96,233677,1,8,0:0:0:0:
384,96,233751,1,8,0:0:0:0:
352,96,233824,1,0,0:0:0:0:
352,96,233897,1,8,0:0:0:0:
384,96,233970,1,0,0:0:0:0:
384,96,234043,1,8,0:0:0:0:
384,96,234116,1,8,0:0:0:0:
384,96,234190,1,0,0:0:0:0:
384,96,234263,1,8,0:0:0:0:
416,64,234336,1,0,0:0:0:0:
416,96,234409,1,0,0:0:0:0:
416,96,234482,1,8,0:0:0:0:
416,96,234555,1,8,0:0:0:0:
352,128,234629,1,0,0:0:0:0:
352,128,234702,1,0,0:0:0:0:
352,128,234775,1,8,0:0:0:0:
352,128,234848,1,8,0:0:0:0:
384,128,234921,1,0,0:0:0:0:
384,128,234995,1,0,0:0:0:0:
384,128,235068,1,8,0:0:0:0:
384,128,235141,1,0,0:0:0:0:
384,128,235214,1,8,0:0:0:0:
384,128,235287,1,8,0:0:0:0:
384,128,235360,1,8,0:0:0:0:
384,128,235434,1,0,0:0:0:0:
416,128,235507,1,8,0:0:0:0:
384,128,235580,1,0,0:0:0:0:
416,128,235653,1,8,0:0:0:0:
384,128,235726,1,8,0:0:0:0:
384,96,235799,1,0,0:0:0:0:
384,128,235873,1,0,0:0:0:0:
352,160,235946,1,8,0:0:0:0:
352,128,236092,1,0,0:0:0:0:
352,160,236238,1,0,0:0:0:0:
352,96,236312,1,8,0:0:0:0:
352,96,236385,1,8,0:0:0:0:
352,96,236458,1,0,0:0:0:0:
352,96,236531,1,8,0:0:0:0:
352,96,236604,1,0,0:0:0:0:
352,96,236677,1,8,0:0:0:0:
352,128,236751,1,8,0:0:0:0:
352,128,236824,1,0,0:0:0:0:
352,128,236897,1,8,0:0:0:0:
352,128,236970,1,0,0:0:0:0:
352,128,237043,1,0,0:0:0:0:
352,128,237116,1,8,0:0:0:0:
320,128,237190,1,8,0:0:0:0:
320,128,237263,1,0,0:0:0:0:
352,128,237409,1,4,0:0:0:0:
352,128,237555,1,0,0:0:0:0:
352,128,237702,1,0,0:0:0:0:
352,128,237848,1,8,0:0:0:0:
352,128,237921,1,8,0:0:0:0:
352,128,237995,1,0,0:0:0:0:
352,128,238141,1,0,0:0:0:0:
384,128,238287,1,8,0:0:0:0:
352,128,238360,1,0,0:0:0:0:
384,128,238434,1,8,0:0:0:0:
384,128,238580,1,8,0:0:0:0:
384,128,238726,1,0,0:0:0:0:
384,128,238873,1,0,0:0:0:0:
384,256,239019,1,8,0:0:0:0:
384,128,239092,1,8,0:0:0:0:
384,128,239165,1,0,0:0:0:0:
384,128,239312,1,0,0:0:0:0:
384,128,239458,1,8,0:0:0:0:
384,128,239531,1,0,0:0:0:0:
384,128,239604,1,8,0:0:0:0:
384,128,239751,1,8,0:0:0:0:
384,128,239897,1,0,0:0:0:0:
384,128,240043,1,0,0:0:0:0:
384,128,240116,1,0,0:0:0:0:
384,128,240190,1,8,0:0:0:0:
384,128,240263,1,8,0:0:0:0:
384,128,240336,1,0,0:0:0:0:
384,128,240482,1,0,0:0:0:0:
384,128,240629,1,8,0:0:0:0:
384,128,240702,1,0,0:0:0:0:
384,128,240775,1,8,0:0:0:0:
384,128,240921,1,0,0:0:0:0:
384,128,241068,1,0,0:0:0:0:
384,128,241141,1,0,0:0:0:0:
384,128,241214,1,8,0:0:0:0:
384,128,241360,1,0,0:0:0:0:
384,128,241507,1,8,0:0:0:0:
384,96,241580,1,0,0:0:0:0:
384,96,241653,1,0,0:0:0:0:
384,96,241726,1,8,0:0:0:0:
384,96,241799,1,0,0:0:0:0:
320,128,241946,1,8,0:0:0:0:
320,128,242092,1,4,0:0:0:0:
320,128,242238,1,8,0:0:0:0:
320,128,242385,1,0,0:0:0:0:
352,160,242458,1,0,0:0:0:0:
320,128,242531,1,8,0:0:0:0:
320,128,242604,1,8,0:0:0:0:
320,128,242677,1,0,0:0:0:0:
320,128,242824,1,0,0:0:0:0:
320,128,242970,1,8,0:0:0:0:
320,128,243043,1,8,0:0:0:0:
320,128,243116,1,0,0:0:0:0:
320,128,243190,1,8,0:0:0:0:
288,128,243263,1,0,0:0:0:0:
288,128,243336,1,0,0:0:0:0:
320,128,243409,1,8,0:0:0:0:
288,128,243555,1,0,0:0:0:0:
352,128,243629,1,0,0:0:0:0:
288,128,243702,1,8,0:0:0:0:
288,128,243775,1,8,0:0:0:0:
288,128,243848,1,0,0:0:0:0:
288,128,243995,1,0,0:0:0:0:
320,192,244141,1,8,0:0:0:0:
320,192,244214,1,8,0:0:0:0:
320,192,244287,1,0,0:0:0:0:
320,192,244360,1,8,0:0:0:0:
320,192,244434,1,0,0:0:0:0:
320,192,244507,1,0,0:0:0:0:
320,192,244580,1,8,0:0:0:0:
320,160,244726,1,0,0:0:0:0:
352,128,244799,1,0,0:0:0:0:
320,160,244873,1,8,0:0:0:0:
320,160,244946,1,8,0:0:0:0:
320,160,245019,1,0,0:0:0:0:
320,160,245165,1,0,0:0:0:0:
352,160,245312,1,8,0:0:0:0:
352,160,245458,1,8,0:0:0:0:
352,128,245604,1,0,0:0:0:0:
352,128,245677,1,0,0:0:0:0:
352,128,245751,1,0,0:0:0:0:
352,128,245824,1,0,0:0:0:0:
352,128,245897,1,8,0:0:0:0:
352,128,246043,1,0,0:0:0:0:
352,128,246116,1,0,0:0:0:0:
352,128,246190,1,8,0:0:0:0:
352,128,246263,1,0,0:0:0:0:
352,128,246336,1,0,0:0:0:0:
352,128,246409,1,0,0:0:0:0:
352,128,246482,1,8,0:0:0:0:
320,128,246629,1,0,0:0:0:0:
320,128,246775,1,4,0:0:0:0:
320,128,246921,1,0,0:0:0:0:
320,128,246995,1,0,0:0:0:0:
320,128,247068,1,0,0:0:0:0:
320,128,247141,1,0,0:0:0:0:
320,128,247214,1,8,0:0:0:0:
320,128,247360,1,0,0:0:0:0:
320,128,247507,1,0,0:0:0:0:
320,128,247580,1,0,0:0:0:0:
320,128,247653,1,8,0:0:0:0:
320,128,247799,1,0,0:0:0:0:
320,128,247946,1,8,0:0:0:0:
320,96,248092,1,0,0:0:0:0:
320,96,248165,1,0,0:0:0:0:
320,96,248238,1,0,0:0:0:0:
320,96,248312,1,0,0:0:0:0:
320,96,248385,1,8,0:0:0:0:
320,96,248531,1,0,0:0:0:0:
416,160,248677,1,0,0:0:0:0:
384,160,248751,1,0,0:0:0:0:
384,160,248824,1,8,0:0:0:0:
384,160,248970,1,0,0:0:0:0:
384,160,249116,1,8,0:0:0:0:
384,160,249263,1,0,0:0:0:0:
384,160,249336,1,0,0:0:0:0:
384,160,249409,1,0,0:0:0:0:
384,160,249482,1,0,0:0:0:0:
384,160,249555,1,8,0:0:0:0:
384,128,249702,1,0,0:0:0:0:
416,128,249848,1,0,0:0:0:0:
416,128,249921,1,0,0:0:0:0:
416,128,249995,1,8,0:0:0:0:
416,128,250141,1,8,0:0:0:0:
352,160,250287,1,0,0:0:0:0:
352,160,250360,1,0,0:0:0:0:
352,160,250434,1,0,0:0:0:0:
352,160,250507,1,0,0:0:0:0:
352,160,250580,1,8,0:0:0:0:
352,160,250726,1,0,0:0:0:0:
352,160,250873,1,8,0:0:0:0:
352,160,251019,1,8,0:0:0:0:
352,160,251092,1,8,0:0:0:0:
352,160,251165,1,0,0:0:0:0:
352,160,251312,1,8,0:0:0:0:
352,160,251458,1,4,0:0:0:0:
352,160,251604,1,0,0:0:0:0:
384,160,251677,1,0,0:0:0:0:
384,160,251751,1,8,0:0:0:0:
384,128,251897,1,8,0:0:0:0:
384,128,252043,1,0,0:0:0:0:
384,128,252190,1,8,0:0:0:0:
384,128,252336,1,0,0:0:0:0:
384,128,252409,1,0,0:0:0:0:
384,128,252482,1,8,0:0:0:0:
384,128,252629,1,0,0:0:0:0:
384,128,252702,1,0,0:0:0:0:
384,128,252775,1,0,0:0:0:0:
384,128,252848,1,0,0:0:0:0:
384,128,252921,1,8,0:0:0:0:
384,128,253068,1,8,0:0:0:0:
384,128,253214,1,0,0:0:0:0:
384,128,253360,1,8,0:0:0:0:
384,128,253507,1,8,0:0:0:0:
384,128,253580,1,0,0:0:0:0:
384,128,253653,1,8,0:0:0:0:
320,96,253799,1,8,0:0:0:0:
320,128,253873,1,0,0:0:0:0:
320,96,253946,1,8,0:0:0:0:
352,128,254019,1,0,0:0:0:0:
352,128,254092,1,8,0:0:0:0:
352,128,254165,1,8,0:0:0:0:
352,160,254238,1,8,0:0:0:0:
352,160,254312,1,0,0:0:0:0:
352,128,254385,1,8,0:0:0:0:
352,128,254458,1,0,0:0:0:0:
352,128,254531,1,8,0:0:0:0:
352,128,254604,1,0,0:0:0:0:
352,128,254677,1,8,0:0:0:0:
352,128,254751,1,8,0:0:0:0:
352,128,254824,1,8,0:0:0:0:
320,128,254897,1,0,0:0:0:0:
320,128,254970,1,8,0:0:0:0:
320,128,255043,1,0,0:0:0:0:
320,128,255116,1,8,0:0:0:0:
320,128,255190,1,8,0:0:0:0:
320,128,255263,1,0,0:0:0:0:
320,128,255336,1,0,0:0:0:0:
320,128,255409,1,8,0:0:0:0:
320,128,255482,1,8,0:0:0:0:
320,128,255555,1,0,0:0:0:0:
320,128,255629,1,0,0:0:0:0:
320,128,255702,1,8,0:0:0:0:
320,128,255775,1,8,0:0:0:0:
320,128,255848,1,0,0:0:0:0:
320,160,255921,1,0,0:0:0:0:
320,128,255995,1,8,0:0:0:0:
320,128,256141,1,4,0:0:0:0:
320,128,256434,1,8,0:0:0:0:
320,128,256580,1,0,0:0:0:0:
320,128,256726,1,0,0:0:0:0:
320,128,256873,1,0,0:0:0:0:
320,128,257019,1,8,0:0:0:0:
320,128,257165,1,0,0:0:0:0:
320,128,257312,1,8,0:0:0:0:
320,128,257458,1,0,0:0:0:0:
320,160,257531,1,0,0:0:0:0:
320,160,257604,1,0,0:0:0:0:
320,128,257751,1,8,0:0:0:0:
352,128,258043,1,0,0:0:0:0:
352,128,258190,1,8,0:0:0:0:
352,128,258336,1,8,0:0:0:0:
352,128,258482,1,0,0:0:0:0:
352,128,258629,1,0,0:0:0:0:
352,128,258702,1,0,0:0:0:0:
384,128,258775,1,8,0:0:0:0:
352,128,258921,1,0,0:0:0:0:
384,128,259068,1,8,0:0:0:0:
384,128,259141,1,0,0:0:0:0:
384,128,259214,1,0,0:0:0:0:
384,128,259287,1,0,0:0:0:0:
384,128,259360,1,8,0:0:0:0:
384,128,259507,1,0,0:0:0:0:
384,128,259653,1,8,0:0:0:0:
384,128,259726,1,8,0:0:0:0:
384,128,259799,1,0,0:0:0:0:
416,128,259946,1,0,0:0:0:0:
416,128,260092,1,8,0:0:0:0:
416,128,260165,1,0,0:0:0:0:
416,128,260238,1,0,0:0:0:0:
416,128,260385,1,8,0:0:0:0:
416,128,260458,1,8,0:0:0:0:
416,128,260531,1,0,0:0:0:0:
416,128,260677,1,8,0:0:0:0:
416,128,260824,1,4,0:0:0:0:
416,128,261116,1,8,0:0:0:0:
416,128,261263,1,8,0:0:0:0:
416,128,261409,1,0,0:0:0:0:
416,128,261555,1,0,0:0:0:0:
416,128,261629,1,0,0:0:0:0:
416,128,261702,1,8,0:0:0:0:
416,128,261848,1,8,0:0:0:0:
416,128,261995,1,4,0:0:0:0:
416,160,262287,1,8,0:0:0:0:
416,128,262434,1,8,0:0:0:0:
416,128,262580,1,0,0:0:0:0:
416,128,262726,1,0,0:0:0:0:
448,160,262799,1,0,0:0:0:0:
448,160,262873,1,8,0:0:0:0:
448,160,263019,1,8,0:0:0:0:
448,160,263165,1,4,0:0:0:0:
480,128,263312,1,0,0:0:0:0:
448,128,263458,1,8,0:0:0:0:
480,96,263531,1,8,0:0:0:0:
448,128,263604,1,0,0:0:0:0:
448,128,263751,1,0,0:0:0:0:
448,128,263897,1,8,0:0:0:0:
448,128,264043,1,0,0:0:0:0:
448,128,264190,1,8,0:0:0:0:
512,128,264263,1,0,0:0:0:0:
480,96,264336,1,8,0:0:0:0:
512,128,264482,1,0,0:0:0:0:
512,128,264629,1,8,0:0:0:0:
512,128,264775,1,0,0:0:0:0:
384,160,264921,1,0,0:0:0:0:
384,128,264995,1,0,0:0:0:0:
384,160,265068,1,0,0:0:0:0:
416,128,265141,1,0,0:0:0:0:
416,128,265214,1,8,0:0:0:0:
416,128,265360,1,8,0:0:0:0:
416,128,265507,1,4,0:0:0:0:
320,128,265799,1,8,0:0:0:0:
320,128,265946,1,0,0:0:0:0:
416,160,266092,1,8,0:0:0:0:
416,160,266238,1,0,0:0:0:0:
416,160,266385,1,8,0:0:0:0:
416,160,266531,1,8,0:0:0:0:
416,160,266677,1,0,0:0:0:0:
416,160,266824,1,0,0:0:0:0:
416,128,266897,1,0,0:0:0:0:
416,128,266970,1,8,0:0:0:0:
448,160,267116,1,0,0:0:0:0:
448,192,267409,1,0,0:0:0:0:
448,192,267555,1,8,0:0:0:0:
448,192,267702,1,8,0:0:0:0:
448,192,267775,1,8,0:0:0:0:
448,192,267848,1,0,0:0:0:0:
448,192,267995,1,0,0:0:0:0:
448,192,268141,1,8,0:0:0:0:
448,192,268287,1,0,0:0:0:0:
448,160,268360,1,0,0:0:0:0:
448,160,268434,1,0,0:0:0:0:
448,160,268580,1,0,0:0:0:0:
448,160,268726,1,8,0:0:0:0:
448,160,268873,1,0,0:0:0:0:
448,160,269019,1,8,0:0:0:0:
448,160,269092,1,8,0:0:0:0:
448,160,269165,1,0,0:0:0:0:
448,160,269312,1,0,0:0:0:0:
448,160,269458,1,8,0:0:0:0:
448,160,269531,1,0,0:0:0:0:
448,160,269604,1,0,0:0:0:0:
416,128,269751,1,8,0:0:0:0:
416,128,269824,1,8,0:0:0:0:
416,128,269897,1,0,0:0:0:0:
416,128,270043,1,8,0:0:0:0:
416,128,270190,1,4,0:0:0:0:
416,128,270482,1,8,0:0:0:0:
416,128,270629,1,8,0:0:0:0:
416,128,270775,1,0,0:0:0:0:
416,128,270921,1,0,0:0:0:0:
416,160,270995,1,0,0:0:0:0:
416,160,271068,1,8,0:0:0:0:
416,160,271214,1,8,0:0:0:0:
416,160,271360,1,4,0:0:0:0:
416,160,271653,1,8,0:0:0:0:
416,160,271799,1,8,0:0:0:0:
416,160,271946,1,0,0:0:0:0:
416,160,272092,1,0,0:0:0:0:
416,160,272165,1,0,0:0:0:0:
416,160,272238,1,8,0:0:0:0:
416,160,272385,1,8,0:0:0:0:
416,160,272531,1,4,0:0:0:0:
416,160,272677,1,0,0:0:0:0:
416,160,272824,1,8,0:0:0:0:
416,160,272897,1,8,0:0:0:0:
416,160,272970,1,0,0:0:0:0:
416,160,273116,1,0,0:0:0:0:
416,160,273263,1,8,0:0:0:0:
416,160,273336,1,0,0:0:0:0:
416,160,273409,1,0,0:0:0:0:
416,160,273555,1,4,0:0:0:0:
416,160,273848,1,8,0:0:0:0:
448,160,273885,1,8,0:0:0:0:
448,160,273995,1,0,0:0:0:0:
384,160,274287,5,8,0:0:0:0:
384,160,274434,1,0,0:0:0:0:
384,160,274580,1,8,0:0:0:0:
384,160,274726,1,0,0:0:0:0:
320,160,274873,1,8,0:0:0:0:
352,128,275458,1,0,0:0:0:0:
352,128,275897,1,8,0:0:0:0:
352,160,276043,1,0,0:0:0:0:
352,128,276629,1,0,0:0:0:0:
352,128,277068,1,8,0:0:0:0:
352,160,277214,1,8,0:0:0:0:
352,160,277799,1,0,0:0:0:0:
352,160,278385,1,8,0:0:0:0:
352,160,278677,1,0,0:0:0:0:
352,160,278970,1,8,0:0:0:0:
352,160,279263,1,0,0:0:0:0:
352,160,279555,1,8,0:0:0:0:
352,160,280141,1,0,0:0:0:0:
352,160,280580,1,8,0:0:0:0:
352,160,280726,1,0,0:0:0:0:
352,160,281312,1,8,0:0:0:0:
352,160,281751,1,8,0:0:0:0:
352,160,281897,1,8,0:0:0:0:
352,160,282482,1,8,0:0:0:0:
352,160,282775,1,0,0:0:0:0:
352,160,283068,1,8,0:0:0:0:
352,160,283214,1,8,0:0:0:0:
352,160,283360,1,0,0:0:0:0:
352,160,283507,1,8,0:0:0:0:
352,160,283653,1,0,0:0:0:0:
352,160,283799,1,0,0:0:0:0:
352,160,283946,1,8,0:0:0:0:
352,160,284092,1,8,0:0:0:0:
352,160,284238,1,4,0:0:0:0:
352,160,284824,1,12,0:0:0:0:
352,160,285409,1,4,0:0:0:0:
352,160,285995,1,12,0:0:0:0:
352,160,286580,1,4,0:0:0:0:
352,160,287165,1,12,0:0:0:0:
352,160,287751,1,4,0:0:0:0:
352,160,287897,1,0,0:0:0:0:
352,160,288043,1,8,0:0:0:0:
352,160,288190,1,8,0:0:0:0:
352,128,288263,1,8,0:0:0:0:
352,160,288336,1,0,0:0:0:0:
352,160,288482,1,0,0:0:0:0:
352,160,288629,1,8,0:0:0:0:
352,160,288775,1,8,0:0:0:0:
352,128,288848,1,8,0:0:0:0:
352,160,288921,1,0,0:0:0:0:
352,96,289068,1,0,0:0:0:0:
352,96,289141,1,0,0:0:0:0:
352,96,289214,1,8,0:0:0:0:
352,96,289360,1,8,0:0:0:0:
384,128,289434,1,8,0:0:0:0:
384,128,289507,1,0,0:0:0:0:
384,128,289653,1,0,0:0:0:0:
384,128,289726,1,0,0:0:0:0:
384,128,289799,1,8,0:0:0:0:
384,128,289946,1,8,0:0:0:0:
384,128,290019,1,8,0:0:0:0:
384,128,290092,1,0,0:0:0:0:
384,128,290238,1,0,0:0:0:0:
384,128,290312,1,0,0:0:0:0:
384,128,290385,1,8,0:0:0:0:
384,128,290531,1,8,0:0:0:0:
384,128,290604,1,8,0:0:0:0:
384,128,290677,1,0,0:0:0:0:
384,128,290824,1,0,0:0:0:0:
416,128,290897,1,0,0:0:0:0:
384,128,290970,1,8,0:0:0:0:
416,128,291116,1,0,0:0:0:0:
416,128,291263,1,8,0:0:0:0:
384,128,291336,1,0,0:0:0:0:
416,128,291409,1,0,0:0:0:0:
416,128,291482,1,0,0:0:0:0:
448,128,291555,1,8,0:0:0:0:
384,128,291629,1,0,0:0:0:0:
448,128,291702,1,0,0:0:0:0:
448,128,291775,1,0,0:0:0:0:
448,128,291848,1,8,0:0:0:0:
448,128,291921,1,0,0:0:0:0:
448,128,291995,1,0,0:0:0:0:
416,128,292068,1,0,0:0:0:0:
384,128,292141,1,8,0:0:0:0:
448,128,292287,1,0,0:0:0:0:
384,160,292434,5,8,0:0:0:0:
384,128,292531,1,0,0:0:0:0:
384,160,292629,1,0,0:0:0:0:
384,128,292726,1,8,0:0:0:0:
384,128,292824,1,0,0:0:0:0:
384,160,292921,1,0,0:0:0:0:
416,160,293019,1,8,0:0:0:0:
416,160,293116,1,0,0:0:0:0:
416,160,293214,1,0,0:0:0:0:
416,160,293312,1,8,0:0:0:0:
448,160,293385,1,0,0:0:0:0:
448,160,293458,1,8,0:0:0:0:
448,128,293604,1,4,0:0:0:0:
448,128,293751,1,0,0:0:0:0:
448,128,293824,1,8,0:0:0:0:
448,128,293897,1,8,0:0:0:0:
448,128,293970,1,0,0:0:0:0:
448,128,294043,1,8,0:0:0:0:
448,128,294190,1,0,0:0:0:0:
448,128,294263,1,8,0:0:0:0:
448,96,294336,1,8,0:0:0:0:
448,96,294409,1,0,0:0:0:0:
448,96,294482,1,8,0:0:0:0:
448,96,294555,1,0,0:0:0:0:
448,96,294629,1,8,0:0:0:0:
448,96,294775,1,0,0:0:0:0:
448,96,294921,1,8,0:0:0:0:
448,96,294995,1,8,0:0:0:0:
448,128,295068,1,0,0:0:0:0:
448,128,295214,1,8,0:0:0:0:
448,128,295360,1,8,0:0:0:0:
448,128,295434,1,8,0:0:0:0:
448,128,295507,1,0,0:0:0:0:
448,128,295653,1,0,0:0:0:0:
448,128,295726,1,0,0:0:0:0:
448,128,295799,1,8,0:0:0:0:
448,128,295946,1,0,0:0:0:0:
448,128,296092,1,8,0:0:0:0:
448,128,296165,1,0,0:0:0:0:
448,128,296238,1,0,0:0:0:0:
448,128,296312,1,8,0:0:0:0:
448,128,296385,1,0,0:0:0:0:
448,128,296531,1,8,0:0:0:0:
448,128,296604,1,0,0:0:0:0:
448,128,296677,1,0,0:0:0:0:
448,128,296751,1,8,0:0:0:0:
448,128,296824,1,0,0:0:0:0:
448,128,296897,1,0,0:0:0:0:
448,128,296970,1,8,0:0:0:0:
448,128,297116,1,0,0:0:0:0:
448,128,297263,1,8,0:0:0:0:
448,128,297336,1,8,0:0:0:0:
448,128,297409,1,0,0:0:0:0:
448,128,297555,1,0,0:0:0:0:
448,128,297702,1,8,0:0:0:0:
448,128,297775,1,0,0:0:0:0:
480,128,297848,1,8,0:0:0:0:
480,128,297921,1,8,0:0:0:0:
480,128,297995,1,0,0:0:0:0:
480,128,298068,1,0,0:0:0:0:
480,128,298141,1,8,0:0:0:0:
480,128,298287,1,4,0:0:0:0:
480,128,298434,1,0,0:0:0:0:
480,128,298507,1,8,0:0:0:0:
480,128,298580,1,8,0:0:0:0:
480,128,298653,1,0,0:0:0:0:
480,128,298726,1,8,0:0:0:0:
480,128,298873,1,0,0:0:0:0:
480,128,298946,1,8,0:0:0:0:
480,128,299019,1,8,0:0:0:0:
480,128,299092,1,0,0:0:0:0:
480,128,299165,1,8,0:0:0:0:
480,128,299238,1,0,0:0:0:0:
480,128,299312,1,8,0:0:0:0:
448,128,299458,1,0,0:0:0:0:
416,128,299604,1,8,0:0:0:0:
416,128,299677,1,0,0:0:0:0:
416,128,299824,1,0,0:0:0:0:
416,128,299897,1,8,0:0:0:0:
416,128,300043,1,8,0:0:0:0:
416,128,300116,1,0,0:0:0:0:
416,128,300190,1,0,0:0:0:0:
416,128,300263,1,0,0:0:0:0:
416,160,300336,1,8,0:0:0:0:
416,160,300482,1,8,0:0:0:0:
384,160,300629,1,0,0:0:0:0:
384,160,300775,1,8,0:0:0:0:
384,160,300848,1,0,0:0:0:0:
384,160,300921,1,8,0:0:0:0:
384,160,300995,1,8,0:0:0:0:
384,160,301068,1,0,0:0:0:0:
384,160,301214,1,8,0:0:0:0:
384,160,301360,1,0,0:0:0:0:
416,160,301434,1,0,0:0:0:0:
416,160,301507,1,8,0:0:0:0:
416,160,301653,1,8,0:0:0:0:
416,160,301799,1,0,0:0:0:0:
416,160,301873,1,0,0:0:0:0:
416,160,301946,1,8,0:0:0:0:
416,160,302019,1,8,0:0:0:0:
416,160,302092,1,0,0:0:0:0:
416,160,302165,1,0,0:0:0:0:
416,160,302238,1,8,0:0:0:0:
416,160,302385,1,0,0:0:0:0:
416,160,302531,1,8,0:0:0:0:
416,160,302604,1,8,0:0:0:0:
416,160,302677,1,0,0:0:0:0:
416,160,302824,1,8,0:0:0:0:
352,160,302970,1,4,0:0:0:0:
416,128,303116,1,8,0:0:0:0:
416,128,303190,1,0,0:0:0:0:
416,128,303263,1,0,0:0:0:0:
416,128,303336,1,8,0:0:0:0:
416,128,303409,1,0,0:0:0:0:
352,160,303555,1,8,0:0:0:0:
352,160,303629,1,0,0:0:0:0:
352,160,303702,1,0,0:0:0:0:
352,160,303775,1,8,0:0:0:0:
352,128,303848,1,0,0:0:0:0:
320,128,303921,1,0,0:0:0:0:
320,128,303995,1,8,0:0:0:0:
320,128,304141,1,0,0:0:0:0:
352,128,304287,1,8,0:0:0:0:
352,128,304360,1,8,0:0:0:0:
352,128,304434,1,0,0:0:0:0:
352,128,304580,1,0,0:0:0:0:
352,128,304653,1,0,0:0:0:0:
352,128,304726,1,8,0:0:0:0:
352,128,304799,1,0,0:0:0:0:
352,128,304873,1,8,0:0:0:0:
352,128,304946,1,8,0:0:0:0:
352,128,305019,1,0,0:0:0:0:
352,128,305092,1,0,0:0:0:0:
352,128,305165,1,8,0:0:0:0:
352,128,305312,1,0,0:0:0:0:
384,160,305458,1,0,0:0:0:0:
384,160,305531,1,8,0:0:0:0:
384,160,305604,1,0,0:0:0:0:
384,160,305751,1,8,0:0:0:0:
384,160,305897,1,8,0:0:0:0:
384,160,305970,1,0,0:0:0:0:
384,160,306043,1,0,0:0:0:0:
384,128,306116,1,0,0:0:0:0:
384,128,306190,1,8,0:0:0:0:
384,128,306336,1,8,0:0:0:0:
384,128,306482,1,0,0:0:0:0:
384,128,306629,1,0,0:0:0:0:
384,128,306702,1,8,0:0:0:0:
416,128,306848,1,8,0:0:0:0:
384,128,306921,1,0,0:0:0:0:
416,128,307068,1,0,0:0:0:0:
416,128,307141,1,0,0:0:0:0:
416,160,307214,1,8,0:0:0:0:
416,160,307287,1,8,0:0:0:0:
416,160,307360,1,0,0:0:0:0:
416,160,307434,1,0,0:0:0:0:
416,160,307507,1,8,0:0:0:0:
416,160,307653,1,4,0:0:0:0:
416,160,307799,1,0,0:0:0:0:
416,160,307873,1,0,0:0:0:0:
416,160,307946,1,8,0:0:0:0:
416,160,308092,1,8,0:0:0:0:
416,160,308238,1,0,0:0:0:0:
416,160,308312,1,0,0:0:0:0:
416,160,308385,1,0,0:0:0:0:
416,160,308458,1,8,0:0:0:0:
416,160,308531,1,0,0:0:0:0:
416,160,308677,1,8,0:0:0:0:
416,160,308824,1,0,0:0:0:0:
416,160,308897,1,0,0:0:0:0:
416,160,308970,1,0,0:0:0:0:
416,160,309116,1,8,0:0:0:0:
416,160,309263,1,0,0:0:0:0:
320,128,309409,5,8,0:0:0:0:
320,160,309555,1,8,0:0:0:0:
320,160,309702,1,0,0:0:0:0:
320,160,309775,1,0,0:0:0:0:
320,128,309848,5,8,0:0:0:0:
320,160,309995,1,0,0:0:0:0:
320,160,310068,1,8,0:0:0:0:
320,160,310141,1,8,0:0:0:0:
320,160,310214,1,8,0:0:0:0:
320,160,310287,1,0,0:0:0:0:
320,160,310360,1,8,0:0:0:0:
320,160,310434,1,8,0:0:0:0:
320,160,310507,1,8,0:0:0:0:
320,160,310580,1,0,0:0:0:0:
320,128,310653,1,8,0:0:0:0:
448,160,310726,1,8,0:0:0:0:
320,160,310799,1,8,0:0:0:0:
320,160,310873,1,0,0:0:0:0:
320,128,310946,1,8,0:0:0:0:
320,160,311019,1,8,0:0:0:0:
320,160,311092,1,8,0:0:0:0:
448,128,311165,5,0,0:0:0:0:
320,128,311238,1,8,0:0:0:0:
321,128,311312,1,8,0:0:0:0:
320,128,311385,1,0,0:0:0:0:
328,128,311458,1,8,0:0:0:0:
334,122,311531,1,0,0:0:0:0:
330,117,311604,1,8,0:0:0:0:
334,117,311677,1,8,0:0:0:0:
335,118,311751,1,0,0:0:0:0:
454,133,311824,1,8,0:0:0:0:
334,124,311897,1,8,0:0:0:0:
345,141,311970,1,8,0:0:0:0:
345,141,312043,1,0,0:0:0:0:
455,133,312116,1,8,0:0:0:0:
343,138,312190,1,8,0:0:0:0:
344,138,312263,1,8,0:0:0:0:
320,160,312336,1,0,0:0:0:0:
320,160,312409,1,0,0:0:0:0:
320,160,312482,1,8,0:0:0:0:
384,128,312555,1,0,0:0:0:0:
384,128,312629,1,0,0:0:0:0:
384,128,312702,1,0,0:0:0:0:
384,128,312775,1,8,0:0:0:0:
384,128,312848,1,8,0:0:0:0:
384,128,312921,1,0,0:0:0:0:
384,128,312995,1,0,0:0:0:0:
384,128,313068,1,8,0:0:0:0:
384,128,313141,1,8,0:0:0:0:
384,128,313214,1,0,0:0:0:0:
384,128,313287,1,0,0:0:0:0:
384,128,313360,1,8,0:0:0:0:
384,128,313434,1,0,0:0:0:0:
384,128,313507,1,8,0:0:0:0:
384,128,313580,1,0,0:0:0:0:
384,128,313653,1,8,0:0:0:0:
384,128,313726,1,8,0:0:0:0:
384,128,313799,1,0,0:0:0:0:
384,128,313873,1,0,0:0:0:0:
384,128,313946,1,8,0:0:0:0:
416,128,314019,1,0,0:0:0:0:
416,128,314092,1,8,0:0:0:0:
352,128,314165,1,0,0:0:0:0:
352,128,314238,1,0,0:0:0:0:
352,128,314312,1,8,0:0:0:0:
352,128,314385,1,0,0:0:0:0:
352,96,314458,1,0,0:0:0:0:
352,96,314531,1,8,0:0:0:0:
352,96,314604,1,0,0:0:0:0:
352,96,314677,1,8,0:0:0:0:
352,96,314751,1,0,0:0:0:0:
384,128,314824,1,8,0:0:0:0:
352,96,314897,1,8,0:0:0:0:
352,96,314970,1,0,0:0:0:0:
352,96,315043,1,0,0:0:0:0:
384,128,315116,1,8,0:0:0:0:
352,128,315190,1,0,0:0:0:0:
352,128,315263,1,8,0:0:0:0:
352,128,315336,1,0,0:0:0:0:
352,128,315409,1,8,0:0:0:0:
352,128,315482,1,8,0:0:0:0:
416,160,315555,1,0,0:0:0:0:
416,160,315629,1,0,0:0:0:0:
416,160,315702,1,8,0:0:0:0:
416,160,315775,1,0,0:0:0:0:
416,160,315848,1,8,0:0:0:0:
416,160,315921,1,8,0:0:0:0:
416,160,315995,1,8,0:0:0:0:
416,160,316068,1,8,0:0:0:0:
384,160,316141,1,0,0:0:0:0:
384,160,316214,1,0,0:0:0:0:
384,160,316287,1,8,0:0:0:0:
384,160,316360,1,8,0:0:0:0:
384,160,316434,1,0,0:0:0:0:
384,160,316507,1,0,0:0:0:0:
384,128,316580,1,8,0:0:0:0:
384,128,316653,1,8,0:0:0:0:
320,128,316726,1,0,0:0:0:0:
352,128,316873,1,8,0:0:0:0:
320,128,317019,1,8,0:0:0:0:
320,128,317092,1,0,0:0:0:0:
320,128,317165,1,8,0:0:0:0:
320,128,317238,1,8,0:0:0:0:
320,128,317312,1,0,0:0:0:0:
320,128,317385,1,0,0:0:0:0:
352,128,317458,1,8,0:0:0:0:
320,128,317531,1,0,0:0:0:0:
352,128,317604,1,8,0:0:0:0:
352,128,317677,1,0,0:0:0:0:
352,128,317751,1,0,0:0:0:0:
352,128,317824,1,8,0:0:0:0:
352,128,317897,1,0,0:0:0:0:
352,128,317970,1,0,0:0:0:0:
352,128,318043,1,8,0:0:0:0:
352,128,318116,1,0,0:0:0:0:
352,128,318190,1,8,0:0:0:0:
352,128,318263,1,0,0:0:0:0:
352,128,318336,1,8,0:0:0:0:
352,160,318409,1,8,0:0:0:0:
352,128,318482,1,0,0:0:0:0:
352,128,318555,1,0,0:0:0:0:
352,128,318629,1,8,0:0:0:0:
352,128,318702,1,0,0:0:0:0:
320,128,318775,1,8,0:0:0:0:
320,128,318848,1,0,0:0:0:0:
320,128,318921,1,8,0:0:0:0:
320,128,318995,1,8,0:0:0:0:
320,128,319068,1,0,0:0:0:0:
320,128,319141,1,0,0:0:0:0:
320,128,319214,1,8,0:0:0:0:
320,128,319287,1,0,0:0:0:0:
320,128,319360,1,8,0:0:0:0:
320,128,319434,1,0,0:0:0:0:
320,128,319507,1,8,0:0:0:0:
320,128,319580,1,8,0:0:0:0:
320,128,319653,1,0,0:0:0:0:
384,160,319726,1,0,0:0:0:0:
384,160,319799,1,8,0:0:0:0:
384,160,319873,1,0,0:0:0:0:
384,160,319946,1,8,0:0:0:0:
384,160,320019,1,8,0:0:0:0:
352,128,320092,1,0,0:0:0:0:
352,128,320165,1,8,0:0:0:0:
352,128,320238,1,0,0:0:0:0:
352,128,320312,1,0,0:0:0:0:
352,128,320385,1,8,0:0:0:0:
352,128,320458,1,0,0:0:0:0:
352,128,320531,1,8,0:0:0:0:
352,128,320604,1,8,0:0:0:0:
352,128,320677,1,8,0:0:0:0:
352,128,320751,1,8,0:0:0:0:
352,128,320824,1,0,0:0:0:0:
352,128,320897,1,0,0:0:0:0:
352,128,320970,1,8,0:0:0:0:
352,128,321043,1,0,0:0:0:0:
352,128,321116,1,8,0:0:0:0:
352,128,321190,5,8,0:0:0:0:
352,128,321263,5,8,0:0:0:0:
320,128,321336,5,8,0:0:0:0:
320,128,321409,5,0,0:0:0:0:
320,128,321482,5,0,0:0:0:0:
320,128,321555,5,8,0:0:0:0:
352,160,321702,5,4,0:0:0:0:
288,128,321848,1,8,0:0:0:0:
288,160,321995,1,0,0:0:0:0:
288,160,322068,1,0,0:0:0:0:
288,160,322141,1,8,0:0:0:0:
320,128,322287,1,0,0:0:0:0:
320,128,322360,1,0,0:0:0:0:
320,128,322434,1,8,0:0:0:0:
320,128,322507,1,0,0:0:0:0:
320,128,322653,1,0,0:0:0:0:
320,128,322726,1,8,0:0:0:0:
320,128,322873,1,0,0:0:0:0:
320,128,323019,1,8,0:0:0:0:
320,128,323165,1,0,0:0:0:0:
320,128,323238,1,0,0:0:0:0:
320,128,323312,1,8,0:0:0:0:
352,128,323458,1,0,0:0:0:0:
352,128,323531,1,0,0:0:0:0:
352,128,323604,1,8,0:0:0:0:
352,128,323677,1,8,0:0:0:0:
352,128,323751,1,0,0:0:0:0:
352,128,323824,1,0,0:0:0:0:
352,128,323897,1,8,0:0:0:0:
384,128,324043,1,0,0:0:0:0:
384,128,324190,1,8,0:0:0:0:
352,160,324336,1,0,0:0:0:0:
352,160,324409,1,0,0:0:0:0:
352,128,324482,1,8,0:0:0:0:
352,128,324629,1,0,0:0:0:0:
352,128,324702,1,0,0:0:0:0:
352,128,324775,1,8,0:0:0:0:
384,128,324848,1,0,0:0:0:0:
384,128,324995,1,0,0:0:0:0:
352,160,325068,1,8,0:0:0:0:
352,128,325214,1,0,0:0:0:0:
352,128,325360,1,8,0:0:0:0:
384,128,325434,1,8,0:0:0:0:
384,128,325507,1,0,0:0:0:0:
384,128,325653,1,8,0:0:0:0:
384,128,325799,1,0,0:0:0:0:
384,128,325873,1,0,0:0:0:0:
384,128,325946,1,8,0:0:0:0:
384,128,326019,1,0,0:0:0:0:
384,128,326092,1,8,0:0:0:0:
384,128,326165,1,8,0:0:0:0:
384,128,326238,1,0,0:0:0:0:
384,128,326385,1,4,0:0:0:0:
384,128,326531,1,8,0:0:0:0:
384,128,326677,1,0,0:0:0:0:
384,160,326751,1,0,0:0:0:0:
384,128,326824,1,8,0:0:0:0:
384,128,326970,1,0,0:0:0:0:
384,128,327043,1,0,0:0:0:0:
384,128,327116,1,8,0:0:0:0:
384,128,327190,1,0,0:0:0:0:
448,160,327336,1,0,0:0:0:0:
384,128,327409,1,8,0:0:0:0:
384,128,327555,1,4,0:0:0:0:
320,128,327702,1,8,0:0:0:0:
320,128,327848,1,0,0:0:0:0:
416,192,327921,1,0,0:0:0:0:
320,128,327995,1,8,0:0:0:0:
320,128,328141,1,0,0:0:0:0:
352,128,328214,1,0,0:0:0:0:
320,128,328287,1,8,0:0:0:0:
512,128,328360,1,8,0:0:0:0:
320,128,328434,1,0,0:0:0:0:
320,128,328580,1,8,0:0:0:0:
320,128,328726,1,8,0:0:0:0:
416,128,328799,1,8,0:0:0:0:
384,128,328873,1,8,0:0:0:0:
384,128,328946,1,8,0:0:0:0:
384,128,329019,1,0,0:0:0:0:
384,128,329092,1,0,0:0:0:0:
384,96,329165,1,0,0:0:0:0:
384,96,329238,1,0,0:0:0:0:
384,96,329312,1,8,0:0:0:0:
384,96,329385,1,8,0:0:0:0:
384,96,329458,1,8,0:0:0:0:
384,96,329531,1,8,0:0:0:0:
384,96,329604,1,0,0:0:0:0:
384,96,329677,1,0,0:0:0:0:
384,96,329751,1,0,0:0:0:0:
384,96,329824,1,0,0:0:0:0:
384,96,329897,1,8,0:0:0:0:
384,96,329970,1,8,0:0:0:0:
384,96,330043,1,0,0:0:0:0:
384,96,330116,1,0,0:0:0:0:
384,96,330190,1,8,0:0:0:0:
384,96,330263,1,8,0:0:0:0:
384,64,330336,1,0,0:0:0:0:
384,64,330409,1,0,0:0:0:0:
384,64,330482,1,8,0:0:0:0:
384,64,330555,1,8,0:0:0:0:
384,64,330629,1,0,0:0:0:0:
384,64,330702,1,0,0:0:0:0:
384,64,330775,1,8,0:0:0:0:
384,96,330848,1,0,0:0:0:0:
384,96,330921,1,8,0:0:0:0:
352,160,331068,5,4,0:0:0:0:
384,160,332343,1,8,0:0:0:0:
384,160,332943,1,0,0:0:0:0:
384,160,333543,1,8,0:0:0:0:
416,160,334743,1,0,0:0:0:0:
384,160,335343,1,0,0:0:0:0:
416,160,335943,1,8,0:0:0:0:
384,160,337143,1,0,0:0:0:0:
384,160,338343,1,8,0:0:0:0:
416,160,338943,1,0,0:0:0:0:
416,160,339543,1,8,0:0:0:0:
416,160,339843,1,8,0:0:0:0:
416,160,340143,1,0,0:0:0:0:
416,160,340443,1,0,0:0:0:0:
416,160,340743,1,8,0:0:0:0:
384,128,341943,1,0,0:0:0:0:
384,128,342543,1,0,0:0:0:0:
320,128,343143,1,8,0:0:0:0:
320,128,344943,5,0,0:0:0:0:
384,128,345543,5,8,0:0:0:0:
352,128,346743,1,8,0:0:0:0:
384,128,347343,1,0,0:0:0:0:
256,192,347943,12,0,349743,0:0:0:0:
352,160,350300,5,0,0:0:0:0:
384,192,350600,1,0,0:0:0:0:
384,192,350900,1,8,0:0:0:0:
416,160,351200,1,0,0:0:0:0:
416,128,351500,1,0,0:0:0:0:
416,160,351800,1,0,0:0:0:0:
416,160,352100,1,8,0:0:0:0:
416,160,352400,1,0,0:0:0:0:
352,128,352550,1,8,0:0:0:0:
416,160,352700,1,0,0:0:0:0:
384,128,353000,1,0,0:0:0:0:
384,128,353300,1,8,0:0:0:0:
384,128,353600,1,0,0:0:0:0:
384,128,353900,1,0,0:0:0:0:
384,128,354200,1,0,0:0:0:0:
384,128,354500,1,8,0:0:0:0:
384,128,354800,1,8,0:0:0:0:
384,128,354950,1,8,0:0:0:0:
384,128,355100,1,0,0:0:0:0:
384,128,355400,1,0,0:0:0:0:
384,128,355700,1,8,0:0:0:0:
384,128,356000,1,0,0:0:0:0:
384,128,356300,1,0,0:0:0:0:
384,128,356600,1,0,0:0:0:0:
416,128,356900,1,8,0:0:0:0:
416,128,357200,1,0,0:0:0:0:
416,128,357500,1,8,0:0:0:0:
416,160,357800,1,0,0:0:0:0:
384,128,357950,1,0,0:0:0:0:
352,160,358100,1,8,0:0:0:0:
416,160,358400,1,0,0:0:0:0:
288,192,358700,1,8,0:0:0:0:
320,192,358800,1,0,0:0:0:0:
320,192,358900,1,0,0:0:0:0:
320,160,359000,1,8,0:0:0:0:
320,320,359300,2,0,L|320:192,1,105.000004005432
416,128,359900,5,0,0:0:0:0:
416,128,360200,1,0,0:0:0:0:
416,128,360500,1,8,0:0:0:0:
416,128,360800,1,0,0:0:0:0:
416,128,361100,1,0,0:0:0:0:
448,160,361400,1,0,0:0:0:0:
448,160,361700,1,8,0:0:0:0:
448,160,362000,1,0,0:0:0:0:
480,192,362150,1,8,0:0:0:0:
448,160,362300,1,0,0:0:0:0:
448,160,362600,1,0,0:0:0:0:
448,160,362900,1,8,0:0:0:0:
448,160,363200,1,0,0:0:0:0:
448,160,363500,1,0,0:0:0:0:
448,160,363800,1,0,0:0:0:0:
448,160,364100,1,8,0:0:0:0:
448,160,364400,1,8,0:0:0:0:
416,128,364550,1,8,0:0:0:0:
448,160,364700,1,0,0:0:0:0:
448,160,365000,1,0,0:0:0:0:
480,192,365300,1,8,0:0:0:0:
480,192,365600,1,0,0:0:0:0:
480,192,365900,1,0,0:0:0:0:
448,192,366200,1,0,0:0:0:0:
448,192,366500,1,8,0:0:0:0:
448,192,366800,1,0,0:0:0:0:
448,160,367100,1,8,0:0:0:0:
448,160,367400,1,0,0:0:0:0:
448,160,367550,1,0,0:0:0:0:
448,160,367700,1,8,0:0:0:0:
448,160,368000,1,0,0:0:0:0:
448,160,368268,1,8,0:0:0:0:
352,160,368365,1,0,0:0:0:0:
448,160,368463,1,0,0:0:0:0:
448,160,368560,1,8,0:0:0:0:
448,128,368658,1,0,0:0:0:0:
480,128,368755,1,0,0:0:0:0:
448,160,368853,1,12,0:0:0:0:
416,96,368999,1,4,0:0:0:0:
448,160,369438,1,12,0:0:0:0:
448,160,369731,1,0,0:0:0:0:
448,160,369877,1,0,0:0:0:0:
448,160,370024,1,8,0:0:0:0:
448,160,370316,1,8,0:0:0:0:
448,160,370609,1,8,0:0:0:0:
416,192,370902,1,0,0:0:0:0:
448,192,371194,1,8,0:0:0:0:
448,192,371487,1,0,0:0:0:0:
448,192,371633,1,8,0:0:0:0:
448,192,371780,1,0,0:0:0:0:
448,192,372072,1,0,0:0:0:0:
448,192,372219,1,0,0:0:0:0:
448,192,372365,1,8,0:0:0:0:
448,192,372658,1,8,0:0:0:0:
448,192,372950,1,8,0:0:0:0:
416,160,373097,1,0,0:0:0:0:
416,160,373243,1,8,0:0:0:0:
416,160,373389,1,0,0:0:0:0:
416,160,373536,1,8,0:0:0:0:
416,160,373682,1,8,0:0:0:0:
416,160,373828,1,0,0:0:0:0:
416,160,373975,1,0,0:0:0:0:
416,160,374121,1,8,0:0:0:0:
416,192,374268,1,0,0:0:0:0:
416,192,374414,1,8,0:0:0:0:
416,192,374560,1,0,0:0:0:0:
416,192,374707,1,8,0:0:0:0:
416,192,374853,1,8,0:0:0:0:
416,192,374999,1,0,0:0:0:0:
416,192,375146,1,0,0:0:0:0:
416,192,375292,1,8,0:0:0:0:
416,192,375438,1,0,0:0:0:0:
416,192,375585,1,8,0:0:0:0:
416,160,375731,1,0,0:0:0:0:
416,192,375877,1,8,0:0:0:0:
416,160,376024,1,8,0:0:0:0:
416,160,376170,1,0,0:0:0:0:
416,160,376316,1,0,0:0:0:0:
416,160,376463,1,8,0:0:0:0:
416,160,376609,1,0,0:0:0:0:
416,160,376755,1,8,0:0:0:0:
416,192,376902,1,0,0:0:0:0:
416,192,377048,1,8,0:0:0:0:
448,192,377194,1,8,0:0:0:0:
448,192,377341,1,0,0:0:0:0:
448,192,377487,1,0,0:0:0:0:
224,224,377633,2,0,L|256:160,7,70
448,160,378804,1,4,0:0:0:0:
384,128,378950,1,0,0:0:0:0:
416,128,379097,1,8,0:0:0:0:
416,128,379243,1,0,0:0:0:0:
416,128,379389,1,8,0:0:0:0:
416,128,379536,1,0,0:0:0:0:
416,128,379682,1,8,0:0:0:0:
416,128,379828,1,0,0:0:0:0:
416,128,379975,1,8,0:0:0:0:
416,160,380121,1,0,0:0:0:0:
416,128,380268,1,8,0:0:0:0:
416,128,380414,1,0,0:0:0:0:
416,128,380560,1,8,0:0:0:0:
416,128,380707,1,0,0:0:0:0:
416,160,380853,1,8,0:0:0:0:
416,160,380926,1,8,0:0:0:0:
416,160,380999,1,8,0:0:0:0:
416,160,381072,1,8,0:0:0:0:
416,160,381146,1,0,0:0:0:0:
416,160,381292,1,0,0:0:0:0:
416,160,381438,1,8,0:0:0:0:
416,160,381585,1,0,0:0:0:0:
416,160,381731,1,8,0:0:0:0:
416,160,381877,1,0,0:0:0:0:
416,160,382024,1,8,0:0:0:0:
448,160,382170,1,0,0:0:0:0:
448,160,382316,1,8,0:0:0:0:
448,160,382463,1,0,0:0:0:0:
448,160,382609,1,8,0:0:0:0:
448,160,382755,1,0,0:0:0:0:
448,160,382902,1,8,0:0:0:0:
448,160,383048,1,0,0:0:0:0:
448,160,383194,1,8,0:0:0:0:
416,160,383268,1,0,0:0:0:0:
448,160,383341,1,8,0:0:0:0:
416,160,383414,1,0,0:0:0:0:
448,192,383487,1,8,0:0:0:0:
448,160,383633,1,0,0:0:0:0:
448,160,383780,1,8,0:0:0:0:
448,192,383926,1,0,0:0:0:0:
448,192,384072,1,8,0:0:0:0:
448,192,384219,1,0,0:0:0:0:
480,192,384365,1,8,0:0:0:0:
480,192,384511,1,0,0:0:0:0:
480,192,384658,1,8,0:0:0:0:
480,192,384804,1,0,0:0:0:0:
480,192,384950,1,8,0:0:0:0:
480,192,385097,1,0,0:0:0:0:
480,192,385243,1,8,0:0:0:0:
480,192,385389,1,8,0:0:0:0:
480,192,385536,1,0,0:0:0:0:
416,160,385609,1,0,0:0:0:0:
480,192,385682,1,0,0:0:0:0:
448,160,385755,1,0,0:0:0:0:
480,192,385828,1,8,0:0:0:0:
480,192,385975,1,0,0:0:0:0:
480,192,386121,1,8,0:0:0:0:
480,192,386268,1,8,0:0:0:0:
480,192,386414,1,0,0:0:0:0:
480,192,386560,1,8,0:0:0:0:
480,192,386707,1,0,0:0:0:0:
448,192,386853,1,0,0:0:0:0:
448,160,386999,1,12,0:0:0:0:
384,96,387146,1,0,0:0:0:0:
448,160,387292,1,12,0:0:0:0:
416,160,387438,1,0,0:0:0:0:
448,160,387585,1,8,0:0:0:0:
448,160,387731,1,8,0:0:0:0:
448,160,387877,1,8,0:0:0:0:
448,160,388024,1,8,0:0:0:0:
448,160,388170,1,4,0:0:0:0:
416,160,388463,1,8,0:0:0:0:
416,160,388609,1,0,0:0:0:0:
416,160,388902,1,0,0:0:0:0:
448,160,389048,1,8,0:0:0:0:
416,160,389194,1,0,0:0:0:0:
416,160,389341,1,12,0:0:0:0:
416,160,389633,1,12,0:0:0:0:
416,160,389926,1,0,0:0:0:0:
416,160,390072,1,0,0:0:0:0:
416,160,390219,1,8,0:0:0:0:
416,160,390365,1,8,0:0:0:0:
416,160,390511,1,4,0:0:0:0:
416,160,390804,1,8,0:0:0:0:
416,160,390950,1,0,0:0:0:0:
416,160,391243,1,0,0:0:0:0:
416,160,391389,1,8,0:0:0:0:
416,160,391536,1,0,0:0:0:0:
384,160,391682,1,12,0:0:0:0:
384,160,391975,1,12,0:0:0:0:
416,160,392268,1,0,0:0:0:0:
416,192,392414,1,0,0:0:0:0:
384,192,392560,1,8,0:0:0:0:
384,192,392707,1,8,0:0:0:0:
384,192,392853,1,4,0:0:0:0:
384,160,393146,1,8,0:0:0:0:
384,192,393292,1,0,0:0:0:0:
384,192,393585,1,0,0:0:0:0:
384,192,393731,1,8,0:0:0:0:
384,192,393877,1,0,0:0:0:0:
384,192,394024,1,12,0:0:0:0:
320,128,394170,1,0,0:0:0:0:
384,192,394316,1,8,0:0:0:0:
320,128,394463,1,8,0:0:0:0:
384,192,394755,1,0,0:0:0:0:
384,192,394902,1,8,0:0:0:0:
320,192,395194,1,4,0:0:0:0:
352,192,395487,1,8,0:0:0:0:
352,192,395633,1,0,0:0:0:0:
352,192,395926,1,0,0:0:0:0:
384,192,396072,1,8,0:0:0:0:
352,128,396219,1,0,0:0:0:0:
384,192,396365,1,12,0:0:0:0:
352,160,396658,1,12,0:0:0:0:
352,160,396950,1,0,0:0:0:0:
448,128,397024,1,0,0:0:0:0:
352,192,397097,1,0,0:0:0:0:
448,160,397170,1,0,0:0:0:0:
352,160,397243,1,8,0:0:0:0:
352,160,397389,1,8,0:0:0:0:
352,160,397536,1,4,0:0:0:0:
352,160,397828,1,8,0:0:0:0:
384,160,397975,1,0,0:0:0:0:
352,160,398268,1,0,0:0:0:0:
352,160,398414,1,8,0:0:0:0:
416,128,398560,1,0,0:0:0:0:
352,160,398707,1,12,0:0:0:0:
352,160,398999,1,12,0:0:0:0:
352,160,399292,1,0,0:0:0:0:
320,128,399438,1,0,0:0:0:0:
352,160,399585,1,8,0:0:0:0:
352,160,399731,1,8,0:0:0:0:
352,160,399877,1,4,0:0:0:0:
320,128,400170,1,8,0:0:0:0:
352,128,400316,1,0,0:0:0:0:
352,160,400609,1,0,0:0:0:0:
352,160,400755,1,8,0:0:0:0:
320,160,400902,1,0,0:0:0:0:
352,192,401048,1,12,0:0:0:0:
352,160,401341,1,12,0:0:0:0:
352,192,401633,1,0,0:0:0:0:
352,192,401780,1,0,0:0:0:0:
352,192,401926,1,8,0:0:0:0:
352,192,402072,1,8,0:0:0:0:
352,192,402219,1,4,0:0:0:0:
352,192,402511,1,8,0:0:0:0:
384,192,402658,1,0,0:0:0:0:
352,192,402950,1,0,0:0:0:0:
352,192,403097,1,8,0:0:0:0:
384,128,403243,1,0,0:0:0:0:
352,192,403389,1,12,0:0:0:0:
352,128,403536,1,0,0:0:0:0:
352,192,403682,1,8,0:0:0:0:
352,192,403828,1,8,0:0:0:0:
352,192,404121,1,0,0:0:0:0:
352,192,404267,1,8,0:0:0:0:
352,192,404560,1,4,0:0:0:0:
352,192,404853,1,8,0:0:0:0:
352,192,404999,1,0,0:0:0:0:
352,192,405292,1,0,0:0:0:0:
384,192,405438,1,8,0:0:0:0:
352,128,405585,1,0,0:0:0:0:
384,224,405731,1,12,0:0:0:0:
352,192,406024,1,12,0:0:0:0:
352,192,406316,1,0,0:0:0:0:
352,128,406389,1,0,0:0:0:0:
352,192,406463,1,8,0:0:0:0:
384,192,406609,1,0,0:0:0:0:
384,192,406755,1,8,0:0:0:0:
384,192,406902,1,4,0:0:0:0:
384,256,407121,1,0,0:0:0:0:
384,224,407341,1,8,0:0:0:0:
320,160,407560,1,0,0:0:0:0:
416,224,407780,1,12,0:0:0:0:
416,224,407999,1,0,0:0:0:0:
416,192,408219,1,8,0:0:0:0:
416,192,408438,1,0,0:0:0:0:
416,192,408658,1,12,0:0:0:0:
416,192,408950,1,8,0:0:0:0:
416,192,409097,1,8,0:0:0:0:
384,192,409243,1,4,0:0:0:0:
384,160,410121,1,0,0:0:0:0:
384,160,410414,1,8,0:0:0:0:
416,160,410707,1,8,0:0:0:0:
384,160,410853,1,0,0:0:0:0:
384,160,411292,1,8,0:0:0:0:
416,160,411585,1,4,0:0:0:0:
352,128,411731,1,0,0:0:0:0:
384,160,411877,1,8,0:0:0:0:
384,160,412024,1,0,0:0:0:0:
384,160,412170,1,0,0:0:0:0:
416,128,412243,1,0,0:0:0:0:
384,160,412316,1,0,0:0:0:0:
384,160,412463,1,8,0:0:0:0:
384,160,412609,1,0,0:0:0:0:
384,160,412755,1,8,0:0:0:0:
384,160,412902,1,8,0:0:0:0:
384,160,413048,1,0,0:0:0:0:
384,128,413194,1,8,0:0:0:0:
416,128,413267,1,8,0:0:0:0:
384,160,413341,1,0,0:0:0:0:
384,160,413487,1,0,0:0:0:0:
384,160,413633,1,8,0:0:0:0:
384,160,413780,1,0,0:0:0:0:
384,160,413926,1,8,0:0:0:0:
448,128,413999,1,8,0:0:0:0:
384,160,414072,1,8,0:0:0:0:
384,160,414219,1,8,0:0:0:0:
448,128,414292,1,8,0:0:0:0:
416,192,414365,1,0,0:0:0:0:
416,192,414511,1,8,0:0:0:0:
448,128,414585,1,0,0:0:0:0:
416,192,414658,1,0,0:0:0:0:
416,192,414804,1,0,0:0:0:0:
448,128,414877,1,0,0:0:0:0:
416,192,414950,1,8,0:0:0:0:
416,192,415097,1,8,0:0:0:0:
416,192,415243,1,0,0:0:0:0:
448,128,415316,1,8,0:0:0:0:
416,192,415389,1,0,0:0:0:0:
416,192,415536,1,8,0:0:0:0:
320,128,415609,1,8,0:0:0:0:
448,128,415682,1,8,0:0:0:0:
320,128,415755,1,8,0:0:0:0:
384,128,415828,1,0,0:0:0:0:
384,128,415975,1,8,0:0:0:0:
384,96,416267,1,4,0:0:0:0:
384,128,416414,1,0,0:0:0:0:
384,128,416560,1,8,0:0:0:0:
384,128,416707,1,0,0:0:0:0:
384,128,416853,1,8,0:0:0:0:
384,128,416926,1,0,0:0:0:0:
384,128,416999,1,8,0:0:0:0:
384,128,417146,1,0,0:0:0:0:
384,128,417292,1,8,0:0:0:0:
320,160,417438,1,4,0:0:0:0:
320,160,417585,1,0,0:0:0:0:
352,128,417658,1,0,0:0:0:0:
320,128,417731,1,8,0:0:0:0:
320,128,417877,1,0,0:0:0:0:
320,128,418024,1,8,0:0:0:0:
320,128,418097,1,0,0:0:0:0:
320,128,418170,1,8,0:0:0:0:
320,128,418316,1,8,0:0:0:0:
384,128,418463,1,8,0:0:0:0:
384,128,418609,1,4,0:0:0:0:
384,128,418755,1,8,0:0:0:0:
384,128,418902,1,0,0:0:0:0:
384,128,419048,1,8,0:0:0:0:
384,128,419194,1,0,0:0:0:0:
384,128,419341,1,8,0:0:0:0:
384,128,419487,1,0,0:0:0:0:
384,128,419633,1,8,0:0:0:0:
416,160,419780,1,0,0:0:0:0:
416,128,419853,1,8,0:0:0:0:
288,160,419926,1,8,0:0:0:0:
384,96,419999,1,8,0:0:0:0:
416,128,420072,1,0,0:0:0:0:
384,128,420219,1,8,0:0:0:0:
384,128,420365,1,8,0:0:0:0:
384,128,420438,1,0,0:0:0:0:
384,128,420511,1,8,0:0:0:0:
384,128,420585,1,8,0:0:0:0:
384,128,420658,1,0,0:0:0:0:
384,128,420804,1,8,0:0:0:0:
384,128,420950,1,4,0:0:0:0:
384,160,421243,1,8,0:0:0:0:
384,160,421389,1,0,0:0:0:0:
384,160,421536,1,0,0:0:0:0:
384,128,421609,1,0,0:0:0:0:
384,160,421682,1,8,0:0:0:0:
384,128,421828,1,8,0:0:0:0:
384,128,421975,1,0,0:0:0:0:
384,128,422121,1,8,0:0:0:0:
384,128,422194,1,0,0:0:0:0:
384,128,422267,1,0,0:0:0:0:
384,128,422341,1,8,0:0:0:0:
384,128,422414,1,0,0:0:0:0:
384,128,422560,1,0,0:0:0:0:
384,128,422707,1,8,0:0:0:0:
384,96,422853,1,8,0:0:0:0:
384,128,422926,1,8,0:0:0:0:
384,128,422999,1,0,0:0:0:0:
384,96,423146,1,0,0:0:0:0:
384,96,423292,1,8,0:0:0:0:
384,96,423365,1,0,0:0:0:0:
384,96,423438,1,0,0:0:0:0:
384,96,423585,1,8,0:0:0:0:
384,96,423731,1,0,0:0:0:0:
384,96,423877,1,8,0:0:0:0:
384,96,423950,1,0,0:0:0:0:
384,96,424024,1,8,0:0:0:0:
384,96,424170,1,8,0:0:0:0:
384,96,424316,1,0,0:0:0:0:
384,96,424463,1,8,0:0:0:0:
384,96,424536,1,0,0:0:0:0:
384,96,424609,1,0,0:0:0:0:
384,96,424682,1,0,0:0:0:0:
384,96,424755,1,8,0:0:0:0:
384,96,424902,1,8,0:0:0:0:
384,96,424975,1,0,0:0:0:0:
384,96,425048,1,0,0:0:0:0:
384,96,425121,1,0,0:0:0:0:
384,96,425194,1,0,0:0:0:0:
384,96,425267,1,0,0:0:0:0:
384,96,425341,1,8,0:0:0:0:
384,96,425487,1,0,0:0:0:0:
384,96,425633,1,4,0:0:0:0:
384,96,425780,1,0,0:0:0:0:
384,96,425853,1,0,0:0:0:0:
384,96,425926,1,8,0:0:0:0:
384,96,426072,1,0,0:0:0:0:
352,128,426219,1,8,0:0:0:0:
352,128,426292,1,8,0:0:0:0:
384,96,426365,1,8,0:0:0:0:
384,96,426438,1,8,0:0:0:0:
384,96,426511,1,0,0:0:0:0:
384,96,426658,1,0,0:0:0:0:
384,96,426804,1,4,0:0:0:0:
384,96,426950,1,0,0:0:0:0:
384,96,427024,1,0,0:0:0:0:
384,96,427097,1,8,0:0:0:0:
384,96,427243,1,0,0:0:0:0:
384,96,427536,1,0,0:0:0:0:
384,96,427682,1,8,0:0:0:0:
384,96,427828,1,0,0:0:0:0:
384,96,427975,1,4,0:0:0:0:
384,96,428121,1,0,0:0:0:0:
384,96,428194,1,0,0:0:0:0:
384,96,428267,1,8,0:0:0:0:
384,96,428414,1,0,0:0:0:0:
384,96,428560,1,8,0:0:0:0:
384,96,428707,1,8,0:0:0:0:
352,96,428780,1,8,0:0:0:0:
352,96,428853,1,0,0:0:0:0:
384,96,428999,1,4,0:0:0:0:
352,128,429292,1,8,0:0:0:0:
416,192,429328,1,8,0:0:0:0:
416,128,429438,1,0,0:0:0:0:
384,96,429731,1,8,0:0:0:0:
384,128,429877,1,0,0:0:0:0:
384,128,430024,1,8,0:0:0:0:
352,128,430170,1,0,0:0:0:0:
384,160,430316,5,4,0:0:0:0:
384,160,431194,1,8,0:0:0:0:
384,160,431487,1,0,0:0:0:0:
384,160,431926,1,0,0:0:0:0:
384,160,432365,1,8,0:0:0:0:
384,160,432658,1,0,0:0:0:0:
384,160,433097,1,0,0:0:0:0:
384,160,433536,1,8,0:0:0:0:
384,160,433828,1,8,0:0:0:0:
384,160,434414,1,0,0:0:0:0:
384,160,434707,1,0,0:0:0:0:
384,160,434999,1,8,0:0:0:0:
448,160,435438,1,0,0:0:0:0:
448,160,435877,1,0,0:0:0:0:
448,160,436170,1,8,0:0:0:0:
416,160,436609,1,0,0:0:0:0:
416,160,437048,1,0,0:0:0:0:
416,160,437341,1,8,0:0:0:0:
416,160,437780,1,0,0:0:0:0:
416,160,438219,1,8,0:0:0:0:
416,160,438511,1,8,0:0:0:0:
480,192,438585,1,0,0:0:0:0:
416,160,438658,1,8,0:0:0:0:
416,128,439097,1,0,0:0:0:0:
416,128,439389,1,8,0:0:0:0:
416,128,439682,1,0,0:0:0:0:
384,160,440121,1,0,0:0:0:0:
352,128,440560,1,8,0:0:0:0:
352,128,440853,1,0,0:0:0:0:
352,160,441438,1,0,0:0:0:0:
352,160,441731,1,0,0:0:0:0:
352,160,442024,1,8,0:0:0:0:
352,160,442463,1,0,0:0:0:0:
352,160,442902,1,0,0:0:0:0:
352,160,443194,1,8,0:0:0:0:
352,160,443780,1,0,0:0:0:0:
384,160,444072,1,8,0:0:0:0:
384,160,444365,1,0,0:0:0:0:
384,160,444804,1,0,0:0:0:0:
384,160,445243,1,8,0:0:0:0:
384,160,445828,1,0,0:0:0:0:
384,128,446121,1,8,0:0:0:0:
384,128,446414,1,8,0:0:0:0:
384,128,446707,1,0,0:0:0:0:
384,128,447146,1,0,0:0:0:0:
384,128,447585,1,0,0:0:0:0:
384,128,447877,1,8,0:0:0:0:
384,128,448170,1,8,0:0:0:0:
384,128,448463,1,0,0:0:0:0:
384,128,448613,1,0,0:0:0:0:
384,128,448763,1,8,0:0:0:0:
384,128,448913,1,8,0:0:0:0:
384,128,449063,1,0,0:0:0:0:
384,160,449355,1,8,0:0:0:0:
384,160,449453,1,8,0:0:0:0:
384,160,449550,1,8,0:0:0:0:
384,128,449648,1,0,0:0:0:0:
384,128,449941,1,8,0:0:0:0:
384,128,450038,1,8,0:0:0:0:
384,128,450136,1,8,0:0:0:0:
384,128,450233,1,0,0:0:0:0:
384,160,450526,1,8,0:0:0:0:
416,128,450623,1,8,0:0:0:0:
416,160,450721,1,8,0:0:0:0:
416,160,450819,1,0,0:0:0:0:
416,128,450916,1,8,0:0:0:0:
416,160,451014,1,0,0:0:0:0:
416,128,451111,1,8,0:0:0:0:
416,128,451209,1,8,0:0:0:0:
416,128,451306,1,8,0:0:0:0:
416,128,451404,1,0,0:0:0:0:
416,128,451697,1,8,0:0:0:0:
416,128,451794,1,8,0:0:0:0:
416,128,451892,1,8,0:0:0:0:
416,128,451989,1,0,0:0:0:0:
416,128,452282,1,8,0:0:0:0:
384,128,452380,1,8,0:0:0:0:
416,128,452477,1,8,0:0:0:0:
320,96,452575,1,0,0:0:0:0:
416,128,452867,1,8,0:0:0:0:
416,128,452965,1,8,0:0:0:0:
416,128,453063,1,8,0:0:0:0:
416,128,453160,1,0,0:0:0:0:
416,128,453258,1,0,0:0:0:0:
416,128,453355,1,0,0:0:0:0:
416,128,453453,1,8,0:0:0:0:
448,128,453526,1,8,0:0:0:0:
448,128,453599,1,8,0:0:0:0:
448,128,453672,1,8,0:0:0:0:
448,128,453745,1,0,0:0:0:0:
384,128,454038,1,8,0:0:0:0:
384,128,454136,1,8,0:0:0:0:
416,128,454233,1,8,0:0:0:0:
416,128,454331,1,0,0:0:0:0:
416,128,454623,1,8,0:0:0:0:
416,128,454721,1,8,0:0:0:0:
416,128,454819,1,8,0:0:0:0:
416,128,454916,1,0,0:0:0:0:
416,128,455209,1,8,0:0:0:0:
448,128,455306,1,8,0:0:0:0:
448,128,455404,1,8,0:0:0:0:
448,160,455502,1,0,0:0:0:0:
448,160,455599,1,0,0:0:0:0:
448,160,455697,1,8,0:0:0:0:
448,160,455794,1,0,0:0:0:0:
448,160,455892,1,8,0:0:0:0:
448,160,455989,1,8,0:0:0:0:
448,160,456087,1,0,0:0:0:0:
416,128,456380,1,8,0:0:0:0:
416,128,456477,1,8,0:0:0:0:
448,128,456575,1,8,0:0:0:0:
416,128,456672,1,0,0:0:0:0:
448,128,456965,1,8,0:0:0:0:
448,128,457063,1,8,0:0:0:0:
448,128,457160,1,8,0:0:0:0:
448,128,457258,1,0,0:0:0:0:
448,128,457550,1,8,0:0:0:0:
448,128,457648,1,8,0:0:0:0:
448,128,457745,1,8,0:0:0:0:
448,128,457843,1,0,0:0:0:0:
448,128,457941,1,0,0:0:0:0:
448,128,458038,1,0,0:0:0:0:
384,128,458136,1,8,0:0:0:0:
384,128,458209,1,8,0:0:0:0:
384,128,458282,1,8,0:0:0:0:
384,128,458355,1,8,0:0:0:0:
384,128,458428,1,0,0:0:0:0:
448,128,458721,1,8,0:0:0:0:
448,96,458819,1,8,0:0:0:0:
448,128,458916,1,8,0:0:0:0:
448,96,459014,1,0,0:0:0:0:
448,96,459306,1,8,0:0:0:0:
448,96,459404,1,8,0:0:0:0:
448,96,459502,1,8,0:0:0:0:
448,96,459599,1,0,0:0:0:0:
448,96,459892,1,8,0:0:0:0:
448,96,459989,1,8,0:0:0:0:
480,96,460087,1,8,0:0:0:0:
448,96,460184,1,0,0:0:0:0:
480,96,460282,1,8,0:0:0:0:
480,96,460380,1,8,0:0:0:0:
480,96,460477,1,0,0:0:0:0:
480,96,460575,1,8,0:0:0:0:
480,96,460672,1,8,0:0:0:0:
480,96,460770,1,0,0:0:0:0:
480,96,461063,1,8,0:0:0:0:
480,96,461160,1,8,0:0:0:0:
480,96,461258,1,8,0:0:0:0:
480,96,461355,1,0,0:0:0:0:
480,96,461648,1,8,0:0:0:0:
480,96,461745,1,8,0:0:0:0:
416,192,461843,1,8,0:0:0:0:
448,192,461941,1,0,0:0:0:0:
448,160,462233,1,8,0:0:0:0:
448,160,462331,1,8,0:0:0:0:
448,128,462428,1,8,0:0:0:0:
448,160,462526,1,0,0:0:0:0:
448,160,462623,1,0,0:0:0:0:
448,128,462721,1,0,0:0:0:0:
448,160,462819,1,8,0:0:0:0:
352,192,462950,1,8,0:0:0:0:
422,168,463023,1,8,0:0:0:0:
352,192,463096,1,0,0:0:0:0:
320,160,463388,5,8,0:0:0:0:
320,160,463681,1,0,0:0:0:0:
320,160,463754,1,0,0:0:0:0:
320,160,463827,1,8,0:0:0:0:
320,160,463974,1,0,0:0:0:0:
320,160,464120,1,8,0:0:0:0:
320,160,464266,1,12,0:0:0:0:
320,160,464413,1,0,0:0:0:0:
320,160,464705,1,0,0:0:0:0:
320,160,464852,1,8,0:0:0:0:
320,160,464998,1,8,0:0:0:0:
320,160,465144,1,0,0:0:0:0:
320,160,465217,1,0,0:0:0:0:
320,160,465291,1,8,0:0:0:0:
320,160,465437,1,8,0:0:0:0:
320,160,465730,1,0,0:0:0:0:
352,160,465827,1,0,0:0:0:0:
352,160,465925,1,0,0:0:0:0:
320,160,466022,1,8,0:0:0:0:
352,160,466242,1,0,0:0:0:0:
352,160,466461,1,8,0:0:0:0:
352,160,466608,1,8,0:0:0:0:
352,160,466803,1,8,0:0:0:0:
384,128,466900,1,0,0:0:0:0:
416,128,467096,1,0,0:0:0:0:
352,96,467193,1,8,0:0:0:0:
320,96,467291,1,0,0:0:0:0:
320,96,467388,1,0,0:0:0:0:
320,96,467486,1,8,0:0:0:0:
352,96,467583,1,0,0:0:0:0:
352,96,467681,1,0,0:0:0:0:
352,96,467778,1,12,0:0:0:0:
448,128,468217,1,0,0:0:0:0:
448,128,468656,1,0,0:0:0:0:
448,128,468803,1,0,0:0:0:0:
448,128,468949,1,12,0:0:0:0:
448,192,469388,1,0,0:0:0:0:
480,128,469535,1,4,0:0:0:0:
480,128,469754,1,4,0:0:0:0:
480,128,469974,1,4,0:0:0:0:
480,128,470120,1,12,0:0:0:0:
352,160,470413,1,0,0:0:0:0:
384,160,470510,1,0,0:0:0:0:
384,160,470608,1,0,0:0:0:0:
384,160,470705,1,8,0:0:0:0:
384,160,470803,1,0,0:0:0:0:
384,160,470900,1,0,0:0:0:0:
384,160,470998,1,8,0:0:0:0:
384,128,471096,1,0,0:0:0:0:
384,128,471193,1,0,0:0:0:0:
384,128,471291,1,8,0:0:0:0:
384,128,471583,1,8,0:0:0:0:
384,128,471681,1,0,0:0:0:0:
384,128,471778,1,0,0:0:0:0:
384,128,471876,1,8,0:0:0:0:
416,128,471974,1,0,0:0:0:0:
416,128,472071,1,0,0:0:0:0:
416,128,472169,1,8,0:0:0:0:
416,128,472266,1,0,0:0:0:0:
384,128,472364,1,8,0:0:0:0:
384,128,472461,1,4,0:0:0:0:
416,160,472754,1,0,0:0:0:0:
416,160,472900,1,0,0:0:0:0:
416,160,473047,1,8,0:0:0:0:
416,160,473242,1,0,0:0:0:0:
416,160,473437,1,0,0:0:0:0:
416,160,473632,1,8,0:0:0:0:
416,160,473925,1,0,0:0:0:0:
320,128,474071,1,8,0:0:0:0:
416,128,474217,1,8,0:0:0:0:
416,128,474510,1,0,0:0:0:0:
416,160,474656,1,8,0:0:0:0:
448,192,474803,1,0,0:0:0:0:
448,160,475096,1,0,0:0:0:0:
352,128,475242,1,0,0:0:0:0:
352,128,475388,1,8,0:0:0:0:
448,160,475583,1,0,0:0:0:0:
448,160,475778,1,0,0:0:0:0:
448,160,475974,1,8,0:0:0:0:
448,160,476266,1,0,0:0:0:0:
416,160,476413,1,0,0:0:0:0:
448,160,476559,1,8,0:0:0:0:
448,160,476705,1,8,0:0:0:0:
448,160,476852,1,0,0:0:0:0:
448,160,476998,1,8,0:0:0:0:
416,160,477144,1,4,0:0:0:0:
416,128,477437,1,0,0:0:0:0:
416,160,477583,1,0,0:0:0:0:
416,160,477730,1,8,0:0:0:0:
416,160,477925,1,0,0:0:0:0:
416,160,478120,1,0,0:0:0:0:
416,160,478315,1,8,0:0:0:0:
384,160,478608,1,0,0:0:0:0:
416,160,478754,1,8,0:0:0:0:
384,160,478900,1,8,0:0:0:0:
384,160,479193,1,0,0:0:0:0:
384,160,479339,1,0,0:0:0:0:
384,160,479486,1,8,0:0:0:0:
416,160,479778,1,0,0:0:0:0:
416,160,479925,1,0,0:0:0:0:
416,160,480071,1,8,0:0:0:0:
416,160,480266,1,0,0:0:0:0:
448,160,480461,1,0,0:0:0:0:
448,128,480656,1,8,0:0:0:0:
448,160,480949,1,0,0:0:0:0:
448,160,481096,1,0,0:0:0:0:
448,160,481242,1,8,0:0:0:0:
416,160,481388,1,0,0:0:0:0:
416,160,481535,1,8,0:0:0:0:
416,160,481681,1,8,0:0:0:0:
416,160,481827,1,4,0:0:0:0:
392,151,482120,1,8,0:0:0:0:
416,160,482266,1,0,0:0:0:0:
416,160,482559,1,8,0:0:0:0:
416,160,482852,1,0,0:0:0:0:
416,160,482998,1,8,0:0:0:0:
416,160,483291,1,0,0:0:0:0:
416,160,483583,1,8,0:0:0:0:
416,160,483876,1,0,0:0:0:0:
416,160,484022,1,0,0:0:0:0:
416,160,484169,1,12,0:0:0:0:
352,160,484364,1,4,0:0:0:0:
352,160,484559,1,0,0:0:0:0:
352,160,484656,1,0,0:0:0:0:
352,160,484754,1,12,0:0:0:0:
352,160,484949,1,4,0:0:0:0:
416,160,485144,1,4,0:0:0:0:
448,160,485339,1,12,0:0:0:0:
448,160,485535,1,0,0:0:0:0:
448,160,485632,1,8,0:0:0:0:
448,160,485730,1,8,0:0:0:0:
448,160,485827,1,0,0:0:0:0:
448,160,485925,1,8,0:0:0:0:
448,160,486120,1,0,0:0:0:0:
480,160,486315,1,8,0:0:0:0:
416,160,486510,1,0,0:0:0:0:
320,160,486583,1,0,0:0:0:0:
352,160,486656,1,8,0:0:0:0:
352,160,486730,1,0,0:0:0:0:
352,160,486803,1,0,0:0:0:0:
352,160,486876,1,0,0:0:0:0:
352,160,486949,1,8,0:0:0:0:
352,160,487022,1,8,0:0:0:0:
352,160,487096,1,0,0:0:0:0:
352,160,487169,1,0,0:0:0:0:
352,160,487242,1,8,0:0:0:0:
352,160,487315,1,8,0:0:0:0:
384,160,487388,1,0,0:0:0:0:
384,160,487461,1,0,0:0:0:0:
384,160,487535,1,8,0:0:0:0:
384,160,487608,1,0,0:0:0:0:
384,160,487681,1,8,0:0:0:0:
384,160,487754,1,0,0:0:0:0:
384,160,487827,1,8,0:0:0:0:
384,160,487900,1,8,0:0:0:0:
352,160,487974,1,0,0:0:0:0:
352,160,488047,1,0,0:0:0:0:
352,160,488120,1,8,0:0:0:0:
352,160,488193,1,0,0:0:0:0:
352,160,488266,1,8,0:0:0:0:
352,160,488339,1,0,0:0:0:0:
352,160,488413,1,0,0:0:0:0:
352,160,488486,1,8,0:0:0:0:
352,160,488559,1,0,0:0:0:0:
352,160,488632,1,0,0:0:0:0:
352,160,488705,1,8,0:0:0:0:
352,160,488778,1,0,0:0:0:0:
352,160,488852,1,8,0:0:0:0:
352,160,488925,1,0,0:0:0:0:
352,160,488998,1,8,0:0:0:0:
352,160,489071,1,8,0:0:0:0:
320,128,489144,1,0,0:0:0:0:
320,128,489217,1,0,0:0:0:0:
320,128,489291,1,8,0:0:0:0:
320,128,489364,1,0,0:0:0:0:
352,128,489437,1,8,0:0:0:0:
352,128,489510,1,0,0:0:0:0:
320,128,489583,1,8,0:0:0:0:
352,128,489656,1,8,0:0:0:0:
352,128,489730,1,0,0:0:0:0:
320,128,489803,1,0,0:0:0:0:
320,128,489876,1,8,0:0:0:0:
320,128,489949,1,0,0:0:0:0:
320,128,490022,1,8,0:0:0:0:
320,128,490096,1,8,0:0:0:0:
320,128,490169,1,8,0:0:0:0:
352,160,490242,1,8,0:0:0:0:
320,128,490315,1,0,0:0:0:0:
384,128,490388,1,0,0:0:0:0:
320,128,490461,1,8,0:0:0:0:
320,128,490535,1,8,0:0:0:0:
320,128,490608,1,0,0:0:0:0:
320,128,490681,1,0,0:0:0:0:
320,128,490754,1,8,0:0:0:0:
320,160,490827,1,8,0:0:0:0:
320,128,490900,1,0,0:0:0:0:
320,96,490974,1,0,0:0:0:0:
320,128,491047,1,8,0:0:0:0:
320,96,491120,1,0,0:0:0:0:
320,128,491193,1,8,0:0:0:0:
320,128,491266,1,0,0:0:0:0:
320,128,491339,1,8,0:0:0:0:
320,128,491413,1,8,0:0:0:0:
320,128,491486,1,0,0:0:0:0:
320,128,491559,1,0,0:0:0:0:
352,128,491632,1,8,0:0:0:0:
320,128,491705,1,0,0:0:0:0:
352,128,491778,1,8,0:0:0:0:
352,128,491852,1,0,0:0:0:0:
352,128,491925,1,0,0:0:0:0:
352,128,491998,1,8,0:0:0:0:
352,128,492071,1,0,0:0:0:0:
352,128,492144,1,0,0:0:0:0:
352,128,492217,1,8,0:0:0:0:
352,128,492291,1,0,0:0:0:0:
352,128,492364,1,8,0:0:0:0:
352,128,492437,1,0,0:0:0:0:
352,128,492510,1,8,0:0:0:0:
352,160,492583,1,8,0:0:0:0:
352,128,492656,1,0,0:0:0:0:
352,128,492730,1,0,0:0:0:0:
352,128,492803,1,8,0:0:0:0:
352,128,492876,1,0,0:0:0:0:
320,128,492949,1,8,0:0:0:0:
320,128,493022,1,0,0:0:0:0:
320,128,493096,1,8,0:0:0:0:
320,128,493169,1,8,0:0:0:0:
320,128,493242,1,0,0:0:0:0:
320,128,493315,1,0,0:0:0:0:
320,128,493388,1,8,0:0:0:0:
320,128,493461,1,0,0:0:0:0:
320,128,493535,1,8,0:0:0:0:
320,128,493608,1,0,0:0:0:0:
320,128,493681,1,8,0:0:0:0:
320,128,493754,1,8,0:0:0:0:
320,128,493827,1,0,0:0:0:0:
384,160,493900,1,0,0:0:0:0:
384,160,493974,1,8,0:0:0:0:
384,160,494047,1,0,0:0:0:0:
384,160,494120,1,8,0:0:0:0:
384,160,494193,1,8,0:0:0:0:
352,128,494266,1,0,0:0:0:0:
352,128,494339,1,8,0:0:0:0:
352,128,494413,1,0,0:0:0:0:
352,128,494486,1,0,0:0:0:0:
352,128,494559,1,8,0:0:0:0:
352,128,494632,1,0,0:0:0:0:
352,128,494705,1,8,0:0:0:0:
352,128,494778,1,8,0:0:0:0:
352,128,494852,1,8,0:0:0:0:
352,128,494925,1,8,0:0:0:0:
352,128,494998,1,0,0:0:0:0:
352,128,495071,1,0,0:0:0:0:
352,128,495144,1,8,0:0:0:0:
352,128,495217,1,0,0:0:0:0:
352,128,495291,1,8,0:0:0:0:
352,128,495364,5,8,0:0:0:0:
352,128,495437,5,8,0:0:0:0:
320,128,495510,5,8,0:0:0:0:
320,128,495583,5,0,0:0:0:0:
320,128,495656,5,0,0:0:0:0:
320,128,495730,5,8,0:0:0:0:
352,160,495876,5,4,0:0:0:0:
384,192,496022,5,8,0:0:0:0:
384,192,496169,1,0,0:0:0:0:
480,160,496242,1,0,0:0:0:0:
448,160,496315,1,8,0:0:0:0:
448,160,496461,1,0,0:0:0:0:
448,160,496535,1,0,0:0:0:0:
448,160,496608,1,8,0:0:0:0:
448,160,496681,1,0,0:0:0:0:
448,160,496827,1,0,0:0:0:0:
448,160,496900,1,8,0:0:0:0:
416,160,497047,1,0,0:0:0:0:
416,160,497193,1,8,0:0:0:0:
416,160,497266,1,8,0:0:0:0:
416,160,497339,1,0,0:0:0:0:
416,160,497486,1,8,0:0:0:0:
416,160,497632,1,0,0:0:0:0:
416,160,497705,1,0,0:0:0:0:
416,160,497778,1,8,0:0:0:0:
416,160,497852,1,8,0:0:0:0:
416,160,497925,1,0,0:0:0:0:
416,160,498071,1,8,0:0:0:0:
416,160,498217,1,4,0:0:0:0:
416,160,498364,1,8,0:0:0:0:
416,160,498437,1,8,0:0:0:0:
416,160,498510,1,0,0:0:0:0:
416,160,498656,1,0,0:0:0:0:
416,160,498803,1,0,0:0:0:0:
448,160,498876,1,0,0:0:0:0:
416,160,498949,1,8,0:0:0:0:
448,160,499022,1,0,0:0:0:0:
416,160,499169,1,0,0:0:0:0:
416,160,499242,1,8,0:0:0:0:
416,160,499388,1,0,0:0:0:0:
416,160,499535,1,8,0:0:0:0:
416,160,499608,1,8,0:0:0:0:
448,160,499681,1,0,0:0:0:0:
448,160,499827,1,8,0:0:0:0:
448,160,499974,1,0,0:0:0:0:
448,160,500047,1,0,0:0:0:0:
448,160,500120,1,8,0:0:0:0:
448,160,500193,1,8,0:0:0:0:
448,160,500266,1,0,0:0:0:0:
448,160,500339,1,0,0:0:0:0:
352,128,500413,1,8,0:0:0:0:
352,128,500559,1,4,0:0:0:0:
352,128,500705,1,8,0:0:0:0:
352,128,500852,1,0,0:0:0:0:
352,128,500925,1,0,0:0:0:0:
352,128,500998,1,8,0:0:0:0:
352,128,501144,1,0,0:0:0:0:
352,128,501217,1,0,0:0:0:0:
352,128,501291,1,8,0:0:0:0:
352,128,501364,1,0,0:0:0:0:
352,128,501510,1,0,0:0:0:0:
352,128,501583,1,8,0:0:0:0:
352,128,501730,1,4,0:0:0:0:
352,128,501876,1,8,0:0:0:0:
352,128,502022,1,0,0:0:0:0:
352,128,502095,1,0,0:0:0:0:
352,128,502169,1,8,0:0:0:0:
352,128,502315,1,0,0:0:0:0:
352,128,502388,1,0,0:0:0:0:
352,128,502461,1,8,0:0:0:0:
352,128,502535,1,8,0:0:0:0:
384,160,502608,1,0,0:0:0:0:
352,128,502681,1,0,0:0:0:0:
352,128,502754,1,8,0:0:0:0:
416,160,502900,1,8,0:0:0:0:
416,160,502974,1,8,0:0:0:0:
416,160,503047,1,0,0:0:0:0:
416,160,503120,1,8,0:0:0:0:
416,160,503193,1,0,0:0:0:0:
416,160,503266,1,8,0:0:0:0:
416,160,503339,1,8,0:0:0:0:
416,160,503413,1,0,0:0:0:0:
416,160,503486,1,8,0:0:0:0:
416,160,503559,1,0,0:0:0:0:
416,160,503632,1,0,0:0:0:0:
416,160,503705,1,8,0:0:0:0:
416,128,503778,1,0,0:0:0:0:
416,128,503852,1,0,0:0:0:0:
416,128,503925,1,8,0:0:0:0:
416,128,503998,1,0,0:0:0:0:
416,160,504071,1,8,0:0:0:0:
416,160,504144,1,0,0:0:0:0:
416,160,504217,1,8,0:0:0:0:
416,160,504291,1,8,0:0:0:0:
416,160,504364,1,0,0:0:0:0:
416,160,504437,1,0,0:0:0:0:
416,160,504510,1,8,0:0:0:0:
416,160,504656,1,4,0:0:0:0:
416,160,505242,1,4,0:0:0:0:
384,160,505388,1,8,0:0:0:0:
384,160,505535,1,0,0:0:0:0:
384,160,505608,1,0,0:0:0:0:
384,160,505681,1,8,0:0:0:0:
384,160,505827,1,0,0:0:0:0:
384,160,505974,1,8,0:0:0:0:
384,160,506120,1,0,0:0:0:0:
384,160,506193,1,0,0:0:0:0:
384,160,506266,1,8,0:0:0:0:
384,160,506413,1,0,0:0:0:0:
384,160,506559,1,8,0:0:0:0:
384,160,506705,1,0,0:0:0:0:
384,160,506778,1,0,0:0:0:0:
384,160,506852,1,8,0:0:0:0:
384,160,506998,1,0,0:0:0:0:
384,160,507071,1,0,0:0:0:0:
384,160,507144,1,8,0:0:0:0:
384,160,507291,1,0,0:0:0:0:
352,160,507364,1,0,0:0:0:0:
352,160,507437,1,8,0:0:0:0:
352,160,507583,1,0,0:0:0:0:
352,160,507730,1,8,0:0:0:0:
352,160,507876,1,0,0:0:0:0:
352,160,507949,1,0,0:0:0:0:
352,160,508022,1,8,0:0:0:0:
352,160,508169,1,0,0:0:0:0:
352,160,508315,1,8,0:0:0:0:
352,160,508461,1,0,0:0:0:0:
352,160,508535,1,0,0:0:0:0:
352,160,508608,1,8,0:0:0:0:
352,160,508754,1,0,0:0:0:0:
352,160,508900,1,8,0:0:0:0:
352,160,509047,1,0,0:0:0:0:
352,160,509120,1,0,0:0:0:0:
352,160,509193,1,8,0:0:0:0:
352,160,509339,1,0,0:0:0:0:
352,160,509413,1,0,0:0:0:0:
352,160,509486,1,8,0:0:0:0:
352,160,509632,1,0,0:0:0:0:
352,160,509705,1,0,0:0:0:0:
352,160,509778,1,8,0:0:0:0:
352,128,509925,1,4,0:0:0:0:
352,128,510071,1,8,0:0:0:0:
352,128,510217,1,0,0:0:0:0:
352,128,510291,1,0,0:0:0:0:
352,128,510364,1,8,0:0:0:0:
352,128,510510,1,0,0:0:0:0:
384,128,510656,1,8,0:0:0:0:
384,128,510803,1,0,0:0:0:0:
384,128,510876,1,0,0:0:0:0:
384,128,510949,1,8,0:0:0:0:
384,128,511095,1,4,0:0:0:0:
384,128,511242,1,8,0:0:0:0:
384,128,511388,1,0,0:0:0:0:
384,128,511461,1,0,0:0:0:0:
384,128,511535,1,8,0:0:0:0:
384,128,511681,1,0,0:0:0:0:
384,128,511754,1,0,0:0:0:0:
384,128,511827,1,8,0:0:0:0:
384,128,511974,1,0,0:0:0:0:
384,128,512047,1,0,0:0:0:0:
384,128,512120,1,8,0:0:0:0:
384,128,512266,1,0,0:0:0:0:
384,128,512339,1,0,0:0:0:0:
384,128,512413,1,8,0:0:0:0:
384,128,512486,1,0,0:0:0:0:
352,128,512559,1,0,0:0:0:0:
416,128,512632,1,8,0:0:0:0:
416,128,512705,1,0,0:0:0:0:
416,128,512778,1,0,0:0:0:0:
416,128,512852,1,8,0:0:0:0:
416,128,512925,1,0,0:0:0:0:
416,128,512998,1,0,0:0:0:0:
416,128,513071,1,8,0:0:0:0:
416,128,513144,1,0,0:0:0:0:
416,128,513217,1,0,0:0:0:0:
416,128,513291,1,8,0:0:0:0:
416,128,513364,1,0,0:0:0:0:
416,128,513437,1,8,0:0:0:0:
416,128,513510,1,0,0:0:0:0:
416,128,513583,1,8,0:0:0:0:
416,128,513656,1,8,0:0:0:0:
416,128,513730,1,0,0:0:0:0:
416,128,513803,1,8,0:0:0:0:
416,128,513876,1,0,0:0:0:0:
416,128,513949,1,8,0:0:0:0:
416,128,514022,1,8,0:0:0:0:
416,160,514095,1,0,0:0:0:0:
416,160,514169,1,0,0:0:0:0:
416,160,514242,1,8,0:0:0:0:
416,160,514315,1,0,0:0:0:0:
416,160,514461,1,8,0:0:0:0:
352,128,514608,1,4,0:0:0:0:
384,160,514754,1,8,0:0:0:0:
384,160,514900,1,0,0:0:0:0:
384,160,514974,1,0,0:0:0:0:
384,160,515047,1,8,0:0:0:0:
384,160,515193,1,0,0:0:0:0:
448,128,515266,1,0,0:0:0:0:
384,160,515339,1,8,0:0:0:0:
320,128,515413,1,0,0:0:0:0:
448,128,515559,1,0,0:0:0:0:
416,128,515632,1,8,0:0:0:0:
416,128,515778,1,0,0:0:0:0:
416,128,515925,1,8,0:0:0:0:
416,128,516071,1,0,0:0:0:0:
416,128,516144,1,0,0:0:0:0:
416,128,516217,1,8,0:0:0:0:
416,128,516364,1,0,0:0:0:0:
416,128,516437,1,0,0:0:0:0:
416,128,516510,1,8,0:0:0:0:
416,128,516583,1,8,0:0:0:0:
416,128,516656,1,0,0:0:0:0:
416,128,516803,1,8,0:0:0:0:
416,128,516949,1,0,0:0:0:0:
288,128,517095,1,8,0:0:0:0:
352,128,517169,1,8,0:0:0:0:
352,128,517242,1,0,0:0:0:0:
320,96,517388,1,8,0:0:0:0:
416,128,517535,1,0,0:0:0:0:
416,128,517608,1,0,0:0:0:0:
416,128,517681,1,8,0:0:0:0:
320,96,517827,1,0,0:0:0:0:
320,96,517974,1,8,0:0:0:0:
416,128,518120,1,0,0:0:0:0:
320,96,518193,1,0,0:0:0:0:
352,128,518266,1,0,0:0:0:0:
352,128,518339,1,0,0:0:0:0:
352,128,518413,1,8,0:0:0:0:
384,128,518486,1,0,0:0:0:0:
352,160,518559,1,0,0:0:0:0:
352,160,518632,1,0,0:0:0:0:
352,160,518705,1,0,0:0:0:0:
352,128,518778,1,0,0:0:0:0:
384,128,518852,1,0,0:0:0:0:
384,128,518925,1,0,0:0:0:0:
384,128,518998,1,8,0:0:0:0:
352,160,519071,1,0,0:0:0:0:
352,128,519144,1,0,0:0:0:0:
352,128,519217,1,0,0:0:0:0:
352,128,519291,1,8,0:0:0:0:
352,128,519364,1,0,0:0:0:0:
352,128,519437,1,0,0:0:0:0:
352,128,519510,1,0,0:0:0:0:
352,128,519583,1,0,0:0:0:0:
352,128,519656,1,0,0:0:0:0:
352,128,519730,1,0,0:0:0:0:
352,128,519803,1,0,0:0:0:0:
352,128,519876,1,0,0:0:0:0:
352,128,519949,1,0,0:0:0:0:
352,128,520022,1,0,0:0:0:0:
352,128,520095,1,0,0:0:0:0:
384,128,520169,1,0,0:0:0:0:
352,128,520242,1,0,0:0:0:0:
352,128,520315,1,0,0:0:0:0:
352,128,520388,1,0,0:0:0:0:
352,128,520461,1,8,0:0:0:0:
352,128,520535,1,0,0:0:0:0:
352,128,520608,1,0,0:0:0:0:
352,128,520681,1,0,0:0:0:0:
384,128,520754,1,0,0:0:0:0:
352,128,520827,1,0,0:0:0:0:
384,128,520900,1,0,0:0:0:0:
384,128,520974,1,0,0:0:0:0:
352,128,521047,1,0,0:0:0:0:
352,128,521120,1,0,0:0:0:0:
352,128,521193,1,0,0:0:0:0:
352,128,521266,1,0,0:0:0:0:
352,160,521339,1,12,0:0:0:0:
384,224,521632,1,4,0:0:0:0:
384,224,522217,1,12,0:0:0:0:
384,224,522803,1,4,0:0:0:0:
384,224,523388,1,12,0:0:0:0:
352,160,523974,5,8,0:0:0:0:
352,160,524047,1,8,0:0:0:0:
384,160,524120,1,0,0:0:0:0:
384,160,524193,1,0,0:0:0:0:
384,160,524266,1,0,0:0:0:0:
384,160,524339,1,0,0:0:0:0:
384,160,524413,1,0,0:0:0:0:
384,160,524486,1,0,0:0:0:0:
384,160,524559,1,0,0:0:0:0:
352,160,524632,1,0,0:0:0:0:
384,160,524705,1,0,0:0:0:0:
352,160,524778,1,0,0:0:0:0:
384,160,524852,1,8,0:0:0:0:
384,160,524925,1,8,0:0:0:0:
384,160,524998,1,8,0:0:0:0:
384,160,525071,1,8,0:0:0:0:
384,160,525144,1,0,0:0:0:0:
384,160,525217,1,8,0:0:0:0:
384,160,525291,1,8,0:0:0:0:
384,160,525364,1,8,0:0:0:0:
384,160,525437,1,8,0:0:0:0:
384,160,525510,1,8,0:0:0:0:
384,160,525583,1,0,0:0:0:0:
384,160,525656,1,8,0:0:0:0:
384,160,525730,1,8,0:0:0:0:
384,160,525803,1,8,0:0:0:0:
384,160,525876,1,8,0:0:0:0:
384,160,525949,1,8,0:0:0:0:
384,160,526022,1,0,0:0:0:0:
384,160,526096,1,8,0:0:0:0:
384,160,526169,1,8,0:0:0:0:
384,160,526242,1,8,0:0:0:0:
352,128,526315,5,4,0:0:0:0:
352,128,526900,1,4,0:0:0:0:
352,128,527095,1,4,0:0:0:0:
352,128,527291,1,4,0:0:0:0:
384,128,527486,1,4,0:0:0:0:
256,192,527778,12,0,529827,0:0:0:0:
