osu file format v14

[General]
AudioFilename: audio.mp3
AudioLeadIn: 0
PreviewTime: 387511
Countdown: 0
SampleSet: Soft
StackLeniency: 0.7
Mode: 2
LetterboxInBreaks: 0
WidescreenStoryboard: 0

[Editor]
DistanceSpacing: 1
BeatDivisor: 4
GridSize: 32
TimelineZoom: 2.7

[Metadata]
Title:Uta
TitleUnicode:謳
Artist:Imperial Circus Dead Decadence
ArtistUnicode:Imperial Circus Dead Decadence
Creator:Ascendance
Version:Requiem
Source:
Tags:nanomortis extol ou song declare express Ode To The Dreadful Sacrament 惨劇の血に赫く染まった愛と絶望の黒い死とが紡ぐ最期の物語 Sangeki no Chi ni Kagayaku Somatta Ai to Zetsubou no Kuroi Shitoga Tsumugu Saigo no Monogatari Rib:y(uhki) L.G.C. KIM Kylie Hull VAGUEDGE Another Stream Kimiko PEATH2 TOME あにょ REINO Hellnear
BeatmapID:1417907
BeatmapSetID:670439

[Difficulty]
HPDrainRate:6
CircleSize:4.2
OverallDifficulty:9.7
ApproachRate:9.7
SliderMultiplier:1.96
SliderTickRate:2

[Events]
//Background and Video events
0,0,"deep_sleep_by_nanomortis-d7ob72z.png",0,0
//Break Periods
//Storyboard Layer 0 (Background)
//Storyboard Layer 1 (Fail)
//Storyboard Layer 2 (Pass)
//Storyboard Layer 3 (Foreground)
//Storyboard Sound Samples

[TimingPoints]
1641,428.571428571429,4,2,1,40,1,0
23926,458.015267175573,4,2,1,40,1,0
24842,468.75,4,2,1,40,1,8
25777,500,4,2,1,40,1,0
27777,545.454545454546,4,2,1,40,1,0
28867,555.555555555556,4,2,1,40,1,8
29973,310.880829015544,4,2,1,40,1,0
33703,292.682926829268,4,2,2,80,1,0
33703,-100,4,2,2,80,0,0
33995,-100,4,2,12,80,0,0
35678,-100,4,2,1,80,0,0
35971,-100,4,2,2,80,0,0
36337,-100,4,2,12,80,0,0
38093,-100,4,2,1,80,0,0
38312,-100,4,2,2,80,0,0
38678,-100,4,2,12,80,0,0
39849,-100,4,2,12,80,0,0
40068,-100,4,2,12,80,0,0
40361,-100,4,2,12,80,0,0
40727,-100,4,2,1,80,0,1
43068,-100,4,2,2,80,0,0
43361,-100,4,2,12,80,0,0
45044,-100,4,2,1,80,0,0
45337,-100,4,2,2,80,0,0
45702,-100,4,2,12,80,0,0
47385,-100,4,2,1,80,0,0
47678,-100,4,2,2,80,0,0
48044,-100,4,2,12,80,0,0
49215,-100,4,2,12,80,0,0
49507,-100,4,2,12,80,0,0
49800,-100,4,2,12,80,0,0
50093,-100,4,2,1,80,0,0
51995,-76.9230769230769,4,2,1,80,0,0
52434,-100,4,2,22,50,0,1
52507,-100,4,2,1,80,0,1
61800,-100,4,2,22,80,0,1
61873,-100,4,2,1,80,0,1
65605,-100,4,2,1,80,0,1
66410,-100,4,2,1,80,0,1
68824,-133.333333333333,4,2,1,80,0,0
75849,-100,4,2,1,80,0,0
84922,-100,4,2,1,80,0,0
85196,292.682926829268,4,2,1,80,1,0
85196,-100,4,2,1,80,0,0
87171,-100,4,2,1,80,0,0
87556,292.682926829268,4,2,22,80,1,0
87702,-100,4,2,1,80,0,0
96044,-100,4,2,1,80,0,0
96556,-100,4,2,1,80,0,0
96922,-100,4,2,22,80,0,0
96995,-100,4,2,1,80,0,0
103215,-100,4,2,1,80,0,0
105117,-100,4,2,1,80,0,0
105337,-100,4,2,1,80,0,0
105995,-100,4,2,1,80,0,0
106288,-100,4,2,1,80,0,0
114263,-100,4,2,1,80,0,0
114702,-100,4,2,1,80,0,0
117190,-100,4,2,1,80,0,0
117629,-100,4,2,1,80,0,0
123629,-100,4,2,1,80,0,0
124068,-100,4,2,1,80,0,0
127288,-100,4,2,1,80,0,0
128459,-100,4,2,1,80,0,0
132995,-100,4,2,1,80,0,0
133361,-100,4,2,1,80,0,0
134385,-100,4,2,1,80,0,0
143751,-100,4,2,22,80,0,1
143824,-100,4,2,1,80,0,1
161312,-100,4,2,1,80,0,0
162482,-100,4,2,1,80,0,1
163581,-100,4,2,23,80,0,1
163727,-100,4,2,1,80,0,1
165922,-100,4,2,23,80,0,1
166068,-100,4,2,1,80,0,1
168263,-100,4,2,23,80,0,1
168410,-100,4,2,1,80,0,1
170605,-100,4,2,23,80,0,1
170751,-100,4,2,1,80,0,1
172946,-100,4,2,23,80,0,1
173093,-100,4,2,1,80,0,1
175288,-100,4,2,23,80,0,1
175434,-100,4,2,1,80,0,1
177629,-100,4,2,23,80,0,1
177776,-100,4,2,1,80,0,1
180629,-100,4,2,1,80,0,0
181214,-100,4,2,1,80,0,1
185605,-100,4,2,1,80,0,1
185898,-100,4,2,1,80,0,1
190288,-76.9230769230769,4,2,1,80,0,1
190654,-100,4,2,1,80,0,1
194971,-100,4,2,1,80,0,1
195263,-100,4,2,1,80,0,1
199946,-100,4,2,1,80,0,1
204556,-100,4,2,1,80,0,1
204849,-100,4,2,1,60,0,1
205288,-100,4,2,1,80,0,1
206020,-100,4,2,1,60,0,1
206459,-100,4,2,1,80,0,1
206971,-100,4,2,1,80,0,1
212898,-100,4,2,1,60,0,1
213337,-100,4,2,1,80,0,1
213556,-100,4,2,1,80,0,1
213776,-100,4,2,1,60,0,1
213922,-100,4,2,1,80,0,1
213995,-100,4,2,1,80,0,1
217434,-100,4,2,1,80,0,1
217873,-100,4,2,1,80,0,1
218678,-100,4,2,1,80,0,1
221020,-66.6666666666667,4,2,1,80,0,1
221459,-100,4,2,1,80,0,1
222776,-66.6666666666667,4,2,1,80,0,1
223361,-100,4,2,1,80,0,1
228044,-66.6666666666667,4,2,1,80,0,1
228556,-100,4,2,1,80,0,1
232142,-66.6666666666667,4,2,1,80,0,1
232654,-100,4,2,1,80,0,1
235946,-100,4,2,1,80,0,1
237409,-100,4,2,1,80,0,0
244361,-100,4,2,1,80,0,0
245971,-100,4,2,1,80,0,0
246483,-66.6666666666667,4,2,1,80,0,0
246776,-100,4,2,22,80,0,0
246849,-100,4,2,1,80,0,0
251385,-100,4,2,1,80,0,0
251824,-100,4,2,1,80,0,0
254971,-100,4,2,1,80,0,0
256142,-100,4,2,1,80,0,0
264117,-100,4,2,1,80,0,0
264556,-100,4,2,1,80,0,0
267117,-100,4,2,1,80,0,0
267483,-100,4,2,1,80,0,0
273483,-100,4,2,1,80,0,0
273922,-100,4,2,1,80,0,0
274873,-100,4,2,12,90,0,0
282995,-100,4,2,1,80,0,0
284239,-100,4,2,1,80,0,0
284434,-100,4,2,1,50,0,0
284629,-100,4,2,1,80,0,0
285605,-100,4,2,1,50,0,0
285800,-100,4,2,1,80,0,0
286776,-100,4,2,1,50,0,0
286971,-100,4,2,1,80,0,0
287946,-100,4,2,1,50,0,0
288142,-100,4,2,1,80,0,0
288702,-100,4,2,1,80,0,0
293239,-100,4,2,1,80,0,0
293604,-86.9565217391304,4,2,1,80,0,1
293605,-86.9565217391304,4,2,23,80,0,1
293751,-86.9565217391304,4,2,1,80,0,1
295873,-86.9565217391304,4,2,23,80,0,1
296020,-86.9565217391304,4,2,1,80,0,1
298215,-86.9565217391304,4,2,23,80,0,1
298361,-86.9565217391304,4,2,1,80,0,1
300556,-86.9565217391304,4,2,23,80,0,1
300702,-86.9565217391304,4,2,1,80,0,1
302898,-86.9565217391304,4,2,23,80,0,1
303044,-86.9565217391304,4,2,1,80,0,1
305239,-86.9565217391304,4,2,23,80,0,1
305385,-86.9565217391304,4,2,1,80,0,1
307581,-86.9565217391304,4,2,23,80,0,1
307727,-86.9565217391304,4,2,1,80,0,1
311751,-100,4,2,1,80,0,0
312336,-100,4,2,1,80,0,1
313434,-100,4,2,23,80,0,1
313581,-100,4,2,1,80,0,1
315776,-100,4,2,23,80,0,1
315922,-100,4,2,1,80,0,1
318117,-100,4,2,23,80,0,1
318263,-100,4,2,1,80,0,1
320459,-100,4,2,23,80,0,1
320605,-100,4,2,1,80,0,1
321702,-100,4,2,1,80,0,1
322800,-100,4,2,23,80,0,1
322946,-100,4,2,1,80,0,1
325142,-100,4,2,23,80,0,1
325288,-100,4,2,1,80,0,1
327483,-100,4,2,23,80,0,1
327629,-100,4,2,1,80,0,1
331143,300,4,2,1,40,1,0
331143,-133.333333333333,4,2,1,40,0,0
349068,-100,4,2,1,40,0,0
350300,300,4,2,12,40,1,0
368268,292.682926829268,4,2,12,70,1,0
368268,-100,4,2,12,70,0,0
368487,-100,4,2,1,80,0,0
369658,-100,4,2,1,60,0,0
369804,-100,4,2,1,80,0,0
377633,-66.6666666666667,4,2,1,80,0,0
378072,-100,4,2,1,80,0,0
385463,-100,4,2,1,80,0,0
385828,-100,4,2,1,80,0,0
387072,-100,4,2,1,80,0,0
387511,-100,4,2,1,80,0,0
388170,-83.3333333333333,4,2,1,80,0,1
406828,-100,4,2,2,80,0,1
408877,-100,4,2,1,80,0,1
409243,-100,4,2,1,80,0,0
409463,-100,4,2,1,40,0,0
409609,-100,4,2,1,80,0,0
410633,-100,4,2,1,40,0,0
410780,-100,4,2,1,80,0,0
410926,-100,4,2,1,40,0,0
411072,-100,4,2,1,80,0,0
411585,-100,4,2,1,80,0,1
415463,-100,4,2,1,80,0,1
415902,-100,4,2,1,80,0,1
424389,-100,4,2,1,80,0,1
424828,-100,4,2,1,80,0,1
425267,-100,4,2,1,80,0,1
430316,-100,4,2,1,80,0,0
430389,-133.333333333333,4,2,12,45,0,0
446414,-100,4,2,12,40,0,0
446926,-100,4,2,12,10,0,0
447072,-100,4,2,12,40,0,0
447219,-100,4,2,12,10,0,0
447365,-100,4,2,12,40,0,0
447804,-100,4,2,12,50,0,0
448463,300,4,2,12,60,1,0
448463,-100,4,2,12,60,0,0
449063,292.682926829268,4,2,12,70,1,0
449063,-100,4,2,12,70,0,0
462950,292.682926829268,4,2,1,80,1,8
463096,292.682926829268,4,2,1,80,1,0
463096,-100,4,2,1,80,0,0
465071,-100,4,2,2,80,0,0
465437,-100,4,2,1,80,0,0
466022,-100,4,2,2,80,0,0
467778,-100,4,2,1,80,0,0
470120,-100,4,2,1,80,0,0
472461,-100,4,2,1,80,0,0
484169,-100,4,2,1,80,0,0
484754,-100,4,2,1,80,0,0
485339,-100,4,2,1,80,0,0
486510,-100,4,2,1,80,0,1
487608,-100,4,2,23,80,0,1
487754,-100,4,2,1,80,0,1
489949,-100,4,2,23,80,0,1
490096,-100,4,2,1,80,0,1
492291,-100,4,2,23,80,0,1
492437,-100,4,2,1,80,0,1
494632,-100,4,2,23,80,0,1
494778,-100,4,2,1,80,0,1
496974,-100,4,2,23,80,0,1
497120,-100,4,2,1,80,0,1
499315,-100,4,2,23,80,0,1
499461,-100,4,2,1,80,0,1
501656,-100,4,2,23,80,0,1
501803,-100,4,2,1,80,0,1
504656,-100,4,2,1,80,0,0
505242,-100,4,2,1,80,0,1
521632,-100,4,2,1,80,0,1
521852,-100,4,2,1,40,0,1
521998,-100,4,2,1,80,0,1
523022,-100,4,2,1,40,0,1
523169,-100,4,2,1,80,0,1
525437,-100,4,2,1,90,0,1
526315,-100,4,2,1,80,0,0
527486,-100,4,2,1,80,0,1
527778,-100,4,2,1,80,0,0

[HitObjects]
370,128,1641,5,0,0:0:0:0:
134,276,2069,2,0,L|341:269,2,196,0|0|0,0:0|0:0|0:0,0:0:0:0:
341,347,3355,6,0,P|386:253|306:192,1,196,0|0,0:0|0:0,0:0:0:0:
212,183,3998,2,0,L|113:186,1,98,0|0,0:0|0:0,0:0:0:0:
343,272,4641,1,0,0:0:0:0:
125,111,5069,6,0,L|348:131,2,196,0|0|0,0:0|0:0|0:0,0:0:0:0:
371,59,6355,1,0,0:0:0:0:
201,130,6783,6,0,P|142:199|223:294,1,196,0|0,0:0|0:0,0:0:0:0:
350,333,7641,2,0,L|146:343,1,196,0|0,0:0|0:0,0:0:0:0:
399,251,8498,6,0,L|189:237,2,196,0|0|0,0:0|0:0|0:0,0:0:0:0:
151,321,9783,1,0,0:0:0:0:
341,370,10212,6,0,P|385:268|300:225,1,196,0|0,0:0|0:0,0:0:0:0:
160,253,10855,2,0,L|173:139,1,98,0|0,0:0|0:0,0:0:0:0:
374,106,11498,1,0,0:0:0:0:
122,44,11926,6,0,L|341:65,1,196,0|0,0:0|0:0,0:0:0:0:
488,108,12569,2,0,L|479:216,1,98,0|0,0:0|0:0,0:0:0:0:
232,225,13212,1,0,0:0:0:0:
415,324,13641,6,0,L|471:315,2,49,0|0|0,0:0|0:0|0:0,0:0:0:0:
283,346,14069,1,0,0:0:0:0:
460,332,14498,2,0,L|442:123,1,196,0|0,0:0|0:0,0:0:0:0:
120,82,15355,6,0,L|325:103,2,196,0|0|0,0:0|0:0|0:0,0:0:0:0:
359,37,16641,1,0,0:0:0:0:
177,144,17069,2,0,L|202:348,1,196,0|0,0:0|0:0,0:0:0:0:
397,207,17926,6,0,L|183:234,1,196,0|0,0:0|0:0,0:0:0:0:
438,354,18783,2,0,P|469:250|389:202,1,196,0|0,0:0|0:0,0:0:0:0:
214,271,19426,2,0,P|166:199|242:102,1,196
399,86,20069,1,0,0:0:0:0:
203,254,20498,6,0,L|-1:239,1,196
250,356,21355,2,0,L|465:333,1,196,0|0,0:0|0:0,0:0:0:0:
200,284,22212,6,0,L|194:82,1,196,0|0,0:0|0:0,0:0:0:0:
345,47,22855,1,0,0:0:0:0:
170,199,23283,2,0,L|64:189,1,98,0|0,0:0|0:0,0:0:0:0:
329,147,23926,5,0,0:0:0:0:
115,249,24384,1,0,0:0:0:0:
401,338,24842,2,0,L|402:117,1,196,0|0,0:0|0:0,0:0:0:0:
115,103,25777,5,0,0:0:0:0:
311,207,26277,2,0,L|433:198,2,98,0|0|0,0:0|0:0|0:0,0:0:0:0:
122,229,27277,1,0,0:0:0:0:
367,368,27777,6,0,P|394:295|321:200,1,196,0|0,0:0|0:0,0:0:0:0:
116,182,28867,2,0,L|324:157,1,196,0|0,0:0|0:0,0:0:0:0:
50,170,29973,6,0,L|32:96,2,65.3333333333333
256,192,30283,12,0,32460,0:0:0:0:
118,305,33703,6,0,L|96:192,1,98,8|0,0:1|0:0,0:0:0:0:
437,81,33995,6,0,L|418:192,1,98,2|0,0:1|0:0,0:0:0:0:
283,196,34288,2,0,L|266:315,1,98,0|0,0:0|0:0,0:0:0:0:
423,347,34581,2,0,L|314:367,1,98,2|0,0:1|0:0,0:0:0:0:
171,259,34873,6,0,L|284:283,1,98,0|0,0:0|0:0,0:0:0:0:
419,176,35166,2,0,L|312:201,1,98,2|0,0:1|0:0,0:0:0:0:
180,154,35459,2,0,P|156:71|202:37,1,147
411,27,35751,2,0,P|454:84|408:149,1,147,2|0,0:3|0:0,0:0:0:0:
186,327,36044,6,0,L|55:313,1,98,8|0,0:1|0:0,0:0:0:0:
413,184,36337,2,0,L|307:169,1,98,2|0,0:1|0:0,0:0:0:0:
178,85,36629,2,0,L|189:201,1,98,0|0,0:0|0:0,0:0:0:0:
344,234,36922,2,0,L|357:338,1,98,2|0,0:1|0:0,0:0:0:0:
236,296,37215,6,0,L|129:308,1,98,0|0,0:0|0:0,0:0:0:0:
258,202,37507,2,0,L|367:217,1,98,2|0,0:1|0:0,0:0:0:0:
176,226,37800,2,0,P|147:178|198:94,1,147
337,118,38093,2,0,P|428:139|503:93,1,147,2|0,0:3|0:0,0:0:0:0:
210,40,38385,6,0,P|148:26|90:48,1,98,8|0,0:1|0:0,0:0:0:0:
282,229,38678,2,0,L|299:110,1,98,2|0,0:1|0:0,0:0:0:0:
141,167,38971,2,0,L|36:158,1,98,0|0,0:0|0:0,0:0:0:0:
186,274,39263,2,0,L|301:290,1,98,2|0,0:1|0:0,0:0:0:0:
420,352,39556,6,0,L|434:247,1,98
292,87,39849,2,0,P|246:152|289:218,1,147,2|0,0:1|0:0,0:0:0:0:
367,253,40142,2,0,L|249:262,1,98,2|0,0:1|0:0,0:0:0:0:
41,353,40434,2,0,L|33:234,1,98,2|0,0:1|0:0,0:0:0:0:
251,280,40727,5,2,0:3:0:0:
297,266,40800,1,0,0:0:0:0:
334,233,40873,1,0,0:0:0:0:
353,189,40946,1,0,0:0:0:0:
160,140,41019,1,8,0:0:0:0:
138,91,41092,1,0,0:0:0:0:
170,45,41166,1,0,0:0:0:0:
216,29,41239,1,0,0:0:0:0:
431,126,41313,6,0,L|482:119,1,49,8|0,0:0|0:0,0:0:0:0:
321,221,41459,2,0,L|261:217,1,49,0|0,0:0|0:0,0:0:0:0:
431,126,41606,2,0,L|482:119,1,49,8|0,0:0|0:0,0:0:0:0:
321,221,41752,2,0,L|261:217,1,49,0|0,0:0|0:0,0:0:0:0:
57,339,41898,6,0,L|53:271,1,49,2|0,0:3|0:0,0:0:0:0:
107,266,42044,2,0,L|185:249,1,49,0|0,0:0|0:0,0:0:0:0:
212,244,42190,2,0,L|220:161,1,49,2|0,0:3|0:0,0:0:0:0:
162,170,42337,2,0,L|79:146,1,49,0|0,0:0|0:0,0:0:0:0:
270,169,42483,6,0,L|329:169,1,49,2|0,0:3|0:0,0:0:0:0:
270,169,42629,2,0,L|210:169,1,49
61,111,42776,2,0,L|123:111,1,49,2|0,0:3|0:0,0:0:0:0:
298,86,42923,2,0,L|363:86,1,49,0|0,0:0|0:0,0:0:0:0:
179,60,43068,6,0,P|93:74|19:40,1,147,8|0,0:1|0:0,0:0:0:0:
304,179,43361,6,0,L|316:282,1,98,2|0,0:1|0:0,0:0:0:0:
179,282,43654,2,0,L|63:292,1,98,0|0,0:0|0:0,0:0:0:0:
204,193,43946,2,0,L|309:210,1,98,2|0,0:1|0:0,0:0:0:0:
420,292,44239,6,0,L|437:162,1,98,0|0,0:0|0:0,0:0:0:0:
319,113,44532,2,0,L|213:100,1,98,2|0,0:1|0:0,0:0:0:0:
80,215,44824,2,0,P|161:198|228:227,1,147,0|0,0:0|0:0,0:0:0:0:
436,338,45117,2,0,P|458:258|406:206,1,147,2|0,0:3|0:0,0:0:0:0:
196,85,45410,6,0,P|154:148|199:208,1,147,8|0,0:1|0:0,0:0:0:0:
381,344,45702,2,0,L|394:243,1,98,2|0,0:1|0:0,0:0:0:0:
258,300,45995,2,0,L|153:293,1,98,0|0,0:0|0:0,0:0:0:0:
297,201,46288,2,0,L|169:187,1,98,2|0,0:1|0:0,0:0:0:0:
371,126,46581,6,0,L|353:249,1,98,0|0,0:0|0:0,0:0:0:0:
223,221,46873,2,0,L|210:327,1,98,2|0,0:1|0:0,0:0:0:0:
83,148,47166,2,0,P|154:167|232:138,1,147,0|0,0:0|0:0,0:0:0:0:
471,178,47459,2,0,P|387:166|314:203,1,147,2|0,0:3|0:0,0:0:0:0:
129,338,47751,6,0,P|94:263|149:203,1,147,8|0,0:1|0:0,0:0:0:0:
311,161,48044,6,0,L|420:160,1,98,2|0,0:1|0:0,0:0:0:0:
260,114,48337,2,0,L|270:235,1,98
411,226,48629,2,0,L|417:335,1,98,2|0,0:1|0:0,0:0:0:0:
271,315,48922,6,0,L|163:328,1,98,0|0,0:0|0:0,0:0:0:0:
314,219,49215,2,0,L|434:239,1,98,2|0,0:1|0:0,0:0:0:0:
232,245,49507,2,0,L|222:136,1,98,2|0,0:1|0:0,0:0:0:0:
458,86,49800,2,0,L|355:78,1,98,2|0,0:1|0:0,0:0:0:0:
51,61,50093,5,2,0:3:0:0:
247,135,50385,2,0,L|248:197,1,49,2|0,0:1|0:0,0:0:0:0:
189,220,50532,2,0,L|131:233,1,49,0|0,0:0|0:0,0:0:0:0:
357,285,50678,1,8,0:0:0:0:
214,183,50971,1,2,0:1:0:0:
262,188,51044,1,0,0:0:0:0:
311,193,51117,1,0,0:0:0:0:
360,199,51190,1,0,0:0:0:0:
139,313,51263,5,2,0:3:0:0:
87,270,51336,1,0,0:0:0:0:
88,223,51409,1,0,0:0:0:0:
143,199,51482,1,0,0:0:0:0:
347,204,51555,1,8,0:2:0:0:
463,201,51702,1,0,0:0:0:0:
161,161,51849,1,2,0:1:0:0:
409,158,51995,6,0,P|317:201|423:175,1,318.499985420228,0|0,0:0|0:0,0:0:0:0:
217,72,52434,6,0,L|106:79,1,98,4|0,0:0|0:0,0:0:0:0:
389,140,52727,2,0,L|468:132,2,49,8|0|0,0:0|0:0|0:0,0:0:0:0:
247,264,53020,1,2,0:1:0:0:
295,259,53093,1,0,0:0:0:0:
344,255,53166,1,0,0:0:0:0:
76,212,53312,1,8,0:0:0:0:
72,163,53385,1,0,0:0:0:0:
68,114,53458,1,0,0:0:0:0:
339,146,53605,5,2,0:1:0:0:
290,152,53678,1,0,0:0:0:0:
241,158,53751,1,0,0:0:0:0:
407,292,53898,2,0,L|435:178,1,98,8|2,0:0|0:1,0:0:0:0:
187,287,54190,1,0,0:0:0:0:
235,291,54263,1,0,0:0:0:0:
284,296,54336,1,2,0:1:0:0:
52,355,54483,2,0,L|28:225,1,98,8|8,0:0|0:0,0:0:0:0:
367,175,54776,5,4,0:3:0:0:
227,160,54922,1,0,0:0:0:0:
493,73,55068,1,8,0:0:0:0:
489,121,55141,1,0,0:0:0:0:
486,170,55214,1,0,0:0:0:0:
186,306,55361,2,0,L|114:313,2,49,2|0|0,0:1|0:0|0:0,0:0:0:0:
413,251,55654,2,0,L|480:257,2,49,8|0|0,0:0|0:0|0:0,0:0:0:0:
86,206,55946,6,0,L|80:101,1,98,2|0,0:1|0:0,0:0:0:0:
312,141,56239,1,8,0:0:0:0:
360,136,56312,1,0,0:0:0:0:
409,131,56385,1,2,0:1:0:0:
257,212,56532,2,0,L|162:224,2,49,0|0|2,0:0|0:0|0:1,0:0:0:0:
500,297,56824,2,0,L|401:284,1,98,8|0,0:0|0:0,0:0:0:0:
116,335,57117,6,0,L|115:253,1,49,4|0,0:3|0:0,0:0:0:0:
170,264,57263,1,0,0:0:0:0:
322,281,57410,1,8,0:0:0:0:
170,264,57556,1,0,0:0:0:0:
322,281,57702,1,2,0:1:0:0:
371,286,57775,1,0,0:0:0:0:
420,292,57848,1,0,0:0:0:0:
284,162,57995,2,0,L|275:103,1,49,8|0,0:0|0:0,0:0:0:0:
329,78,58142,1,0,0:0:0:0:
61,37,58288,6,0,L|179:46,1,98,4|0,0:3|0:0,0:0:0:0:
296,98,58581,1,8,0:0:0:0:
289,146,58654,1,0,0:0:0:0:
282,194,58727,1,2,0:1:0:0:
36,207,58873,1,0,0:0:0:0:
39,255,58946,1,0,0:0:0:0:
42,304,59019,1,2,0:1:0:0:
352,343,59166,2,0,L|457:332,1,98,8|8,0:0|0:0,0:0:0:0:
168,244,59459,6,0,L|30:246,2,98,4|0|8,0:3|0:0|0:0,0:0:0:0:
329,133,59898,1,0,0:0:0:0:
117,83,60044,2,0,L|55:83,1,49,8|0,0:0|0:0,0:0:0:0:
271,184,60190,2,0,L|334:184,1,49,8|0,0:0|0:0,0:0:0:0:
87,239,60337,2,0,L|73:293,1,49,8|0,0:0|0:0,0:0:0:0:
251,322,60483,2,0,L|275:365,1,49,8|0,0:0|0:0,0:0:0:0:
482,221,60629,6,0,L|405:224,1,49,4|0,0:3|0:0,0:0:0:0:
243,172,60776,2,0,L|188:172,1,49,0|0,0:0|0:0,0:0:0:0:
412,76,60922,2,0,L|402:160,1,49,2|0,0:3|0:0,0:0:0:0:
352,148,61068,2,0,L|265:145,1,49,0|0,0:0|0:0,0:0:0:0:
482,221,61215,6,0,L|475:294,1,49,2|0,0:3|0:0,0:0:0:0:
267,346,61361,1,0,0:0:0:0:
212,325,61434,1,0,0:0:0:0:
406,202,61507,1,2,0:3:0:0:
420,145,61580,1,0,0:0:0:0:
227,142,61653,1,0,0:0:0:0:
212,85,61726,1,0,0:0:0:0:
378,62,61800,6,0,L|481:52,1,98,4|0,0:0|0:0,0:0:0:0:
251,203,62093,1,8,0:0:0:0:
202,197,62166,1,0,0:0:0:0:
153,191,62239,1,0,0:0:0:0:
306,303,62385,1,2,0:1:0:0:
314,254,62458,1,0,0:0:0:0:
323,206,62531,1,0,0:0:0:0:
471,186,62678,2,0,L|456:69,1,98,8|8,0:0|0:0,0:0:0:0:
176,54,62971,6,0,L|109:60,2,49,2|0|0,0:1|0:0|0:0,0:0:0:0:
325,154,63263,2,0,L|213:142,1,98,8|0,0:0|0:0,0:0:0:0:
381,246,63556,2,0,L|444:237,2,49,2|0|2,0:1|0:0|0:1,0:0:0:0:
125,358,63849,1,8,0:0:0:0:
83,316,63922,1,0,0:0:0:0:
85,268,63995,1,2,0:1:0:0:
130,235,64068,1,0,0:0:0:0:
313,236,64142,6,0,L|333:119,1,98,4|0,0:3|0:0,0:0:0:0:
195,117,64434,2,0,L|105:103,2,49,8|0|0,0:0|0:0|0:0,0:0:0:0:
340,31,64727,1,2,0:1:0:0:
291,35,64800,1,0,0:0:0:0:
242,39,64873,1,0,0:0:0:0:
356,111,65020,2,0,L|469:116,1,98,8|0,0:0|0:0,0:0:0:0:
219,181,65312,6,0,L|295:181,1,49,2|0,0:1|0:0,0:0:0:0:
316,181,65459,2,0,L|253:180,1,49,0|0,0:0|0:0,0:0:0:0:
68,182,65605,1,8,0:0:0:0:
187,183,65751,2,0,L|241:183,1,49,0|0,0:0|0:0,0:0:0:0:
425,187,65898,6,0,L|484:187,1,49,2|0,0:1|0:0,0:0:0:0:
425,187,66044,2,0,L|356:187,1,49,0|0,0:0|0:0,0:0:0:0:
144,90,66190,2,0,L|272:91,1,98,8|0,0:0|0:0,0:0:0:0:
301,92,66410,1,0,0:0:0:0:
95,338,66483,6,0,L|91:267,1,49,4|0,0:3|0:0,0:0:0:0:
147,268,66629,2,0,L|238:255,1,49,0|0,0:0|0:0,0:0:0:0:
254,250,66776,2,0,L|273:175,1,49,8|0,0:0|0:0,0:0:0:0:
306,179,66922,2,0,L|386:175,1,49,0|0,0:0|0:0,0:0:0:0:
306,179,67068,6,0,L|231:182,1,49,8|0,0:0|0:0,0:0:0:0:
197,186,67215,2,0,L|192:114,1,49,0|0,0:0|0:0,0:0:0:0:
368,84,67361,2,0,L|436:78,1,49,8|0,0:0|0:0,0:0:0:0:
146,44,67507,2,0,L|84:54,1,49
361,368,67654,6,0,L|373:310,1,49,4|0,0:3|0:0,0:0:0:0:
293,272,67800,2,0,L|284:213,1,49
379,203,67946,2,0,L|393:151,1,49,8|0,0:0|0:0,0:0:0:0:
245,118,68093,2,0,L|235:47,1,49,0|0,0:0|0:0,0:0:0:0:
412,74,68239,6,0,L|465:69,1,49,4|0,0:3|0:0,0:0:0:0:
268,198,68385,2,0,L|208:205,1,49
470,309,68532,2,0,L|486:240,1,49,8|0,0:0|0:0,0:0:0:0:
160,145,68678,2,0,L|88:157,1,49,0|0,0:0|0:0,0:0:0:0:
405,208,68824,5,4,0:1:0:0:
233,139,69117,2,0,L|74:149,2,147.000005607605,0|0|0,0:0|0:0|0:0,0:0:0:0:
389,51,69995,2,0,L|375:213,1,147.000005607605,0|0,0:0|0:0,0:0:0:0:
208,231,70581,2,0,L|48:250,1,147.000005607605,0|0,0:0|0:0,0:0:0:0:
445,334,71166,5,4,0:1:0:0:
228,261,71459,2,0,L|69:275,1,147.000005607605,0|0,0:0|0:0,0:0:0:0:
460,208,72044,1,0,0:0:0:0:
235,117,72337,6,0,L|410:109,1,147.000005607605,0|0,0:0|0:0,0:0:0:0:
184,219,72922,2,0,L|19:213,1,147.000005607605,0|0,0:0|0:0,0:0:0:0:
416,360,73507,6,0,B|484:241|484:241|393:272|329:155|375:75|475:53,1,441.000016822816,4|0,0:1|0:0,0:0:0:0:
113,322,74678,2,0,B|22:216|157:155|157:155|86:178|-8:134,1,367.500014019013,4|8,0:1|0:0,0:0:0:0:
46,116,75483,1,0,0:0:0:0:
88,105,75556,1,0,0:0:0:0:
205,77,75702,1,0,0:0:0:0:
442,100,75849,6,0,L|434:152,1,49,2|0,0:1|0:0,0:0:0:0:
349,166,75995,2,0,L|341:227,1,49,0|0,0:0|0:0,0:0:0:0:
433,245,76142,2,0,L|425:313,1,49,8|0,0:0|0:0,0:0:0:0:
342,338,76288,2,0,L|286:344,1,49,0|0,0:0|0:0,0:0:0:0:
80,291,76434,6,0,L|94:238,1,49,2|0,0:1|0:0,0:0:0:0:
239,209,76581,2,0,L|259:137,1,49,0|0,0:0|0:0,0:0:0:0:
102,104,76727,2,0,L|37:112,1,49,8|0,0:0|0:0,0:0:0:0:
102,104,76873,2,0,L|181:91,1,49,0|0,0:0|0:0,0:0:0:0:
361,45,77020,5,2,0:1:0:0:
413,74,77093,1,0,0:0:0:0:
417,121,77166,1,8,0:0:0:0:
371,156,77239,1,8,0:0:0:0:
173,228,77312,2,0,L|223:232,1,49,8|0,0:0|0:0,0:0:0:0:
411,297,77459,2,0,L|350:290,1,49,0|0,0:0|0:0,0:0:0:0:
150,170,77605,5,8,0:0:0:0:
98,199,77678,1,8,0:0:0:0:
94,246,77751,1,8,0:0:0:0:
139,281,77824,1,0,0:0:0:0:
191,308,77898,2,0,L|199:244,1,49,0|0,0:0|0:0,0:0:0:0:
145,231,78044,2,0,L|94:224,1,49,0|0,0:0|0:0,0:0:0:0:
341,358,78190,5,4,0:3:0:0:
369,318,78263,1,0,0:0:0:0:
375,270,78336,1,0,0:0:0:0:
358,224,78409,1,0,0:0:0:0:
322,192,78482,5,0,0:0:0:0:
275,180,78555,1,0,0:0:0:0:
322,192,78629,2,0,L|387:186,1,49,0|0,0:0|0:0,0:0:0:0:
428,171,78776,6,0,L|444:100,1,49,0|0,0:0|0:0,0:0:0:0:
387,93,78922,2,0,L|308:82,1,49,0|0,0:0|0:0,0:0:0:0:
286,113,79068,2,0,L|355:107,1,49,0|0,0:0|0:0,0:0:0:0:
387,93,79215,2,0,L|399:22,1,49,0|0,0:0|0:0,0:0:0:0:
340,23,79361,5,0,0:0:0:0:
281,25,79434,1,0,0:0:0:0:
233,59,79507,1,0,0:0:0:0:
211,114,79581,1,0,0:0:0:0:
222,171,79654,1,0,0:0:0:0:
262,213,79727,1,0,0:0:0:0:
204,204,79800,1,0,0:0:0:0:
146,215,79873,1,0,0:0:0:0:
95,248,79946,6,0,L|90:322,1,49,0|0,0:0|0:0,0:0:0:0:
141,329,80093,2,0,L|223:351,1,49,0|0,0:0|0:0,0:0:0:0:
433,269,80239,2,0,L|363:276,1,49,0|0,0:0|0:0,0:0:0:0:
204,204,80385,2,0,L|285:217,1,49,0|0,0:0|0:0,0:0:0:0:
433,269,80532,6,0,L|441:197,1,49,4|0,0:3|0:0,0:0:0:0:
389,187,80678,2,0,L|338:181,1,49,0|0,0:0|0:0,0:0:0:0:
282,174,80824,2,0,L|351:160,1,49,0|0,0:0|0:0,0:0:0:0:
378,130,80971,2,0,L|381:55,1,49,0|0,0:0|0:0,0:0:0:0:
326,57,81117,5,0,0:0:0:0:
294,93,81190,1,0,0:0:0:0:
282,141,81263,1,0,0:0:0:0:
294,188,81336,1,0,0:0:0:0:
325,225,81409,1,0,0:0:0:0:
370,244,81482,1,0,0:0:0:0:
428,256,81556,2,0,L|361:257,1,49,0|0,0:0|0:0,0:0:0:0:
331,291,81702,5,0,0:0:0:0:
272,302,81776,1,0,0:0:0:0:
214,288,81849,1,0,0:0:0:0:
171,247,81922,1,0,0:0:0:0:
148,192,81995,1,0,0:0:0:0:
160,134,82068,1,0,0:0:0:0:
203,93,82142,1,0,0:0:0:0:
259,77,82215,1,0,0:0:0:0:
203,93,82288,6,0,L|108:84,1,49,0|0,0:0|0:0,0:0:0:0:
100,111,82434,2,0,L|89:180,1,49,0|0,0:0|0:0,0:0:0:0:
178,193,82581,2,0,L|171:259,1,49,0|0,0:0|0:0,0:0:0:0:
79,271,82727,2,0,L|76:338,1,49,0|0,0:0|0:0,0:0:0:0:
333,342,82873,5,4,0:3:0:0:
346,295,82946,1,0,0:0:0:0:
336,247,83019,1,0,0:0:0:0:
306,209,83092,1,0,0:0:0:0:
262,189,83165,1,0,0:0:0:0:
213,191,83238,1,0,0:0:0:0:
262,189,83312,2,0,L|352:189,1,49,0|0,0:0|0:0,0:0:0:0:
360,155,83459,6,0,L|370:78,1,49,0|0,0:0|0:0,0:0:0:0:
311,86,83605,2,0,L|238:73,1,49,0|0,0:0|0:0,0:0:0:0:
206,94,83751,2,0,L|214:181,1,49,0|0,0:0|0:0,0:0:0:0:
129,185,83898,2,0,L|132:256,1,49,0|0,0:0|0:0,0:0:0:0:
298,323,84044,6,0,L|358:333,1,49,4|0,0:3|0:0,0:0:0:0:
216,258,84190,2,0,L|145:268,1,49,0|0,0:0|0:0,0:0:0:0:
359,229,84337,1,0,0:0:0:0:
413,192,84410,1,0,0:0:0:0:
413,143,84483,1,0,0:0:0:0:
360,104,84556,1,0,0:0:0:0:
157,76,84629,6,0,L|71:81,3,49,2|2|2|2,0:1|0:1|0:1|0:1,0:0:0:0:
343,325,84922,2,0,P|348:239|264:197,1,147,2|0,0:1|0:0,0:0:0:0:
135,166,85196,6,0,L|26:173,1,98,2|0,0:3|0:0,0:0:0:0:
385,94,85488,1,2,0:1:0:0:
172,338,85635,2,0,L|165:227,1,98,2|0,0:3|0:0,0:0:0:0:
429,112,85927,1,2,0:1:0:0:
182,128,86074,6,0,L|320:137,1,98,2|0,0:3|0:0,0:0:0:0:
39,197,86366,1,2,0:1:0:0:
339,80,86513,2,0,L|333:192,1,98,2|0,3:0|0:0,0:0:0:0:
39,228,86805,1,2,0:1:0:0:
286,315,86952,6,0,P|362:298|450:333,1,147,2|0,0:3|0:0,0:0:0:0:
243,224,87244,2,2,L|124:230,1,98,2|0,0:0|0:0,0:0:0:0:
409,185,87556,5,4,0:0:0:0:
273,112,87702,2,0,L|178:124,2,49,0|0|8,0:0|0:0|0:2,0:0:0:0:
486,65,87995,2,0,L|281:41,1,196,0|0,0:0|0:0,0:0:0:0:
86,158,88434,2,0,L|211:142,1,98,8|0,0:0|0:1,0:0:0:0:
438,180,88727,6,0,L|434:284,1,98,2|0,0:3|0:0,0:0:0:0:
272,326,89020,1,8,0:0:0:0:
480,82,89166,2,0,L|352:90,2,98,2|0|0,0:3|0:0|0:1,0:0:0:0:
218,150,89605,2,0,L|155:143,1,49,8|0,0:0|0:0,0:0:0:0:
218,150,89751,2,0,L|298:143,1,49,0|0,0:0|0:0,0:0:0:0:
80,293,89898,6,0,L|77:182,1,98,10|0,0:3|0:0,0:0:0:0:
209,147,90190,1,8,0:0:0:0:
435,288,90337,2,0,L|210:268,1,196,0|0,0:0|0:0,0:0:0:0:
467,126,90776,1,8,0:0:0:0:
460,174,90849,1,0,0:0:0:0:
454,223,90922,1,0,0:0:0:0:
161,320,91068,6,0,L|49:333,1,98,2|0,0:3|0:0,0:0:0:0:
280,229,91361,2,0,L|393:243,1,98,8|0,0:0|0:0,0:0:0:0:
127,212,91654,2,0,L|116:86,1,98,2|0,0:3|0:0,0:0:0:0:
431,43,91946,2,0,L|420:163,1,98,8|0,0:0|0:0,0:0:0:0:
364,155,92166,1,0,0:0:0:0:
128,213,92239,6,0,L|20:226,2,98,10|0|8,0:3|0:0|0:0,0:0:0:0:
353,320,92678,2,0,L|362:193,1,98,0|2,0:0|0:1,0:0:0:0:
215,177,92971,1,0,0:0:0:0:
442,202,93117,1,8,0:0:0:0:
482,164,93190,1,0,0:0:0:0:
479,116,93263,1,0,0:0:0:0:
434,85,93336,1,0,0:0:0:0:
150,38,93410,6,0,L|28:58,2,98,2|0|8,0:3|0:0|0:0,0:0:0:0:
374,183,93849,1,2,0:3:0:0:
249,170,93995,1,0,0:3:0:0:
134,154,94141,1,0,0:0:0:0:
411,263,94288,2,0,L|422:153,1,98,8|0,0:0|0:0,0:0:0:0:
122,327,94581,5,8,0:3:0:0:
250,261,94727,1,0,0:0:0:0:
246,212,94800,1,0,0:0:0:0:
243,163,94873,1,8,0:0:0:0:
82,206,95020,1,0,0:0:0:0:
321,24,95166,1,4,0:1:0:0:
272,28,95239,1,0,0:0:0:0:
223,31,95312,1,0,0:0:0:0:
63,107,95459,2,0,L|179:93,1,98,8|0,0:0|0:0,0:0:0:0:
430,140,95751,6,0,L|427:208,1,49,8|8,0:0|0:0,0:0:0:0:
357,225,95898,2,0,L|300:226,1,49,8|8,0:0|0:0,0:0:0:0:
112,291,96044,2,0,L|179:291,1,49,4|0,0:0|0:0,0:0:0:0:
435,346,96190,2,0,L|445:274,1,49,0|0,0:0|0:0,0:0:0:0:
185,102,96337,6,0,L|128:98,1,49,4|0,0:0|0:0,0:0:0:0:
336,204,96483,2,0,L|347:121,1,49,0|0,0:0|0:0,0:0:0:0:
87,257,96629,2,0,P|171:240|241:277,1,147,4|0,0:3|0:0,0:0:0:0:
422,341,96922,5,4,0:0:0:0:
450,302,96995,1,0,0:0:0:0:
451,254,97068,1,0,0:0:0:0:
424,214,97141,1,0,0:0:0:0:
379,198,97214,1,8,0:0:0:0:
130,92,97361,2,0,L|326:112,1,196,0|0,0:0|0:0,0:0:0:0:
38,302,97800,2,0,L|33:180,1,98,8|0,0:0|0:0,0:0:0:0:
90,186,98020,1,0,0:0:0:0:
271,261,98093,6,0,L|383:276,1,98,2|0,0:3|0:0,0:0:0:0:
96,283,98385,2,0,L|89:174,1,98,8|0,0:0|0:0,0:0:0:0:
227,148,98678,1,2,0:3:0:0:
76,69,98824,1,0,0:0:0:0:
326,267,98971,2,0,L|446:278,1,98,8|0,0:0|0:0,0:0:0:0:
137,348,99263,5,4,0:1:0:0:
269,300,99410,2,0,L|257:178,1,98,0|8,0:0|0:0,0:0:0:0:
107,182,99702,2,0,L|117:112,1,49,0|0,0:0|0:0,0:0:0:0:
316,96,99849,2,0,L|443:82,1,98,4|0,0:0|0:0,0:0:0:0:
180,291,100142,2,0,L|55:270,1,98,8|0,0:0|0:0,0:0:0:0:
427,347,100434,5,8,0:3:0:0:
298,288,100581,1,0,0:0:0:0:
427,347,100727,2,0,L|430:235,1,98,8|0,0:0|0:0,0:0:0:0:
376,224,100946,1,0,0:0:0:0:
176,196,101020,1,2,0:3:0:0:
309,157,101166,1,0,0:0:0:0:
61,78,101312,2,0,L|64:217,1,98,8|8,0:0|0:0,0:0:0:0:
330,263,101605,6,0,L|215:276,2,98,8|0|8,0:3|0:0|0:0,0:0:0:0:
89,72,102044,2,0,L|296:90,1,196,0|0,0:0|0:0,0:0:0:0:
439,156,102483,1,8,0:3:0:0:
435,204,102556,1,0,0:0:0:0:
431,253,102629,1,0,0:0:0:0:
165,292,102776,6,0,L|36:298,2,98,2|0|8,0:3|0:0|0:0,0:0:0:0:
431,253,103215,1,4,0:3:0:0:
289,331,103361,1,0,0:0:0:0:
253,298,103434,1,0,0:0:0:0:
243,251,103507,1,4,0:0:0:0:
261,206,103580,1,0,0:0:0:0:
301,179,103653,1,4,0:0:0:0:
432,176,103800,1,4,0:0:0:0:
100,329,103946,6,0,L|76:254,2,49,4|0|0,0:3|0:0|0:0,0:0:0:0:
191,240,104166,1,0,0:0:0:0:
389,330,104239,2,0,L|417:257,2,49,8|0|0,0:0|0:0|0:0,0:0:0:0:
298,241,104459,1,0,0:0:0:0:
81,127,104532,6,0,L|158:137,1,49,4|0,0:3|0:0,0:0:0:0:
305,103,104678,2,0,L|378:116,1,49,0|0,0:0|0:0,0:0:0:0:
189,306,104824,2,0,L|179:231,1,49,8|0,0:0|0:0,0:0:0:0:
379,39,104971,2,0,L|441:52,1,49,0|0,0:0|0:0,0:0:0:0:
81,345,105117,6,0,L|98:256,1,49,4|0,0:3|0:0,0:0:0:0:
167,248,105263,2,0,L|221:249,1,49,0|0,0:0|0:0,0:0:0:0:
49,158,105410,2,0,L|59:92,1,49,8|0,0:0|0:0,0:0:0:0:
146,79,105556,2,0,L|217:79,1,49,0|0,0:0|0:0,0:0:0:0:
392,177,105702,6,0,L|318:177,1,49,4|0,0:3|0:0,0:0:0:0:
163,226,105849,2,0,L|235:225,1,49,0|0,0:0|0:0,0:0:0:0:
415,336,105995,1,4,0:3:0:0:
465,300,106068,1,0,0:0:0:0:
466,251,106141,1,0,0:0:0:0:
418,213,106214,1,0,0:0:0:0:
138,298,106288,6,0,P|87:218|171:152,1,196,4|8,0:1|0:0,0:0:0:0:
295,151,106727,1,0,0:0:0:0:
135,41,106873,2,0,L|141:164,1,98,2|0,0:1|0:0,0:0:0:0:
286,151,107166,2,0,L|290:257,1,98,8|0,0:0|0:0,0:0:0:0:
58,283,107459,6,0,L|272:305,1,196,4|8,0:0|0:0,0:0:0:0:
411,355,107898,2,0,P|458:273|371:190,1,196,8|0,0:3|0:0,0:0:0:0:
292,111,108337,2,0,L|429:97,1,98,8|0,0:0|0:0,0:0:0:0:
119,40,108629,6,0,L|101:269,1,196,4|8,0:1|0:0,0:0:0:0:
259,152,109068,1,0,0:0:0:0:
99,240,109215,2,0,L|230:256,1,98,2|0,0:1|0:0,0:0:0:0:
347,363,109507,2,0,L|368:256,1,98,8|0,0:0|0:0,0:0:0:0:
63,161,109800,6,0,L|191:154,2,98,4|0|8,0:3|0:0|0:0,0:0:0:0:
338,152,110239,2,0,L|112:122,1,196,4|0,0:1|0:0,0:0:0:0:
303,62,110678,2,0,L|440:51,1,98,8|0,0:0|0:0,0:0:0:0:
136,338,110971,6,0,P|100:257|185:174,1,196,8|8,0:3|0:0,0:0:0:0:
310,168,111410,2,0,L|417:174,2,98,0|2|0,0:0|0:1|0:0,0:0:0:0:
162,261,111849,2,0,L|150:134,1,98,8|0,0:0|0:0,0:0:0:0:
473,304,112142,6,0,P|358:273|255:327,1,196,8|8,0:3|0:0,0:0:0:0:
146,358,112581,2,0,P|109:283|189:197,1,196,0|0,0:0|0:0,0:0:0:0:
327,73,113020,2,0,L|321:217,1,98,8|0,0:0|0:0,0:0:0:0:
84,107,113312,6,0,L|196:122,1,98,4|0,0:1|0:0,0:0:0:0:
417,149,113605,1,8,0:0:0:0:
148,342,113751,2,0,L|146:237,1,98,0|2,0:0|0:1,0:0:0:0:
265,185,114044,1,0,0:0:0:0:
104,139,114190,1,8,0:0:0:0:
412,142,114337,6,0,L|202:117,1,196,8|0,0:3|0:0,0:0:0:0:
354,303,114776,2,0,L|368:183,1,98,8|0,0:0|0:0,0:0:0:0:
230,225,115068,2,0,L|174:225,1,49
354,304,115215,2,0,L|419:302,1,49,0|0,0:0|0:0,0:0:0:0:
201,355,115361,2,0,L|96:341,1,98,4|0,0:0|0:0,0:0:0:0:
353,305,115654,6,0,P|400:224|322:146,1,196,4|8,0:1|0:0,0:0:0:0:
218,134,116093,1,0,0:0:0:0:
378,52,116239,2,0,L|367:170,1,98,2|0,0:1|0:0,0:0:0:0:
209,245,116532,2,0,L|344:262,1,98,8|0,0:0|0:0,0:0:0:0:
60,350,116824,6,0,L|268:339,1,196,8|8,0:3|0:0,0:0:0:0:
397,355,117263,2,0,P|444:273|370:199,1,196,4|0,0:1|0:0,0:0:0:0:
239,111,117702,2,0,L|370:98,1,98,8|0,0:0|0:0,0:0:0:0:
81,226,117995,6,0,L|318:240,1,196,4|8,0:0|0:0,0:0:0:0:
150,352,118434,2,0,L|148:243,1,98,0|2,0:0|0:1,0:0:0:0:
291,177,118727,1,0,0:0:0:0:
148,113,118873,2,0,L|34:106,1,98,8|0,0:0|0:0,0:0:0:0:
366,41,119166,5,8,0:3:0:0:
255,47,119312,1,0,0:0:0:0:
140,55,119458,1,8,0:0:0:0:
403,312,119605,2,0,P|440:207|369:157,1,196,4|0,0:0|0:0,0:0:0:0:
263,121,120044,2,0,L|158:127,1,98,8|0,0:0|0:0,0:0:0:0:
403,232,120337,6,0,P|447:145|363:74,1,196,8|8,0:3|0:0,0:0:0:0:
258,35,120776,2,0,L|49:44,1,196,0|0,0:0|0:0,0:0:0:0:
182,125,121215,2,0,L|44:132,1,98,8|0,0:0|0:0,0:0:0:0:
329,266,121507,6,0,L|440:279,2,98,4|0|8,0:1|0:0|0:0,0:0:0:0:
180,332,121946,2,0,P|134:251|212:179,1,196,0|0,0:0|0:0,0:0:0:0:
324,147,122385,2,0,L|440:163,1,98,8|0,0:0|0:0,0:0:0:0:
155,61,122678,6,0,L|32:68,1,98,4|0,0:0|0:0,0:0:0:0:
325,146,122971,2,0,L|426:158,2,98,8|0|2,0:0|0:0|0:1,0:0:0:0:
72,140,123410,2,0,L|81:267,1,98,4|8,0:0|0:0,0:0:0:0:
407,295,123702,6,0,L|169:307,1,196,4|0,0:1|0:0,0:0:0:0:
346,178,124142,2,0,L|467:188,1,98,8|2,0:0|0:1,0:0:0:0:
131,211,124434,2,0,L|132:103,1,98,2|0,0:1|0:0,0:0:0:0:
278,64,124727,1,8,0:0:0:0:
420,42,124873,1,2,0:1:0:0:
108,44,125020,6,0,P|49:119|113:195,1,196,8|8,0:3|0:0,0:0:0:0:
242,202,125459,1,0,0:0:0:0:
105,290,125605,2,0,L|241:295,1,98,0|0,0:0|0:0,0:0:0:0:
465,338,125898,2,0,L|343:341,1,98,8|0,0:0|0:0,0:0:0:0:
110,358,126190,6,0,L|94:243,1,98,0|0,0:0|0:0,0:0:0:0:
321,195,126483,2,0,L|424:176,1,98,8|0,0:0|0:0,0:0:0:0:
265,160,126776,2,0,L|158:155,1,98,0|0,0:0|0:0,0:0:0:0:
492,47,127068,2,0,L|380:52,1,98,8|0,0:0|0:0,0:0:0:0:
334,55,127288,1,0,0:0:0:0:
77,71,127361,5,4,0:0:0:0:
196,131,127507,2,0,L|301:119,2,98,0|8|0,0:0|0:0|0:0,0:0:0:0:
334,246,127946,2,0,L|213:238,2,98,4|0|8,0:1|0:0|0:0,0:0:0:0:
456,261,128385,1,0,0:0:0:0:
217,345,128532,6,0,P|165:267|252:194,1,196,8|8,0:3|0:0,0:0:0:0:
342,190,128971,1,0,0:0:0:0:
181,72,129117,1,2,0:1:0:0:
131,97,129190,1,0,0:0:0:0:
127,144,129263,1,0,0:0:0:0:
172,182,129336,1,0,0:0:0:0:
342,190,129410,2,0,L|457:184,1,98,8|0,0:0|0:0,0:0:0:0:
86,334,129702,5,4,0:1:0:0:
206,251,129849,2,0,L|207:145,1,98,0|8,0:0|0:0,0:0:0:0:
439,53,130142,2,0,L|328:57,2,98,0|2|0,0:0|0:1|0:0,0:0:0:0:
164,177,130581,2,0,L|165:68,1,98,8|0,0:0|0:0,0:0:0:0:
446,243,130873,6,0,L|317:257,1,98,8|0,0:3|0:0,0:0:0:0:
199,275,131166,1,8,0:0:0:0:
440,353,131312,2,0,L|446:243,1,98,0|2,0:0|0:1,0:0:0:0:
325,181,131605,2,0,L|261:173,1,49,0|0,0:0|0:0,0:0:0:0:
80,187,131751,2,0,L|71:74,1,98,8|0,0:0|0:0,0:0:0:0:
353,77,132044,6,0,L|226:88,1,98,8|0,0:3|0:0,0:0:0:0:
126,177,132337,2,0,L|241:192,1,98,8|2,0:0|0:1,0:0:0:0:
383,261,132629,2,0,L|254:275,2,98,2|0|8,0:1|0:0|0:0,0:0:0:0:
441,252,132995,1,0,0:0:0:0:
163,336,133068,6,0,P|120:238|207:182,1,196,4|0,0:2|0:0,0:0:0:0:
233,184,133434,1,0,0:0:0:0:
437,185,133507,1,8,0:0:0:0:
314,186,133654,1,0,0:0:0:0:
437,185,133800,1,2,0:1:0:0:
476,147,133873,1,0,0:0:0:0:
473,99,133946,1,0,0:0:0:0:
429,66,134019,1,0,0:0:0:0:
222,31,134093,2,0,L|111:35,1,98,2|0,0:1|0:0,0:0:0:0:
377,329,134385,6,0,L|391:206,1,98,4|0,0:3|0:0,0:0:0:0:
229,229,134678,2,0,L|150:213,2,49,8|0|2,0:0|0:0|0:1,0:0:0:0:
385,109,134971,2,0,L|259:123,1,98,0|2,0:0|0:1,0:0:0:0:
141,186,135263,1,8,0:0:0:0:
137,137,135336,1,0,0:0:0:0:
133,88,135409,1,0,0:0:0:0:
405,212,135556,5,2,0:1:0:0:
280,290,135702,1,0,0:0:0:0:
231,286,135775,1,0,0:0:0:0:
182,283,135848,1,8,0:0:0:0:
402,350,135995,2,0,L|463:359,2,49,0|0|4,0:0|0:0|0:0,0:0:0:0:
231,286,136288,1,0,0:0:0:0:
377,136,136434,2,0,L|371:256,1,98,8|0,0:0|0:0,0:0:0:0:
322,266,136654,1,0,0:0:0:0:
135,328,136727,6,0,L|28:335,2,98,4|0|8,0:1|0:0|0:0,0:0:0:0:
357,267,137166,2,0,L|157:228,1,196,0|0,0:0|0:0,0:0:0:0:
453,79,137605,2,0,L|448:195,1,98,8|0,0:0|0:0,0:0:0:0:
395,202,137824,1,0,0:0:0:0:
188,287,137898,6,0,L|70:281,1,98,8|0,0:3|0:0,0:0:0:0:
320,200,138190,2,0,L|204:193,1,98,8|0,0:0|0:0,0:0:0:0:
452,295,138483,2,0,L|464:175,1,98,2|0,0:1|0:0,0:0:0:0:
315,118,138776,2,0,L|259:124,1,49,8|0,0:0|0:0,0:0:0:0:
315,118,138922,2,0,L|392:108,1,49,0|0,0:0|0:0,0:0:0:0:
153,66,139068,6,0,L|45:53,1,98,8|0,0:3|0:0,0:0:0:0:
224,172,139361,2,0,L|291:162,2,49,8|0|0,0:0|0:0|0:0,0:0:0:0:
93,196,139654,2,0,L|99:309,1,98,8|0,0:0|0:0,0:0:0:0:
323,273,139946,1,8,0:0:0:0:
105,323,140093,1,0,0:0:0:0:
323,273,140239,6,0,L|441:283,1,98,8|0,0:0|0:0,0:0:0:0:
266,184,140532,2,0,L|160:200,1,98,8|0,0:0|0:0,0:0:0:0:
410,142,140824,2,0,L|431:78,1,49,8|0,0:0|0:0,0:0:0:0:
200,88,140971,2,0,L|138:81,1,49,8|0,0:0|0:0,0:0:0:0:
376,206,141117,2,0,L|439:216,1,49,8|0,0:0|0:0,0:0:0:0:
172,298,141263,2,0,L|165:225,1,49,8|0,0:0|0:0,0:0:0:0:
372,348,141410,5,4,0:3:0:0:
416,328,141483,1,0,0:0:0:0:
448,291,141556,1,0,0:0:0:0:
464,245,141629,1,0,0:0:0:0:
459,197,141702,1,8,0:0:0:0:
436,154,141775,1,0,0:0:0:0:
397,125,141849,1,0,0:0:0:0:
350,113,141922,1,0,0:0:0:0:
138,116,141995,6,0,L|144:173,1,49,8|0,0:0|0:0,0:0:0:0:
235,196,142141,1,0,0:0:0:0:
19,273,142214,1,0,0:0:0:0:
68,274,142288,2,0,L|148:272,1,49,8|0,0:0|0:0,0:0:0:0:
315,347,142434,2,0,L|376:344,1,49,0|0,0:0|0:0,0:0:0:0:
172,263,142581,5,4,0:3:0:0:
129,225,142654,1,0,0:0:0:0:
128,177,142727,1,0,0:0:0:0:
170,135,142800,1,0,0:0:0:0:
366,189,142873,1,8,0:0:0:0:
412,149,142946,1,0,0:0:0:0:
408,101,143019,1,0,0:0:0:0:
355,71,143092,1,0,0:0:0:0:
145,48,143166,1,8,0:0:0:0:
49,45,143312,1,0,0:0:0:0:
427,23,143459,2,0,L|419:127,1,98,8|0,0:0|0:0,0:0:0:0:
122,327,143751,6,0,L|125:203,1,98,4|0,0:0|0:0,0:0:0:0:
183,221,143971,1,0,0:0:0:0:
241,215,144044,1,8,0:0:0:0:
394,222,144190,2,0,L|401:157,1,49,0|0,0:0|0:0,0:0:0:0:
251,66,144337,1,4,0:0:0:0:
210,91,144410,1,0,0:0:0:0:
193,136,144483,1,0,0:0:0:0:
206,183,144556,1,0,0:0:0:0:
244,212,144629,1,8,0:0:0:0:
391,258,144776,2,0,L|324:267,1,49,0|0,0:0|0:0,0:0:0:0:
151,347,144922,6,0,L|47:340,1,98,4|0,0:1|0:0,0:0:0:0:
38,282,145142,1,0,0:1:0:0:
22,225,145215,1,0,0:0:0:0:
196,188,145361,2,0,L|208:131,1,49,2|0,0:1|0:0,0:0:0:0:
66,62,145507,2,0,L|2:68,1,49,4|0,0:0|0:0,0:0:0:0:
66,62,145654,2,0,L|137:54,1,49,0|0,0:0|0:0,0:0:0:0:
349,144,145800,2,0,L|455:126,1,98,8|2,0:0|0:1,0:0:0:0:
167,350,146093,6,0,L|161:292,1,49,0|0,0:0|0:0,0:0:0:0:
256,271,146239,2,0,L|250:197,1,49,2|0,0:1|0:0,0:0:0:0:
167,191,146385,2,0,L|111:199,1,49,8|0,0:0|0:0,0:0:0:0:
167,191,146532,2,0,L|252:179,1,49,0|0,0:0|0:0,0:0:0:0:
396,335,146678,1,2,0:1:0:0:
427,298,146751,1,0,0:0:0:0:
434,250,146824,1,0,0:0:0:0:
414,206,146897,1,0,0:0:0:0:
374,179,146970,1,8,0:0:0:0:
140,170,147117,1,0,0:0:0:0:
369,93,147263,6,0,L|433:101,2,49,4|0|0,0:0|0:0|0:0,0:0:0:0:
161,273,147556,2,0,L|294:265,1,98,8|0,0:0|0:0,0:0:0:0:
27,170,147849,1,2,0:1:0:0:
311,350,147995,2,0,L|320:245,1,98,0|8,0:0|0:0,0:0:0:0:
261,236,148215,1,0,0:0:0:0:
202,229,148288,1,2,0:1:0:0:
463,153,148434,5,8,0:3:0:0:
133,97,148581,1,2,0:1:0:0:
264,138,148727,2,0,L|260:241,1,98,10|0,0:0|0:0,0:0:0:0:
36,268,149020,1,2,0:1:0:0:
365,331,149166,1,0,0:0:0:0:
217,223,149312,2,0,L|346:228,1,98,8|2,0:0|0:1,0:0:0:0:
57,117,149605,5,8,0:3:0:0:
334,116,149751,1,0,0:0:0:0:
203,112,149898,1,8,0:0:0:0:
475,120,150044,1,0,0:1:0:0:
219,341,150190,1,2,0:1:0:0:
183,308,150263,1,0,0:0:0:0:
173,261,150336,1,0,0:0:0:0:
191,216,150409,1,0,0:0:0:0:
232,190,150482,1,8,0:0:0:0:
380,215,150629,2,0,L|393:147,1,49,8|0,0:0|0:0,0:0:0:0:
170,95,150776,6,0,L|50:81,1,98,8|0,0:3|0:0,0:0:0:0:
347,119,151068,1,10,0:0:0:0:
115,202,151215,1,0,0:0:0:0:
414,315,151361,2,0,L|412:209,1,98,2|0,0:1|0:0,0:0:0:0:
356,196,151581,1,0,0:0:0:0:
298,186,151654,1,8,0:0:0:0:
448,142,151800,2,0,L|461:80,1,49,0|0,0:0|0:0,0:0:0:0:
169,70,151946,5,8,0:3:0:0:
270,122,152093,2,0,L|254:178,1,49,0|0,0:0|0:0,0:0:0:0:
69,267,152239,2,0,L|177:273,1,98,8|0,0:0|0:0,0:0:0:0:
226,276,152459,1,0,0:0:0:0:
284,280,152532,1,2,0:1:0:0:
74,154,152678,1,0,0:0:0:0:
328,52,152824,2,0,L|321:113,1,49,8|0,0:0|0:0,0:0:0:0:
240,137,152971,2,0,L|229:202,1,49,8|0,0:0|0:0,0:0:0:0:
382,295,153117,6,0,L|483:290,1,98,8|0,0:3|0:0,0:0:0:0:
181,348,153410,2,0,L|56:345,1,98,10|0,0:0|0:0,0:0:0:0:
378,200,153702,1,2,0:1:0:0:
141,195,153849,1,0,0:0:0:0:
434,43,153995,2,0,L|433:165,1,98,8|0,0:0|0:0,0:0:0:0:
78,85,154288,5,8,0:3:0:0:
380,135,154434,1,0,0:0:0:0:
71,294,154581,2,0,L|184:280,1,98,8|0,0:0|0:0,0:0:0:0:
463,347,154873,2,0,L|356:337,1,98,2|0,0:1|0:0,0:0:0:0:
72,294,155166,2,0,P|48:208|109:151,1,147,8|0,0:0|0:0,0:0:0:0:
266,107,155459,5,8,0:3:0:0:
384,218,155605,2,0,L|396:147,2,49,0|0|10,0:0|0:0|0:0,0:0:0:0:
266,107,155898,1,0,0:0:0:0:
492,25,156044,2,0,L|373:42,1,98,2|0,0:1|0:0,0:0:0:0:
151,190,156337,2,0,L|157:289,1,98,8|0,0:0|0:0,0:0:0:0:
212,307,156556,1,0,0:0:0:0:
396,350,156629,5,8,0:3:0:0:
424,311,156702,1,0,0:0:0:0:
420,263,156775,1,0,0:0:0:0:
384,231,156848,1,0,0:0:0:0:
170,187,156922,1,8,0:0:0:0:
307,106,157068,2,0,L|225:107,1,49,0|0,0:0|0:0,0:0:0:0:
78,88,157215,2,0,L|143:84,1,49,2|0,0:1|0:0,0:0:0:0:
401,80,157361,1,0,0:0:0:0:
303,90,157507,2,0,L|441:75,1,98,8|0,0:0|0:0,0:0:0:0:
36,345,157800,6,0,L|20:241,1,98,8|2,0:3|0:1,0:0:0:0:
237,214,158093,2,0,L|255:107,1,98,10|0,0:0|0:0,0:0:0:0:
470,72,158385,1,2,0:1:0:0:
235,50,158532,1,0,0:1:0:0:
31,31,158678,1,8,0:0:0:0:
235,50,158824,1,2,0:1:0:0:
470,72,158971,6,0,L|461:141,1,49,8|0,0:3|0:0,0:0:0:0:
295,157,159117,2,0,L|255:193,1,49,0|0,0:0|0:0,0:0:0:0:
108,317,159263,2,0,L|-27:306,1,98,8|0,0:0|0:0,0:0:0:0:
306,292,159556,2,0,L|325:228,1,49,8|0,0:0|0:0,0:0:0:0:
188,171,159702,2,0,L|203:109,1,49,8|0,0:0|0:0,0:0:0:0:
367,92,159849,2,0,L|427:89,1,49,8|0,0:0|0:0,0:0:0:0:
128,37,159995,2,0,L|55:44,1,49,8|0,0:0|0:0,0:0:0:0:
377,330,160142,6,0,L|391:254,1,49,4|0,0:3|0:0,0:0:0:0:
235,228,160288,2,0,L|165:219,1,49,0|0,0:0|0:0,0:0:0:0:
411,253,160434,1,8,0:0:0:0:
372,223,160507,1,0,0:0:0:0:
352,179,160580,1,0,0:0:0:0:
356,131,160653,1,0,0:0:0:0:
383,90,160726,5,8,0:0:0:0:
426,68,160799,1,0,0:0:0:0:
383,90,160873,2,0,L|322:80,1,49,0|0,0:0|0:0,0:0:0:0:
104,173,161020,2,0,L|190:159,1,49,8|0,0:0|0:0,0:0:0:0:
372,223,161166,2,0,L|285:207,1,49,0|0,0:0|0:0,0:0:0:0:
85,340,161312,5,4,0:3:0:0:
63,296,161385,1,0,0:0:0:0:
73,249,161458,1,0,0:0:0:0:
108,217,161531,1,0,0:0:0:0:
285,213,161605,1,8,0:0:0:0:
346,214,161678,1,0,0:0:0:0:
285,213,161751,1,0,0:0:0:0:
224,212,161824,1,0,0:0:0:0:
382,31,161898,5,8,0:0:0:0:
423,56,161971,1,0,0:0:0:0:
438,101,162044,1,0,0:0:0:0:
421,146,162117,1,0,0:0:0:0:
224,212,162190,1,8,0:0:0:0:
182,248,162263,1,0,0:0:0:0:
182,296,162336,1,0,0:0:0:0:
222,334,162409,1,0,0:0:0:0:
425,355,162483,6,0,L|447:271,1,49,4|0,0:3|0:0,0:0:0:0:
293,237,162629,2,0,L|229:222,1,49,0|0,0:0|0:0,0:0:0:0:
460,175,162776,2,0,L|395:158,1,49,8|0,0:0|0:0,0:0:0:0:
154,45,162922,2,0,L|150:111,1,49,0|0,0:0|0:0,0:0:0:0:
199,127,163068,6,0,L|257:135,1,49,2|0,0:1|0:0,0:0:0:0:
298,165,163215,2,0,L|293:237,1,49,0|0,0:0|0:0,0:0:0:0:
105,289,163361,2,0,L|56:288,1,49,8|0,0:0|0:0,0:0:0:0:
257,348,163507,2,0,L|317:349,1,49,0|0,0:0|0:0,0:0:0:0:
106,208,163654,5,4,0:0:0:0:
94,160,163727,1,0,0:0:0:0:
103,113,163800,1,0,0:0:0:0:
132,73,163873,1,0,0:0:0:0:
174,49,163946,1,8,0:0:0:0:
222,45,164019,1,0,0:0:0:0:
55,51,164093,2,0,L|0:48,1,49,0|0,0:0|0:0,0:0:0:0:
278,173,164239,6,0,L|367:173,2,49,2|0|0,0:1|0:0|0:0,0:0:0:0:
82,232,164459,2,0,L|33:232,2,49,0|8|0,0:0|0:0|0:0,0:0:0:0:
361,298,164678,2,0,L|419:299,1,49,0|0,0:0|0:0,0:0:0:0:
192,339,164824,6,0,L|191:279,1,49,4|0,0:3|0:0,0:0:0:0:
247,272,164971,2,0,L|324:256,1,49,0|0,0:0|0:0,0:0:0:0:
194,191,165117,2,0,L|187:139,1,49,8|0,0:0|0:0,0:0:0:0:
391,82,165263,1,0,0:0:0:0:
459,66,165337,1,0,0:0:0:0:
306,95,165410,6,0,L|230:82,1,49,2|0,0:1|0:0,0:0:0:0:
60,127,165556,2,0,L|66:187,1,49,0|0,0:0|0:0,0:0:0:0:
262,243,165702,2,0,L|327:253,1,49,8|0,0:0|0:0,0:0:0:0:
123,289,165849,2,0,L|129:360,1,49,0|0,0:0|0:0,0:0:0:0:
367,327,165995,5,4,0:0:0:0:
388,283,166068,1,0,0:0:0:0:
388,235,166141,1,0,0:0:0:0:
365,192,166214,1,0,0:0:0:0:
325,164,166287,1,8,0:0:0:0:
277,158,166360,1,0,0:0:0:0:
99,98,166434,2,0,L|183:91,1,49,0|0,0:0|0:0,0:0:0:0:
354,37,166581,6,0,L|364:90,1,49,2|0,0:1|0:0,0:0:0:0:
305,158,166727,2,0,L|243:159,1,49,0|0,0:0|0:0,0:0:0:0:
351,203,166873,2,0,L|406:202,1,49,8|0,0:0|0:0,0:0:0:0:
462,250,167020,2,0,L|452:301,1,49
246,239,167166,5,4,0:3:0:0:
197,235,167239,1,0,0:0:0:0:
148,239,167312,1,0,0:0:0:0:
99,247,167385,1,0,0:0:0:0:
148,239,167459,1,8,0:0:0:0:
197,235,167532,1,0,0:0:0:0:
19,143,167605,2,0,L|72:136,1,49,0|0,0:0|0:0,0:0:0:0:
264,46,167751,5,2,0:1:0:0:
339,88,167824,2,0,L|336:152,1,49,0|0,0:0|0:0,0:0:0:0:
171,170,167971,1,0,0:0:0:0:
98,225,168044,2,0,L|101:286,1,49,8|0,0:0|0:0,0:0:0:0:
359,278,168190,2,0,L|425:291,1,49,0|0,0:0|0:0,0:0:0:0:
205,347,168337,6,0,L|209:288,1,49,4|0,0:0|0:0,0:0:0:0:
286,273,168483,2,0,L|336:269,1,49,0|0,0:0|0:0,0:0:0:0:
245,218,168629,2,0,L|176:222,1,49,8|0,0:0|0:0,0:0:0:0:
427,170,168776,2,0,L|435:108,1,49,0|0,0:0|0:0,0:0:0:0:
233,38,168922,6,0,L|166:37,1,49,2|0,0:1|0:0,0:0:0:0:
233,38,169068,2,0,L|300:40,1,49,0|0,0:0|0:0,0:0:0:0:
233,38,169215,2,0,L|171:37,1,49,8|0,0:0|0:0,0:0:0:0:
405,209,169361,2,0,L|409:142,1,49,0|0,0:0|0:0,0:0:0:0:
158,326,169507,5,4,0:3:0:0:
121,294,169580,1,0,0:0:0:0:
108,247,169653,1,0,0:0:0:0:
123,201,169726,1,0,0:0:0:0:
160,170,169799,1,8,0:0:0:0:
208,165,169872,1,0,0:0:0:0:
388,297,169946,2,0,L|399:237,1,49,0|0,0:0|0:0,0:0:0:0:
215,73,170093,5,2,0:1:0:0:
166,76,170166,1,0,0:0:0:0:
117,79,170239,1,0,0:0:0:0:
295,173,170312,1,0,0:0:0:0:
343,176,170385,1,8,0:0:0:0:
392,179,170458,1,0,0:0:0:0:
146,288,170532,2,0,L|143:226,1,49,0|0,0:0|0:0,0:0:0:0:
337,337,170678,6,0,L|404:335,1,49,4|0,0:0|0:0,0:0:0:0:
439,297,170824,2,0,L|443:237,1,49,0|0,0:0|0:0,0:0:0:0:
243,202,170971,2,0,L|181:201,1,49,8|0,0:0|0:0,0:0:0:0:
127,152,171117,2,0,L|120:93,1,49,0|0,0:0|0:0,0:0:0:0:
299,66,171263,5,2,0:1:0:0:
347,95,171336,1,0,0:0:0:0:
348,142,171409,1,0,0:0:0:0:
301,170,171482,1,0,0:0:0:0:
169,202,171556,1,8,0:0:0:0:
121,231,171629,1,0,0:0:0:0:
120,278,171702,1,0,0:0:0:0:
166,306,171775,1,0,0:0:0:0:
455,339,171849,6,0,L|330:350,1,98,4|0,0:3|0:0,0:0:0:0:
90,284,172142,2,0,L|30:290,2,49,8|0|0,0:0|0:0|0:0,0:0:0:0:
369,218,172434,1,2,0:1:0:0:
222,89,172581,1,0,0:0:0:0:
224,137,172654,1,0,0:0:0:0:
226,186,172727,1,8,0:0:0:0:
369,218,172873,2,0,L|439:232,1,49,2|0,0:1|0:0,0:0:0:0:
201,307,173020,6,0,L|90:318,1,98,4|0,0:0|0:0,0:0:0:0:
396,352,173312,1,8,0:0:0:0:
257,281,173459,1,0,0:1:0:0:
262,232,173532,1,0,0:0:0:0:
267,183,173605,1,2,0:1:0:0:
351,150,173678,2,0,L|401:145,1,49,0|0,0:0|0:0,0:0:0:0:
136,93,173898,2,0,L|27:75,1,98,8|0,0:0|0:0,0:0:0:0:
356,44,174190,6,0,L|351:147,1,98,4|0,0:3|0:0,0:0:0:0:
97,221,174483,2,0,L|99:278,1,49,8|0,0:0|0:0,0:0:0:0:
168,314,174629,1,0,0:0:0:0:
440,324,174776,1,2,0:1:0:0:
188,163,174922,1,0,0:0:0:0:
139,167,174995,1,0,0:0:0:0:
90,171,175068,1,8,0:0:0:0:
184,66,175215,2,0,L|259:73,1,49,2|0,0:1|0:0,0:0:0:0:
458,136,175361,6,0,L|449:237,1,98,4|0,0:0|0:0,0:0:0:0:
216,251,175654,2,0,L|208:361,1,98,8|0,0:0|0:0,0:0:0:0:
262,372,175873,1,0,0:0:0:0:
451,288,175946,1,2,0:1:0:0:
486,243,176019,1,0,0:0:0:0:
479,195,176092,1,0,0:0:0:0:
432,166,176165,1,0,0:0:0:0:
211,104,176239,2,0,L|77:114,1,98,8|0,0:0|0:0,0:0:0:0:
366,234,176532,5,4,0:3:0:0:
93,284,176678,2,0,L|90:223,1,49,0|0,0:0|0:0,0:0:0:0:
180,194,176824,1,8,0:0:0:0:
453,66,176971,2,0,P|481:122|384:217,1,196,2|2,0:1|0:1,0:0:0:0:
255,316,177409,2,0,L|372:314,1,98,8|0,0:0|0:0,0:0:0:0:
303,282,177629,1,0,0:0:0:0:
75,228,177702,6,0,L|70:113,1,98,4|0,0:0|0:0,0:0:0:0:
343,147,177995,2,0,L|453:138,1,98,8|0,0:0|0:0,0:0:0:0:
129,29,178288,2,0,L|261:38,1,98,2|0,0:1|0:0,0:0:0:0:
285,42,178507,1,0,0:0:0:0:
40,119,178581,2,0,L|43:236,1,98,8|8,0:0|0:0,0:0:0:0:
303,334,178873,6,0,L|364:328,1,49,4|0,0:3|0:0,0:0:0:0:
292,337,179020,2,0,L|222:343,1,49,0|0,0:0|0:0,0:0:0:0:
195,307,179166,2,0,L|174:234,1,49,8|0,0:0|0:0,0:0:0:0:
262,222,179312,2,0,L|269:160,1,49,0|0,0:0|0:0,0:0:0:0:
188,160,179459,6,0,L|166:95,1,49,2|0,0:3|0:0,0:0:0:0:
233,55,179605,2,0,L|326:51,1,49,0|0,0:0|0:0,0:0:0:0:
233,55,179751,2,0,L|166:58,1,49,8|0,0:0|0:0,0:0:0:0:
131,26,179898,2,0,L|53:28,1,49,0|0,0:0|0:0,0:0:0:0:
398,166,180044,6,0,L|477:165,1,49,2|0,0:3|0:0,0:0:0:0:
238,160,180190,2,0,L|180:160,1,49,0|0,0:0|0:0,0:0:0:0:
238,160,180337,2,0,L|317:159,1,49,2|0,0:3|0:0,0:0:0:0:
78,154,180483,2,0,L|20:154,1,49,0|0,0:0|0:0,0:0:0:0:
394,259,180629,5,2,0:3:0:0:
223,345,180922,2,0,P|203:253|276:205,1,147,0|0,0:0|0:0,0:0:0:0:
455,231,181215,6,0,L|463:173,1,49,4|0,0:1|0:0,0:0:0:0:
264,126,181361,2,0,L|211:118,1,49,0|0,0:0|0:0,0:0:0:0:
400,207,181507,2,0,L|411:142,1,49,8|0,0:0|0:0,0:0:0:0:
146,298,181654,2,0,L|204:292,1,49,0|0,0:0|0:0,0:0:0:0:
400,353,181800,5,8,0:0:0:0:
374,311,181873,1,0,0:0:0:0:
332,288,181946,1,0,0:0:0:0:
283,288,182019,1,0,0:0:0:0:
108,223,182093,1,8,0:0:0:0:
61,222,182166,1,0,0:0:0:0:
26,187,182239,1,0,0:0:0:0:
36,136,182312,1,0,0:0:0:0:
256,57,182385,6,0,L|235:110,1,49,4|0,0:1|0:0,0:0:0:0:
103,168,182532,2,0,L|113:217,1,49,0|0,0:0|0:0,0:0:0:0:
283,288,182678,2,0,L|352:280,1,49,8|0,0:0|0:0,0:0:0:0:
133,358,182824,2,0,L|47:368,1,49,0|0,0:0|0:0,0:0:0:0:
357,360,182971,5,8,0:0:0:0:
428,303,183044,2,0,L|451:250,2,49,0|0|0,0:0|0:0|0:0,0:0:0:0:
241,199,183263,2,0,L|240:133,1,49,8|0,0:0|0:0,0:0:0:0:
314,120,183409,2,0,L|386:114,1,49,0|0,0:0|0:0,0:0:0:0:
139,94,183556,6,0,L|66:93,1,49,4|0,0:1|0:0,0:0:0:0:
241,202,183702,2,0,L|293:201,1,49,0|0,0:0|0:0,0:0:0:0:
476,257,183849,2,0,L|405:256,1,49,8|0,0:0|0:0,0:0:0:0:
201,288,183995,2,0,L|136:288,1,49,0|0,0:0|0:0,0:0:0:0:
335,356,184142,6,0,L|382:337,1,49,8|0,0:0|0:0,0:0:0:0:
441,274,184288,2,0,L|457:220,1,49,0|0,0:0|0:0,0:0:0:0:
181,180,184434,2,0,L|112:157,1,49,8|0,0:0|0:0,0:0:0:0:
74,100,184581,2,0,L|72:40,1,49,0|0,0:0|0:0,0:0:0:0:
316,71,184727,6,0,L|340:127,3,49,4|0|0|0,0:1|0:0|0:0|0:0,0:0:0:0:
181,182,185020,2,0,L|159:228,3,49,8|0|0|0,0:0|0:0|0:0|0:0,0:0:0:0:
348,312,185312,6,0,L|351:255,1,49,8|0,0:0|0:0,0:0:0:0:
123,293,185459,2,0,L|180:286,1,49,0|0,0:0|0:0,0:0:0:0:
430,248,185605,1,8,0:0:0:0:
475,209,185678,1,0,0:0:0:0:
472,161,185751,1,0,0:0:0:0:
423,126,185824,1,0,0:0:0:0:
221,195,185898,6,0,L|216:141,1,49,4|0,0:1|0:0,0:0:0:0:
396,39,186044,2,0,L|332:35,1,49,0|0,0:0|0:0,0:0:0:0:
121,52,186190,2,0,L|68:49,1,49,8|0,0:0|0:0,0:0:0:0:
296,139,186337,2,0,L|346:145,1,49,0|0,0:0|0:0,0:0:0:0:
111,320,186483,6,0,L|51:324,1,49,8|0,0:0|0:0,0:0:0:0:
40,220,186629,2,0,L|90:205,1,49,0|0,0:0|0:0,0:0:0:0:
343,242,186776,2,0,L|407:236,1,49,8|0,0:0|0:0,0:0:0:0:
447,206,186922,2,0,L|456:133,1,49,0|0,0:0|0:0,0:0:0:0:
209,63,187068,6,0,L|213:135,1,49,4|0,0:1|0:0,0:0:0:0:
415,169,187215,2,0,L|353:177,1,49,0|0,0:0|0:0,0:0:0:0:
193,269,187361,2,0,L|264:263,1,49,8|0,0:0|0:0,0:0:0:0:
469,362,187507,2,0,L|473:289,1,49,0|0,0:0|0:0,0:0:0:0:
281,192,187654,6,0,L|225:199,1,49,8|0,0:0|0:0,0:0:0:0:
165,167,187800,2,0,L|171:103,1,49,0|0,0:0|0:0,0:0:0:0:
448,20,187946,2,0,L|437:83,1,49,8|0,0:0|0:0,0:0:0:0:
398,103,188093,2,0,L|325:94,1,49,0|0,0:0|0:0,0:0:0:0:
78,259,188239,6,0,L|126:252,1,49,4|0,0:1|0:0,0:0:0:0:
357,302,188385,2,0,L|412:298,1,49,0|0,0:0|0:0,0:0:0:0:
192,367,188532,2,0,L|186:308,1,49,8|0,0:0|0:0,0:0:0:0:
416,180,188678,2,0,L|354:177,1,49,0|0,0:0|0:0,0:0:0:0:
130,93,188824,5,8,0:0:0:0:
194,91,188897,1,0,0:0:0:0:
256,88,188970,1,0,0:0:0:0:
193,90,189043,1,0,0:0:0:0:
394,238,189117,1,8,0:0:0:0:
437,202,189190,1,0,0:0:0:0:
434,154,189263,1,0,0:0:0:0:
388,120,189336,1,0,0:0:0:0:
130,93,189410,6,0,L|54:93,1,49,4|0,0:1|0:0,0:0:0:0:
271,50,189556,1,0,0:0:0:0:
428,49,189629,1,0,0:0:0:0:
148,42,189702,2,0,L|82:42,1,49,2|0,0:1|0:0,0:0:0:0:
298,150,189849,2,0,L|366:149,1,49,0|0,0:0|0:0,0:0:0:0:
124,278,189995,6,0,L|178:278,1,49,2|0,0:1|0:0,0:0:0:0:
320,276,190142,1,0,0:0:0:0:
476,278,190215,1,0,0:0:0:0:
179,353,190288,6,0,B|167:242|167:242|291:209,1,191.099991252137,2|0,0:1|0:0,0:0:0:0:
70,209,190581,6,0,P|49:100|182:37,1,254.799988336182,8|8,0:3|0:0,0:0:0:0:
312,40,191020,1,0,0:0:0:0:
103,296,191166,1,8,0:0:0:0:
73,257,191239,1,0,0:0:0:0:
70,209,191312,1,0,0:0:0:0:
93,166,191385,1,0,0:0:0:0:
135,143,191458,1,8,0:0:0:0:
282,137,191605,2,0,L|332:146,1,49,0|0,0:0|0:0,0:0:0:0:
85,60,191751,6,0,L|68:109,1,49,4|0,0:1|0:0,0:0:0:0:
155,155,191898,2,0,L|138:202,1,49,0|0,0:0|0:0,0:0:0:0:
37,224,192044,2,0,L|43:292,1,49,8|0,0:0|0:0,0:0:0:0:
302,357,192190,2,0,L|379:348,1,49,0|0,0:0|0:0,0:0:0:0:
144,210,192337,6,0,L|303:251,2,147,8|0|2,0:0|0:0|0:1,0:0:0:0:
75,196,192849,1,0,0:0:0:0:
316,146,192922,2,0,L|420:132,1,98,8|0,0:0|0:0,0:0:0:0:
256,64,193215,1,0,0:0:0:0:
464,303,193361,2,0,L|470:229,1,49,2|0,0:1|0:0,0:0:0:0:
271,282,193507,1,8,0:0:0:0:
222,282,193580,1,0,0:0:0:0:
173,282,193653,1,0,0:0:0:0:
222,282,193727,2,0,L|279:284,1,49,0|4,0:0|0:0,0:0:0:0:
28,248,193946,1,2,0:1:0:0:
357,166,194093,6,0,L|411:166,1,49,4|0,0:0|0:0,0:0:0:0:
210,113,194239,2,0,L|133:114,1,49,0|0,0:0|0:0,0:0:0:0:
417,61,194385,2,0,L|310:63,1,98,8|0,0:0|0:0,0:0:0:0:
65,59,194678,1,2,0:1:0:0:
353,313,194824,2,0,P|406:210|328:150,1,196,0|0,0:0|0:0,0:0:0:0:
59,129,195263,6,0,P|158:142|244:96,1,196,8|8,0:3|0:0,0:0:0:0:
409,112,195702,2,0,L|412:164,1,49,0|0,0:0|0:0,0:0:0:0:
162,301,195849,6,0,L|97:292,1,49,4|0,0:0|0:0,0:0:0:0:
328,258,195995,2,0,L|388:268,1,49,0|0,0:0|0:0,0:0:0:0:
157,170,196142,2,0,L|251:162,1,49,8|0,0:0|0:0,0:0:0:0:
286,157,196288,2,0,L|357:150,1,49,0|0,0:0|0:0,0:0:0:0:
76,269,196434,5,4,0:1:0:0:
52,226,196507,1,0,0:0:0:0:
60,179,196580,1,0,0:0:0:0:
96,147,196653,1,0,0:0:0:0:
263,200,196727,5,8,0:0:0:0:
286,157,196800,1,0,0:0:0:0:
278,110,196873,1,0,0:0:0:0:
242,78,196946,1,0,0:0:0:0:
48,60,197020,6,0,L|100:57,1,49,8|0,0:0|0:0,0:0:0:0:
336,105,197166,2,0,L|399:104,1,49,2|0,0:1|0:0,0:0:0:0:
142,197,197312,2,0,L|238:193,1,49,8|0,0:0|0:0,0:0:0:0:
411,235,197459,2,0,L|486:237,1,49,2|0,0:1|0:0,0:0:0:0:
196,315,197605,5,4,0:3:0:0:
301,288,197751,1,0,0:3:0:0:
335,239,197824,1,0,0:0:0:0:
332,190,197897,1,0,0:0:0:0:
298,149,197970,1,0,0:0:0:0:
252,121,198043,1,0,0:0:0:0:
205,110,198116,1,0,0:0:0:0:
252,121,198190,6,0,L|321:115,1,49,2|0,0:1|0:0,0:0:0:0:
357,135,198337,2,0,L|450:128,1,49,0|0,0:0|0:0,0:0:0:0:
225,271,198483,2,0,L|188:231,1,49,0|0,0:0|0:0,0:0:0:0:
27,152,198629,2,0,L|31:96,1,49,2|0,0:1|0:0,0:0:0:0:
279,48,198776,6,0,L|331:47,1,49,4|0,0:0|0:0,0:0:0:0:
143,138,198922,2,0,L|92:137,1,49,0|0,0:0|0:0,0:0:0:0:
400,212,199068,2,0,L|316:212,1,49,8|0,0:0|0:0,0:0:0:0:
207,212,199215,1,0,0:0:0:0:
64,212,199288,1,0,0:0:0:0:
359,331,199361,5,4,0:1:0:0:
404,289,199434,1,0,0:0:0:0:
400,236,199507,1,0,0:0:0:0:
353,200,199580,1,0,0:0:0:0:
106,138,199654,2,0,L|175:137,1,49,8|0,0:0|0:0,0:0:0:0:
380,117,199800,2,0,L|432:117,1,49,0|0,0:0|0:0,0:0:0:0:
81,289,199946,6,0,L|-8:297,2,49,8|0|0,0:3|0:0|0:0,0:0:0:0:
368,253,200239,2,0,L|426:263,2,49,8|0|0,0:0|0:0|0:0,0:0:0:0:
154,176,200532,1,2,0:1:0:0:
283,290,200678,1,0,0:0:0:0:
314,253,200751,1,0,0:0:0:0:
321,205,200824,1,8,0:0:0:0:
302,160,200897,1,0,0:0:0:0:
263,132,200970,1,0,0:0:0:0:
51,87,201117,6,0,L|151:78,1,98,0|0,0:0|0:0,0:0:0:0:
401,59,201410,1,8,0:0:0:0:
269,153,201556,2,0,L|277:210,1,49,0|0,0:0|0:0,0:0:0:0:
452,266,201702,2,0,L|400:278,1,49,2|0,0:1|0:0,0:0:0:0:
173,346,201849,2,0,P|148:246|249:177,1,196,0|0,0:0|0:0,0:0:0:0:
270,174,202215,1,0,0:0:0:0:
94,197,202288,5,4,0:1:0:0:
85,148,202361,1,0,0:0:0:0:
76,100,202434,1,0,0:0:0:0:
299,333,202581,1,8,0:0:0:0:
308,284,202654,1,0,0:0:0:0:
317,236,202727,1,0,0:0:0:0:
62,308,202873,1,2,0:1:0:0:
197,195,203020,1,0,0:0:0:0:
148,199,203093,1,0,0:0:0:0:
99,203,203166,1,8,0:0:0:0:
245,124,203312,2,0,L|324:132,1,49,0|0,0:0|0:0,0:0:0:0:
156,311,203459,6,0,L|151:233,1,49,4|0,0:0|0:0,0:0:0:0:
208,223,203605,1,0,0:0:0:0:
446,284,203751,1,8,0:0:0:0:
447,235,203824,1,0,0:0:0:0:
448,186,203897,1,0,0:0:0:0:
103,106,204044,1,2,0:1:0:0:
372,42,204190,2,0,L|292:53,1,49,0|0,0:0|0:0,0:0:0:0:
258,78,204337,2,0,L|426:103,1,147,4|0,0:0|0:0,0:0:0:0:
186,188,204629,5,4,0:1:0:0:
137,193,204702,1,0,0:0:0:0:
88,199,204775,1,0,0:0:0:0:
297,330,204922,2,0,L|303:243,1,49,0|0,0:0|0:0,0:0:0:0:
238,237,205068,1,0,0:0:0:0:
474,172,205215,1,0,0:0:0:0:
332,81,205361,1,0,0:0:0:0:
283,86,205434,1,0,0:0:0:0:
234,92,205507,1,4,0:0:0:0:
474,172,205654,1,0,0:0:0:0:
175,309,205800,5,4,0:1:0:0:
139,276,205873,1,0,0:0:0:0:
126,229,205946,1,0,0:0:0:0:
361,190,206092,1,0,0:0:0:0:
418,151,206166,2,0,L|413:98,1,49,0|0,0:0|0:0,0:0:0:0:
132,52,206385,1,0,0:0:0:0:
416,306,206532,2,0,L|425:191,1,98,0|4,0:0|0:0,0:0:0:0:
62,354,206824,6,0,L|244:338,1,147,2|0,0:1|0:0,0:0:0:0:
390,265,207117,2,0,L|439:259,2,49,0|0|8,0:0|0:0|0:0,0:0:0:0:
172,194,207337,2,0,L|108:202,2,49,0|0|0,0:0|0:0|0:0,0:0:0:0:
383,332,207556,2,0,L|400:208,1,98,2|0,0:1|0:0,0:0:0:0:
49,324,207849,1,8,0:0:0:0:
334,336,207995,2,0,L|408:329,1,49,0|0,0:0|0:0,0:0:0:0:
123,228,208142,5,2,0:1:0:0:
63,197,208214,1,0,0:0:0:0:
63,142,208287,1,0,0:0:0:0:
152,75,208434,1,8,0:0:0:0:
393,66,208581,1,8,0:0:0:0:
182,168,208727,2,0,L|312:168,1,98,8|0,0:0|0:0,0:0:0:0:
52,288,209020,2,0,L|129:288,1,49,8|0,0:0|0:0,0:0:0:0:
364,338,209166,2,0,L|425:338,1,49,0|0,0:0|0:0,0:0:0:0:
181,234,209312,6,0,L|109:234,2,49,8|0|0,0:3|0:0|0:0,0:0:0:0:
448,128,209605,1,8,0:0:0:0:
399,128,209678,1,0,0:0:0:0:
350,128,209751,1,0,0:0:0:0:
66,116,209898,1,2,0:1:0:0:
211,150,210044,1,0,0:0:0:0:
210,198,210117,1,0,0:0:0:0:
210,247,210190,1,8,0:0:0:0:
66,116,210337,2,0,L|121:121,1,49,0|0,0:0|0:0,0:0:0:0:
376,275,210483,6,0,L|497:264,1,98,2|0,0:1|0:0,0:0:0:0:
169,340,210776,1,8,0:0:0:0:
120,345,210849,1,0,0:0:0:0:
71,350,210922,1,0,0:0:0:0:
378,274,211068,2,0,L|271:261,1,98,2|0,0:1|0:0,0:0:0:0:
131,221,211361,2,0,L|123:107,1,98,8|0,0:0|0:0,0:0:0:0:
432,42,211654,5,8,0:3:0:0:
361,54,211727,1,0,0:0:0:0:
294,67,211800,1,0,0:0:0:0:
436,135,211946,1,8,0:0:0:0:
364,144,212020,1,0,0:0:0:0:
296,153,212093,1,0,0:0:0:0:
151,169,212239,1,2,0:1:0:0:
298,244,212385,1,0,0:0:0:0:
222,261,212459,1,0,0:0:0:0:
151,278,212532,1,8,0:0:0:0:
426,341,212678,6,0,P|480:241|404:180,1,196,8|0,0:3|0:0,0:0:0:0:
299,131,213117,1,0,0:0:0:0:
250,135,213190,1,0,0:0:0:0:
201,140,213263,1,0,0:0:0:0:
441,238,213410,1,0,0:1:0:0:
125,329,213556,6,0,B|117:208|117:208|188:250|260:217,1,245,8|0,0:3|0:0,0:0:0:0:
441,238,213995,5,4,0:1:0:0:
450,189,214068,1,0,0:0:0:0:
459,141,214141,1,0,0:0:0:0:
201,117,214288,1,8,0:0:0:0:
249,120,214361,1,0,0:0:0:0:
298,124,214434,1,0,0:0:0:0:
36,226,214581,1,2,0:1:0:0:
182,285,214727,2,0,L|243:281,2,49,0|0|8,0:0|0:0|0:0,0:0:0:0:
36,226,215020,2,0,L|101:233,1,49,0|0,0:0|0:0,0:0:0:0:
394,347,215166,6,0,L|415:247,1,98,4|0,0:0|0:0,0:0:0:0:
161,136,215459,1,8,0:0:0:0:
210,136,215532,1,0,0:0:0:0:
259,136,215605,1,0,0:0:0:0:
31,98,215751,1,4,0:0:0:0:
315,52,215898,2,0,L|192:46,2,98,0|8|0,0:0|0:0|0:0,0:0:0:0:
40,241,216337,6,0,L|175:227,1,98,8|0,0:3|0:0,0:0:0:0:
393,327,216629,1,8,0:0:0:0:
400,278,216702,1,0,0:0:0:0:
408,230,216775,1,0,0:0:0:0:
127,181,216922,2,0,L|28:166,1,98,2|0,0:1|0:0,0:0:0:0:
256,104,217215,2,0,L|384:94,1,98,8|0,0:0|0:0,0:0:0:0:
301,56,217434,1,0,0:0:0:0:
98,39,217507,6,0,P|59:104|114:172,1,147,4|0,0:3|0:0,0:0:0:0:
304,253,217800,2,0,L|363:248,1,49,8|0,0:0|0:0,0:0:0:0:
216,326,217946,2,0,L|157:333,1,49,0|0,0:0|0:0,0:0:0:0:
304,253,218093,2,0,L|363:248,1,49,2|0,0:1|0:0,0:0:0:0:
216,326,218239,2,0,L|157:333,1,49,0|0,0:1|0:0,0:0:0:0:
454,348,218385,2,0,L|470:271,1,49,8|0,0:0|0:0,0:0:0:0:
177,200,218532,2,0,L|166:118,1,49,0|0,0:0|0:0,0:0:0:0:
377,40,218678,5,4,0:1:0:0:
424,49,218751,1,0,0:0:0:0:
463,78,218824,1,0,0:0:0:0:
486,121,218897,1,0,0:0:0:0:
488,169,218970,1,8,0:0:0:0:
469,214,219043,1,0,0:0:0:0:
432,246,219117,1,0,0:0:0:0:
385,259,219190,1,0,0:0:0:0:
157,235,219263,5,2,0:1:0:0:
109,263,219336,1,0,0:0:0:0:
104,310,219409,1,0,0:0:0:0:
145,346,219482,1,0,0:0:0:0:
355,235,219556,1,8,0:0:0:0:
403,263,219629,1,0,0:0:0:0:
408,310,219702,1,0,0:0:0:0:
367,346,219775,1,0,0:0:0:0:
219,96,219849,6,0,L|281:104,1,49,2|0,0:1|0:0,0:0:0:0:
317,97,219995,2,0,L|262:104,1,49,0|0,0:0|0:0,0:0:0:0:
100,279,220142,1,8,0:0:0:0:
59,241,220215,1,0,0:0:0:0:
59,193,220288,1,0,0:0:0:0:
102,159,220361,1,0,0:0:0:0:
291,161,220434,6,0,L|350:159,1,49,2|0,0:1|0:0,0:0:0:0:
162,107,220581,2,0,L|155:46,1,49,0|0,0:0|0:0,0:0:0:0:
384,96,220727,1,8,0:0:0:0:
437,126,220800,1,0,0:0:0:0:
440,173,220873,1,0,0:0:0:0:
393,215,220946,1,0,0:0:0:0:
96,353,221020,6,0,P|149:207|146:366,1,441.000016822816,8|0,0:3|0:0,0:0:0:0:
379,286,221605,6,0,L|442:282,1,49,2|0,0:1|0:0,0:0:0:0:
490,251,221751,2,0,L|495:187,1,49,0|0,0:0|0:0,0:0:0:0:
219,72,221898,1,8,0:0:0:0:
170,100,221971,1,0,0:0:0:0:
164,147,222044,1,0,0:0:0:0:
210,188,222117,1,0,0:0:0:0:
405,267,222190,5,2,0:1:0:0:
356,268,222263,1,0,0:0:0:0:
307,276,222336,1,0,0:0:0:0:
260,289,222409,1,0,0:0:0:0:
260,289,222482,1,8,0:0:0:0:
307,276,222555,1,0,0:0:0:0:
356,268,222629,1,0,0:0:0:0:
405,267,222702,1,0,0:0:0:0:
110,352,222776,6,0,B|96:227|96:227|246:255|246:255|258:115|258:115|113:85,1,514.500019626618,8|0,0:3|0:0,0:0:0:0:
430,72,223361,5,4,0:1:0:0:
321,49,223507,2,0,L|188:50,1,98,0|8,0:0|0:0,0:0:0:0:
337,210,223800,1,0,0:0:0:0:
32,328,223946,5,2,0:1:0:0:
382,119,224093,1,0,0:0:0:0:
252,130,224239,1,8,0:0:0:0:
131,147,224385,1,0,0:0:0:0:
467,248,224532,5,4,0:1:0:0:
181,278,224678,2,0,L|301:277,1,98,0|8,0:0|0:0,0:0:0:0:
145,343,224971,1,0,0:0:0:0:
380,124,225117,5,2,0:1:0:0:
229,146,225263,1,0,0:0:0:0:
386,201,225410,1,8,0:0:0:0:
237,224,225556,1,0,0:0:0:0:
373,355,225702,6,0,L|380:254,1,98,4|0,0:0|0:0,0:0:0:0:
166,207,225995,2,0,L|49:199,1,98,8|0,0:0|0:1,0:0:0:0:
479,102,226288,2,0,L|347:110,1,98,2|0,0:1|0:0,0:0:0:0:
119,40,226581,1,8,0:0:0:0:
420,256,226727,1,0,0:0:0:0:
101,338,226873,6,0,L|92:226,1,98,4|0,0:0|0:0,0:0:0:0:
385,167,227166,1,8,0:0:0:0:
39,100,227312,1,0,0:0:0:0:
289,26,227459,1,4,0:0:0:0:
337,29,227532,1,0,0:0:0:0:
386,33,227605,1,0,0:0:0:0:
435,37,227678,1,0,0:0:0:0:
187,284,227751,2,0,P|158:217|216:156,1,147,8|0,0:0|0:0,0:0:0:0:
437,144,228044,6,0,B|361:181|273:175|273:175|369:185|431:260|422:318|338:377|241:353,1,514.500019626618,8|0,0:3|0:0,0:0:0:0:
31,308,228629,6,0,L|164:292,2,98,2|0|8,0:1|0:0|0:0,0:0:0:0:
359,218,229068,2,0,L|235:205,2,98,0|2|0,0:0|0:1|0:0,0:0:0:0:
79,225,229507,2,0,L|73:107,1,98,8|2,0:0|0:1,0:0:0:0:
203,76,229800,1,0,0:0:0:0:
484,189,229946,2,0,L|363:194,2,98,2|8|0,0:1|0:0|0:0,0:0:0:0:
126,305,230385,5,4,0:0:0:0:
400,308,230532,1,0,0:0:0:0:
271,211,230678,2,0,L|397:207,1,98,8|0,0:0|0:0,0:0:0:0:
120,77,230971,1,2,0:1:0:0:
263,94,231117,1,0,0:0:0:0:
403,109,231263,1,8,0:0:0:0:
263,94,231410,1,0,0:0:0:0:
467,208,231556,5,8,0:3:0:0:
324,225,231702,1,0,0:0:0:0:
184,240,231848,1,8,0:0:0:0:
324,225,231995,1,0,0:0:0:0:
100,348,232142,6,0,B|68:225|168:282|168:282|122:200|39:195|45:154|83:76|166:49|262:98,1,514.500019626618,8|0,0:3|0:0,0:0:0:0:
450,104,232727,5,4,0:1:0:0:
438,150,232800,1,0,0:0:0:0:
403,184,232873,1,0,0:0:0:0:
356,194,232946,1,0,0:0:0:0:
132,238,233020,2,0,L|206:241,1,49,8|0,0:0|0:0,0:0:0:0:
244,271,233166,2,0,L|243:341,1,49,0|0,0:0|0:0,0:0:0:0:
58,303,233312,6,0,L|37:228,1,49,2|0,0:1|0:0,0:0:0:0:
220,188,233459,2,0,L|245:127,1,49,0|0,0:0|0:0,0:0:0:0:
80,79,233605,2,0,L|-1:79,1,49,8|0,0:0|0:0,0:0:0:0:
80,79,233751,2,0,L|162:80,1,49,0|0,0:0|0:0,0:0:0:0:
366,145,233898,6,0,L|419:145,1,49,2|0,0:1|0:0,0:0:0:0:
366,145,234044,2,0,L|303:145,1,49,0|0,0:0|0:0,0:0:0:0:
113,260,234190,2,0,L|189:259,1,49,8|0,0:0|0:0,0:0:0:0:
212,258,234337,2,0,L|263:257,1,49,0|0,0:0|0:0,0:0:0:0:
45,203,234483,6,0,L|22:139,1,49,2|0,0:1|0:0,0:0:0:0:
262,179,234629,2,0,L|313:179,1,49,0|0,0:0|0:0,0:0:0:0:
77,156,234776,2,0,L|6:156,1,49,8|0,0:0|0:0,0:0:0:0:
391,238,234922,2,0,L|462:237,1,49,0|0,0:0|0:0,0:0:0:0:
146,85,235068,6,0,L|136:147,1,49,4|0,0:1|0:0,0:0:0:0:
416,247,235215,2,0,L|482:258,1,49,0|0,0:0|0:0,0:0:0:0:
254,307,235361,2,0,L|195:307,1,49,8|0,0:0|0:0,0:0:0:0:
3,165,235507,2,0,L|61:165,1,49,0|0,0:0|0:0,0:0:0:0:
225,164,235654,6,0,L|283:163,1,49,2|0,0:1|0:0,0:0:0:0:
438,127,235800,2,0,L|496:126,1,49,0|0,0:0|0:0,0:0:0:0:
93,82,235946,2,0,L|163:82,1,49,8|0,0:0|0:0,0:0:0:0:
355,50,236093,2,0,L|409:50,1,49,0|0,0:0|0:0,0:0:0:0:
201,186,236239,6,0,L|78:186,1,98,4|0,0:0|0:0,0:0:0:0:
151,155,236459,1,0,0:0:0:0:
403,281,236532,2,0,L|341:280,1,49,8|0,0:0|0:0,0:0:0:0:
69,336,236678,2,0,L|127:337,1,49,8|0,0:0|0:0,0:0:0:0:
418,338,236824,5,2,0:1:0:0:
277,340,236898,1,0,0:0:0:0:
144,341,236971,1,0,0:0:0:0:
277,340,237044,1,0,0:0:0:0:
418,338,237117,6,0,L|474:337,1,49,8|0,0:0|0:0,0:0:0:0:
178,224,237263,2,0,L|117:225,1,49,8|0,0:0|0:0,0:0:0:0:
451,170,237410,5,8,0:3:0:0:
256,192,237556,12,8,240337,0:3:0:0:
199,88,240629,6,0,L|325:95,1,98,8|0,0:0|0:0,0:0:0:0:
84,302,240922,2,0,L|74:193,1,98,2|0,0:3|0:0,0:0:0:0:
370,245,241215,2,0,L|258:265,1,98,8|0,0:0|0:0,0:0:0:0:
64,99,241507,2,0,L|171:115,1,98,2|0,0:3|0:0,0:0:0:0:
386,48,241800,1,8,0:0:0:0:
434,53,241873,1,0,0:0:0:0:
483,59,241946,1,0,0:0:0:0:
157,291,242093,5,8,0:3:0:0:
385,230,242239,2,0,L|387:169,1,49,0|0,0:0|0:0,0:0:0:0:
316,144,242385,1,8,0:0:0:0:
35,115,242532,2,0,L|142:99,2,98,0|2|0,0:0|0:1|0:0,0:0:0:0:
263,31,242971,1,8,0:0:0:0:
311,35,243044,1,0,0:0:0:0:
360,40,243117,1,0,0:0:0:0:
88,268,243263,6,0,L|83:154,1,98,2|0,0:3|0:0,0:0:0:0:
352,251,243556,2,0,L|457:238,1,98,8|0,0:0|0:0,0:0:0:0:
207,98,243849,2,0,L|323:122,1,98,2|0,0:3|0:0,0:0:0:0:
38,188,244142,2,0,L|26:83,1,98,0|0,0:0|0:0,0:0:0:0:
99,49,244361,1,0,0:0:0:0:
372,119,244434,5,4,0:3:0:0:
242,207,244581,1,0,0:0:0:0:
193,201,244654,1,0,0:0:0:0:
144,196,244727,1,8,0:0:0:0:
370,318,244873,2,0,L|170:341,1,196,0|0,0:0|0:0,0:0:0:0:
316,218,245312,2,0,L|455:236,1,98,8|0,0:0|0:0,0:0:0:0:
466,204,245532,1,0,0:0:0:0:
174,236,245605,6,0,L|170:160,1,49,8|8,0:0|0:0,0:0:0:0:
247,129,245751,2,0,L|167:118,1,49,8|0,0:0|0:0,0:0:0:0:
27,64,245898,2,0,L|93:55,1,49,4|0,0:0|0:0,0:0:0:0:
294,141,246044,2,0,L|220:122,1,49,0|0,0:0|0:0,0:0:0:0:
31,205,246190,2,0,L|35:275,1,49,4|0,0:0|0:0,0:0:0:0:
99,286,246337,2,0,L|156:290,1,49,0|0,0:0|0:0,0:0:0:0:
429,353,246483,6,0,P|481:256|364:216,1,220.500008411408,4|0,0:3|0:0,0:0:0:0:
175,167,246776,6,0,L|106:174,2,49,4|0|0,0:0|0:0|0:0,0:0:0:0:
437,242,247068,2,0,L|449:114,1,98,8|0,0:0|0:0,0:0:0:0:
293,157,247361,2,0,L|289:90,1,49,2|0,0:1|0:0,0:0:0:0:
363,70,247507,1,0,0:0:0:0:
118,232,247654,2,0,L|0:223,1,98,8|0,0:0|0:0,0:0:0:0:
279,339,247946,6,0,L|402:325,1,98,2|0,0:3|0:0,0:0:0:0:
412,280,248166,1,0,0:0:0:0:
439,228,248239,1,8,0:0:0:0:
171,187,248385,2,0,L|170:80,1,98,2|0,0:3|0:0,0:0:0:0:
307,140,248678,1,0,0:0:0:0:
52,269,248824,2,0,L|189:276,1,98,8|0,0:0|0:0,0:0:0:0:
436,297,249117,5,2,0:3:0:0:
191,198,249263,1,0,0:0:0:0:
142,203,249336,1,0,0:0:0:0:
93,208,249409,1,8,0:0:0:0:
346,307,249556,1,2,0:3:0:0:
228,250,249702,1,0,0:0:0:0:
192,205,249775,1,0,0:0:0:0:
197,156,249848,1,0,0:0:0:0:
242,117,249921,1,0,0:0:0:0:
469,97,249995,2,0,L|338:82,1,98,8|0,0:0|0:0,0:0:0:0:
162,52,250288,6,0,L|273:52,1,98,2|0,0:3|0:0,0:0:0:0:
39,151,250581,1,8,0:0:0:0:
296,208,250727,2,0,L|190:208,1,98,0|2,0:0|0:1,0:0:0:0:
486,158,251020,1,0,0:0:0:0:
207,261,251166,2,0,L|335:261,1,98,8|8,0:0|0:0,0:0:0:0:
363,262,251385,1,0,0:0:0:0:
113,324,251459,5,4,0:0:0:0:
228,324,251605,2,0,L|285:324,1,49,0|0,0:0|0:0,0:0:0:0:
228,324,251751,2,0,L|177:324,1,49,8|0,0:0|0:0,0:0:0:0:
475,227,251898,1,0,0:0:0:0:
384,128,252044,2,0,L|503:128,1,98,2|0,0:1|0:0,0:0:0:0:
157,212,252337,2,0,L|47:212,1,98,8|0,0:0|0:0,0:0:0:0:
442,331,252629,6,0,L|469:217,1,98,4|0,0:1|0:0,0:0:0:0:
156,213,252922,2,0,L|53:202,1,98,8|4,0:0|0:3,0:0:0:0:
310,66,253215,2,0,L|245:73,1,49,0|0,0:0|0:0,0:0:0:0:
212,63,253361,2,0,L|262:71,1,49,4|0,0:0|0:0,0:0:0:0:
451,131,253507,1,4,0:0:0:0:
499,165,253580,1,0,0:0:0:0:
500,212,253653,1,4,0:0:0:0:
455,241,253726,1,0,0:0:0:0:
252,326,253800,6,0,L|186:322,1,49,4|0,0:3|0:0,0:0:0:0:
127,291,253947,2,0,L|120:239,1,49
304,179,254093,2,0,L|374:159,1,49,8|0,0:0|0:0,0:0:0:0:
418,138,254239,2,0,L|405:84,1,49,0|0,0:0|0:0,0:0:0:0:
114,44,254385,6,0,L|66:30,1,49,4|0,0:3|0:0,0:0:0:0:
270,237,254532,2,0,L|340:225,1,49,0|0,0:0|0:0,0:0:0:0:
487,170,254678,2,0,L|431:176,1,49,8|0,0:0|0:0,0:0:0:0:
168,226,254824,2,0,L|157:293,1,49,0|0,0:0|0:0,0:0:0:0:
425,343,254971,6,0,L|428:286,1,49,4|0,0:3|0:0,0:0:0:0:
351,258,255117,2,0,L|295:244,1,49,0|0,0:0|0:0,0:0:0:0:
486,157,255263,2,0,L|393:138,1,49,8|0,0:0|0:0,0:0:0:0:
389,153,255410,2,0,L|456:145,1,49,0|0,0:0|0:0,0:0:0:0:
212,87,255556,6,0,L|144:78,1,49,4|0,0:3|0:0,0:0:0:0:
360,49,255702,2,0,L|417:42,1,49,0|0,0:0|0:0,0:0:0:0:
138,330,255849,1,4,0:3:0:0:
96,295,255922,1,0,0:0:0:0:
97,247,255995,1,0,0:0:0:0:
140,213,256068,1,0,0:0:0:0:
430,249,256142,6,0,P|477:171|392:91,1,196,4|8,0:1|0:0,0:0:0:0:
277,91,256581,1,0,0:0:0:0:
419,90,256727,2,0,L|313:90,1,98,2|0,0:1|0:0,0:0:0:0:
185,178,257020,2,0,L|309:178,1,98,8|0,0:0|0:0,0:0:0:0:
66,333,257312,6,0,P|23:245|83:168,1,196,4|8,0:0|0:0,0:0:0:0:
208,146,257751,2,0,P|301:165|412:133,1,196,8|0,0:3|0:0,0:0:0:0:
258,58,258190,2,0,P|189:48|147:63,1,98,8|0,0:0|0:0,0:0:0:0:
411,235,258483,6,0,L|206:247,1,196,4|8,0:1|0:0,0:0:0:0:
335,320,258922,1,0,0:0:0:0:
181,336,259068,2,0,L|189:232,1,98,2|0,0:1|0:0,0:0:0:0:
333,192,259361,2,0,L|347:88,1,98,8|0,0:0|0:0,0:0:0:0:
30,157,259654,6,0,L|157:150,2,98,4|0|8,0:3|0:0|0:0,0:0:0:0:
345,282,260093,2,0,L|131:253,1,196,4|0,0:1|0:0,0:0:0:0:
312,178,260532,2,0,L|430:158,1,98,8|0,0:0|0:0,0:0:0:0:
106,59,260824,6,0,P|41:125|117:204,1,196,8|8,0:3|0:0,0:0:0:0:
218,235,261263,2,0,L|330:229,2,98,0|2|0,0:0|0:1|0:0,0:0:0:0:
81,346,261702,2,0,L|75:213,1,98,8|0,0:0|0:0,0:0:0:0:
369,211,261995,6,0,L|157:182,1,196,8|8,0:3|0:0,0:0:0:0:
307,103,262434,1,0,0:0:0:0:
168,304,262581,2,0,L|166:192,1,98,2|0,0:1|0:0,0:0:0:0:
331,296,262873,2,0,L|442:291,1,98,8|0,0:0|0:0,0:0:0:0:
147,165,263166,6,0,L|33:169,1,98,4|0,0:1|0:0,0:0:0:0:
428,98,263459,1,8,0:0:0:0:
300,199,263605,2,0,L|429:199,1,98,0|2,0:0|0:1,0:0:0:0:
163,65,263898,2,0,L|50:65,1,98,0|8,0:0|0:0,0:0:0:0:
116,103,264117,1,0,0:0:0:0:
382,296,264190,6,0,P|430:217|351:142,1,196,8|0,0:3|0:0,0:0:0:0:
211,65,264629,2,0,L|314:62,1,98,8|0,0:0|0:0,0:0:0:0:
165,153,264922,2,0,L|151:207,1,49,4|0,0:0|0:0,0:0:0:0:
320,237,265068,2,0,L|333:290,1,49,0|0,0:0|0:0,0:0:0:0:
152,339,265215,2,0,L|39:347,1,98,4|0,0:0|0:0,0:0:0:0:
304,345,265507,6,0,P|358:268|268:201,1,196,4|8,0:1|0:0,0:0:0:0:
172,232,265946,2,0,L|175:129,1,98,0|2,0:0|0:1,0:0:0:0:
325,97,266239,1,0,0:0:0:0:
183,44,266385,2,0,L|74:37,1,98,8|0,0:0|0:0,0:0:0:0:
383,290,266678,6,0,P|434:210|347:142,1,196,8|8,0:3|0:0,0:0:0:0:
227,128,267117,2,0,L|436:110,1,196,4|0,0:1|0:0,0:0:0:0:
268,43,267556,2,0,L|156:49,1,98,8|0,0:0|0:0,0:0:0:0:
416,148,267849,6,0,L|182:158,1,196,4|8,0:0|0:0,0:0:0:0:
85,163,268288,1,0,0:0:0:0:
229,311,268434,2,0,L|232:204,1,98,2|0,0:1|0:0,0:0:0:0:
84,102,268727,2,0,L|198:100,1,98,8|0,0:0|0:0,0:0:0:0:
443,71,269020,6,0,L|328:62,2,98,8|0|8,0:3|0:0|0:0,0:0:0:0:
174,250,269459,2,0,L|382:231,1,196,4|0,0:0|0:0,0:0:0:0:
499,324,269898,2,0,L|381:307,1,98,8|0,0:0|0:0,0:0:0:0:
145,329,270190,6,0,P|102:247|194:174,1,196,8|8,0:3|0:0,0:0:0:0:
300,174,270629,1,0,0:0:0:0:
158,78,270776,2,0,L|282:74,1,98,2|0,0:1|0:0,0:0:0:0:
111,224,271068,2,0,L|103:124,1,98,8|0,0:0|0:0,0:0:0:0:
369,266,271361,6,0,L|160:269,1,196,4|8,0:1|0:0,0:0:0:0:
280,166,271800,2,0,L|390:178,2,98,0|2|0,0:0|0:1|0:0,0:0:0:0:
130,198,272239,2,0,L|121:94,1,98,8|0,0:0|0:0,0:0:0:0:
419,58,272532,6,0,L|312:67,1,98,4|0,0:0|0:0,0:0:0:0:
54,195,272824,2,0,L|173:206,2,98,8|0|2,0:0|0:0|0:1,0:0:0:0:
326,309,273263,2,0,L|341:212,1,98,4|0,0:0|0:0,0:0:0:0:
289,181,273483,1,0,0:0:0:0:
91,248,273556,6,0,P|52:174|145:97,1,196,4|0,0:1|0:0,0:0:0:0:
177,99,273922,1,0,0:0:0:0:
432,124,273995,1,8,0:0:0:0:
296,173,274142,1,2,0:1:0:0:
440,286,274288,2,0,L|445:174,1,98,2|0,0:1|0:0,0:0:0:0:
270,333,274581,2,0,L|412:346,1,98,8|2,0:0|0:1,0:0:0:0:
125,354,274873,5,4,0:0:0:0:
76,272,275019,1,0,0:0:0:0:
103,180,275165,1,0,0:0:0:0:
188,137,275312,1,0,0:0:0:0:
286,138,275459,2,0,L|399:148,1,98,0|0,0:1|0:0,0:0:0:0:
286,137,275751,2,0,L|180:132,1,98,0|0,0:0|0:0,0:0:0:0:
442,312,276044,6,0,L|469:181,1,98,0|0,0:0|0:0,0:0:0:0:
330,244,276337,2,0,L|214:237,1,98,0|0,0:0|0:0,0:0:0:0:
360,102,276629,1,0,0:0:0:0:
282,155,276775,1,0,0:0:0:0:
281,250,276921,1,0,0:0:0:0:
358,305,277068,1,0,0:0:0:0:
120,332,277215,6,0,L|236:349,1,98,0|0,0:0|0:0,0:0:0:0:
364,238,277507,2,0,L|256:247,1,98,0|0,0:0|0:0,0:0:0:0:
126,226,277800,2,0,L|145:121,1,98,0|0,0:0|0:0,0:0:0:0:
295,123,278093,2,0,L|316:18,1,98,0|0,0:0|0:0,0:0:0:0:
165,60,278385,6,0,L|278:73,2,98,0|0|0,0:0|0:0|0:0,0:0:0:0:
312,167,278824,2,0,L|195:155,2,98,0|0|0,0:0|0:0|0:0,0:0:0:0:
442,219,279263,2,0,L|426:331,1,98,0|0,0:0|0:0,0:0:0:0:
293,361,279556,5,0,0:0:0:0:
247,277,279702,1,0,0:0:0:0:
279,187,279848,1,0,0:0:0:0:
366,148,279995,1,0,0:0:0:0:
248,92,280142,2,0,L|135:92,2,98,0|0|0,0:0|0:0|0:0,0:0:0:0:
370,94,280581,1,0,0:0:0:0:
125,269,280727,6,0,L|102:152,1,98,0|0,0:0|0:0,0:0:0:0:
237,186,281020,2,0,L|353:171,1,98,0|0,0:0|0:0,0:0:0:0:
245,352,281312,2,0,L|231:247,1,98,0|0,0:0|0:0,0:0:0:0:
381,278,281605,2,0,L|471:206,1,98
237,186,281898,6,0,L|108:186,1,98
278,222,282190,1,0,0:0:0:0:
150,220,282337,1,0,0:0:0:0:
25,218,282483,1,0,0:0:0:0:
150,220,282629,2,0,L|266:220,2,98
101,220,282995,1,0,0:0:0:0:
246,304,283068,5,2,0:1:0:0:
364,245,283215,2,0,L|361:137,1,98,0|2,0:0|0:1,0:0:0:0:
217,107,283507,1,0,0:0:0:0:
358,146,283654,2,0,L|463:131,1,98,2|8,0:1|0:0,0:0:0:0:
401,105,283873,1,0,0:0:0:0:
129,177,283946,2,0,L|136:290,1,98,8|8,0:0|0:0,0:0:0:0:
406,362,284239,6,0,P|506:212|346:92,1,392,2|2,0:3|0:3,0:0:0:0:
107,53,285410,2,0,P|200:149|395:39,1,392,2|2,0:3|0:3,0:0:0:0:
106,362,286581,2,0,P|6:212|166:92,1,392,2|2,0:3|0:3,0:0:0:0:
400,79,287751,5,2,0:3:0:0:
261,156,287898,2,0,L|157:147,1,98,0|0,0:0|0:0,0:0:0:0:
325,235,288190,2,0,L|426:250,1,98,0|2,0:0|0:3,0:0:0:0:
71,333,288483,2,0,L|190:323,2,98,0|8|0,0:0|0:0|0:0,0:0:0:0:
16,339,288849,1,0,0:0:0:0:
341,349,288922,5,8,0:0:0:0:
226,284,289068,2,0,L|164:288,2,49,0|0|8,0:0|0:0|0:0,0:0:0:0:
125,217,289361,2,0,L|69:224,2,49,0|0|8,0:0|0:0|0:0,0:0:0:0:
261,161,289654,2,0,L|320:165,2,49,0|0|8,0:0|0:0|0:0,0:0:0:0:
114,101,289946,2,0,L|62:107,1,49
230,32,290092,5,8,0:0:0:0:
351,39,290239,2,0,L|415:46,2,49,0|0|8,0:0|0:0|0:0,0:0:0:0:
233,136,290532,2,0,L|183:144,2,49,0|0|8,0:0|0:0|0:0,0:0:0:0:
340,215,290824,2,0,L|274:228,2,49,0|0|8,0:0|0:0|0:0,0:0:0:0:
239,293,291117,2,0,L|188:287,1,49
392,85,291263,5,0,0:0:0:0:
270,140,291410,2,0,L|214:131,2,49,0|0|8,0:0|0:0|0:0,0:0:0:0:
410,206,291702,2,0,L|468:199,2,49,0|0|8,0:0|0:0|0:0,0:0:0:0:
297,302,291995,2,0,L|205:290,2,49,0|0|8,0:0|0:0|0:0,0:0:0:0:
455,366,292288,2,0,L|464:312,1,49,0|0,0:0|0:0,0:0:0:0:
282,202,292434,6,0,L|159:204,2,65.3333333333333,8|0|0,0:0|0:0|0:0,0:0:0:0:
479,196,292727,1,8,0:0:0:0:
198,297,292873,1,0,0:0:0:0:
456,219,293020,2,0,L|469:127,1,65.3333333333333,8|0,0:0|0:0,0:0:0:0:
365,87,293214,1,0,0:0:0:0:
159,161,293312,2,0,L|23:153,1,130.666666666667,8|0,0:0|0:0,0:0:0:0:
292,353,293604,6,0,L|320:192,1,112.700002149582,4|0,0:0|0:0,0:0:0:0:
158,260,293824,2,0,L|35:231,1,112.700002149582,2|0,0:1|0:0,0:0:0:0:
246,157,294043,2,0,L|316:150,1,56.350001074791,0|0,0:0|0:0,0:0:0:0:
112,36,294190,6,0,L|121:178,1,112.700002149582,4|0,0:0|0:0,0:0:0:0:
289,298,294409,2,0,P|310:244|273:194,1,112.700002149582,0|0,0:0|0:0,0:0:0:0:
94,325,294629,2,0,L|25:325,1,56.350001074791,0|0,0:0|0:0,0:0:0:0:
187,251,294775,6,0,L|311:248,1,112.700002149582,4|0,0:1|0:0,0:0:0:0:
95,148,294995,2,0,L|227:149,1,112.700002149582,2|0,0:1|0:0,0:0:0:0:
417,163,295214,2,0,L|421:92,1,56.350001074791,0|0,0:0|0:0,0:0:0:0:
232,49,295360,5,4,0:0:0:0:
167,82,295433,1,0,0:0:0:0:
162,143,295506,1,0,0:0:0:0:
222,184,295579,1,0,0:0:0:0:
418,307,295653,2,0,L|422:245,1,56.350001074791,8|0,0:0|0:0,0:0:0:0:
191,331,295799,2,0,L|109:329,1,56.350001074791,0|0,0:1|0:0,0:0:0:0:
296,266,295946,6,0,L|424:271,1,112.700002149582,4|0,0:0|0:0,0:0:0:0:
171,282,296165,2,0,P|146:226|204:167,1,112.700002149582,2|0,0:1|0:0,0:0:0:0:
386,109,296385,2,0,L|315:96,1,56.350001074791,0|0,0:0|0:0,0:0:0:0:
102,71,296531,6,0,L|236:52,1,112.700002149582,4|0,0:0|0:0,0:0:0:0:
427,213,296751,2,0,L|298:213,1,112.700002149582,0|0,0:0|0:0,0:0:0:0:
116,333,296970,2,0,L|106:248,1,56.350001074791,0|0,0:0|0:0,0:0:0:0:
331,300,297116,6,0,L|418:308,2,56.350001074791,4|0|0,0:1|0:0|0:0,0:0:0:0:
147,139,297336,2,0,L|292:177,1,112.700002149582,2|0,0:1|0:0,0:0:0:0:
49,298,297555,2,0,L|42:214,1,56.350001074791,0|0,0:0|0:0,0:0:0:0:
229,236,297702,6,0,L|317:237,1,56.350001074791,4|0,0:0|0:0,0:0:0:0:
229,236,297848,2,0,L|159:236,1,56.350001074791,0|0,0:0|0:0,0:0:0:0:
375,158,297995,2,0,L|450:159,1,56.350001074791,8|0,0:0|0:0,0:0:0:0:
127,113,298141,2,0,L|65:112,1,56.350001074791,8|0,0:0|0:0,0:0:0:0:
314,258,298287,6,0,L|363:113,1,112.700002149582,4|0,0:0|0:0,0:0:0:0:
149,200,298507,2,0,L|17:185,1,112.700002149582,2|0,0:1|0:0,0:0:0:0:
200,362,298726,2,0,L|270:357,1,56.350001074791,0|0,0:0|0:0,0:0:0:0:
466,273,298873,6,0,L|336:253,1,112.700002149582,4|0,0:0|0:0,0:0:0:0:
129,284,299092,2,0,L|119:146,1,112.700002149582,0|0,0:0|0:0,0:0:0:0:
340,162,299312,2,0,L|278:149,1,56.350001074791,0|0,0:0|0:0,0:0:0:0:
32,105,299458,6,0,L|193:93,1,112.700002149582,4|0,0:1|0:0,0:0:0:0:
339,243,299677,2,0,L|485:230,1,112.700002149582,2|0,0:1|0:0,0:0:0:0:
203,344,299897,2,0,L|191:277,1,56.350001074791,0|0,0:0|0:0,0:0:0:0:
392,273,300043,6,0,L|391:211,1,56.350001074791,4|0,0:0|0:0,0:0:0:0:
323,170,300190,2,0,L|247:157,1,56.350001074791,0|0,0:0|0:0,0:0:0:0:
475,100,300336,2,0,L|490:32,1,56.350001074791,8|0,0:0|0:0,0:0:0:0:
211,232,300482,2,0,L|142:225,1,56.350001074791,0|0,0:0|0:0,0:0:0:0:
348,358,300629,6,0,L|366:229,1,112.700002149582,4|0,0:0|0:0,0:0:0:0:
177,130,300848,2,0,L|313:127,1,112.700002149582,2|0,0:1|0:0,0:0:0:0:
117,240,301068,2,0,L|40:243,1,56.350001074791,0|0,0:0|0:0,0:0:0:0:
261,351,301214,6,0,P|284:261|234:224,1,112.700002149582,4|0,0:0|0:0,0:0:0:0:
80,165,301434,2,0,L|224:153,1,112.700002149582,0|0,0:0|0:0,0:0:0:0:
402,194,301653,2,0,L|463:187,1,56.350001074791,0|0,0:0|0:0,0:0:0:0:
247,107,301799,6,0,L|183:110,2,56.350001074791,4|0|0,0:1|0:0|0:0,0:0:0:0:
433,51,302019,2,0,L|297:59,1,112.700002149582,2|0,0:1|0:0,0:0:0:0:
458,319,302238,2,0,L|487:251,1,56.350001074791,0|0,0:0|0:0,0:0:0:0:
164,341,302385,6,0,L|162:280,1,56.350001074791,4|0,0:0|0:0,0:0:0:0:
218,233,302531,2,0,L|277:225,1,56.350001074791,0|0,0:0|0:0,0:0:0:0:
58,140,302677,2,0,L|120:134,1,56.350001074791,8|0,0:0|0:0,0:0:0:0:
372,83,302824,2,0,L|289:78,1,56.350001074791,8|0,0:0|0:0,0:0:0:0:
103,49,302970,6,0,L|107:175,1,112.700002149582,4|0,0:0|0:0,0:0:0:0:
316,321,303190,2,0,P|334:264|278:208,1,112.700002149582,2|0,0:1|0:0,0:0:0:0:
121,197,303409,2,0,L|40:193,1,56.350001074791,0|0,0:0|0:0,0:0:0:0:
260,271,303555,6,0,L|391:252,1,112.700002149582,4|0,0:0|0:0,0:0:0:0:
181,117,303775,2,0,L|178:273,1,112.700002149582,0|0,0:0|0:0,0:0:0:0:
361,140,303995,2,0,L|427:131,1,56.350001074791,0|0,0:0|0:0,0:0:0:0:
181,117,304141,6,0,L|46:93,1,112.700002149582,4|0,0:1|0:0,0:0:0:0:
300,304,304360,2,0,L|310:172,1,112.700002149582,2|0,0:1|0:0,0:0:0:0:
139,247,304580,2,0,L|71:238,1,56.350001074791,0|0,0:0|0:0,0:0:0:0:
391,329,304726,6,0,L|310:331,1,56.350001074791,4|0,0:0|0:0,0:0:0:0:
277,330,304873,2,0,L|217:332,1,56.350001074791,0|0,0:0|0:0,0:0:0:0:
404,244,305019,2,0,L|416:171,1,56.350001074791,8|0,0:0|0:0,0:0:0:0:
215,117,305165,2,0,L|281:105,1,56.350001074791,0|0,0:0|0:0,0:0:0:0:
457,76,305312,6,0,L|326:53,1,112.700002149582,4|0,0:0|0:0,0:0:0:0:
139,197,305531,2,0,L|304:174,1,112.700002149582,2|0,0:1|0:0,0:0:0:0:
64,126,305751,2,0,L|56:51,1,56.350001074791,0|0,0:0|0:0,0:0:0:0:
246,103,305897,6,0,L|395:80,1,112.700002149582,4|0,0:0|0:0,0:0:0:0:
186,303,306116,2,0,L|136:166,1,112.700002149582,0|0,0:0|0:0,0:0:0:0:
421,334,306336,2,0,L|432:262,1,56.350001074791,0|0,0:0|0:0,0:0:0:0:
104,326,306482,6,0,L|221:308,1,112.700002149582,4|0,0:1|0:0,0:0:0:0:
398,222,306702,2,0,P|411:137|377:116,1,112.700002149582,2|0,0:1|0:0,0:0:0:0:
224,67,306921,2,0,L|164:53,1,56.350001074791,0|0,0:0|0:0,0:0:0:0:
346,170,307068,6,0,L|417:163,1,56.350001074791,4|0,0:0|0:0,0:0:0:0:
346,170,307214,2,0,L|286:160,1,56.350001074791,0|0,0:0|0:0,0:0:0:0:
113,132,307360,2,0,L|110:199,1,56.350001074791,8|0,0:0|0:0,0:0:0:0:
370,319,307507,2,0,L|306:324,1,56.350001074791,8|0,0:0|0:0,0:0:0:0:
108,353,307653,6,0,P|92:262|126:232,1,112.700002149582,4|0,0:0|0:0,0:0:0:0:
291,225,307873,2,0,P|366:240|418:215,1,112.700002149582,2|0,0:1|0:0,0:0:0:0:
219,129,308092,2,0,P|184:124|156:130,1,56.350001074791,0|0,0:0|0:0,0:0:0:0:
350,162,308238,6,0,P|379:98|331:45,1,112.700002149582,4|0,0:0|0:0,0:0:0:0:
147,45,308458,2,0,L|299:62,1,112.700002149582,0|0,0:0|0:0,0:0:0:0:
67,208,308677,2,0,L|61:122,1,56.350001074791,0|0,0:0|0:0,0:0:0:0:
302,303,308824,6,0,L|371:291,2,56.350001074791,4|0|0,0:1|0:0|0:0,0:0:0:0:
108,185,309043,2,0,L|256:208,1,112.700002149582,2|0,0:1|0:0,0:0:0:0:
423,117,309263,2,0,L|360:129,1,56.350001074791,0|0,0:0|0:0,0:0:0:0:
153,357,309409,6,0,L|151:289,1,56.350001074791,4|0,0:0|0:0,0:0:0:0:
208,280,309555,2,0,L|268:275,1,56.350001074791
90,153,309702,2,0,L|184:150,1,56.350001074791,8|0,0:0|0:0,0:0:0:0:
392,54,309848,2,0,L|327:57,1,56.350001074791,8|0,0:0|0:0,0:0:0:0:
92,69,309995,6,0,L|101:135,1,56.350001074791,4|0,0:1|0:0,0:0:0:0:
324,186,310141,2,0,L|334:258,1,56.350001074791,0|0,0:0|0:0,0:0:0:0:
193,302,310287,1,8,0:0:0:0:
57,323,310360,1,0,0:0:0:0:
336,330,310434,2,0,L|401:340,1,56.350001074791,0|0,0:0|0:0,0:0:0:0:
174,208,310580,6,0,L|168:134,1,56.350001074791,8|0,0:0|0:0,0:0:0:0:
301,116,310726,1,0,0:0:0:0:
431,93,310799,1,0,0:0:0:0:
130,62,310873,2,0,L|66:58,1,56.350001074791,8|0,0:0|0:0,0:0:0:0:
404,184,311019,2,0,L|405:257,1,56.350001074791,0|0,0:0|0:0,0:0:0:0:
171,354,311165,6,0,L|168:285,1,56.350001074791,8|0,0:0|0:0,0:0:0:0:
396,259,311312,2,0,L|460:250,1,56.350001074791,0|0,0:0|0:0,0:0:0:0:
159,176,311458,2,0,L|254:171,1,56.350001074791,8|0,0:0|0:0,0:0:0:0:
438,121,311604,2,0,L|452:54,1,56.350001074791,0|0,0:0|0:0,0:0:0:0:
266,27,311751,5,8,0:0:0:0:
100,29,311824,1,0,0:0:0:0:
266,27,311897,2,0,L|353:27,1,49,0|0,0:0|0:0,0:0:0:0:
157,173,312043,2,0,L|98:174,1,49,8|0,0:0|0:0,0:0:0:0:
384,318,312190,2,0,L|396:245,1,49,0|0,0:0|0:0,0:0:0:0:
144,338,312336,6,0,L|147:278,1,49,4|0,0:3|0:0,0:0:0:0:
391,269,312482,2,0,L|325:245,1,49,0|0,0:0|0:0,0:0:0:0:
112,207,312629,2,0,L|111:134,1,49,8|0,0:0|0:0,0:0:0:0:
328,149,312775,2,0,L|404:149,1,49
328,149,312922,6,0,L|271:149,1,49,2|0,0:1|0:0,0:0:0:0:
371,18,313068,2,0,L|453:13,1,49,0|0,0:0|0:0,0:0:0:0:
227,123,313214,2,0,L|162:113,1,49,8|0,0:0|0:0,0:0:0:0:
386,259,313360,2,0,L|391:191,1,49,0|0,0:0|0:0,0:0:0:0:
163,351,313507,6,0,L|84:350,1,49,4|0,0:0|0:0,0:0:0:0:
181,350,313653,2,0,L|230:351,1,49
289,312,313799,2,0,L|304:258,1,49,8|0,0:0|0:0,0:0:0:0:
132,194,313946,2,0,L|81:176,1,49,0|0,0:0|0:0,0:0:0:0:
421,143,314092,6,0,L|480:139,2,49,2|0|0,0:1|0:0|0:0,0:0:0:0:
192,64,314312,1,0,0:0:0:0:
240,69,314385,1,8,0:0:0:0:
289,74,314458,1,0,0:0:0:0:
88,192,314531,2,0,L|76:128,1,49,0|0,0:0|0:0,0:0:0:0:
290,338,314677,6,0,L|350:318,1,49,4|0,0:3|0:0,0:0:0:0:
401,281,314824,2,0,L|419:231,1,49,0|0,0:0|0:0,0:0:0:0:
336,182,314970,2,0,L|284:179,1,49,8|0,0:0|0:0,0:0:0:0:
475,85,315116,2,0,L|409:86,1,49,0|0,0:0|0:0,0:0:0:0:
166,45,315263,6,0,L|220:44,1,49,2|0,0:1|0:0,0:0:0:0:
370,127,315409,2,0,L|295:126,1,49,0|0,0:0|0:0,0:0:0:0:
100,173,315555,2,0,L|104:234,1,49,8|0,0:0|0:0,0:0:0:0:
264,282,315702,2,0,L|330:284,1,49,0|0,0:0|0:0,0:0:0:0:
124,342,315848,6,0,L|114:283,1,49,4|0,0:0|0:0,0:0:0:0:
191,246,315995,2,0,L|243:236,1,49,0|0,0:0|0:0,0:0:0:0:
135,203,316141,2,0,L|67:218,1,49,8|0,0:0|0:0,0:0:0:0:
351,172,316287,2,0,L|361:121,1,49,0|0,0:0|0:0,0:0:0:0:
135,203,316434,6,0,L|119:139,1,49,2|0,0:1|0:0,0:0:0:0:
209,149,316580,2,0,L|274:139,1,49,0|0,0:0|0:0,0:0:0:0:
174,83,316726,2,0,L|106:97,1,49,8|0,0:0|0:0,0:0:0:0:
209,149,316873,2,0,L|268:141,1,49,0|0,0:0|0:0,0:0:0:0:
475,143,317019,6,0,L|471:224,1,49,4|0,0:3|0:0,0:0:0:0:
382,214,317165,2,0,L|381:267,1,49,0|0,0:0|0:0,0:0:0:0:
460,330,317312,2,0,L|387:340,1,49,8|0,0:0|0:0,0:0:0:0:
162,268,317458,2,0,L|88:278,1,49,0|0,0:0|0:0,0:0:0:0:
310,236,317604,5,2,0:1:0:0:
391,192,317677,2,0,L|392:130,1,49,0|0,0:0|0:0,0:0:0:0:
205,91,317824,2,0,L|142:83,2,49,0|8|0,0:0|0:0|0:0,0:0:0:0:
419,32,318043,2,0,L|353:46,1,49,0|0,0:0|0:0,0:0:0:0:
127,165,318190,6,0,L|130:228,1,49,4|0,0:0|0:0,0:0:0:0:
219,234,318336,2,0,L|222:295,1,49,0|0,0:0|0:0,0:0:0:0:
135,327,318482,2,0,L|65:337,1,49,8|0,0:0|0:0,0:0:0:0:
320,239,318629,2,0,L|396:253,1,49,0|0,0:0|0:0,0:0:0:0:
82,62,318775,6,0,L|168:77,1,49,2|0,0:1|0:0,0:0:0:0:
209,144,318921,2,0,L|144:154,1,49,0|0,0:0|0:0,0:0:0:0:
88,188,319068,2,0,L|98:252,1,49,8|0,0:0|0:0,0:0:0:0:
244,295,319214,2,0,L|297:295,1,49,0|0,0:0|0:0,0:0:0:0:
466,359,319360,5,4,0:3:0:0:
495,320,319433,1,0,0:0:0:0:
500,272,319506,1,0,0:0:0:0:
481,227,319579,1,0,0:0:0:0:
443,198,319652,1,0,0:0:0:0:
394,192,319725,1,0,0:0:0:0:
208,206,319799,2,0,L|139:213,1,49,0|0,0:0|0:0,0:0:0:0:
387,56,319946,6,0,L|376:119,1,49,2|0,0:1|0:0,0:0:0:0:
289,137,320092,1,0,0:0:0:0:
56,207,320165,1,0,0:0:0:0:
104,211,320238,1,8,0:0:0:0:
153,216,320311,1,0,0:0:0:0:
366,299,320385,2,0,L|440:290,1,49,0|0,0:0|0:0,0:0:0:0:
129,343,320531,6,0,L|115:291,2,49,4|0|0,0:0|0:0|0:0,0:0:0:0:
223,255,320751,1,0,0:0:0:0:
41,187,320824,2,0,L|77:135,1,49,8|0,0:0|0:0,0:0:0:0:
116,105,320970,2,0,L|170:101,1,49,0|0,0:0|0:0,0:0:0:0:
394,174,321116,6,0,L|464:174,1,49,2|0,0:1|0:0,0:0:0:0:
394,174,321263,2,0,L|308:169,1,49,0|0,0:0|0:0,0:0:0:0:
56,61,321409,2,0,L|115:53,1,49,8|0,0:0|0:0,0:0:0:0:
407,102,321555,2,0,L|465:98,1,49,0|0,0:0|0:0,0:0:0:0:
193,260,321702,6,0,L|74:260,1,98,4|0,0:3|0:0,0:0:0:0:
381,343,321995,2,0,L|437:343,2,49,8|0|0,0:0|0:0|0:0,0:0:0:0:
104,350,322287,1,2,0:1:0:0:
246,289,322434,1,0,0:0:0:0:
280,255,322507,1,0,0:0:0:0:
290,208,322580,1,0,0:0:0:0:
271,163,322653,1,0,0:0:0:0:
231,137,322726,1,0,0:0:0:0:
9,93,322873,6,0,L|116:76,1,98,4|0,0:0|0:0,0:0:0:0:
336,152,323165,1,8,0:0:0:0:
287,146,323238,1,0,0:0:0:0:
238,140,323311,1,0,0:0:0:0:
481,88,323458,1,2,0:1:0:0:
432,83,323531,1,0,0:0:0:0:
383,78,323604,1,0,0:0:0:0:
251,68,323751,1,8,0:0:0:0:
486,188,323897,1,0,0:0:0:0:
138,335,324043,6,0,L|136:218,1,98,4|0,0:3|0:0,0:0:0:0:
342,238,324336,1,8,0:0:0:0:
402,189,324409,2,0,L|404:120,1,49,0|0,0:0|0:0,0:0:0:0:
122,80,324629,1,2,0:1:0:0:
249,147,324775,1,0,0:0:0:0:
288,175,324848,1,0,0:0:0:0:
305,220,324921,1,0,0:0:0:0:
296,267,324994,1,0,0:0:0:0:
263,302,325067,1,0,0:0:0:0:
38,333,325214,6,0,L|154:345,1,98,4|0,0:0|0:0,0:0:0:0:
447,236,325507,2,0,L|336:248,1,98,8|0,0:0|0:0,0:0:0:0:
105,192,325799,1,2,0:1:0:0:
112,143,325872,1,0,0:0:0:0:
120,95,325945,1,0,0:0:0:0:
338,126,326092,2,0,L|439:123,1,98,8|0,0:0|0:0,0:0:0:0:
105,192,326385,5,4,0:3:0:0:
341,310,326531,1,0,0:0:0:0:
333,261,326604,1,0,0:0:0:0:
326,213,326677,1,8,0:0:0:0:
56,99,326824,2,0,L|176:106,1,98,2|0,0:1|0:0,0:0:0:0:
291,51,327116,1,2,0:1:0:0:
284,99,327189,1,0,0:0:0:0:
277,148,327262,1,0,0:0:0:0:
151,226,327409,2,0,L|158:284,1,49,0|0,0:0|0:0,0:0:0:0:
446,342,327555,6,0,L|325:354,1,98,4|0,0:0|0:0,0:0:0:0:
112,305,327848,2,0,L|51:315,2,49,8|0|0,0:0|0:0|0:0,0:0:0:0:
377,246,328141,2,0,L|385:134,1,98,2|0,0:1|0:0,0:0:0:0:
311,108,328360,1,0,0:0:0:0:
125,199,328434,2,0,L|76:197,1,49,8|0,0:0|0:0,0:0:0:0:
395,59,328580,2,0,L|452:62,1,49,8|0,0:0|0:0,0:0:0:0:
192,340,328726,5,4,0:3:0:0:
143,305,328799,1,0,0:0:0:0:
143,249,328872,1,0,0:0:0:0:
201,214,328945,1,0,0:0:0:0:
65,229,329019,5,8,0:0:0:0:
16,194,329092,1,0,0:0:0:0:
16,138,329165,1,0,0:0:0:0:
74,103,329238,1,0,0:0:0:0:
259,98,329312,6,0,L|316:96,1,49,4|0,0:3|0:0,0:0:0:0:
152,35,329458,2,0,L|96:36,1,49,0|0,0:0|0:0,0:0:0:0:
386,253,329604,1,0,0:0:0:0:
440,219,329677,1,0,0:0:0:0:
440,171,329750,1,0,0:0:0:0:
387,137,329823,1,0,0:0:0:0:
166,174,329897,6,0,L|85:174,1,49,2|0,0:3|0:0,0:0:0:0:
365,263,330043,2,0,L|298:264,1,49,0|0,0:0|0:0,0:0:0:0:
106,313,330190,2,0,L|48:313,1,49,2|0,0:3|0:0,0:0:0:0:
387,137,330336,2,0,L|322:138,1,49,0|0,0:0|0:0,0:0:0:0:
144,74,330482,6,0,L|198:73,1,49,2|0,0:3|0:0,0:0:0:0:
402,39,330629,2,0,L|332:39,1,49,0|0,0:0|0:0,0:0:0:0:
95,144,330775,2,0,P|51:217|111:268,1,147,2|0,0:3|0:0,0:0:0:0:
442,327,331068,5,4,0:0:0:0:
141,94,331743,2,0,L|454:117,2,294.00001121521,0|0|0,0:0|0:0|0:0,0:0:0:0:
401,340,333543,6,0,B|441:199|441:199|263:223|269:129|269:129|502:137,1,588.000022430421,0|0,0:0|0:0,0:0:0:0:
190,126,335343,1,0,0:0:0:0:
405,289,335943,6,0,B|265:250|143:278|143:278|271:268|341:177|318:109|228:66,1,588.000022430421,0|0,0:0|0:0,0:0:0:0:
51,68,337743,1,0,0:0:0:0:
260,344,338343,6,0,P|387:200|225:71,1,441.000016822816,0|0,0:0|0:0,0:0:0:0:
80,64,339543,2,0,L|89:222,1,147.000005607605,0|0,0:0|0:0,0:0:0:0:
278,215,340143,2,0,L|290:375,1,147.000005607605,0|0,0:0|0:0,0:0:0:0:
480,264,340743,5,2,0:0:0:0:
280,134,341343,2,0,L|-23:150,2,294.00001121521,0|0|0,0:0|0:0|0:0,0:0:0:0:
412,279,343143,6,0,B|414:123|414:123|261:121|261:121|407:65|407:65|114:66,1,735.000028038026,0|0,0:0|0:0,0:0:0:0:
310,140,344943,2,0,L|305:225,1,73.5000028038026
181,234,345243,2,0,L|178:327,1,73.5000028038026
333,337,345543,6,0,B|459:320|459:320|460:214|460:214|334:223|334:223|327:64,1,514.500019626618,0|0,0:0|0:0,0:0:0:0:
458,63,346743,6,0,P|362:105|181:57,1,294.00001121521,0|0,0:0|0:0,0:0:0:0:
417,352,347943,6,0,P|480:227|359:127,1,294.00001121521,0|0,0:0|0:0,0:0:0:0:
251,127,348843,2,0,L|159:130,1,73.5000028038026,0|0,0:0|0:0,0:0:0:0:
428,63,349143,5,0,0:0:0:0:
256,192,349293,12,0,350043,0:0:0:0:
114,313,350300,6,0,L|99:187,1,98
243,203,350600,2,0,L|256:98,1,98,0|0,0:0|0:0,0:0:0:0:
402,343,350900,2,0,L|386:228,1,98,0|0,0:0|0:0,0:0:0:0:
248,321,351200,2,0,L|142:333,1,98,0|0,0:0|0:0,0:0:0:0:
292,217,351500,6,0,L|396:244,1,98,0|0,0:0|0:0,0:0:0:0:
495,176,351800,2,0,L|481:47,1,98,0|0,0:0|0:0,0:0:0:0:
330,114,352100,2,0,L|315:4,1,98,0|0,0:0|0:0,0:0:0:0:
173,111,352400,1,0,0:0:0:0:
125,138,352475,1,0,0:0:0:0:
119,185,352550,1,0,0:0:0:0:
159,224,352625,1,0,0:0:0:0:
212,228,352700,6,0,L|340:220,1,98,0|0,0:0|0:0,0:0:0:0:
442,351,353000,2,0,L|461:223,1,98,0|0,0:0|0:0,0:0:0:0:
307,265,353300,2,0,L|293:159,1,98,0|0,0:0|0:0,0:0:0:0:
145,157,353600,2,0,L|161:41,1,98,0|0,0:0|0:0,0:0:0:0:
303,94,353900,6,0,L|416:73,1,98,0|0,0:0|0:0,0:0:0:0:
261,197,354200,2,0,L|156:186,1,98,0|0,0:0|0:0,0:0:0:0:
327,315,354500,2,0,L|356:184,1,98,0|0,0:0|0:0,0:0:0:0:
189,222,354800,1,0,0:0:0:0:
148,180,354875,1,0,0:0:0:0:
151,132,354950,1,0,0:0:0:0:
197,98,355025,1,0,0:0:0:0:
253,102,355100,6,0,L|115:92,1,98,0|0,0:0|0:0,0:0:0:0:
276,270,355400,2,0,L|298:164,1,98,0|0,0:0|0:0,0:0:0:0:
433,137,355700,2,0,L|321:118,1,98
193,165,356000,2,0,L|86:150,1,98
241,311,356300,6,0,L|263:203,1,98
104,196,356600,2,0,L|87:86,1,98
216,109,356900,2,0,L|320:98,1,98
217,214,357200,2,0,L|322:203,1,98,0|0,0:0|0:0,0:0:0:0:
171,360,357500,5,0,0:0:0:0:
101,295,357650,1,0,0:0:0:0:
106,201,357800,1,0,0:0:0:0:
182,144,357950,1,0,0:0:0:0:
292,129,358100,2,0,L|420:141,1,98,0|0,0:0|0:0,0:0:0:0:
245,41,358400,2,0,L|141:49,1,98,0|0,0:0|0:0,0:0:0:0:
292,127,358700,6,0,L|276:235,1,98,0|0,0:0|0:0,0:0:0:0:
107,255,359000,2,0,L|125:366,1,98,0|0,0:0|0:0,0:0:0:0:
291,343,359300,2,0,L|366:333,1,49,0|0,0:0|0:0,0:0:0:0:
291,343,359450,2,0,L|229:352,1,49,0|0,0:0|0:0,0:0:0:0:
291,343,359600,2,0,L|366:333,1,49,0|0,0:0|0:0,0:0:0:0:
291,343,359750,2,0,L|229:352,1,49,0|0,0:0|0:0,0:0:0:0:
433,271,359900,6,0,L|453:155,1,98,0|0,0:0|0:0,0:0:0:0:
302,164,360200,2,0,L|284:60,1,98,0|0,0:0|0:0,0:0:0:0:
156,149,360500,2,0,L|54:130,1,98,0|0,0:0|0:0,0:0:0:0:
205,250,360800,2,0,L|312:223,1,98,0|0,0:0|0:0,0:0:0:0:
182,42,361100,6,0,L|168:163,1,98,0|0,0:0|0:0,0:0:0:0:
43,232,361400,2,0,L|66:338,1,98,0|0,0:0|0:0,0:0:0:0:
220,273,361700,2,0,L|243:372,1,98,0|0,0:0|0:0,0:0:0:0:
416,273,362000,1,0,0:0:0:0:
459,231,362075,1,0,0:0:0:0:
454,183,362150,1,0,0:0:0:0:
404,152,362225,1,0,0:0:0:0:
348,149,362300,6,0,L|241:164,1,98,0|0,0:0|0:0,0:0:0:0:
106,262,362600,2,0,L|95:154,1,98,0|0,0:0|0:0,0:0:0:0:
246,358,362900,2,0,L|259:250,1,98,0|0,0:0|0:0,0:0:0:0:
103,153,363200,2,0,L|216:148,1,98,0|0,0:0|0:0,0:0:0:0:
337,189,363500,6,0,L|442:182,1,98,0|0,0:0|0:0,0:0:0:0:
294,358,363800,2,0,L|271:253,1,98,0|0,0:0|0:0,0:0:0:0:
103,222,364100,2,0,L|125:110,1,98,0|0,0:0|0:0,0:0:0:0:
296,100,364400,2,0,L|358:100,1,49,0|0,0:0|0:0,0:0:0:0:
296,100,364550,2,0,L|234:100,1,49,0|0,0:0|0:0,0:0:0:0:
296,100,364700,6,0,L|432:100,1,98,0|0,0:0|0:0,0:0:0:0:
260,181,365000,2,0,L|149:181,1,98,0|0,0:0|0:0,0:0:0:0:
281,332,365300,2,0,L|301:224,1,98,0|0,0:0|0:0,0:0:0:0:
458,222,365600,2,0,L|483:108,1,98,0|0,0:0|0:0,0:0:0:0:
335,134,365900,6,0,L|228:109,1,98,0|0,0:0|0:0,0:0:0:0:
106,223,366200,2,0,L|230:211,1,98,0|0,0:0|0:0,0:0:0:0:
342,262,366500,2,0,L|325:368,1,98,0|0,0:0|0:0,0:0:0:0:
184,282,366800,2,0,L|159:388,1,98,0|0,0:0|0:0,0:0:0:0:
342,263,367100,6,0,L|441:254,2,98,0|0|0,0:0|0:0|0:0,0:0:0:0:
210,188,367550,2,0,L|86:202,2,98,0|0|0,0:0|0:0|0:0,0:0:0:0:
380,176,368000,2,0,L|387:68,1,98,0|0,0:0|0:0,0:0:0:0:
234,78,368268,6,0,L|126:68,1,98,0|0,0:0|0:0,0:0:0:0:
191,28,368487,1,0,0:0:0:0:
384,40,368560,2,0,L|459:40,2,65.3333333333333,0|0|0,0:0|0:0|0:0,0:0:0:0:
137,125,368853,2,0,P|44:201|146:315,1,294,8|0,0:0|0:0,0:0:0:0:
411,361,369438,6,0,P|456:281|363:208,1,196,8|0,0:3|0:0,0:0:0:0:
284,203,369877,1,0,0:0:0:0:
43,200,370024,1,8,0:0:0:0:
234,199,370316,1,0,0:0:0:0:
43,200,370609,6,0,L|251:200,1,196,0|0,0:0|0:0,0:0:0:0:
432,319,371194,2,0,P|482:235|386:168,1,196,8|0,0:0|0:0,0:0:0:0:
315,163,371633,1,0,0:0:0:0:
191,161,371780,5,2,0:3:0:0:
374,245,372072,2,0,L|386:139,1,98,0|0,0:0|0:0,0:0:0:0:
113,65,372365,2,0,L|316:52,1,196,8|0,0:0|0:0,0:0:0:0:
97,291,372950,6,0,L|76:179,1,98,0|0,0:0|0:0,0:0:0:0:
216,169,373243,2,0,L|239:63,1,98,0|0,0:0|0:0,0:0:0:0:
381,294,373536,2,0,L|371:183,1,98,8|0,0:0|0:0,0:0:0:0:
245,293,373828,2,0,L|144:307,1,98,0|0,0:0|0:0,0:0:0:0:
463,349,374121,6,0,L|362:330,1,98,2|0,0:3|0:0,0:0:0:0:
246,257,374414,2,0,L|241:146,1,98,2|0,0:1|0:1,0:0:0:0:
120,85,374707,2,0,L|15:76,1,98,8|0,0:0|0:0,0:0:0:0:
180,148,374999,2,0,L|302:133,1,98,2|0,0:1|0:1,0:0:0:0:
407,90,375292,6,0,L|411:217,1,98,2|0,0:3|0:0,0:0:0:0:
295,259,375585,2,0,L|184:273,1,98,2|0,0:1|0:0,0:0:0:0:
357,306,375877,2,0,L|469:321,1,98,8|0,0:0|0:0,0:0:0:0:
307,360,376170,2,0,L|201:374,1,98,2|0,0:3|0:0,0:0:0:0:
85,316,376463,6,0,P|41:232|124:150,1,196,2|2,0:3|0:1,0:0:0:0:
201,142,376902,1,0,0:0:0:0:
438,134,377048,2,0,L|424:242,1,98,8|0,0:0|0:0,0:0:0:0:
294,281,377341,2,0,L|186:288,1,98,2|0,0:1|0:0,0:0:0:0:
436,353,377633,6,0,B|460:197|460:197|301:228|301:228|300:82|300:82|465:201|465:201|238:238,1,882.000033645631,2|0,0:3|0:0,0:0:0:0:
120,323,378658,2,0,L|111:244,1,49,0|0,0:0|0:0,0:0:0:0:
328,315,378804,6,0,L|429:303,1,98,2|0,0:3|0:0,0:0:0:0:
121,225,379097,2,0,L|112:98,1,98,2|0,0:1|0:0,0:0:0:0:
237,147,379389,2,0,L|337:139,1,98,8|0,0:0|0:0,0:0:0:0:
50,132,379682,2,0,L|39:24,1,98,2|0,0:1|0:0,0:0:0:0:
366,280,379975,6,0,L|132:260,2,196,2|2|8,0:3|0:1|0:0,0:0:0:0:
186,356,380853,2,0,L|180:295,1,49,2|0,0:1|0:0,0:0:0:0:
101,278,380999,2,0,L|92:222,1,49,0|0,0:0|0:0,0:0:0:0:
172,184,381146,6,0,L|278:171,1,98,2|0,0:3|0:0,0:0:0:0:
41,88,381438,2,0,L|149:73,1,98,2|0,0:1|0:0,0:0:0:0:
264,87,381731,2,0,L|385:77,1,98,8|0,0:0|0:0,0:0:0:0:
129,293,382024,2,0,L|116:184,1,98,2|0,0:1|0:0,0:0:0:0:
461,284,382316,6,0,L|259:300,2,196,2|2|8,0:3|0:1|0:0,0:0:0:0:
278,166,383194,2,0,L|419:177,1,98,2|0,0:1|0:0,0:0:0:0:
439,179,383414,1,0,0:0:0:0:
165,338,383487,6,0,L|161:235,1,98,2|0,0:3|0:0,0:0:0:0:
388,178,383780,2,0,L|291:174,1,98,2|0,0:1|0:0,0:0:0:0:
153,143,384072,2,0,L|133:32,1,98,8|0,0:0|0:0,0:0:0:0:
454,247,384365,2,0,L|433:351,1,98,2|0,0:1|0:0,0:0:0:0:
91,283,384658,6,0,L|296:265,1,196,2|2,0:3|0:1,0:0:0:0:
220,338,385097,1,0,0:0:0:0:
350,318,385243,1,8,0:0:0:0:
152,269,385536,2,0,L|141:101,1,147,2|0,0:3|0:0,0:0:0:0:
404,42,385828,6,0,P|463:113|395:192,1,196,2|2,0:3|0:1,0:0:0:0:
156,264,386268,2,0,P|246:246|357:290,1,196,0|0,0:0|0:0,0:0:0:0:
64,182,386707,2,0,L|59:74,1,98,2|0,0:1|0:0,0:0:0:0:
358,131,386999,6,0,L|417:123,1,49,2|0,0:3|0:0,0:0:0:0:
210,283,387146,2,0,P|162:175|253:131,1,196,8|0,0:3|0:0,0:0:0:0:
269,125,387511,1,0,0:0:0:0:
470,109,387585,6,0,P|387:139|322:113,1,147,8|0,0:0|0:0,0:0:0:0:
81,257,387877,2,0,P|166:218|258:246,1,147,0|0,0:0|0:0,0:0:0:0:
433,341,388170,6,0,P|484:245|403:157,1,235.199992822266,2|8,0:0|0:0,0:0:0:0:
84,132,388609,2,0,P|189:159|300:88,1,235.199992822266,2|0,0:1|0:0,0:0:0:0:
42,334,389048,2,0,L|32:199,1,117.599996411133,8|0,0:0|0:0,0:0:0:0:
312,274,389341,6,0,P|374:182|280:97,1,235.199992822266,2|8,0:1|0:0,0:0:0:0:
153,95,389780,1,0,0:0:0:0:
482,188,389926,2,0,L|339:199,1,117.599996411133,2|0,0:1|0:0,0:0:0:0:
82,353,390219,2,0,L|69:212,1,117.599996411133,8|0,0:0|0:0,0:0:0:0:
397,247,390511,6,0,P|310:214|171:254,1,235.199992822266,2|8,0:0|0:0,0:0:0:0:
444,339,390950,2,0,P|493:230|410:158,1,235.199992822266,2|0,0:1|0:0,0:0:0:0:
187,75,391389,2,0,L|31:85,1,117.599996411133,8|0,0:0|0:0,0:0:0:0:
129,119,391609,1,0,0:0:0:0:
365,155,391682,6,0,P|435:236|368:333,1,235.199992822266,2|8,0:1|0:0,0:0:0:0:
231,351,392121,2,0,L|107:355,2,117.599996411133,0|2|0,0:0|0:1|0:0,0:0:0:0:
381,249,392560,2,0,L|316:249,1,58.7999982055665,8|0,0:0|0:0,0:0:0:0:
145,225,392707,2,0,L|71:226,1,58.7999982055665,0|0,0:0|0:0,0:0:0:0:
311,180,392853,6,0,P|378:94|272:7,1,235.199992822266,2|8,0:0|0:0,0:0:0:0:
56,118,393292,2,0,L|304:96,1,235.199992822266,2|0,0:1|0:0,0:0:0:0:
55,301,393731,2,0,L|41:173,1,117.599996411133,8|0,0:0|0:0,0:0:0:0:
324,230,394024,6,0,L|181:242,2,117.599996411133,2|0|8,0:1|0:0|0:0,0:0:0:0:
115,81,394463,2,0,L|387:107,1,235.199992822266,2|0,0:1|0:0,0:0:0:0:
131,324,394902,2,0,P|87:229|162:161,1,176.399994616699,8|0,0:0|0:0,0:0:0:0:
344,108,395194,6,0,L|478:123,2,117.599996411133,2|0|8,0:0|0:0|0:0,0:0:0:0:
84,268,395633,2,0,L|339:248,1,235.199992822266,2|0,0:1|0:0,0:0:0:0:
30,156,396072,2,0,L|182:146,1,117.599996411133,8|0,0:0|0:0,0:0:0:0:
431,144,396365,5,2,0:1:0:0:
136,63,396511,1,0,0:0:0:0:
404,338,396658,2,0,L|411:214,1,117.599996411133,8|0,0:0|0:0,0:0:0:0:
333,177,396877,1,0,0:0:0:0:
130,284,396950,6,0,L|109:230,1,58.7999982055665,8|0,0:0|0:0,0:0:0:0:
333,177,397097,2,0,L|390:156,1,58.7999982055665,0|0,0:0|0:0,0:0:0:0:
141,74,397243,2,0,L|239:84,1,58.7999982055665,8|0,0:0|0:0,0:0:0:0:
465,224,397389,2,0,L|456:296,1,58.7999982055665,0|0,0:0|0:0,0:0:0:0:
164,360,397536,6,0,P|109:269|206:182,1,235.199992822266,2|8,0:0|0:0,0:0:0:0:
439,107,397975,2,0,L|190:112,1,235.199992822266,2|0,0:1|0:0,0:0:0:0:
432,295,398414,2,0,L|453:138,1,117.599996411133,8|0,0:0|0:0,0:0:0:0:
214,259,398707,6,0,P|99:249|41:120,1,235.199992822266,2|8,0:1|0:0,0:0:0:0:
178,105,399146,1,0,0:0:0:0:
41,33,399292,2,0,L|189:33,1,117.599996411133,2|0,0:1|0:0,0:0:0:0:
458,115,399585,2,0,L|334:115,1,117.599996411133,8|0,0:0|0:0,0:0:0:0:
107,338,399877,6,0,P|55:246|144:158,1,235.199992822266,2|8,0:0|0:0,0:0:0:0:
385,63,400316,2,0,L|131:47,1,235.199992822266,2|0,0:1|0:0,0:0:0:0:
458,147,400755,2,0,L|445:282,1,117.599996411133,8|0,0:0|0:0,0:0:0:0:
359,297,400975,1,0,0:0:0:0:
152,321,401048,6,0,L|30:333,1,117.599996411133,2|0,0:1|0:0,0:0:0:0:
205,237,401341,2,0,L|331:259,1,117.599996411133,8|0,0:0|0:0,0:0:0:0:
457,213,401633,2,0,L|467:85,1,117.599996411133,2|0,0:1|0:0,0:0:0:0:
226,127,401926,2,0,P|124:157|49:112,1,176.399994616699,8|0,0:0|0:0,0:0:0:0:
291,41,402219,6,0,P|369:126|295:212,1,235.199992822266,2|8,0:0|0:0,0:0:0:0:
42,295,402658,2,0,P|121:263|260:329,1,235.199992822266,2|0,0:1|0:0,0:0:0:0:
489,196,403097,2,0,P|399:213|344:187,1,117.599996411133,8|0,0:0|0:0,0:0:0:0:
121,103,403389,5,2,0:1:0:0:
238,114,403535,1,0,0:0:0:0:
355,125,403681,1,8,0:0:0:0:
117,282,403828,2,0,P|52:195|165:108,1,235.199992822266,2|0,0:1|0:0,0:0:0:0:
342,62,404267,2,0,L|214:68,1,117.599996411133,8|0,0:0|0:0,0:0:0:0:
146,76,404487,1,0,0:0:0:0:
374,175,404560,6,0,L|496:192,2,117.599996411133,2|0|8,0:0|0:0|0:0,0:0:0:0:
139,326,404999,2,0,L|388:306,1,235.199992822266,2|0,0:1|0:0,0:0:0:0:
55,255,405438,2,0,L|202:242,1,117.599996411133,8|0,0:0|0:0,0:0:0:0:
405,338,405731,6,0,P|461:232|358:154,1,235.199992822266,2|8,0:1|0:0,0:0:0:0:
109,151,406170,1,0,0:0:0:0:
329,150,406316,2,0,L|389:148,1,58.7999982055665,8|0,0:0|0:0,0:0:0:0:
109,151,406463,2,0,L|196:151,1,58.7999982055665,0|0,0:0|0:0,0:0:0:0:
395,307,406609,2,0,P|434:219|365:164,1,176.399994616699,8|0,0:0|0:0,0:0:0:0:
166,88,406902,6,0,L|15:97,2,147,8|8|8,0:0|0:0|0:0,0:0:0:0:
319,158,407560,2,0,L|498:167,2,147,8|8|8,0:0|0:0|0:0,0:0:0:0:
148,311,408219,6,0,L|149:154,1,147,8|8,0:0|0:0,0:0:0:0:
342,127,408658,1,8,0:0:0:0:
157,86,408877,1,0,0:0:0:0:
330,60,408950,2,0,L|380:60,1,49,0|0,0:0|0:0,0:0:0:0:
148,87,409097,2,0,L|95:81,1,49,0|0,0:0|0:0,0:0:0:0:
445,196,409243,5,4,0:3:0:0:
65,116,410121,5,0,0:0:0:0:
415,214,410414,2,0,P|288:180|134:234,2,294,0|0|0,0:0|0:0|0:0,0:0:0:0:
234,133,411438,1,0,0:0:0:0:
466,98,411585,6,0,L|359:80,1,98,4|0,0:1|0:0,0:0:0:0:
237,207,411877,2,0,L|376:194,1,98,8|0,0:0|0:0,0:0:0:0:
56,60,412170,1,2,0:1:0:0:
165,106,412316,1,0,0:0:0:0:
167,199,412462,1,8,0:0:0:0:
52,269,412609,1,0,0:0:0:0:
289,320,412755,6,0,L|404:335,1,98,2|0,0:1|0:0,0:0:0:0:
135,361,413048,1,8,0:0:0:0:
365,186,413194,2,0,L|151:201,1,196,0|0,0:0|0:0,0:0:0:0:
326,85,413633,2,0,L|451:106,1,98,8|0,0:0|0:0,0:0:0:0:
133,288,413926,6,0,L|127:178,1,98,4|0,0:3|0:0,0:0:0:0:
276,221,414219,2,0,L|396:211,2,98,8|0|2,0:0|0:0|0:1,0:0:0:0:
127,190,414658,1,0,0:0:0:0:
400,307,414804,1,8,0:0:0:0:
162,352,414950,6,0,P|110:259|192:193,1,196,2|0,0:1|0:0,0:0:0:0:
221,191,415316,1,0,0:0:0:0:
390,191,415389,2,0,L|452:190,1,49,8|0,0:0|0:0,0:0:0:0:
216,58,415536,2,0,P|154:124|234:198,1,196,2|0,0:1|0:0,0:0:0:0:
356,255,415975,2,0,P|275:244|185:267,1,147,8|0,0:0|0:0,0:0:0:0:
431,360,416267,6,0,L|455:258,1,98,4|0,0:3|0:0,0:0:0:0:
311,210,416560,1,8,0:0:0:0:
67,212,416707,1,0,0:0:0:0:
311,210,416853,2,0,L|419:212,1,98,2|0,0:1|0:0,0:0:0:0:
127,54,417146,2,0,L|105:168,1,98,8|0,0:0|0:0,0:0:0:0:
423,90,417438,5,2,0:1:0:0:
289,139,417585,1,0,0:0:0:0:
426,193,417731,2,0,L|422:308,1,98,8|0,0:0|0:0,0:0:0:0:
156,341,418024,1,2,0:1:0:0:
311,310,418170,1,0,0:0:0:0:
152,255,418316,1,8,0:0:0:0:
281,197,418463,1,0,0:0:0:0:
45,132,418609,6,0,L|164:119,1,98,4|0,0:0|0:0,0:0:0:0:
291,55,418902,2,0,L|187:41,1,98,8|0,0:0|0:0,0:0:0:0:
284,155,419194,2,0,L|178:139,1,98,4|0,0:0|0:0,0:0:0:0:
338,225,419487,2,0,L|465:218,1,98,8|0,0:0|0:0,0:0:0:0:
109,317,419780,5,4,0:1:0:0:
234,249,419926,2,0,L|244:195,2,49,0|0|8,0:0|0:0|0:0,0:0:0:0:
109,317,420219,1,0,0:0:0:0:
376,345,420365,2,0,L|397:268,1,49,2|0,0:1|0:0,0:0:0:0:
314,244,420511,2,0,L|331:182,1,49,0|0,0:0|0:0,0:0:0:0:
488,135,420658,2,0,L|367:119,1,98,8|0,0:0|0:0,0:0:0:0:
86,97,420950,6,0,L|317:71,1,196,8|8,0:3|0:0,0:0:0:0:
151,21,421389,1,0,0:0:0:0:
404,225,421536,2,0,L|423:120,1,98,2|0,0:1|0:0,0:0:0:0:
58,281,421828,2,0,L|174:289,1,98,8|0,0:0|0:0,0:0:0:0:
385,359,422121,6,0,L|395:254,1,98,2|2,0:1|0:1,0:0:0:0:
256,195,422414,1,8,0:0:0:0:
467,72,422560,2,0,L|349:81,2,98,2|2|0,0:1|0:1|0:0,0:0:0:0:
175,290,422999,2,0,L|56:279,1,98,8|0,0:0|0:0,0:0:0:0:
350,240,423292,5,4,0:0:0:0:
115,197,423438,1,0,0:0:0:0:
413,249,423585,2,0,L|438:133,1,98,8|0,0:0|0:0,0:0:0:0:
186,109,423877,2,0,L|75:86,1,98,4|0,0:0|0:0,0:0:0:0:
321,246,424170,2,0,L|195:250,1,98,8|0,0:0|0:0,0:0:0:0:
490,323,424463,6,0,L|381:348,2,98,4|0|8,0:1|0:0|0:0,0:0:0:0:
165,155,424902,2,0,L|385:183,1,196,8|0,0:3|0:0,0:0:0:0:
205,266,425341,2,0,L|85:278,1,98,8|0,0:0|0:0,0:0:0:0:
422,338,425633,5,8,0:3:0:0:
277,268,425780,2,0,L|289:158,1,98,0|8,0:0|0:0,0:0:0:0:
422,338,426072,1,0,0:0:0:0:
131,170,426219,2,0,L|344:193,1,196,2|8,0:1|0:0,0:0:0:0:
456,214,426658,1,0,0:0:0:0:
100,353,426804,6,0,B|117:224|117:224|221:269|221:269|259:123|259:123|57:146,1,588,4|8,0:0|0:0,0:0:0:0:
165,70,427828,1,0,0:0:0:0:
408,116,427975,6,0,B|473:178|320:219|225:186|225:186|325:192|394:257|368:365|240:388|179:360,1,588,4|8,0:1|0:0,0:0:0:0:
64,345,428999,1,8,0:3:0:0:
402,257,429146,5,0,0:0:0:0:
161,163,429292,2,0,L|92:169,2,49,0|0|8,0:0|0:0|0:0,0:0:0:0:
289,157,429585,1,0,0:0:0:0:
414,146,429731,2,0,L|488:138,2,49,2|0|0,0:1|0:0|0:0,0:0:0:0:
263,155,430024,1,8,0:0:0:0:
402,153,430170,1,0,0:0:0:0:
59,301,430316,5,4,0:0:0:0:
346,225,431194,2,0,L|177:239,1,147.000005607605,0|0,0:0|0:0,0:0:0:0:
56,96,431926,2,0,L|297:121,1,220.500008411408,0|0,0:0|0:0,0:0:0:0:
440,152,432658,5,0,0:0:0:0:
197,296,433097,2,0,L|427:281,1,220.500008411408,0|0,0:0|0:0,0:0:0:0:
246,207,433828,1,0,0:0:0:0:
425,269,434414,2,0,L|431:115,1,147.000005607605,0|0,0:0|0:0,0:0:0:0:
286,72,434999,6,0,L|49:82,2,220.500008411408,0|0|0,0:0|0:0|0:0,0:0:0:0:
177,182,436170,2,0,L|431:173,2,220.500008411408,0|0|0,0:0|0:0|0:0,0:0:0:0:
360,334,437341,6,0,P|408:243|335:150,1,220.500008411408,0|0,0:0|0:0,0:0:0:0:
153,140,438219,1,0,0:0:0:0:
329,117,438511,1,0,0:0:0:0:
329,117,438585,1,0,0:0:0:0:
329,117,438658,1,0,0:0:0:0:
120,52,439097,2,0,L|124:213,1,147.000005607605,0|0,0:0|0:0,0:0:0:0:
273,312,439682,6,0,L|499:287,2,220.500008411408,0|0|0,0:0|0:0|0:0,0:0:0:0:
93,347,440853,1,0,0:0:0:0:
321,261,441438,2,0,L|311:103,1,147.000005607605,0|0,0:0|0:0,0:0:0:0:
161,58,442024,6,0,L|402:78,2,220.500008411408,0|0|0,0:0|0:0|0:0,0:0:0:0:
19,45,443194,1,0,0:0:0:0:
181,158,443780,2,0,L|346:146,1,147.000005607605,0|0,0:0|0:0,0:0:0:0:
475,149,444365,6,0,L|467:375,1,220.500008411408,0|0,0:0|0:0,0:0:0:0:
311,233,445243,2,0,L|7:252,1,294.00001121521,0|0,0:0|0:0,0:0:0:0:
210,105,446121,2,0,L|379:120,1,147.000005607605,0|0,0:0|0:0,0:0:0:0:
175,348,446707,6,0,P|132:273|251:123,2,294,0|0|0,0:0|0:0|0:0,0:0:0:0:
339,355,447877,2,0,L|126:361,1,196
263,274,448463,2,0,L|249:162,1,98,2|0,0:1|0:0,0:0:0:0:
371,139,448763,2,0,L|476:115,1,98,2|0,0:1|0:0,0:0:0:0:
108,54,449063,5,2,0:1:0:0:
248,110,449355,1,0,0:0:0:0:
312,153,449452,1,0,0:0:0:0:
315,217,449550,1,0,0:0:0:0:
256,262,449647,1,0,0:1:0:0:
396,203,449941,1,0,0:0:0:0:
455,245,450038,1,0,0:0:0:0:
458,309,450136,1,0,0:0:0:0:
404,355,450233,5,0,0:0:0:0:
192,303,450526,2,0,L|188:210,1,65.3333333333333,0|0,0:0|0:0,0:0:0:0:
265,199,450721,1,0,0:0:0:0:
194,151,450819,2,0,L|101:154,2,65.3333333333333,0|0|0,0:0|0:0|0:0,0:0:0:0:
266,107,451111,2,0,L|351:106,2,65.3333333333333,0|0|0,0:0|0:0|0:0,0:0:0:0:
189,68,451404,5,0,0:0:0:0:
235,148,451697,2,0,L|242:213,1,65.3333333333333,0|0,0:0|0:0,0:0:0:0:
151,225,451892,2,0,L|163:316,1,65.3333333333333,0|0,0:0|0:0,0:0:0:0:
356,279,452282,2,0,L|441:268,2,65.3333333333333,0|0|0,0:0|0:0|0:0,0:0:0:0:
272,297,452575,5,0,0:0:0:0:
74,236,452867,2,0,L|75:162,1,65.3333333333333,0|0,0:0|0:0,0:0:0:0:
156,144,453063,2,0,L|255:131,1,65.3333333333333,0|0,0:0|0:0,0:0:0:0:
110,84,453258,2,0,L|15:68,2,65.3333333333333,0|0|0,0:0|0:0|0:0,0:0:0:0:
174,62,453550,2,0,L|274:54,1,65.3333333333333
174,62,453745,5,0,0:0:0:0:
456,204,454038,2,0,L|450:277,1,65.3333333333333,0|0,0:0|0:0,0:0:0:0:
374,309,454233,2,0,L|288:320,1,65.3333333333333,0|0,0:0|0:0,0:0:0:0:
114,247,454623,2,0,L|112:179,1,65.3333333333333,0|0,0:0|0:0,0:0:0:0:
189,130,454818,1,0,0:0:0:0:
106,78,454916,5,0,0:0:0:0:
307,220,455209,2,0,L|378:217,1,65.3333333333333,0|0,0:0|0:0,0:0:0:0:
307,220,455404,2,0,L|224:224,2,65.3333333333333,0|0|0,0:0|0:0|0:0,0:0:0:0:
224,198,455697,2,0,L|116:200,2,65.3333333333333,0|0|0,0:0|0:0|0:0,0:0:0:0:
308,196,455989,1,0,0:0:0:0:
393,191,456087,5,0,0:0:0:0:
193,127,456380,2,0,L|149:73,2,65.3333333333333,0|0|0,0:0|0:0|0:0,0:0:0:0:
287,127,456672,1,0,0:0:0:0:
121,241,456965,2,0,L|201:232,2,65.3333333333333,0|0|0,0:0|0:0|0:0,0:0:0:0:
26,258,457258,5,0,0:0:0:0:
213,328,457550,2,0,L|289:327,2,65.3333333333333,0|0|0,0:0|0:0|0:0,0:0:0:0:
293,300,457843,1,0,0:0:0:0:
332,224,457941,1,0,0:0:0:0:
302,144,458038,1,0,0:0:0:0:
224,108,458136,1,0,0:0:0:0:
300,143,458233,2,0,L|380:138,1,65.3333333333333,0|0,0:0|0:0,0:0:0:0:
279,141,458428,5,0,0:0:0:0:
121,228,458721,2,0,L|186:228,1,65.3333333333333,0|0,0:0|0:0,0:0:0:0:
265,227,458916,2,0,L|177:227,1,65.3333333333333,0|0,0:0|0:0,0:0:0:0:
372,306,459306,2,0,L|387:215,1,65.3333333333333,0|0,0:0|0:0,0:0:0:0:
484,198,459502,1,0,0:0:0:0:
412,128,459599,5,0,0:0:0:0:
182,75,459892,2,0,L|184:143,1,65.3333333333333,0|0,0:0|0:0,0:0:0:0:
267,185,460087,1,0,0:0:0:0:
177,232,460184,2,0,L|102:236,2,65.3333333333333,0|0|0,0:0|0:0|0:0,0:0:0:0:
123,324,460477,2,0,L|190:318,2,65.3333333333333,0|0|0,0:0|0:0|0:0,0:0:0:0:
30,337,460770,5,0,0:0:0:0:
280,331,461063,1,0,0:0:0:0:
341,286,461160,1,0,0:0:0:0:
338,222,461258,1,0,0:0:0:0:
274,180,461355,1,0,0:0:0:0:
105,177,461648,2,0,L|105:106,1,65.3333333333333,0|0,0:0|0:0,0:0:0:0:
187,82,461843,1,0,0:0:0:0:
274,69,461941,5,0,0:0:0:0:
137,210,462233,2,0,L|203:209,2,65.3333333333333,0|0|0,0:0|0:0|0:0,0:0:0:0:
41,217,462526,1,0,0:0:0:0:
137,210,462623,1,0,0:0:0:0:
229,206,462721,1,0,0:0:0:0:
137,210,462819,1,0,0:0:0:0:
229,206,462950,6,0,L|304:199,1,49,0|0,0:0|0:0,0:0:0:0:
460,192,463096,1,4,0:1:0:0:
226,299,463388,1,0,0:0:0:0:
446,337,463681,2,0,L|386:334,1,49,0|0,0:0|0:0,0:0:0:0:
169,213,463827,2,0,L|54:231,1,98,0|0,0:0|0:0,0:0:0:0:
342,276,464120,1,0,0:0:0:0:
66,67,464266,6,0,L|302:83,2,196,4|0|0,0:0|0:0|0:0,0:0:0:0:
171,161,464998,2,0,L|227:157,1,49,0|0,0:0|0:0,0:0:0:0:
400,226,465144,2,0,L|458:225,1,49,0|0,0:0|0:0,0:0:0:0:
226,332,465291,2,0,L|217:282,1,49,8|0,0:0|0:0,0:0:0:0:
400,226,465437,5,4,0:1:0:0:
149,155,465730,2,0,L|74:161,2,65.3333333333333,0|0|0,0:0|0:0|0:0,0:0:0:0:
354,88,466022,2,0,L|490:98,2,130.666666666667,8|8|8,0:0|0:0|0:0,0:0:0:0:
258,77,466510,1,0,0:0:0:0:
36,169,466608,6,0,L|185:160,1,130.666666666667,8|8,0:0|0:0,0:0:0:0:
368,197,466900,1,0,0:0:0:0:
229,198,467096,1,0,0:0:0:0:
423,254,467193,2,0,L|499:260,2,65.3333333333333,8|8|8,0:0|0:0|0:0,0:0:0:0:
238,152,467486,2,0,L|140:158,2,65.3333333333333,8|8|8,0:0|0:0|0:0,0:0:0:0:
464,98,467778,5,4,0:3:0:0:
42,45,468949,1,2,0:3:0:0:
316,171,469535,2,0,L|135:180,2,130.666666666667,2|2|2,0:3|0:3|0:3,0:0:0:0:
413,165,470022,1,0,0:0:0:0:
128,112,470120,5,10,0:3:0:0:
316,232,470413,2,0,L|386:230,2,65.3333333333333,0|0|0,0:0|0:0|0:0,0:0:0:0:
100,349,470705,2,0,L|83:220,1,98,4|0,0:1|0:0,0:0:0:0:
213,168,470998,2,0,L|72:154,1,98,4|0,0:0|0:0,0:0:0:0:
450,66,471291,5,4,0:3:0:0:
302,143,471583,2,0,L|304:215,1,65.3333333333333,0|0,0:0|0:0,0:0:0:0:
398,238,471778,1,0,0:0:0:0:
163,292,471876,2,0,L|71:299,2,65.3333333333333,4|0|0,0:0|0:0|0:0,0:0:0:0:
357,348,472169,2,0,L|493:365,1,130.666666666667,4|0,0:0|0:0,0:0:0:0:
194,358,472461,6,0,P|150:262|221:194,1,196,4|0,0:1|0:0,0:0:0:0:
322,188,472900,1,0,0:0:0:0:
200,79,473047,2,0,L|368:95,2,147,8|0|2,0:0|0:0|0:1,0:0:0:0:
433,299,473632,6,0,P|488:201|419:139,1,196,4|0,0:0|0:0,0:0:0:0:
331,124,474071,1,0,0:0:0:0:
75,99,474217,1,8,0:0:0:0:
211,43,474510,2,0,L|314:52,1,98,0|0,0:0|0:0,0:0:0:0:
75,99,474803,5,4,0:1:0:0:
231,195,475096,2,0,L|123:182,1,98,0|0,0:0|0:0,0:0:0:0:
340,320,475388,2,0,L|517:305,2,147,8|0|0,0:0|0:0|0:0,0:0:0:0:
73,354,475974,6,0,P|34:270|114:185,1,196,4|0,0:0|0:0,0:0:0:0:
203,183,476413,1,0,0:0:0:0:
429,182,476559,1,8,0:0:0:0:
137,106,476705,1,8,0:0:0:0:
430,42,476852,2,0,L|323:35,1,98,2|0,0:1|0:0,0:0:0:0:
33,210,477144,6,0,L|264:189,1,196,4|0,0:1|0:0,0:0:0:0:
99,110,477583,1,0,0:0:0:0:
363,328,477730,2,0,L|191:318,2,147,8|0|0,0:0|0:0|0:0,0:0:0:0:
118,367,478315,6,0,P|76:275|154:202,1,196,4|0,0:0|0:0,0:0:0:0:
257,207,478754,1,0,0:0:0:0:
46,130,478900,1,8,0:0:0:0:
232,71,479193,2,0,L|116:55,1,98,2|0,0:1|0:0,0:0:0:0:
404,176,479486,6,0,L|176:201,1,196,4|0,0:1|0:0,0:0:0:0:
72,224,479925,1,0,0:0:0:0:
371,345,480071,2,0,L|212:327,2,147,8|0|0,0:0|0:0|0:0,0:0:0:0:
132,266,480656,6,0,L|342:238,1,196,4|0,0:0|0:0,0:0:0:0:
443,216,481096,1,0,0:0:0:0:
165,185,481242,2,0,L|156:71,1,98,8|0,0:0|0:0,0:0:0:0:
280,114,481535,1,2,0:1:0:0:
396,94,481681,1,0,0:0:0:0:
166,186,481827,6,0,L|55:178,2,98,4|0|0,0:1|0:0|0:0,0:0:0:0:
414,280,482266,2,0,L|199:290,1,196,0|2,0:0|0:1,0:0:0:0:
350,175,482705,2,0,L|464:186,1,98,0|0,0:0|0:0,0:0:0:0:
71,95,482998,6,0,L|203:89,1,98,4|0,0:0|0:0,0:0:0:0:
334,157,483291,2,0,L|438:150,1,98,0|0,0:0|0:0,0:0:0:0:
112,333,483583,2,0,L|103:228,1,98,8|0,0:0|0:0,0:0:0:0:
345,262,483876,1,0,0:0:0:0:
82,80,484022,1,0,0:0:0:0:
433,63,484169,5,8,0:0:0:0:
291,90,484388,1,0,0:0:0:0:
433,63,484608,2,0,L|443:-7,1,49
79,63,484754,5,8,0:0:0:0:
221,90,484974,1,0,0:0:0:0:
79,63,485193,2,0,L|69:-7,1,49
433,63,485339,5,8,0:0:0:0:
262,91,485558,1,0,0:0:0:0:
79,63,485778,2,0,L|69:-7,1,49
399,67,485925,6,0,L|462:63,2,49,8|0|0,0:0|0:0|0:0,0:0:0:0:
152,222,486144,2,0,L|89:215,2,49,0|0|0,0:0|0:0|0:0,0:0:0:0:
426,359,486364,2,0,L|431:305,1,49,0|0,0:0|0:0,0:0:0:0:
157,320,486510,6,0,L|158:255,1,49,4|0,0:3|0:0,0:0:0:0:
219,255,486656,2,0,L|314:243,1,49,0|0,0:0|0:0,0:0:0:0:
322,215,486803,2,0,L|328:137,1,49,8|0,0:0|0:0,0:0:0:0:
143,132,486949,2,0,L|82:131,1,49,0|0,0:0|0:0,0:0:0:0:
158,131,487096,6,0,L|239:132,1,49,2|0,0:1|0:0,0:0:0:0:
267,110,487242,2,0,L|275:42,1,49,0|0,0:0|0:0,0:0:0:0:
106,50,487388,2,0,L|48:50,1,49,8|0,0:0|0:0,0:0:0:0:
386,189,487535,2,0,L|457:191,1,49,0|0,0:0|0:0,0:0:0:0:
204,51,487681,6,0,L|201:114,1,49,4|0,0:0|0:0,0:0:0:0:
261,121,487827,2,0,L|318:120,1,49,0|0,0:0|0:0,0:0:0:0:
247,133,487974,2,0,L|154:132,1,49,8|0,0:0|0:0,0:0:0:0:
417,316,488120,2,0,L|425:243,1,49,0|0,0:0|0:0,0:0:0:0:
199,277,488266,6,0,L|204:205,1,49,2|0,0:1|0:0,0:0:0:0:
276,207,488413,1,0,0:0:0:0:
112,139,488486,2,0,L|47:134,2,49,0|8|0,0:0|0:0|0:0,0:0:0:0:
379,120,488705,2,0,L|432:127,1,49,0|0,0:0|0:0,0:0:0:0:
174,343,488852,6,0,L|171:278,1,49,4|0,0:3|0:0,0:0:0:0:
238,243,488998,2,0,L|166:214,1,49,0|0,0:0|0:0,0:0:0:0:
110,203,489144,2,0,L|103:146,1,49,8|0,0:0|0:0,0:0:0:0:
317,140,489291,2,0,L|369:138,1,49,0|0,0:0|0:0,0:0:0:0:
427,109,489437,6,0,L|435:47,1,49,2|0,0:1|0:0,0:0:0:0:
218,79,489583,2,0,L|150:77,1,49,0|0,0:0|0:0,0:0:0:0:
218,79,489730,2,0,L|273:79,1,49,8|0,0:0|0:0,0:0:0:0:
96,197,489876,2,0,L|92:139,1,49,0|0,0:0|0:0,0:0:0:0:
272,177,490022,6,0,L|301:247,1,49,4|0,0:0|0:0,0:0:0:0:
347,283,490168,2,0,L|288:291,1,49,0|0,0:0|0:0,0:0:0:0:
227,297,490314,2,0,L|160:302,1,49,8|0,0:0|0:0,0:0:0:0:
416,199,490461,2,0,L|350:206,1,49,0|0,0:0|0:0,0:0:0:0:
180,198,490608,6,0,L|189:131,1,49,2|0,0:1|0:0,0:0:0:0:
244,120,490754,2,0,L|329:116,1,49,0|0,0:0|0:0,0:0:0:0:
206,86,490900,2,0,L|146:89,1,49,8|0,0:0|0:0,0:0:0:0:
90,84,491047,2,0,L|69:22,1,49,0|0,0:0|0:0,0:0:0:0:
335,328,491193,6,0,L|384:320,1,49,4|0,0:3|0:0,0:0:0:0:
450,246,491339,2,0,L|436:183,1,49,0|0,0:0|0:0,0:0:0:0:
361,165,491486,2,0,L|303:157,1,49,8|0,0:0|0:0,0:0:0:0:
477,114,491632,2,0,L|487:52,1,49,0|0,0:0|0:0,0:0:0:0:
237,74,491778,6,0,L|181:76,2,49,2|0|0,0:1|0:0|0:0,0:0:0:0:
440,196,491998,1,0,0:0:0:0:
391,194,492071,1,8,0:0:0:0:
342,193,492144,1,0,0:0:0:0:
113,313,492217,2,0,L|191:309,1,49,0|0,0:0|0:0,0:0:0:0:
366,355,492364,6,0,L|367:279,1,49,4|0,0:0|0:0,0:0:0:0:
306,286,492510,1,0,0:0:0:0:
243,276,492583,1,0,0:0:0:0:
319,222,492656,2,0,L|320:167,1,49,8|0,0:0|0:0,0:0:0:0:
114,129,492803,2,0,L|114:59,1,49,0|0,0:0|0:0,0:0:0:0:
296,84,492949,6,0,L|349:84,1,49,2|0,0:1|0:0,0:0:0:0:
296,84,493096,2,0,L|222:85,1,49,0|0,0:0|0:0,0:0:0:0:
331,154,493242,2,0,L|326:219,1,49,8|0,0:0|0:0,0:0:0:0:
167,278,493388,2,0,L|110:280,1,49,0|0,0:0|0:0,0:0:0:0:
369,361,493535,5,4,0:3:0:0:
406,330,493608,1,0,0:0:0:0:
426,286,493681,1,0,0:0:0:0:
421,237,493754,1,0,0:0:0:0:
395,197,493827,1,8,0:0:0:0:
352,174,493900,1,0,0:0:0:0:
158,148,493974,2,0,L|106:144,1,49,0|0,0:0|0:0,0:0:0:0:
316,70,494120,6,0,L|379:73,2,49,2|0|0,0:1|0:0|0:0,0:0:0:0:
78,44,494339,2,0,L|21:41,2,49,0|8|0,0:0|0:0|0:0,0:0:0:0:
402,182,494559,2,0,L|412:127,1,49,0|0,0:0|0:0,0:0:0:0:
140,196,494705,6,0,L|141:257,1,49,4|0,0:0|0:0,0:0:0:0:
341,313,494852,2,0,L|406:323,1,49,0|0,0:0|0:0,0:0:0:0:
147,338,494998,2,0,L|67:342,1,49,8|0,0:0|0:0,0:0:0:0:
354,222,495144,2,0,L|263:234,1,49,0|0,0:0|0:0,0:0:0:0:
63,209,495291,6,0,L|66:139,1,49,2|0,0:1|0:0,0:0:0:0:
265,114,495437,2,0,L|346:104,1,49,0|0,0:0|0:0,0:0:0:0:
99,51,495583,2,0,L|177:40,1,49,8|0,0:0|0:0,0:0:0:0:
389,162,495730,2,0,L|462:150,1,49,0|0,0:0|0:0,0:0:0:0:
206,261,495876,6,0,L|91:250,1,98,4|0,0:3|0:0,0:0:0:0:
415,355,496169,2,0,L|421:294,1,49,8|0,0:0|0:0,0:0:0:0:
353,263,496315,1,0,0:0:0:0:
76,328,496461,1,2,0:1:0:0:
353,263,496608,1,0,0:0:0:0:
398,228,496681,1,0,0:0:0:0:
415,181,496754,1,0,0:0:0:0:
389,135,496827,1,0,0:0:0:0:
338,107,496900,1,0,0:0:0:0:
59,93,497047,6,0,L|180:78,1,98,4|0,0:0|0:0,0:0:0:0:
395,180,497339,2,0,L|459:187,2,49,8|0|0,0:0|0:0|0:0,0:0:0:0:
165,319,497632,1,2,0:1:0:0:
213,316,497705,1,0,0:0:0:0:
262,313,497778,1,0,0:0:0:0:
42,234,497925,2,0,L|31:126,1,98,8|0,0:0|0:0,0:0:0:0:
329,89,498217,5,4,0:3:0:0:
86,45,498364,1,0,0:0:0:0:
329,89,498510,1,8,0:0:0:0:
377,84,498583,1,0,0:0:0:0:
426,79,498656,1,0,0:0:0:0:
99,213,498803,1,2,0:1:0:0:
334,328,498949,2,0,L|346:254,1,49,0|0,0:0|0:0,0:0:0:0:
263,231,499095,2,0,L|271:177,1,49,0|0,0:0|0:0,0:0:0:0:
358,153,499242,1,0,0:0:0:0:
142,53,499388,6,0,L|23:59,1,98,4|0,0:0|0:0,0:0:0:0:
301,144,499681,1,8,0:0:0:0:
252,146,499754,1,0,0:0:0:0:
203,148,499827,1,0,0:0:0:0:
454,249,499974,1,2,0:1:0:0:
130,288,500120,1,0,0:0:0:0:
365,348,500266,2,0,L|374:284,1,49,8|0,0:0|0:0,0:0:0:0:
453,274,500413,2,0,L|465:209,1,49,0|0,0:0|0:0,0:0:0:0:
192,59,500559,6,0,L|70:67,1,98,4|0,0:3|0:0,0:0:0:0:
344,208,500852,2,0,L|353:127,1,49,8|0,0:0|0:0,0:0:0:0:
83,255,500998,2,0,L|192:265,2,98,2|0|2,0:1|0:0|0:1,0:0:0:0:
334,343,501437,1,0,0:0:0:0:
382,338,501510,1,0,0:0:0:0:
431,334,501583,1,0,0:0:0:0:
138,225,501730,6,0,L|130:120,1,98,4|0,0:0|0:0,0:0:0:0:
478,112,502022,2,0,L|371:126,1,98,8|0,0:0|0:0,0:0:0:0:
142,315,502315,1,2,0:1:0:0:
93,319,502388,1,0,0:0:0:0:
44,323,502461,1,0,0:0:0:0:
338,347,502608,1,8,0:0:0:0:
53,195,502754,1,0,0:0:0:0:
310,271,502900,6,0,L|325:204,1,49,4|0,0:3|0:0,0:0:0:0:
241,198,503047,2,0,L|228:144,1,49,0|0,0:0|0:0,0:0:0:0:
395,102,503193,2,0,L|458:93,1,49,8|0,0:0|0:0,0:0:0:0:
126,64,503339,2,0,L|70:57,1,49,0|0,0:0|0:0,0:0:0:0:
495,174,503486,6,0,L|487:237,1,49,4|0,0:3|0:0,0:0:0:0:
411,263,503632,1,0,0:0:0:0:
107,245,503705,2,0,L|109:305,1,49,0|8,0:0|0:0,0:0:0:0:
178,331,503852,1,0,0:0:0:0:
410,357,503925,2,0,L|489:350,1,49,0|0,0:0|0:0,0:0:0:0:
135,153,504071,6,0,L|72:152,1,49,2|0,0:3|0:0,0:0:0:0:
369,222,504217,2,0,L|426:222,1,49,0|0,0:0|0:0,0:0:0:0:
200,298,504364,2,0,L|196:227,1,49,2|0,0:3|0:0,0:0:0:0:
474,115,504510,2,0,L|401:107,1,49,0|0,0:0|0:0,0:0:0:0:
121,44,504656,1,2,0:3:0:0:
308,105,504949,2,0,L|304:266,1,147,0|0,0:0|0:0,0:0:0:0:
41,333,505242,6,0,L|180:343,1,98,4|0,0:3|0:0,0:0:0:0:
391,326,505535,2,0,L|444:333,2,49,8|0|0,0:0|0:0|0:0,0:0:0:0:
151,253,505827,1,2,0:1:0:0:
363,213,505974,2,0,L|370:147,1,49,0|0,0:0|0:0,0:0:0:0:
306,124,506120,2,0,L|237:110,1,49,8|0,0:0|0:0,0:0:0:0:
186,96,506266,1,0,0:0:0:0:
446,341,506413,6,0,L|465:232,1,98,4|0,0:1|0:0,0:0:0:0:
222,282,506705,2,0,L|118:276,1,98,8|0,0:0|0:0,0:0:0:0:
386,195,506998,2,0,L|391:146,1,49,2|0,0:1|0:0,0:0:0:0:
320,109,507144,1,0,0:0:0:0:
104,100,507291,1,8,0:0:0:0:
432,50,507437,1,0,0:0:0:0:
176,236,507583,6,0,L|301:233,1,98,8|0,0:3|0:0,0:0:0:0:
40,190,507876,1,8,0:0:0:0:
34,141,507949,1,0,0:0:0:0:
29,92,508022,1,0,0:0:0:0:
267,135,508169,2,0,L|404:125,1,98,2|0,0:1|0:0,0:0:0:0:
118,282,508461,2,0,L|225:273,1,98,8|0,0:0|0:0,0:0:0:0:
465,345,508754,6,0,L|474:229,1,98,4|0,0:3|0:0,0:0:0:0:
230,219,509047,2,0,L|174:215,2,49,8|0|2,0:0|0:0|0:1,0:0:0:0:
456,113,509339,2,0,L|506:118,2,49,0|0|0,0:0|0:0|0:0,0:0:0:0:
171,50,509632,2,0,L|64:52,1,98,8|0,0:0|0:0,0:0:0:0:
423,293,509925,6,0,L|432:177,1,98,4|0,0:1|0:0,0:0:0:0:
211,221,510217,2,0,L|105:213,1,98,8|0,0:0|0:0,0:0:0:0:
366,162,510510,2,0,L|373:97,1,49,2|0,0:1|0:0,0:0:0:0:
302,77,510656,1,0,0:0:0:0:
92,63,510803,1,8,0:0:0:0:
400,21,510949,1,0,0:0:0:0:
83,201,511095,6,0,L|181:212,1,98,8|0,0:3|0:0,0:0:0:0:
443,351,511388,2,0,L|451:250,1,98,8|0,0:0|0:0,0:0:0:0:
191,317,511681,1,2,0:1:0:0:
142,317,511754,1,0,0:0:0:0:
93,317,511827,1,0,0:0:0:0:
306,254,511974,2,0,L|438:254,1,98,8|0,0:0|0:0,0:0:0:0:
181,174,512266,5,4,0:3:0:0:
309,173,512413,1,0,0:0:0:0:
181,174,512559,1,8,0:0:0:0:
309,173,512705,1,0,0:0:0:0:
181,174,512852,2,0,L|117:175,1,49,8|0,0:0|0:0,0:0:0:0:
309,173,512998,2,0,L|374:173,1,49,0|0,0:0|0:0,0:0:0:0:
181,174,513144,2,0,L|117:175,1,49,8|0,0:0|0:0,0:0:0:0:
309,173,513290,2,0,L|374:173,1,49,0|0,0:0|0:0,0:0:0:0:
56,325,513437,6,0,L|53:260,1,49,4|0,0:3|0:0,0:0:0:0:
113,237,513583,2,0,L|167:231,1,49,0|0,0:0|0:0,0:0:0:0:
326,227,513730,2,0,L|385:226,1,49,8|0,0:0|0:0,0:0:0:0:
326,227,513876,2,0,L|262:227,1,49,0|0,0:0|0:0,0:0:0:0:
475,152,514022,6,0,L|482:87,1,49,2|0,0:3|0:0,0:0:0:0:
411,71,514169,2,0,L|359:62,1,49,0|0,0:0|0:0,0:0:0:0:
106,174,514315,2,0,L|166:167,1,49,2|0,0:3|0:0,0:0:0:0:
416,277,514461,2,0,L|477:270,1,49,0|0,0:0|0:0,0:0:0:0:
173,351,514608,6,0,L|156:241,1,98,4|0,0:1|0:0,0:0:0:0:
369,215,514900,1,8,0:0:0:0:
417,206,514973,1,0,0:0:0:0:
465,197,515046,1,0,0:0:0:0:
128,79,515193,1,2,0:1:0:0:
359,331,515339,1,0,0:0:0:0:
396,300,515412,1,0,0:0:0:0:
409,254,515485,1,8,0:0:0:0:
393,208,515558,1,0,0:0:0:0:
354,180,515631,1,0,0:0:0:0:
131,83,515778,6,0,L|28:89,1,98,8|0,0:3|0:0,0:0:0:0:
341,101,516071,2,0,L|397:97,2,49,8|0|0,0:0|0:0|0:0,0:0:0:0:
107,273,516364,1,2,0:1:0:0:
333,349,516510,2,0,L|332:268,1,49,0|0,0:0|0:0,0:0:0:0:
258,269,516656,1,8,0:0:0:0:
477,216,516803,1,0,0:0:0:0:
223,113,516949,6,0,L|110:107,1,98,8|0,0:3|0:0,0:0:0:0:
357,253,517242,1,8,0:0:0:0:
405,248,517315,1,0,0:0:0:0:
454,243,517388,1,0,0:0:0:0:
174,351,517535,1,2,0:1:0:0:
222,346,517608,1,0,0:0:0:0:
271,341,517681,1,0,0:0:0:0:
53,251,517827,2,0,L|41:142,1,98,8|0,0:0|0:0,0:0:0:0:
276,48,518120,6,0,L|292:112,1,49,4|0,0:3|0:0,0:0:0:0:
363,153,518266,2,0,L|314:160,1,49,0|0,0:0|0:0,0:0:0:0:
104,183,518413,1,8,0:0:0:0:
47,215,518486,1,0,0:0:0:0:
41,262,518559,1,0,0:0:0:0:
90,295,518632,1,0,0:0:0:0:
318,359,518705,6,0,L|346:310,1,49,8|0,0:0|0:0,0:0:0:0:
414,284,518852,2,0,L|433:226,1,49
355,192,518998,2,0,L|295:188,1,49,8|0,0:0|0:0,0:0:0:0:
355,192,519144,2,0,L|421:198,1,49,0|0,0:0|0:0,0:0:0:0:
205,284,519291,5,4,0:3:0:0:
157,249,519364,1,0,0:0:0:0:
158,201,519437,1,0,0:0:0:0:
207,166,519510,1,0,0:0:0:0:
286,172,519583,2,0,L|293:104,1,49,8|0,0:0|0:0,0:0:0:0:
216,85,519730,2,0,L|164:79,1,49,0|0,0:0|0:0,0:0:0:0:
216,85,519876,6,0,L|283:90,1,49,8|0,0:0|0:0,0:0:0:0:
328,88,520022,2,0,L|337:29,1,49,0|0,0:0|0:0,0:0:0:0:
271,29,520169,2,0,L|202:30,1,49,8|0,0:0|0:0,0:0:0:0:
285,31,520315,2,0,L|353:34,1,49,0|0,0:0|0:0,0:0:0:0:
167,36,520461,6,0,L|83:35,1,49,4|0,0:3|0:0,0:0:0:0:
59,62,520608,2,0,L|65:130,1,49,0|0,0:0|0:0,0:0:0:0:
143,135,520754,2,0,L|133:204,1,49,8|0,0:0|0:0,0:0:0:0:
58,232,520900,2,0,L|7:237,1,49,0|0,0:0|0:0,0:0:0:0:
77,271,521047,6,0,L|129:266,1,49,8|0,0:0|0:0,0:0:0:0:
198,232,521193,2,0,L|205:165,1,49,0|0,0:0|0:0,0:0:0:0:
57,172,521339,2,0,P|23:94|101:50,1,147,4|0,0:0|0:0,0:0:0:0:
389,32,521632,6,0,P|496:103|386:290,1,392,8|4,0:3|0:1,0:0:0:0:
123,32,522803,6,0,P|16:103|126:290,1,392,4|8,0:1|0:3,0:0:0:0:
296,352,523974,6,0,L|302:287,1,49,4|0,0:3|0:0,0:0:0:0:
225,264,524120,2,0,L|173:239,1,49,0|0,0:0|0:0,0:0:0:0:
266,191,524266,2,0,L|279:127,1,49,8|0,0:0|0:0,0:0:0:0:
207,98,524413,2,0,L|153:85,1,49,0|0,0:0|0:0,0:0:0:0:
367,112,524559,2,0,L|427:98,1,49,8|0,0:0|0:0,0:0:0:0:
152,205,524705,2,0,L|141:147,1,49,0|0,0:0|0:0,0:0:0:0:
317,350,524852,6,0,L|323:296,1,49,8|0,0:0|0:0,0:0:0:0:
179,259,524998,2,0,L|164:206,1,49,0|0,0:0|0:0,0:0:0:0:
394,185,525144,2,0,L|462:177,1,49,4|0,0:3|0:0,0:0:0:0:
92,135,525291,2,0,L|33:138,1,49,0|0,0:0|0:0,0:0:0:0:
422,51,525437,6,0,L|367:55,1,49,2|0,0:3|0:0,0:0:0:0:
81,62,525583,2,0,L|141:59,1,49,0|0,0:0|0:0,0:0:0:0:
484,146,525730,6,0,L|482:206,1,49,2|0,0:3|0:0,0:0:0:0:
285,271,525876,2,0,L|233:278,1,49,0|0,0:0|0:0,0:0:0:0:
28,238,526022,6,0,L|30:178,1,49,2|0,0:3|0:0,0:0:0:0:
227,113,526168,2,0,L|279:106,1,49,0|0,0:0|0:0,0:0:0:0:
498,77,526315,5,10,0:3:0:0:
16,0,526900,5,2,0:3:0:0:
496,0,527095,1,2,0:3:0:0:
16,384,527291,1,2,0:3:0:0:
496,384,527486,1,4,0:1:0:0:
