osu file format v14

[General]
AudioFilename: audio.mp3
AudioLeadIn: 0
PreviewTime: 484315
Countdown: 0
SampleSet: Soft
StackLeniency: 0.6
Mode: 0
LetterboxInBreaks: 0
EpilepsyWarning: 1
WidescreenStoryboard: 1

[Editor]
Bookmarks: 30190,33556,35971,38312,40654,45337,47678,106215,124947,162410,164678,199946,240922,256142,267117,274800,330995,350274,383926,394975,453160
DistanceSpacing: 0.9
BeatDivisor: 4
GridSize: 8
TimelineZoom: 2.3

[Metadata]
Title:Uta
TitleUnicode:謳
Artist:Imperial Circus Dead Decadence
ArtistUnicode:Imperial Circus Dead Decadence
Creator:[-PinK-]
Version:Muryoku
Source:
Tags:nanomortis extol ou song declare express Ode To The Dreadful Sacrament 惨劇の血に赫く染まった愛と絶望の黒い死とが紡ぐ最期の物語 Sangeki no Chi ni Kagayaku Somatta Ai to Zetsubou no Kuroi Shitoga Tsumugu Saigo no Monogatari KIM Kylie Hull VAGUEDGE Another Stream Kimiko PEATH2 TOME あにょ REINO Hellnear
BeatmapID:1281088
BeatmapSetID:600667

[Difficulty]
HPDrainRate:5
CircleSize:4.6
OverallDifficulty:9
ApproachRate:9.7
SliderMultiplier:2
SliderTickRate:1

[Events]
//Background and Video events
0,0,"nanomortis.jpg",0,0
//Break Periods
2,331268,349773
2,434707,447877
//Storyboard Layer 0 (Background)
//Storyboard Layer 1 (Fail)
//Storyboard Layer 2 (Pass)
//Storyboard Layer 3 (Foreground)
//Storyboard Sound Samples

[TimingPoints]
33703,292.682926829268,4,2,2,80,1,0
33703,-66.6666666666667,4,2,2,80,0,0
33995,-100,4,2,2,80,0,0
35751,-66.6666666666667,4,2,2,80,0,0
36337,-100,4,2,2,80,0,0
38093,-66.6666666666667,4,2,2,80,0,0
38678,-100,4,2,2,80,0,0
40727,-142.857142857143,4,2,2,80,0,0
41459,-200,4,2,2,80,0,0
41898,-100,4,2,2,80,0,0
43068,-66.6666666666667,4,2,2,80,0,0
43361,-100,4,2,2,80,0,0
45117,-66.6666666666667,4,2,2,80,0,0
45702,-100,4,2,2,80,0,0
47459,-66.6666666666667,4,2,2,80,0,0
48044,-100,4,2,2,80,0,0
50093,-76.9230769230769,4,2,22,80,0,0
52434,-90.9090909090909,4,2,22,50,0,0
59751,-66.6666666666667,4,2,22,50,0,1
60337,-125,4,2,22,50,0,1
61800,-100,4,2,22,50,0,0
68824,-111.111111111111,4,2,1,80,0,0
71166,-111.111111111111,4,3,1,90,0,0
73507,-111.111111111111,4,3,1,80,0,0
74678,-111.111111111111,4,3,1,100,0,0
75410,-111.111111111111,4,3,1,80,0,0
75849,-111.111111111111,4,2,1,50,0,0
87556,-66.6666666666667,4,2,1,80,0,0
87849,-100,4,2,1,80,0,0
92239,-66.6666666666667,4,2,1,80,0,0
92385,-100,4,2,1,80,0,0
96629,-50,4,2,1,80,0,0
96776,-100,4,2,1,80,0,0
140824,-50,4,2,1,80,0,0
141410,-166.666666666667,4,2,1,80,0,0
141995,-133.333333333333,4,2,1,80,0,0
142281,-100,4,2,1,80,0,0
143751,-83.3333333333333,4,2,1,80,0,0
161312,-90.9090909090909,4,2,1,80,0,0
162483,-83.3333333333333,4,2,1,80,0,1
171849,-90.9090909090909,4,2,1,80,0,1
177776,-90.9090909090909,4,2,1,80,0,1
180629,-95.2380952380952,4,2,1,80,0,0
181215,-125,4,2,1,80,0,1
189556,-100,4,2,1,80,0,1
235946,-83.3333333333333,4,2,1,80,0,1
237410,-111.111111111111,4,2,1,80,0,0
242093,-66.6666666666667,4,2,1,80,0,0
242239,-111.111111111111,4,2,1,80,0,0
246483,-83.3333333333333,4,2,1,80,0,0
246776,-66.6666666666667,4,2,1,80,0,0
246922,-66.6666666666667,4,2,1,80,0,0
247022,-111.111111111111,4,2,1,80,0,0
251459,-90.9090909090908,4,2,1,80,0,0
251605,-111.111111111111,4,2,1,80,0,0
256142,-100,4,2,1,80,0,0
274873,-100,4,2,12,80,0,0
283068,-100,4,2,2,80,0,0
284239,-66.6666666666667,4,2,1,80,0,0
287751,-100,4,2,1,80,0,0
293605,-90.9090909090909,4,2,23,80,0,1
293751,-76.9230769230769,4,2,1,80,0,1
307727,-90.9090909090909,4,2,1,80,0,1
311751,-90.9090909090909,4,2,1,80,0,0
312337,-86.9565217391304,4,2,1,80,0,1
327629,-90.9090909090909,4,2,1,80,0,1
329898,-125,4,2,1,80,0,1
331068,300,4,2,1,80,1,0
350268,-100,4,2,12,80,0,0
368268,292.682926829268,4,2,12,70,1,0
368560,-100,4,2,1,70,0,0
377633,-142.857142857143,4,2,1,70,0,0
378511,-100,4,2,1,70,0,0
386999,-100,4,2,22,70,0,0
388170,-86.9565217391304,4,2,1,80,0,1
401048,-76.9230769230769,4,2,1,80,0,1
401341,-95.2380952380952,4,2,1,80,0,1
408877,-109.89010989011,4,2,1,80,0,1
409243,-125,4,2,1,80,0,0
411585,-90.9090909090909,4,2,1,80,0,1
425267,-90.9090909090909,4,2,1,80,0,1
430316,-200,4,2,1,80,0,0
430609,-200,4,2,1,70,0,0
431194,-200,4,2,1,60,0,0
431780,-200,4,2,1,50,0,0
432658,-200,4,2,1,30,0,0
433828,-200,4,2,1,5,0,0
448463,300,4,2,12,60,1,8
449063,292.682926829268,4,2,12,70,1,0
462950,292.682926829268,4,2,1,80,1,8
463096,292.682926829268,4,2,1,80,1,0
486510,-74.0740740740741,4,2,1,80,0,1
501803,-86.9565217391304,4,2,1,80,0,1
504656,-86.9565217391304,4,2,1,80,0,0
505242,-86.9565217391304,4,2,1,80,0,1
518120,-86.9565217391304,4,2,1,80,0,0
521632,-76.9230769230769,4,2,1,80,0,0
522803,-100,4,2,1,80,0,0
525437,-80,4,2,1,90,0,0
526022,-80,4,2,1,90,0,0
526315,-86.9565217391304,4,2,1,80,0,1
526608,-86.9565217391304,4,2,1,80,0,0
526900,-86.9565217391304,4,2,1,80,0,1
526974,-86.9565217391304,4,2,1,80,0,0
527047,-86.9565217391304,4,2,1,80,0,1
527193,-86.9565217391304,4,2,1,80,0,0
527339,-86.9565217391304,4,2,1,80,0,1
527413,-86.9565217391304,4,2,1,80,0,0
527486,-100,4,2,1,80,0,1
527778,-100,4,2,1,80,0,0

[Colours]
Combo1 : 199,174,221
Combo2 : 193,0,0
Combo3 : 167,121,187
Combo4 : 251,45,65

[HitObjects]
88,196,33703,6,0,B|158:220|158:220|269:161,1,200,8|0,0:1|0:0,0:0:0:0:
327,165,33995,2,0,B|299:117|299:117|235:125,1,100,2|0,0:0|0:0,0:0:0:0:
394,229,34288,2,0,P|350:210|328:166,1,100,2|0,0:0|0:0,0:0:0:0:
328,292,34581,2,0,P|349:249|394:230,1,100,2|0,0:0|0:0,0:0:0:0:
239,283,34873,2,0,P|295:307|345:272,1,100,2|0,0:0|0:0,0:0:0:0:
237,184,35166,2,0,B|246:242|246:242|234:308,1,100,2|0,0:0|0:0,0:0:0:0:
141,155,35459,2,0,L|244:186,1,100,2|0,0:0|0:0,0:0:0:0:
368,92,35751,6,0,B|360:172|395:217|395:217|344:268,1,150.000005722046,8|0,0:1|0:0,0:0:0:0:
377,304,36044,2,0,B|430:288|465:256|457:200|457:200|415:137,1,150.000005722046,4|0,0:1|0:0,0:0:0:0:
291,199,36337,6,0,P|340:202|382:230,1,100,2|0,0:0|0:0,0:0:0:0:
211,160,36629,2,0,B|217:193|208:215|208:215|225:226|240:268,1,100,2|0,0:0|0:0,0:0:0:0:
168,99,36922,2,0,P|231:85|272:114,1,100,2|0,0:0|0:0,0:0:0:0:
173,268,37215,2,0,P|130:297|71:288,1,100,2|0,0:0|0:0,0:0:0:0:
37,159,37507,2,0,L|113:237,1,100,2|0,0:0|0:0,0:0:0:0:
294,346,37800,2,0,B|179:304,1,100,2|0,0:0|0:0,0:0:0:0:
40,260,38093,6,0,B|23:198|76:200|76:148|76:148|152:112,1,150.000005722046,8|0,0:1|0:0,0:0:0:0:
108,84,38385,2,0,B|152:80|190:141|157:201|111:169|95:215|95:215|116:232,1,150.000005722046,4|0,0:1|0:0,0:0:0:0:
232,224,38678,6,0,P|211:157|172:154,1,100,2|0,0:0|0:0,0:0:0:0:
232,336,38971,2,0,B|184:320|184:320|150:282,1,100,2|0,0:0|0:0,0:0:0:0:
151,70,39263,2,0,P|177:87|175:174,1,100,2|0,0:0|0:0,0:0:0:0:
152,304,39556,2,0,P|115:271|121:215,1,100,2|0,0:0|0:0,0:0:0:0:
376,152,39849,2,0,B|332:209|332:209|283:230,1,100,2|0,0:0|0:0,3:0:0:0:
408,72,40142,2,0,P|444:103|444:152,1,100,2|0,0:0|0:0,0:0:0:0:
302,224,40434,2,0,B|270:209|225:226|225:226|246:186,1,100,2|0,0:0|0:0,0:0:0:0:
160,296,40727,5,0,0:0:0:0:
126,286,40800,1,0,0:0:0:0:
104,259,40873,1,0,0:0:0:0:
101,225,40946,1,0,0:0:0:0:
117,194,41019,1,0,0:0:0:0:
147,178,41092,1,0,0:0:0:0:
182,181,41166,1,0,0:0:0:0:
208,196,41239,1,0,0:0:0:0:
236,214,41312,1,0,0:0:0:0:
271,212,41385,1,0,0:0:0:0:
297,190,41458,1,0,0:0:0:0:
304,156,41531,1,0,0:0:0:0:
288,120,41605,5,0,0:0:0:0:
267,106,41678,1,0,0:0:0:0:
242,102,41751,1,0,0:0:0:0:
218,108,41824,1,0,0:0:0:0:
199,124,41897,1,0,0:0:0:0:
188,146,41970,1,0,0:0:0:0:
184,172,42044,5,0,0:0:0:0:
215,209,42117,1,0,0:0:0:0:
206,256,42190,1,0,0:0:0:0:
165,280,42263,1,0,0:0:0:0:
119,264,42336,1,0,0:0:0:0:
103,218,42409,1,0,0:0:0:0:
112,136,42483,6,4,L|177:171,1,50,4|4,0:3|0:3,0:3:0:0:
208,64,42629,2,4,L|220:156,1,50,4|4,0:3|0:3,0:3:0:0:
128,280,42776,2,0,L|184:232,1,50
292,164,42922,2,4,L|330:195,1,50,4|4,0:3|0:3,0:3:0:0:
112,136,43068,6,0,P|158:207|243:212,1,150.000005722046,8|0,0:1|0:0,0:0:0:0:
320,281,43361,6,0,P|311:225|347:188,1,100,2|0,0:0|0:0,0:0:0:0:
461,234,43654,2,0,P|402:256|358:238,1,100,2|0,0:0|0:0,0:0:0:0:
378,125,43946,2,0,B|387:163|418:192|418:192|385:195|371:176,1,100,2|0,0:0|0:0,0:0:0:0:
258,64,44239,2,0,B|287:65|305:47|305:47|332:66|377:66,1,100,2|0,0:0|0:0,0:0:0:0:
378,125,44532,2,0,P|420:78|417:35,1,100,2|0,0:0|0:0,0:0:0:0:
74,48,44824,2,0,P|79:96|115:129,1,100,2|0,0:0|0:0,0:0:0:0:
136,69,45117,6,0,B|152:127|131:185|131:185|154:219|154:219|176:224,1,150.000005722046,8|0,0:1|0:0,0:0:0:0:
180,312,45410,2,0,B|175:267|204:232|204:232|203:181|203:181|187:139|180:136,1,150.000005722046,4|0,0:1|0:0,0:0:0:0:
352,312,45702,6,0,P|431:283|432:240,1,100,2|0,0:0|0:0,0:0:0:0:
361,154,45995,2,0,L|378:264,1,100,2|0,0:0|0:0,0:0:0:0:
458,167,46288,2,0,B|400:151|400:151|346:155,1,100,2|0,0:0|0:0,0:0:0:0:
491,255,46581,2,0,P|456:197|468:142,1,100,2|0,0:0|0:0,0:0:0:0:
490,78,46873,2,0,P|459:116|457:166,1,100,2|0,0:0|0:0,0:0:0:0:
400,283,47166,2,0,P|457:279|499:242,1,100,2|0,0:0|0:0,0:0:0:0:
145,252,47459,6,0,B|238:261|300:224|300:224|324:228,1,150.000005722046,8|0,0:1|0:0,0:0:0:0:
352,220,47751,2,0,B|361:248|329:281|288:306|246:283|246:283|248:324|248:324|232:316,1,150.000005722046,4|0,0:1|0:0,0:0:0:0:
440,146,48044,6,0,P|403:216|422:252,1,100,2|0,0:0|0:0,0:0:0:0:
407,61,48337,2,0,P|407:117|440:146,1,100,2|0,0:0|0:0,0:0:0:0:
311,52,48629,2,0,P|358:38|403:57,1,100,2|0,0:0|0:0,0:0:0:0:
296,184,48922,2,0,P|345:135|353:80,1,100,2|0,0:0|0:0,0:0:0:0:
184,152,49215,2,0,P|262:113|304:125,1,100,2|0,0:0|0:0,0:0:0:0:
208,280,49507,2,0,P|244:220|235:168,1,100,2|0,0:0|0:0,0:0:0:0:
112,304,49800,2,0,P|124:256|181:217,1,100,2|0,0:0|0:0,0:0:0:0:
326,177,50093,6,0,P|260:198|206:162,1,129.999994049073
152,24,50385,1,0,0:0:0:0:
128,48,50459,1,0,0:0:0:0:
112,80,50532,1,0,0:0:0:0:
104,112,50605,1,0,0:0:0:0:
104,152,50678,2,0,P|120:224|176:280,1,129.999994049073,10|0,0:0|0:0,0:0:0:0:
320,352,50971,5,0,0:0:0:0:
344,328,51045,1,0,0:0:0:0:
360,296,51118,1,0,0:0:0:0:
368,264,51191,1,0,0:0:0:0:
368,224,51263,2,0,P|360:144|296:96,1,129.999994049073,10|0,0:2|0:0,0:0:0:0:
128,220,51556,1,0,0:0:0:0:
408,200,51702,1,0,0:0:0:0:
247,51,51849,1,0,0:0:0:0:
247,51,51995,6,0,B|232:120|256:144|256:144|240:176|240:176|256:224|256:264|232:304,1,259.999988098145
65,161,52434,6,0,P|135:157|186:195,1,110.000003356934
336,308,52727,1,0,0:0:0:0:
392,116,52873,1,0,0:0:0:0:
212,243,53020,1,8,0:0:0:0:
176,240,53093,1,8,0:0:0:0:
136,240,53166,1,8,0:0:0:0:
320,80,53312,6,0,P|366:44|417:42,1,110.000003356934
311,289,53605,2,0,L|191:233,1,110.000003356934
72,96,53898,2,0,B|120:104|160:80|160:80|160:104|136:120,1,110.000003356934
176,368,54190,1,0,0:0:0:0:
104,256,54337,1,0,0:0:0:0:
392,232,54483,6,0,L|520:232,1,110.000003356934
200,328,54776,1,0,0:0:0:0:
224,96,54922,1,0,0:0:0:0:
336,272,55068,1,0,0:0:0:0:
152,136,55215,1,0,0:0:0:0:
232,32,55361,1,8,0:0:0:0:
232,72,55434,1,8,0:0:0:0:
232,112,55507,1,8,0:0:0:0:
306,259,55654,6,0,P|312:171|280:133,1,110.000003356934
32,160,55946,1,0,0:0:0:0:
248,208,56093,1,0,0:0:0:0:
59,281,56239,2,0,P|53:335|86:383,1,110.000003356934
304,128,56532,1,0,0:0:0:0:
128,120,56678,1,0,0:0:0:0:
421,181,56824,1,0,0:0:0:0:
128,352,56971,5,0,0:0:0:0:
120,120,57117,1,0,0:0:0:0:
296,288,57263,1,0,0:0:0:0:
368,112,57410,1,0,0:0:0:0:
160,312,57556,1,0,0:0:0:0:
304,96,57702,5,8,0:0:0:0:
320,136,57776,1,8,0:0:0:0:
336,176,57849,1,8,0:0:0:0:
408,344,57995,1,0,0:0:0:0:
112,104,58142,1,0,0:0:0:0:
188,91,58288,6,0,P|189:177|177:218,1,110.000003356934
97,328,58581,2,0,P|96:242|108:201,1,110.000003356934
240,72,58873,1,0,0:0:0:0:
32,176,59020,1,0,0:0:0:0:
272,128,59166,6,0,P|231:91|178:82,1,110.000003356934
33,280,59459,1,0,0:0:0:0:
130,191,59605,1,0,0:0:0:0:
130,191,59751,6,0,B|135:153|126:134|126:134|133:102,1,75.0000028610231,0|0,0:3|0:3,0:3:0:0:
213,285,59898,2,0,B|208:323|217:342|217:342|210:374,1,75.0000028610231,0|0,0:3|0:3,0:3:0:0:
276,189,60044,2,0,B|281:151|272:132|272:132|279:100,1,75.0000028610231,0|0,0:3|0:3,0:3:0:0:
363,278,60191,2,0,B|358:316|367:335|367:335|360:367,1,75.0000028610231,0|0,0:3|0:3,0:3:0:0:
427,186,60337,5,0,0:2:0:0:
398,157,60410,1,0,0:2:0:0:
363,139,60483,1,0,0:2:0:0:
324,133,60556,1,0,0:2:0:0:
284,140,60629,1,0,0:2:0:0:
255,163,60702,1,0,0:2:0:0:
279,194,60775,5,0,0:2:0:0:
316,207,60848,1,0,0:2:0:0:
354,197,60921,1,0,0:2:0:0:
381,169,60994,1,0,0:2:0:0:
383,130,61068,5,0,0:2:0:0:
412,108,61141,1,0,0:2:0:0:
453,119,61214,1,0,0:2:0:0:
471,154,61287,1,0,0:2:0:0:
459,190,61360,1,0,0:2:0:0:
437,219,61434,1,0,0:2:0:0:
406,243,61507,1,0,0:2:0:0:
390,280,61580,1,0,0:2:0:0:
393,319,61653,1,0,0:2:0:0:
415,349,61727,1,0,0:2:0:0:
451,353,61800,5,0,0:2:0:0:
184,280,61946,1,0,0:0:0:0:
448,288,62093,2,0,L|328:283,1,100
95,271,62385,1,0,0:0:0:0:
132,274,62459,1,0,0:0:0:0:
175,278,62532,1,0,0:0:0:0:
441,244,62678,2,0,B|430:190|430:190|400:119,1,100
50,48,62971,1,0,0:0:0:0:
198,279,63117,1,0,0:0:0:0:
248,45,63263,2,0,L|260:152,1,100
92,304,63556,5,0,0:0:0:0:
65,262,63629,1,0,0:0:0:0:
72,214,63702,1,0,0:0:0:0:
109,182,63775,1,0,0:0:0:0:
157,182,63848,1,0,0:0:0:0:
184,220,63922,1,0,0:0:0:0:
214,256,63995,1,0,0:0:0:0:
261,249,64068,1,0,0:0:0:0:
279,205,64141,1,0,0:0:0:0:
412,188,64288,5,0,0:0:0:0:
158,43,64434,1,0,0:0:0:0:
201,347,64581,1,0,0:0:0:0:
258,27,64727,1,0,0:0:0:0:
257,65,64800,1,0,0:0:0:0:
257,106,64873,1,0,0:0:0:0:
391,182,65020,6,0,P|342:216|285:211,1,100
144,144,65312,2,0,P|84:188|80:196,4,50
96,316,65751,2,0,P|156:272|160:264,4,50
240,224,66190,1,0,0:0:0:0:
275,258,66263,1,0,0:0:0:0:
322,272,66336,1,0,0:0:0:0:
370,262,66409,1,0,0:0:0:0:
408,230,66482,1,0,0:0:0:0:
440,192,66556,5,0,0:0:0:0:
419,147,66629,1,0,0:0:0:0:
374,128,66702,1,0,0:0:0:0:
328,143,66775,1,0,0:0:0:0:
304,186,66848,1,0,0:0:0:0:
315,233,66921,1,0,0:0:0:0:
336,272,66995,1,0,0:0:0:0:
311,309,67068,1,0,0:0:0:0:
264,323,67141,1,0,0:0:0:0:
217,309,67214,1,0,0:0:0:0:
184,272,67287,1,0,0:0:0:0:
177,223,67360,1,0,0:0:0:0:
198,178,67434,1,0,0:0:0:0:
239,152,67507,1,0,0:0:0:0:
288,64,67654,6,0,L|324:124,3,50
400,64,67946,6,0,L|392:128,3,50
488,96,68239,6,0,L|456:152,3,50
496,200,68532,6,0,L|448:240,3,50
256,192,68824,12,12,71093,0:3:0:0:
256,192,71166,12,12,73434,0:3:0:0:
256,192,73507,12,12,74605,0:0:0:0:
256,192,74678,12,0,75263,0:0:0:0:
83,218,75410,5,8,0:2:0:0:
83,218,75483,1,8,0:2:0:0:
83,218,75556,1,8,0:2:0:0:
83,218,75629,1,8,0:2:0:0:
83,218,75702,1,8,0:2:0:0:
83,218,75776,1,8,0:2:0:0:
83,218,75849,5,0,0:0:0:0:
122,222,75922,1,0,0:0:0:0:
159,206,75995,1,0,0:0:0:0:
185,175,76068,1,0,0:0:0:0:
192,136,76141,1,0,0:0:0:0:
176,104,76215,1,0,0:0:0:0:
137,92,76288,1,0,0:0:0:0:
98,101,76361,1,0,0:0:0:0:
69,128,76434,1,0,0:0:0:0:
57,167,76507,1,0,0:0:0:0:
65,206,76580,1,0,0:0:0:0:
92,235,76654,1,0,0:0:0:0:
130,248,76727,1,0,0:0:0:0:
160,248,76800,1,0,0:0:0:0:
194,228,76873,1,0,0:0:0:0:
234,225,76946,1,0,0:0:0:0:
264,256,77020,5,0,0:0:0:0:
252,217,77093,1,0,0:0:0:0:
255,177,77166,1,0,0:0:0:0:
272,140,77239,1,0,0:0:0:0:
300,111,77312,1,0,0:0:0:0:
336,93,77385,1,0,0:0:0:0:
376,89,77459,1,0,0:0:0:0:
408,104,77532,1,0,0:0:0:0:
413,143,77605,1,0,0:0:0:0:
405,183,77678,1,0,0:0:0:0:
383,217,77751,1,0,0:0:0:0:
351,242,77824,1,0,0:0:0:0:
313,254,77897,1,0,0:0:0:0:
273,252,77971,1,0,0:0:0:0:
236,236,78044,1,0,0:0:0:0:
206,209,78117,1,0,0:0:0:0:
188,173,78190,5,0,0:0:0:0:
183,133,78263,1,0,0:0:0:0:
200,96,78337,1,0,0:0:0:0:
244,93,78410,1,0,0:0:0:0:
284,112,78483,1,0,0:0:0:0:
310,149,78556,1,0,0:0:0:0:
316,193,78629,1,0,0:0:0:0:
299,234,78702,1,0,0:0:0:0:
265,263,78776,1,0,0:0:0:0:
222,271,78849,1,0,0:0:0:0:
179,258,78922,1,0,0:0:0:0:
152,224,78995,1,0,0:0:0:0:
192,203,79068,1,0,0:0:0:0:
232,183,79141,1,0,0:0:0:0:
272,163,79214,1,0,0:0:0:0:
312,143,79287,1,0,0:0:0:0:
353,123,79360,1,0,0:0:0:0:
392,104,79434,1,0,0:0:0:0:
387,60,79507,1,0,0:0:0:0:
350,37,79580,1,0,0:0:0:0:
309,52,79653,1,0,0:0:0:0:
295,93,79726,1,0,0:0:0:0:
312,136,79800,1,0,0:0:0:0:
345,164,79873,1,0,0:0:0:0:
363,205,79946,1,0,0:0:0:0:
360,250,80019,1,0,0:0:0:0:
337,288,80092,1,0,0:0:0:0:
299,312,80165,1,0,0:0:0:0:
255,317,80239,5,4,0:0:0:0:
214,300,80312,1,4,0:0:0:0:
184,267,80385,1,4,0:0:0:0:
184,224,80459,1,4,0:0:0:0:
216,200,80532,5,0,0:0:0:0:
172,192,80605,1,0,0:0:0:0:
141,160,80678,1,0,0:0:0:0:
133,117,80751,1,0,0:0:0:0:
152,76,80824,1,0,0:0:0:0:
190,54,80897,1,0,0:0:0:0:
234,58,80971,1,0,0:0:0:0:
272,80,81044,1,0,0:0:0:0:
305,108,81117,1,0,0:0:0:0:
323,149,81190,1,0,0:0:0:0:
320,194,81263,1,0,0:0:0:0:
298,233,81336,1,0,0:0:0:0:
261,257,81409,1,0,0:0:0:0:
217,263,81483,1,0,0:0:0:0:
175,248,81556,1,0,0:0:0:0:
144,216,81629,1,0,0:0:0:0:
128,176,81702,1,0,0:0:0:0:
85,187,81775,1,0,0:0:0:0:
56,221,81848,1,0,0:0:0:0:
51,265,81921,1,0,0:0:0:0:
71,304,81994,1,0,0:0:0:0:
110,326,82067,1,0,0:0:0:0:
152,320,82142,1,0,0:0:0:0:
186,291,82215,1,0,0:0:0:0:
227,273,82288,1,0,0:0:0:0:
271,267,82361,1,0,0:0:0:0:
316,273,82434,1,0,0:0:0:0:
357,292,82507,1,0,0:0:0:0:
384,328,82581,1,0,0:0:0:0:
375,284,82654,1,0,0:0:0:0:
381,239,82727,1,0,0:0:0:0:
402,200,82800,1,0,0:0:0:0:
432,168,82873,5,0,0:0:0:0:
389,181,82946,1,0,0:0:0:0:
344,183,83019,1,0,0:0:0:0:
300,173,83092,1,0,0:0:0:0:
261,152,83165,1,0,0:0:0:0:
228,121,83238,1,0,0:0:0:0:
205,83,83312,1,0,0:0:0:0:
208,40,83385,1,0,0:0:0:0:
252,38,83458,1,0,0:0:0:0:
293,55,83531,1,0,0:0:0:0:
323,88,83604,1,0,0:0:0:0:
337,131,83677,1,0,0:0:0:0:
331,175,83750,1,0,0:0:0:0:
308,213,83824,1,0,0:0:0:0:
270,237,83897,1,0,0:0:0:0:
226,244,83970,1,0,0:0:0:0:
183,231,84043,1,0,0:0:0:0:
152,208,84117,1,0,0:0:0:0:
177,171,84190,1,0,0:0:0:0:
215,147,84263,1,0,0:0:0:0:
259,140,84336,1,0,0:0:0:0:
303,151,84409,1,0,0:0:0:0:
339,177,84482,1,0,0:0:0:0:
361,216,84556,1,0,0:0:0:0:
367,260,84629,1,0,0:0:0:0:
356,303,84702,5,4,0:0:0:0:
328,339,84775,1,4,0:0:0:0:
289,360,84848,1,4,0:0:0:0:
245,365,84921,1,4,0:0:0:0:
202,353,84995,1,4,0:0:0:0:
167,324,85068,1,4,0:0:0:0:
147,285,85141,1,4,0:0:0:0:
144,240,85215,6,0,L|168:136,1,89.9999972534181
320,112,85507,1,0,0:0:0:0:
164,152,85654,6,0,L|188:48,1,89.9999972534181
296,264,85946,1,0,0:0:0:0:
184,64,86093,6,0,L|305:69,1,89.9999972534181
428,243,86385,1,0,0:0:0:0:
215,196,86532,6,0,L|94:198,1,89.9999972534181
87,71,86824,1,0,0:0:0:0:
125,197,86971,6,0,L|127:295,1,89.9999972534181
244,192,87263,6,0,P|207:239|203:277,1,89.9999972534181
259,345,87556,6,0,B|197:288|97:334,1,150.000005722046,8|0,0:0|0:0,0:0:0:0:
467,226,87849,2,0,B|412:207|412:207|355:194,1,100
192,72,88142,1,8,0:0:0:0:
292,280,88288,1,0,0:0:0:0:
341,46,88434,2,0,P|308:58|285:78,1,50
260,151,88581,2,0,P|250:176|252:207,1,50
320,328,88727,2,0,P|376:320|416:288,1,100
68,172,89020,6,0,P|124:148|184:172,1,100,0|8,0:0|0:0,0:0:0:0:
400,152,89312,1,0,0:0:0:0:
288,344,89459,1,0,0:0:0:0:
160,40,89605,2,0,L|168:104,1,50
256,160,89751,2,0,L|240:216,1,50
160,352,89898,2,0,L|144:216,1,100
122,85,90190,1,8,0:1:0:0:
164,86,90263,1,8,0:1:0:0:
199,85,90337,1,8,0:1:0:0:
292,280,90483,5,0,0:0:0:0:
376,140,90629,1,0,0:0:0:0:
163,232,90776,2,0,L|159:360,1,100,8|0,0:0|0:0,0:0:0:0:
307,31,91068,2,0,L|308:149,1,100
138,138,91361,6,0,P|82:150|58:210,1,100,8|0,0:0|0:0,0:0:0:0:
296,292,91654,2,0,B|338:276|372:300|372:300|376:272|347:258,1,100,8|0,0:0|0:0,0:0:0:0:
96,53,91946,1,0,0:0:0:0:
249,322,92093,1,0,0:0:0:0:
60,145,92239,6,0,B|100:133|136:142|136:142|151:109|200:84,1,150.000005722046,10|0,0:0|0:0,0:0:0:0:
320,80,92532,1,8,0:0:0:0:
336,328,92678,1,0,0:0:0:0:
412,261,92824,2,0,B|361:232|361:232|297:224,1,100
200,304,93117,2,0,P|168:293|144:248,1,50
115,112,93263,2,0,P|124:91|165:67,1,50
216,72,93410,6,0,P|276:108|288:160,1,100
272,352,93702,1,0,0:0:0:0:
168,240,93849,1,0,0:0:0:0:
380,120,93995,2,0,P|376:200|332:228,1,100
72,240,94288,2,0,L|96:152,1,50
168,136,94434,2,0,L|160:64,1,50
256,32,94581,2,0,B|256:120|256:120|244:144,1,100
104,240,94873,5,0,0:1:0:0:
69,210,94946,1,0,0:1:0:0:
60,164,95020,1,0,0:1:0:0:
304,348,95166,2,0,P|336:280|328:232,1,100
256,64,95459,2,0,L|208:128,1,50
136,200,95605,2,0,L|168:248,1,50
336,176,95751,5,0,0:0:0:0:
324,152,95824,1,0,0:0:0:0:
300,140,95898,1,0,0:0:0:0:
128,132,96044,1,0,0:0:0:0:
220,312,96190,5,0,0:0:0:0:
205,292,96263,1,0,0:0:0:0:
195,268,96336,1,0,0:0:0:0:
192,244,96409,1,0,0:0:0:0:
194,219,96482,1,0,0:0:0:0:
203,196,96555,1,0,0:0:0:0:
220,184,96629,6,0,B|260:164|304:168|304:168|280:144|280:144|344:144|372:100,1,200
460,44,96922,1,0,0:0:0:0:
464,224,97068,1,0,0:0:0:0:
168,104,97215,2,0,P|240:108|276:144,1,100
404,300,97507,2,0,P|328:296|296:260,1,100
160,128,97800,6,0,L|184:72,1,50
328,112,97946,2,0,L|288:176,1,50
196,312,98093,1,0,0:0:0:0:
268,64,98239,1,0,0:0:0:0:
80,252,98385,5,0,0:0:0:0:
312,108,98532,1,0,0:0:0:0:
218,317,98678,2,0,P|239:263|221:203,1,100
360,48,98971,2,0,L|392:96,1,50
472,128,99117,2,0,L|448:192,1,50
428,228,99263,6,0,B|368:236|352:216|352:216|312:224|312:224|277:210|232:224,1,200
56,228,99702,1,0,0:0:0:0:
216,80,99849,1,0,0:0:0:0:
212,320,99995,1,0,0:0:0:0:
104,112,100142,1,0,0:0:0:0:
92,336,100288,1,0,0:0:0:0:
272,212,100434,6,0,P|208:148|224:104,1,100
116,176,100727,6,0,P|112:100|232:60,1,200
216,260,101166,6,0,L|216:192,1,50
300,304,101312,2,0,L|300:244,1,50
388,348,101459,2,0,L|388:284,1,50
476,360,101605,6,0,L|472:216,1,100
444,76,101898,1,0,0:0:0:0:
276,196,102044,1,0,0:0:0:0:
300,64,102190,2,0,P|352:116|352:172,1,100
260,304,102483,1,0,0:0:0:0:
168,96,102629,1,0,0:0:0:0:
44,308,102776,2,0,P|108:264|120:216,1,100
80,120,103068,22,0,B|108:156|132:148|132:148|164:168|164:168|192:148|192:148|212:152|248:108,1,200
380,96,103507,6,0,L|304:108,1,50
376,192,103654,2,0,L|320:164,1,50
316,272,103800,2,0,L|292:212,1,50
200,48,103946,5,0,0:0:0:0:
215,67,104019,1,0,0:0:0:0:
222,91,104092,1,0,0:0:0:0:
220,116,104165,1,0,0:0:0:0:
209,138,104238,1,0,0:0:0:0:
191,155,104311,1,0,0:0:0:0:
168,164,104385,1,0,0:0:0:0:
143,165,104458,1,0,0:0:0:0:
124,160,104532,53,0,0:0:0:0:
152,132,104605,1,0,0:0:0:0:
191,124,104678,1,0,0:0:0:0:
228,136,104751,1,0,0:0:0:0:
254,165,104824,1,0,0:0:0:0:
262,204,104897,1,0,0:0:0:0:
248,241,104971,1,0,0:0:0:0:
217,266,105044,1,0,0:0:0:0:
180,280,105117,53,0,0:0:0:0:
137,269,105190,1,0,0:0:0:0:
96,285,105263,1,0,0:0:0:0:
73,323,105336,1,0,0:0:0:0:
108,352,105410,21,0,0:0:0:0:
149,325,105483,1,0,0:0:0:0:
198,316,105556,1,0,0:0:0:0:
247,325,105629,1,0,0:0:0:0:
296,344,105702,21,0,0:0:0:0:
352,327,105775,1,0,0:0:0:0:
378,275,105848,1,0,0:0:0:0:
357,221,105921,1,0,0:0:0:0:
312,192,105995,21,0,0:0:0:0:
254,220,106068,1,0,0:0:0:0:
192,208,106141,1,0,0:0:0:0:
150,159,106214,1,0,0:0:0:0:
136,96,106288,6,0,P|200:72|232:120,1,100
191,307,106581,2,0,L|192:185,1,100
426,224,106873,1,0,0:0:0:0:
132,96,107020,1,0,0:0:0:0:
220,284,107166,1,0,0:0:0:0:
336,80,107312,1,0,0:0:0:0:
364,292,107459,6,0,P|304:236|304:180,1,100
252,60,107751,1,0,0:0:0:0:
252,60,107898,2,0,P|228:136|136:88,1,200
204,332,108337,6,0,B|248:280|240:232|240:232|284:232|304:168,2,200
240,80,109068,1,0,0:0:0:0:
124,300,109215,1,0,0:0:0:0:
280,168,109361,1,0,0:0:0:0:
288,336,109507,1,0,0:0:0:0:
424,236,109654,1,0,0:0:0:0:
424,236,109800,6,0,P|416:168|360:132,1,100
152,56,110093,1,0,0:0:0:0:
216,272,110239,1,0,0:0:0:0:
216,272,110385,2,0,L|272:156,1,100
356,144,110678,2,0,L|248:184,1,100
404,352,110971,6,0,P|352:336|327:288,1,100
284,128,111263,1,0,0:0:0:0:
416,272,111410,1,0,0:0:0:0:
160,112,111556,1,0,0:0:0:0:
256,264,111702,1,0,0:0:0:0:
48,88,111849,1,0,0:0:0:0:
120,232,111995,1,0,0:0:0:0:
120,232,112142,2,0,B|152:248|192:240|208:184|208:184|248:192|248:192|256:160|280:144|312:152,1,200
304,72,112581,1,0,0:0:0:0:
88,312,112727,1,0,0:0:0:0:
272,72,112873,1,0,0:0:0:0:
64,128,113020,1,0,0:0:0:0:
248,296,113166,1,0,0:0:0:0:
168,264,113312,6,0,P|272:220|336:292,1,200
56,308,113751,1,0,0:0:0:0:
56,308,113898,2,0,P|36:236|72:192,1,100
160,144,114190,2,0,P|180:92|160:48,1,100
180,288,114483,6,0,P|240:296|256:172,1,200
112,60,114922,2,0,P|128:96|172:128,1,50
40,176,115068,2,0,P|76:180|104:212,1,50
59,267,115215,2,0,P|76:288|115:295,1,50
212,96,115361,2,0,P|204:68|183:36,1,50
180,288,115507,2,0,P|188:326|209:348,1,50
180,288,115654,6,0,P|252:288|208:188,1,200
88,148,116093,1,0,0:0:0:0:
320,220,116239,1,0,0:0:0:0:
264,64,116385,1,0,0:0:0:0:
204,268,116532,2,0,P|160:320|108:320,1,100
212,188,116824,6,0,P|268:160|324:260,1,200
67,166,117263,2,0,B|74:48|74:48|109:24,1,150
127,64,117556,2,0,L|123:186,1,100
127,358,117849,1,0,0:0:0:0:
336,88,117995,6,0,B|348:124|344:152|344:152|376:212|376:212|372:256|384:296,1,200
220,176,118434,1,0,0:0:0:0:
312,296,118581,1,0,0:0:0:0:
424,96,118727,1,0,0:0:0:0:
208,280,118873,1,0,0:0:0:0:
376,52,119020,1,0,0:0:0:0:
376,52,119166,2,0,P|308:76|280:120,1,100
372,296,119459,6,0,P|372:240|364:224,1,50
296,128,119605,2,0,P|276:196|292:260,1,100
468,348,119898,1,0,0:0:0:0:
468,348,120044,2,0,B|464:288|464:288|424:216,1,100
248,180,120337,6,0,P|248:112|376:112,1,200,4|0,0:0|0:0,0:0:0:0:
312,304,120776,1,0,0:0:0:0:
204,108,120922,1,0,0:0:0:0:
136,264,121068,1,0,0:0:0:0:
336,144,121215,1,0,0:0:0:0:
84,288,121361,1,0,0:0:0:0:
84,288,121507,6,0,P|148:316|120:212,1,200,4|0,0:0|0:0,0:0:0:0:
64,136,121946,1,0,0:0:0:0:
224,232,122093,1,0,0:0:0:0:
176,128,122239,1,0,0:0:0:0:
344,208,122385,1,0,0:0:0:0:
272,96,122532,1,0,0:0:0:0:
332,256,122678,6,0,P|380:284|296:288,1,200,4|0,0:0|0:0,0:0:0:0:
264,104,123117,1,0,0:0:0:0:
148,240,123263,1,0,0:0:0:0:
384,152,123410,1,0,0:0:0:0:
420,320,123556,1,0,0:0:0:0:
420,320,123702,6,0,P|344:312|316:264,1,100
264,156,123995,2,0,L|196:188,1,50
88,136,124142,2,0,L|104:200,1,50
80,308,124288,2,0,L|132:276,1,50
320,248,124434,1,0,0:0:0:0:
322,198,124507,1,0,0:0:0:0:
295,158,124580,1,0,0:0:0:0:
248,141,124653,1,0,0:0:0:0:
201,156,124726,5,0,0:0:0:0:
180,200,124800,1,0,0:0:0:0:
142,230,124873,1,0,0:0:0:0:
95,217,124946,1,0,0:0:0:0:
68,176,125020,2,0,P|96:116|212:168,1,200
288,248,125459,1,0,0:0:0:0:
385,73,125605,6,0,B|349:93|317:89|317:89|269:129|269:129|213:129|197:153,1,200
52,208,126044,1,0,0:0:0:0:
172,320,126190,2,0,L|304:312,1,100
240,200,126483,2,0,L|360:196,1,100
104,120,126776,2,0,B|156:132|156:132|240:92,1,100
390,110,127068,2,0,L|322:226,1,100
192,300,127361,6,0,P|136:260|224:176,1,200
376,248,127800,1,0,0:0:0:0:
376,248,127946,2,0,B|326:237|307:200|307:200|286:171|220:180|220:180|200:160,1,200
105,76,128385,1,0,0:0:0:0:
105,76,128532,2,0,P|97:144|217:148,1,200
296,88,128971,1,0,0:0:0:0:
336,260,129117,5,0,0:0:0:0:
316,256,129190,1,0,0:0:0:0:
296,252,129263,1,0,0:0:0:0:
280,248,129337,1,0,0:0:0:0:
264,244,129410,2,0,L|152:208,1,100
211,83,129702,5,0,0:0:0:0:
385,200,129849,1,0,0:0:0:0:
322,35,129995,1,0,0:0:0:0:
208,223,130142,1,0,0:0:0:0:
185,129,130288,5,0,0:0:0:0:
249,347,130434,1,0,0:0:0:0:
400,85,130581,1,0,0:0:0:0:
186,314,130727,1,0,0:0:0:0:
224,116,130873,6,0,P|144:168|112:160,1,100
16,156,131166,1,0,0:0:0:0:
112,72,131312,1,0,0:0:0:0:
140,288,131459,1,0,0:0:0:0:
360,199,131605,1,0,0:0:0:0:
319,169,131678,1,0,0:0:0:0:
279,139,131751,1,0,0:0:0:0:
57,249,131898,1,0,0:0:0:0:
415,264,132044,6,0,P|451:196|343:176,1,200
184,304,132483,1,0,0:0:0:0:
232,116,132629,1,0,0:0:0:0:
320,312,132776,1,0,0:0:0:0:
124,168,132922,1,0,0:0:0:0:
124,168,133068,6,0,L|240:212,1,100
400,176,133361,1,0,0:0:0:0:
384,168,133434,1,0,0:0:0:0:
368,164,133507,1,0,0:0:0:0:
180,220,133654,1,0,0:0:0:0:
296,280,133800,5,0,0:0:0:0:
328,296,133873,1,0,0:0:0:0:
360,312,133946,1,0,0:0:0:0:
392,328,134020,5,0,0:0:0:0:
376,296,134093,1,0,0:0:0:0:
356,264,134166,1,0,0:0:0:0:
340,232,134239,1,0,0:0:0:0:
320,200,134312,1,0,0:0:0:0:
292,180,134385,6,0,P|252:232|180:140,1,200
192,40,134824,1,0,0:0:0:0:
268,116,134971,2,0,P|276:184|232:236,1,100
85,356,135263,2,0,L|125:226,1,100
288,276,135556,2,0,L|320:152,1,100
344,48,135849,1,0,0:0:0:0:
452,196,135995,1,0,0:0:0:0:
192,156,136142,5,0,0:0:0:0:
238,167,136215,1,0,0:0:0:0:
254,213,136288,1,0,0:0:0:0:
112,320,136434,1,0,0:0:0:0:
276,136,136581,1,0,0:0:0:0:
356,320,136727,2,0,P|320:260|328:212,1,100
364,44,137020,1,0,0:0:0:0:
428,240,137166,1,0,0:0:0:0:
256,296,137312,2,0,P|196:280|160:208,1,100
330,157,137605,6,0,L|223:245,1,100
501,16,137898,1,0,0:0:0:0:
256,292,138044,1,0,0:0:0:0:
256,292,138190,2,0,L|340:208,1,100
296,108,138483,2,0,B|232:124|232:124|188:108,1,100
444,268,138776,2,0,P|396:208|408:148,1,100
280,232,139068,6,0,L|192:328,1,100
340,120,139361,1,0,0:0:0:0:
152,156,139507,1,0,0:0:0:0:
360,264,139654,1,0,0:0:0:0:
240,96,139800,5,0,0:0:0:0:
192,284,139946,1,0,0:0:0:0:
376,124,140093,1,0,0:0:0:0:
124,224,140239,5,0,0:0:0:0:
384,272,140385,1,0,0:0:0:0:
232,116,140532,2,0,P|208:180|224:228,1,100
384,272,140824,6,0,L|380:124,1,100
308,320,140971,2,0,L|308:184,1,100
216,248,141117,2,0,L|216:104,1,100
120,312,141263,2,0,L|124:192,1,100
332,88,141410,1,0,0:0:0:0:
349,111,141483,1,0,0:0:0:0:
355,141,141556,1,0,0:0:0:0:
349,170,141629,1,0,0:0:0:0:
332,194,141702,1,0,0:0:0:0:
306,208,141775,1,0,0:0:0:0:
276,211,141849,1,0,0:0:0:0:
248,201,141922,1,0,0:0:0:0:
232,184,141995,1,0,0:0:0:0:
208,156,142068,5,0,0:0:0:0:
172,143,142141,1,0,0:0:0:0:
135,148,142214,1,0,0:0:0:0:
112,172,142288,1,0,0:0:0:0:
100,218,142361,5,0,0:0:0:0:
132,248,142434,1,0,0:0:0:0:
179,252,142507,1,0,0:0:0:0:
224,232,142581,1,0,0:0:0:0:
272,236,142654,1,0,0:0:0:0:
308,270,142727,1,0,0:0:0:0:
315,318,142800,1,0,0:0:0:0:
276,348,142873,1,0,0:0:0:0:
228,337,142946,1,0,0:0:0:0:
197,299,143019,1,0,0:0:0:0:
196,250,143092,1,0,0:0:0:0:
228,208,143166,6,0,P|256:136|240:84,1,100
192,20,143459,2,0,P|164:92|180:144,1,100
273,328,143751,1,0,0:0:0:0:
293,292,143824,1,0,0:0:0:0:
329,270,143897,1,0,0:0:0:0:
368,255,143971,1,0,0:0:0:0:
403,228,144044,6,0,P|408:160|398:142,1,59.9999981689454
288,75,144190,1,0,0:0:0:0:
256,101,144263,1,0,0:0:0:0:
245,142,144337,6,0,P|255:212|279:235,1,59.9999981689454
355,317,144483,1,0,0:0:0:0:
315,302,144556,1,0,0:0:0:0:
274,294,144629,1,0,0:0:0:0:
232,293,144702,1,0,0:0:0:0:
190,298,144775,1,0,0:0:0:0:
150,311,144848,1,0,0:0:0:0:
119,337,144922,6,0,L|51:302,1,59.9999981689454
88,177,145068,1,0,0:0:0:0:
121,202,145141,1,0,0:0:0:0:
162,207,145214,1,0,0:0:0:0:
200,190,145287,1,0,0:0:0:0:
224,156,145360,1,0,0:0:0:0:
228,115,145433,1,0,0:0:0:0:
212,78,145507,6,0,L|132:42,1,59.9999981689454
88,177,145654,1,0,0:0:0:0:
142,202,145727,1,0,0:0:0:0:
196,227,145800,1,0,0:0:0:0:
251,252,145873,1,0,0:0:0:0:
305,278,145946,1,0,0:0:0:0:
359,303,146019,1,0,0:0:0:0:
414,327,146093,6,0,L|367:236,1,59.9999981689454
413,122,146239,1,0,0:0:0:0:
370,144,146312,1,0,0:0:0:0:
323,151,146385,1,0,0:0:0:0:
276,142,146458,1,0,0:0:0:0:
235,118,146531,1,0,0:0:0:0:
204,82,146604,1,0,0:0:0:0:
185,39,146678,6,0,L|92:68,1,59.9999981689454
66,157,146824,1,0,0:0:0:0:
113,161,146897,1,0,0:0:0:0:
153,186,146970,1,0,0:0:0:0:
176,228,147043,1,0,0:0:0:0:
178,275,147116,1,0,0:0:0:0:
157,318,147189,1,0,0:0:0:0:
116,342,147263,6,0,L|33:324,1,59.9999981689454
66,157,147410,2,0,L|140:144,1,59.9999981689454
223,290,147556,6,0,L|295:279,1,59.9999981689454
369,184,147702,2,0,L|285:158,1,59.9999981689454
132,104,147849,6,0,L|193:128,1,59.9999981689454
391,289,147995,2,0,L|312:308,1,59.9999981689454
155,238,148142,6,0,L|98:211,3,59.9999981689454
85,100,148434,1,0,0:0:0:0:
132,104,148507,1,0,0:0:0:0:
180,105,148580,1,0,0:0:0:0:
228,104,148653,1,0,0:0:0:0:
275,96,148727,6,0,L|237:184,1,59.9999981689454
255,333,148873,1,0,0:0:0:0:
279,278,148946,1,0,0:0:0:0:
303,223,149019,1,0,0:0:0:0:
328,168,149092,1,0,0:0:0:0:
343,110,149166,6,0,L|256:126,1,59.9999981689454
109,255,149312,1,0,0:0:0:0:
168,246,149385,1,0,0:0:0:0:
227,238,149458,1,0,0:0:0:0:
287,229,149531,1,0,0:0:0:0:
342,220,149605,6,0,L|365:154,1,59.9999981689454
443,67,149751,1,0,0:0:0:0:
386,87,149824,1,0,0:0:0:0:
327,97,149897,1,0,0:0:0:0:
267,95,149970,1,0,0:0:0:0:
209,82,150043,1,0,0:0:0:0:
154,58,150116,1,0,0:0:0:0:
103,25,150190,6,0,L|74:122,1,59.9999981689454
106,354,150337,1,0,0:0:0:0:
118,295,150410,1,0,0:0:0:0:
130,236,150483,1,0,0:0:0:0:
142,177,150556,1,0,0:0:0:0:
155,119,150629,1,0,0:0:0:0:
167,60,150702,1,0,0:0:0:0:
191,5,150776,6,0,L|265:57,1,59.9999981689454
379,233,150922,1,0,0:0:0:0:
325,259,150995,1,0,0:0:0:0:
265,265,151068,1,0,0:0:0:0:
208,250,151141,1,0,0:0:0:0:
158,217,151214,1,0,0:0:0:0:
123,169,151287,1,0,0:0:0:0:
103,112,151361,6,0,L|192:68,1,59.9999981689454
356,55,151507,1,0,0:0:0:0:
303,84,151580,1,0,0:0:0:0:
250,113,151653,1,0,0:0:0:0:
198,142,151726,1,0,0:0:0:0:
145,171,151799,1,0,0:0:0:0:
93,200,151872,1,0,0:0:0:0:
45,238,151946,6,0,L|113:269,1,59.9999981689454
209,278,152093,2,0,L|304:269,1,59.9999981689454
7,292,152239,6,0,L|87:328,1,59.9999981689454
273,334,152386,2,0,L|386:323,1,59.9999981689454
421,240,152532,6,0,P|350:231|336:216,3,59.9999981689454
325,138,152824,2,0,P|265:124|237:130,3,59.9999981689454
172,235,153117,5,0,0:0:0:0:
126,245,153190,1,0,0:0:0:0:
83,226,153263,1,0,0:0:0:0:
60,184,153336,1,0,0:0:0:0:
67,138,153409,1,0,0:0:0:0:
101,105,153482,1,0,0:0:0:0:
137,74,153556,5,2,0:0:0:0:
138,121,153629,1,0,0:0:0:0:
161,163,153702,1,0,0:0:0:0:
199,190,153775,1,0,0:0:0:0:
246,198,153848,1,0,0:0:0:0:
292,183,153921,1,0,0:0:0:0:
323,150,153995,1,0,0:0:0:0:
365,131,154068,1,0,0:0:0:0:
408,149,154141,1,0,0:0:0:0:
424,193,154214,1,0,0:0:0:0:
403,235,154288,5,0,0:0:0:0:
359,249,154360,1,0,0:0:0:0:
312,249,154434,1,0,0:0:0:0:
265,257,154507,1,0,0:0:0:0:
237,295,154581,1,0,0:0:0:0:
205,259,154654,1,0,0:0:0:0:
160,244,154727,1,0,0:0:0:0:
113,251,154800,1,0,0:0:0:0:
81,284,154873,1,0,0:0:0:0:
113,319,154946,1,0,0:0:0:0:
157,336,155019,1,0,0:0:0:0:
204,332,155092,1,0,0:0:0:0:
245,308,155165,1,0,0:0:0:0:
271,268,155238,1,0,0:0:0:0:
277,221,155312,1,0,0:0:0:0:
262,176,155385,1,0,0:0:0:0:
226,152,155459,5,0,0:0:0:0:
227,104,155532,1,0,0:0:0:0:
256,66,155605,1,0,0:0:0:0:
300,51,155678,1,0,0:0:0:0:
344,67,155751,1,0,0:0:0:0:
369,107,155824,1,0,0:0:0:0:
372,154,155897,1,0,0:0:0:0:
351,197,155970,1,0,0:0:0:0:
309,219,156044,1,0,0:0:0:0:
261,218,156117,1,0,0:0:0:0:
217,237,156190,1,0,0:0:0:0:
185,272,156263,1,0,0:0:0:0:
170,313,156337,1,0,0:0:0:0:
144,273,156410,1,0,0:0:0:0:
143,225,156483,1,0,0:0:0:0:
168,185,156556,1,0,0:0:0:0:
210,163,156629,5,0,0:0:0:0:
257,167,156702,1,0,0:0:0:0:
295,195,156776,1,0,0:0:0:0:
309,238,156849,1,0,0:0:0:0:
329,280,156922,1,0,0:0:0:0:
370,302,156995,1,0,0:0:0:0:
417,295,157068,1,0,0:0:0:0:
450,261,157142,1,0,0:0:0:0:
456,217,157215,6,0,L|385:176,1,59.9999981689454
339,115,157361,2,0,L|267:109,1,59.9999981689454
175,164,157507,6,0,L|106:193,1,59.9999981689454
59,320,157654,2,0,L|132:287,1,59.9999981689454
285,325,157800,5,0,0:0:0:0:
259,277,157873,1,0,0:0:0:0:
253,224,157946,1,0,0:0:0:0:
266,172,158019,1,0,0:0:0:0:
296,126,158093,1,0,0:0:0:0:
348,133,158166,1,0,0:0:0:0:
390,166,158239,1,0,0:0:0:0:
411,215,158312,1,0,0:0:0:0:
404,268,158385,1,0,0:0:0:0:
371,310,158458,1,0,0:0:0:0:
322,331,158532,1,0,0:0:0:0:
269,324,158605,1,0,0:0:0:0:
242,277,158678,1,0,0:0:0:0:
212,233,158751,1,0,0:0:0:0:
161,217,158824,1,0,0:0:0:0:
112,237,158897,1,0,0:0:0:0:
95,291,158971,6,0,L|65:213,1,59.9999981689454
73,101,159117,1,0,0:0:0:0:
115,133,159190,1,0,0:0:0:0:
167,146,159263,1,0,0:0:0:0:
219,136,159336,1,0,0:0:0:0:
263,106,159409,1,0,0:0:0:0:
288,55,159483,1,0,0:0:0:0:
340,51,159556,1,0,0:0:0:0:
384,81,159629,1,0,0:0:0:0:
399,132,159702,1,0,0:0:0:0:
379,181,159775,1,0,0:0:0:0:
329,213,159849,6,0,L|215:217,1,59.9999981689454
179,306,159995,2,0,L|255:298,1,59.9999981689454
336,264,160142,5,0,0:0:0:0:
376,257,160215,1,0,0:0:0:0:
407,229,160288,1,0,0:0:0:0:
416,189,160361,1,0,0:0:0:0:
401,150,160434,1,0,0:0:0:0:
367,126,160507,1,0,0:0:0:0:
328,120,160581,1,0,0:0:0:0:
294,144,160654,1,0,0:0:0:0:
253,152,160727,5,0,0:0:0:0:
212,143,160800,1,0,0:0:0:0:
179,118,160873,1,0,0:0:0:0:
159,81,160946,1,0,0:0:0:0:
168,32,161020,1,0,0:0:0:0:
225,36,161093,1,0,0:0:0:0:
257,85,161166,1,0,0:0:0:0:
239,140,161239,1,0,0:0:0:0:
208,168,161312,6,0,L|124:264,1,110.000003356934
424,272,161605,2,0,L|361:181,1,110.000003356934
140,44,161898,2,0,L|202:134,1,110.000003356934
316,332,162190,2,0,P|368:300|372:288,3,55.0000016784668,0|0|4|0,0:0|0:0|0:3|0:0,0:0:0:0:
368,280,162483,6,0,P|348:184|208:168,1,239.999992675781,4|0,0:3|0:0,0:0:0:0:
176,96,162922,1,0,0:0:0:0:
176,96,163068,2,0,P|136:152|160:232,1,119.999996337891
284,288,163361,1,0,0:0:0:0:
332,120,163507,1,0,0:0:0:0:
456,204,163654,6,0,B|368:156|320:236|224:184,1,239.999992675781,2|0,0:0|0:0,0:0:0:0:
140,120,164093,1,0,0:0:0:0:
288,64,164239,1,0,0:0:0:0:
232,280,164385,1,0,0:0:0:0:
220,80,164532,1,0,0:0:0:0:
316,164,164678,1,0,0:0:0:0:
84,140,164824,6,0,B|76:176|100:212|100:212|100:244|100:244|124:276|124:276|136:298|129:328|124:344|124:344|154:329|168:295,1,239.999992675781,2|0,0:0|0:0,0:0:0:0:
184,144,165263,1,0,0:0:0:0:
308,320,165410,1,0,0:0:0:0:
373,82,165556,1,0,0:0:0:0:
173,175,165702,1,0,0:0:0:0:
173,175,165849,1,0,0:0:0:0:
200,104,165995,6,0,P|140:104|136:248,1,239.999992675781,2|0,0:0|0:0,0:0:0:0:
288,248,166434,1,0,0:0:0:0:
288,248,166581,6,0,B|296:200|284:172|284:172|304:152|304:152|285:126|284:92|286:64|286:64|299:28|344:16|344:16,1,239.999992675781
376,264,167166,6,0,P|320:328|192:256,1,239.999992675781,2|0,0:0|0:0,0:0:0:0:
304,52,167605,1,0,0:0:0:0:
424,240,167751,1,0,0:0:0:0:
184,188,167898,1,0,0:0:0:0:
188,324,168044,1,0,0:0:0:0:
360,56,168190,1,0,0:0:0:0:
232,256,168337,6,0,P|256:192|240:112,1,119.999996337891,2|0,0:0|0:0,0:0:0:0:
180,48,168629,1,0,0:0:0:0:
356,112,168776,1,0,0:0:0:0:
356,112,168922,6,0,B|316:100|272:128|272:128|224:104|224:104|176:136|128:112,1,239.999992675781
412,332,169361,1,0,0:0:0:0:
224,88,169507,1,2,0:0:0:0:
404,188,169654,1,0,0:0:0:0:
96,224,169800,5,2,0:0:0:0:
324,92,169946,1,0,0:0:0:0:
256,328,170093,1,2,0:0:0:0:
152,100,170239,1,0,0:0:0:0:
408,212,170385,1,2,0:0:0:0:
256,328,170532,1,0,0:0:0:0:
448,304,170678,5,2,0:0:0:0:
224,216,170824,1,0,0:0:0:0:
400,320,170971,5,0,0:0:0:0:
346,311,171044,1,0,0:0:0:0:
313,269,171117,1,0,0:0:0:0:
318,215,171190,1,0,0:0:0:0:
358,180,171263,1,0,0:0:0:0:
392,164,171337,1,0,0:0:0:0:
341,181,171410,1,0,0:0:0:0:
294,156,171483,1,0,0:0:0:0:
283,104,171556,1,0,0:0:0:0:
314,60,171629,1,0,0:0:0:0:
367,55,171702,1,0,0:0:0:0:
406,91,171776,1,0,0:0:0:0:
409,145,171849,6,0,P|368:211|314:228,1,110.000003356934
185,182,172142,1,0,0:0:0:0:
146,155,172215,1,0,0:0:0:0:
106,129,172288,1,0,0:0:0:0:
276,251,172434,1,0,0:0:0:0:
243,72,172581,1,0,0:0:0:0:
101,312,172727,5,0,0:0:0:0:
127,279,172800,1,0,0:0:0:0:
154,248,172873,1,0,0:0:0:0:
303,129,173020,2,0,P|230:147|172:106,1,110.000003356934
85,39,173312,1,0,0:0:0:0:
207,247,173459,1,0,0:0:0:0:
170,102,173605,1,0,0:0:0:0:
130,108,173678,1,0,0:0:0:0:
97,135,173751,1,0,0:0:0:0:
376,169,173898,1,0,0:0:0:0:
172,280,174044,1,0,0:0:0:0:
240,44,174190,6,0,L|262:169,1,110.000003356934
308,355,174483,1,0,0:0:0:0:
372,150,174629,1,0,0:0:0:0:
133,254,174776,1,0,0:0:0:0:
443,216,174922,1,0,0:0:0:0:
260,257,175068,5,0,0:0:0:0:
242,213,175142,1,0,0:0:0:0:
245,165,175215,1,0,0:0:0:0:
452,173,175361,2,0,L|321:190,1,110.000003356934
117,197,175654,1,0,0:0:0:0:
261,37,175800,1,0,0:0:0:0:
272,350,175946,5,0,0:0:0:0:
310,354,176020,1,0,0:0:0:0:
347,346,176093,1,0,0:0:0:0:
103,138,176239,1,0,0:0:0:0:
175,278,176385,1,0,0:0:0:0:
430,40,176532,5,0,0:0:0:0:
369,181,176678,1,0,0:0:0:0:
235,65,176824,1,0,0:0:0:0:
216,91,176898,1,0,0:0:0:0:
210,130,176971,1,0,0:0:0:0:
412,238,177117,2,0,P|442:189|423:131,1,110.000003356934
285,197,177410,5,0,0:0:0:0:
272,238,177483,1,0,0:0:0:0:
279,277,177556,1,0,0:0:0:0:
470,347,177702,5,0,0:0:0:0:
244,80,177995,1,4,0:3:0:0:
84,320,178288,1,4,0:3:0:0:
85,311,178361,1,0,0:0:0:0:
87,301,178434,1,0,0:0:0:0:
328,236,178581,6,0,P|296:176|244:176,1,110.000003356934
80,208,178873,5,10,0:0:0:0:
103,256,178946,1,0,0:0:0:0:
152,277,179019,1,0,0:0:0:0:
204,261,179092,1,0,0:0:0:0:
231,214,179166,1,8,0:0:0:0:
232,168,179239,1,0,0:0:0:0:
128,84,179312,6,0,L|164:136,5,55.0000016784668,2|0|8|0|0|0,0:0|0:0|0:0|0:0|0:0|0:0,0:0:0:0:
104,228,179751,6,0,L|168:208,3,55.0000016784668,10|0|0|0,0:0|0:0|0:0|0:0,0:0:0:0:
268,56,180044,5,10,0:0:0:0:
255,107,180117,1,0,0:0:0:0:
288,148,180190,1,0,0:0:0:0:
341,147,180263,1,0,0:0:0:0:
372,104,180337,1,8,0:0:0:0:
376,60,180410,1,0,0:0:0:0:
429,62,180483,1,0,0:0:0:0:
463,103,180556,1,0,0:0:0:0:
457,156,180629,1,4,0:3:0:0:
144,196,181215,6,2,P|156:224|168:232,4,40,0|0|8|0|0,0:0|0:0|0:0|0:0|0:0,0:0:0:0:
300,248,181581,1,2,0:0:0:0:
319,213,181654,1,8,0:0:0:0:
316,176,181727,1,0,0:0:0:0:
289,144,181800,1,0,0:0:0:0:
251,134,181873,1,0,0:0:0:0:
216,148,181946,1,8,0:0:0:0:
183,169,182019,1,0,0:0:0:0:
143,167,182092,1,0,0:0:0:0:
112,143,182165,1,0,0:0:0:0:
102,105,182238,1,8,0:0:0:0:
108,68,182312,1,0,0:0:0:0:
142,48,182385,1,0,0:0:0:0:
181,52,182458,1,0,0:0:0:0:
210,78,182531,1,8,0:0:0:0:
219,117,182604,1,0,0:0:0:0:
220,156,182678,1,0,0:0:0:0:
257,141,182751,1,0,0:0:0:0:
296,148,182824,1,8,0:0:0:0:
327,172,182897,1,0,0:0:0:0:
280,320,182971,6,0,L|300:256,7,40,2|0|8|0|0|0|8|0,0:0|0:0|0:0|0:0|0:0|0:0|0:0|0:0,0:0:0:0:
188,192,183556,6,0,L|264:184,7,40,2|0|8|0|0|0|8|0,0:0|0:0|0:0|0:0|0:0|0:0|0:0|0:0,0:0:0:0:
384,184,184142,5,0,0:0:0:0:
384,223,184215,1,0,0:0:0:0:
365,258,184289,1,8,0:0:0:0:
332,278,184361,1,0,0:0:0:0:
292,279,184434,1,0,0:0:0:0:
260,264,184507,1,0,0:0:0:0:
235,233,184581,1,8,0:0:0:0:
197,223,184653,1,0,0:0:0:0:
160,240,184726,5,0,0:0:0:0:
144,274,184799,1,0,0:0:0:0:
144,312,184874,1,8,0:0:0:0:
164,345,184946,1,0,0:0:0:0:
201,358,185019,1,0,0:0:0:0:
238,346,185092,1,0,0:0:0:0:
260,313,185166,1,8,0:0:0:0:
257,274,185238,1,0,0:0:0:0:
240,240,185312,1,0,0:0:0:0:
227,202,185385,1,0,0:0:0:0:
238,164,185458,1,8,0:0:0:0:
267,137,185531,1,0,0:0:0:0:
306,131,185604,1,0,0:0:0:0:
344,152,185678,1,0,0:0:0:0:
366,184,185751,1,8,0:0:0:0:
362,223,185824,1,0,0:0:0:0:
352,264,185898,1,0,0:0:0:0:
359,302,185971,1,0,0:0:0:0:
390,327,186044,1,8,0:0:0:0:
429,327,186117,1,0,0:0:0:0:
464,196,186190,6,0,L|432:240,3,40,2|0|8|0,0:0|0:0|0:0|0:0,0:0:0:0:
408,72,186483,6,0,L|400:136,7,40,2|0|8|0|0|0|8|0,0:0|0:0|0:0|0:0|0:0|0:0|0:0|0:0,0:0:0:0:
304,28,187068,6,0,L|320:84,3,40,2|0|8|0,0:0|0:0|0:0|0:0,0:0:0:0:
124,116,187361,5,0,0:0:0:0:
150,145,187434,1,0,0:0:0:0:
159,184,187508,1,8,0:0:0:0:
150,222,187580,1,0,0:0:0:0:
124,252,187653,1,0,0:0:0:0:
88,268,187727,1,0,0:0:0:0:
68,302,187801,1,8,0:0:0:0:
76,340,187873,1,0,0:0:0:0:
106,365,187946,1,0,0:0:0:0:
145,365,188019,1,0,0:0:0:0:
175,340,188093,1,8,0:0:0:0:
182,301,188166,1,0,0:0:0:0:
184,264,188239,1,0,0:0:0:0:
184,224,188312,1,0,0:0:0:0:
205,190,188385,1,8,0:0:0:0:
240,171,188458,1,0,0:0:0:0:
279,173,188531,1,0,0:0:0:0:
312,196,188605,1,0,0:0:0:0:
328,232,188678,1,8,0:0:0:0:
320,270,188751,1,0,0:0:0:0:
292,298,188824,1,0,0:0:0:0:
254,305,188897,1,0,0:0:0:0:
218,289,188970,1,8,0:0:0:0:
197,256,189044,1,0,0:0:0:0:
216,72,189117,6,8,P|192:112|196:128,2,40,10|8|8,0:0|0:0|0:0,0:0:0:0:
96,144,189337,6,0,P|120:184|144:184,2,40,2|0|0,0:0|0:0|0:0,0:0:0:0:
236,160,189556,5,8,0:0:0:0:
282,145,189629,1,0,0:0:0:0:
325,168,189702,1,0,0:0:0:0:
339,214,189775,1,0,0:0:0:0:
317,257,189848,1,8,0:0:0:0:
270,272,189921,1,0,0:0:0:0:
227,249,189995,1,0,0:0:0:0:
200,208,190068,1,0,0:0:0:0:
160,179,190141,1,8,0:0:0:0:
113,190,190214,1,0,0:0:0:0:
92,232,190288,6,0,P|108:296|204:272,1,150,2|8,0:0|0:0,0:0:0:0:
184,296,190581,6,0,P|272:212|324:252,1,200,2|0,0:0|0:0,0:0:0:0:
474,339,191020,1,8,0:0:0:0:
318,243,191166,2,0,P|298:179|310:119,1,100,0|8,0:0|0:0,0:0:0:0:
360,40,191459,6,0,L|420:68,3,50,2|0|8|0,0:0|0:0|0:0|0:0,0:0:0:0:
196,124,191751,6,0,L|136:152,3,50,2|0|8|0,0:0|0:0|0:0|0:0,0:0:0:0:
420,204,192044,6,0,L|480:232,3,50,2|8|0|0,0:0|0:0|0:0|0:0,0:0:0:0:
196,256,192337,6,0,P|160:216|184:144,1,100,0|8,0:0|0:0,0:0:0:0:
280,32,192629,1,0,0:0:0:0:
96,144,192776,1,8,0:0:0:0:
96,144,192922,2,0,L|224:128,1,100,0|8,0:0|0:0,0:0:0:0:
360,188,193215,2,0,B|300:200|300:200|248:200,1,100,0|8,0:0|0:0,0:0:0:0:
240,208,193434,5,2,0:0:0:0:
208,220,193507,2,0,P|136:232|88:208,1,100,0|8,0:0|0:0,0:0:0:0:
200,68,193800,2,0,B|216:108|216:108|220:132|220:132|232:180,1,100,0|8,0:0|0:0,0:0:0:0:
328,328,194093,2,0,P|352:268|324:216,1,100,0|8,0:0|0:0,0:0:0:0:
200,64,194385,1,0,0:0:0:0:
328,328,194532,1,8,0:0:0:0:
300,136,194678,1,0,0:0:0:0:
132,280,194824,6,0,B|172:224|120:160|120:160|164:172|164:172|112:120|120:64|136:48,1,300,10|0,0:0|0:0,0:0:0:0:
320,180,195410,1,8,0:0:0:0:
128,300,195556,1,0,0:0:0:0:
92,265,195629,1,0,0:0:0:0:
88,217,195702,1,8,0:0:0:0:
117,177,195775,1,0,0:0:0:0:
264,176,195849,6,0,P|216:204|192:196,3,50,2|0|8|0,0:0|0:0|0:0|0:0,0:0:0:0:
88,108,196142,6,0,P|136:132|160:124,3,50,2|0|8|0,0:0|0:0|0:0|0:0,0:0:0:0:
296,72,196434,5,0,0:0:0:0:
332,104,196507,1,0,0:0:0:0:
339,152,196580,1,8,0:0:0:0:
314,194,196653,1,0,0:0:0:0:
267,209,196726,1,0,0:0:0:0:
236,240,196800,1,0,0:0:0:0:
198,271,196873,1,8,0:0:0:0:
194,319,196946,1,0,0:0:0:0:
226,356,197019,1,0,0:0:0:0:
275,358,197092,1,0,0:0:0:0:
311,325,197165,1,8,0:0:0:0:
324,280,197239,1,0,0:0:0:0:
340,233,197312,1,0,0:0:0:0:
378,200,197385,1,0,0:0:0:0:
426,189,197458,1,8,0:0:0:0:
468,208,197532,1,0,0:0:0:0:
491,250,197605,5,2,0:3:0:0:
479,298,197678,1,2,0:3:0:0:
438,324,197751,1,10,0:3:0:0:
390,315,197824,1,2,0:3:0:0:
216,224,197898,6,0,P|244:236|280:232,3,50,0|2|10|2,0:0|0:3|0:3|0:3,0:0:0:0:
396,72,198190,6,0,P|380:104|344:120,3,50,2|2|10|2,0:0|0:3|0:3|0:3,0:0:0:0:
176,92,198483,6,0,P|216:136|236:132,3,50,2|2|10|2,0:0|0:3|0:3|0:3,0:0:0:0:
384,184,198776,5,8,0:2:0:0:
418,218,198849,1,8,0:2:0:0:
420,267,198922,1,8,0:2:0:0:
389,305,198995,1,8,0:2:0:0:
341,313,199068,1,2,0:3:0:0:
304,296,199142,1,2,0:3:0:0:
287,249,199215,1,10,0:3:0:0:
244,225,199288,1,2,0:3:0:0:
196,233,199361,1,2,0:3:0:0:
164,270,199434,1,8,0:2:0:0:
163,319,199507,1,8,0:2:0:0:
196,352,199581,1,8,0:2:0:0:
245,354,199654,1,2,0:3:0:0:
288,331,199727,1,2,0:3:0:0:
313,289,199800,1,10,0:3:0:0:
312,239,199873,1,2,0:3:0:0:
285,198,199946,1,6,0:3:0:0:
108,124,200093,5,0,0:0:0:0:
108,124,200166,1,0,0:0:0:0:
108,124,200239,1,0,0:0:0:0:
108,124,200312,1,0,0:0:0:0:
108,124,200385,1,0,0:0:0:0:
272,136,200532,1,0,0:0:0:0:
140,284,200678,6,0,P|188:316|200:316,5,50
372,204,201117,1,0,0:0:0:0:
176,200,201263,1,0,0:0:0:0:
288,68,201410,5,0,0:0:0:0:
288,68,201483,1,0,0:0:0:0:
288,68,201556,1,0,0:0:0:0:
368,292,201702,2,0,B|348:248|348:248|344:228|344:228|324:184,1,100
180,80,201995,1,0,0:0:0:0:
116,284,202142,1,0,0:0:0:0:
308,136,202288,5,0,0:0:0:0:
308,136,202361,1,0,0:0:0:0:
308,136,202434,1,0,0:0:0:0:
120,208,202581,1,0,0:0:0:0:
96,188,202654,1,0,0:0:0:0:
88,160,202727,1,0,0:0:0:0:
308,136,202873,6,0,P|308:204|288:248,1,100
284,244,203093,1,0,0:0:0:0:
264,252,203166,1,0,0:0:0:0:
168,84,203312,1,0,0:0:0:0:
180,112,203385,1,0,0:0:0:0:
196,144,203459,1,0,0:0:0:0:
308,320,203605,1,0,0:0:0:0:
176,92,203751,5,0,0:0:0:0:
176,92,203824,1,0,0:0:0:0:
176,92,203898,1,0,0:0:0:0:
376,132,204044,2,0,P|348:196|308:232,1,100
68,232,204337,2,0,P|46:162|105:227,1,200
128,216,204702,2,0,L|104:272,2,50
216,272,204922,2,0,L|216:336,2,50
176,92,205215,1,0,0:0:0:0:
424,232,205361,5,0,0:0:0:0:
412,208,205434,1,0,0:0:0:0:
416,180,205507,1,0,0:0:0:0:
464,72,205654,1,0,0:0:0:0:
244,248,205800,2,0,P|268:180|312:144,1,100
388,296,206093,5,0,0:0:0:0:
372,316,206166,1,0,0:0:0:0:
352,332,206239,1,0,0:0:0:0:
164,336,206385,1,0,0:0:0:0:
336,100,206532,1,0,0:0:0:0:
400,228,206678,1,0,0:0:0:0:
144,116,206824,6,0,B|184:135|184:135|209:144|209:144|252:164,1,100
400,228,207117,1,0,0:0:0:0:
166,287,207263,6,0,L|111:253,3,50
73,105,207556,2,0,L|133:149,3,50
272,242,207849,1,0,0:0:0:0:
234,46,207995,1,0,0:0:0:0:
157,189,208142,6,0,L|122:251,3,50
296,168,208434,2,0,L|331:106,3,50
228,311,208727,2,0,L|193:373,3,50
172,220,209020,5,0,0:0:0:0:
162,191,209093,1,0,0:0:0:0:
140,171,209166,1,0,0:0:0:0:
111,164,209239,1,0,0:0:0:0:
83,173,209312,1,0,0:0:0:0:
62,193,209385,1,0,0:0:0:0:
53,222,209459,1,0,0:0:0:0:
128,304,209605,5,0,0:0:0:0:
134,297,209678,1,0,0:0:0:0:
142,289,209752,1,0,0:0:0:0:
172,72,209898,2,0,P|176:132|160:196,1,100
216,292,210190,5,0,0:0:0:0:
216,284,210263,1,0,0:0:0:0:
216,272,210337,1,0,0:0:0:0:
216,260,210410,1,0,0:0:0:0:
216,248,210483,1,0,0:0:0:0:
216,84,210629,1,0,0:0:0:0:
344,232,210776,6,0,L|296:180,2,50
432,332,211068,6,0,L|356:248,1,100
216,84,211361,2,0,P|156:104|208:208,1,200
212,212,211727,1,0,0:0:0:0:
236,208,211800,1,0,0:0:0:0:
344,300,211946,1,0,0:0:0:0:
352,292,212020,1,0,0:0:0:0:
360,284,212093,1,0,0:0:0:0:
400,104,212239,2,0,L|324:184,1,100
320,184,212459,1,0,0:0:0:0:
304,192,212532,1,0,0:0:0:0:
152,160,212678,5,0,0:0:0:0:
144,132,212751,1,0,0:0:0:0:
168,104,212824,1,0,0:0:0:0:
296,64,212971,1,0,0:0:0:0:
272,264,213117,1,0,0:0:0:0:
268,256,213190,1,0,0:0:0:0:
264,248,213263,1,0,0:0:0:0:
191,188,213410,6,0,P|195:136|227:236,1,400,8|0,0:0|0:0,0:0:0:0:
184,276,214068,1,0,0:0:0:0:
156,248,214142,1,0,0:0:0:0:
168,104,214288,5,0,0:0:0:0:
184,120,214361,1,0,0:0:0:0:
196,148,214434,1,0,0:0:0:0:
280,276,214581,1,0,0:0:0:0:
328,104,214727,5,0,0:0:0:0:
352,128,214800,1,0,0:0:0:0:
352,164,214873,1,0,0:0:0:0:
200,296,215020,1,0,0:0:0:0:
240,272,215093,1,0,0:0:0:0:
288,292,215166,1,0,0:0:0:0:
120,356,215312,1,0,0:0:0:0:
240,272,215459,5,0,0:0:0:0:
236,248,215532,1,0,0:0:0:0:
220,232,215605,1,0,0:0:0:0:
20,184,215751,2,0,L|84:292,1,100
152,364,216044,1,0,0:0:0:0:
184,180,216190,1,0,0:0:0:0:
68,136,216337,5,0,0:0:0:0:
58,183,216410,1,0,0:0:0:0:
85,224,216483,1,0,0:0:0:0:
133,235,216556,1,0,0:0:0:0:
224,144,216629,6,0,P|164:160|156:176,3,50
133,235,216922,6,0,P|112:292|120:312,3,50
204,352,217215,6,0,P|256:364|272:356,3,50
212,144,217507,2,0,B|188:184|188:184|180:208|180:208|152:256,1,100
320,84,217800,6,0,P|332:136|328:172,1,50
288,240,217946,2,0,P|264:288|240:304,1,50
148,288,218093,2,0,P|92:276|76:260,1,50
72,172,218239,2,0,P|60:116|68:96,1,50
188,56,218385,5,0,0:0:0:0:
193,90,218458,1,0,0:0:0:0:
199,125,218531,1,0,0:0:0:0:
204,159,218604,1,0,0:0:0:0:
208,192,218678,2,0,B|214:232|214:232|219:241|219:241|228:296,1,100
356,336,218971,6,0,L|324:224,1,100,8|0,0:0|0:0,0:0:0:0:
288,64,219263,1,0,0:0:0:0:
136,232,219410,1,0,0:0:0:0:
136,232,219556,2,0,P|204:272|252:240,1,100,8|0,0:0|0:0,0:0:0:0:
512,152,219849,2,0,P|444:112|396:144,1,100
288,328,220142,1,8,0:0:0:0:
384,168,220288,1,0,0:0:0:0:
384,168,220434,2,0,P|328:128|260:112,1,100,4|0,0:0|0:0,0:0:0:0:
48,304,220727,2,0,B|87:274|87:274|105:264|105:264|148:232,1,100,8|0,0:0|0:0,0:0:0:0:
224,40,221020,1,4,0:0:0:0:
432,96,221166,1,0,0:0:0:0:
432,96,221312,6,8,P|468:168|476:224,1,100,8|0,0:0|0:0,0:0:0:0:
400,296,221605,2,0,P|472:304|512:340,1,100,4|0,0:0|0:0,0:0:0:0:
160,344,221898,2,0,P|88:336|48:300,1,100,8|0,0:0|0:0,0:0:0:0:
120,160,222190,1,0,0:0:0:0:
272,128,222337,1,0,0:0:0:0:
272,128,222483,2,8,B|279:76|279:76|288:64|288:64|300:8,1,100,8|0,0:0|0:0,0:0:0:0:
64,240,222776,2,0,P|132:296|172:292,1,100,4|0,0:0|0:0,0:0:0:0:
368,120,223068,1,8,0:0:0:0:
160,240,223215,1,0,0:0:0:0:
160,240,223361,1,0,0:0:0:0:
356,228,223507,1,0,0:0:0:0:
148,144,223654,1,8,0:0:0:0:
356,228,223800,1,0,0:0:0:0:
248,76,223946,5,0,0:0:0:0:
160,256,224093,1,0,0:0:0:0:
248,76,224239,1,8,0:0:0:0:
260,260,224385,1,0,0:0:0:0:
348,108,224532,5,8,0:0:0:0:
152,180,224678,1,0,0:0:0:0:
380,236,224824,1,0,0:0:0:0:
152,180,224971,1,0,0:0:0:0:
232,68,225117,5,0,0:0:0:0:
248,292,225263,1,0,0:0:0:0:
312,96,225410,1,8,0:0:0:0:
344,236,225556,1,0,0:0:0:0:
160,76,225702,6,0,P|184:128|208:144,1,50,8|0,0:0|0:0,0:0:0:0:
96,188,225849,2,0,P|148:208|183:200,1,50
124,320,225995,2,0,P|172:300|188:276,1,50,8|0,0:0|0:0,0:0:0:0:
208,152,226142,6,0,L|264:152,1,50
256,248,226288,2,0,L|316:248,1,50
84,152,226434,2,0,L|148:152,1,50,8|0,0:0|0:0,0:0:0:0:
136,264,226581,2,0,L|208:260,1,50,8|0,0:0|0:0,0:0:0:0:
340,88,226727,6,0,P|272:88|252:80,1,50
256,240,226873,2,0,P|220:196|216:164,1,50,4|0,0:0|0:0,0:0:0:0:
96,200,227020,2,0,P|120:140|136:128,1,50
340,176,227166,6,0,L|276:140,1,50,8|0,0:0|0:0,0:0:0:0:
164,240,227312,2,0,L|184:180,1,50
44,64,227459,5,0,0:0:0:0:
93,64,227532,1,0,0:0:0:0:
143,68,227605,1,0,0:0:0:0:
472,192,227751,2,0,B|430:192|430:192|392:196|392:196|348:196,1,100
36,272,228044,6,0,B|128:212|156:312|240:248,1,200,2|8,0:0|0:0,0:0:0:0:
376,72,228483,1,0,0:0:0:0:
376,72,228629,2,8,L|260:72,1,100,0|0,0:0|0:0,0:0:0:0:
64,304,228922,2,0,P|128:312|156:288,1,100,8|0,0:0|0:0,0:0:0:0:
296,32,229215,6,0,P|280:96|312:132,1,100
472,196,229507,1,8,0:0:0:0:
472,196,229654,1,0,0:0:0:0:
144,224,229800,2,0,P|112:176|124:124,1,100
392,328,230093,1,8,0:0:0:0:
184,160,230239,1,0,0:0:0:0:
416,64,230385,6,0,L|288:24,1,100,2|0,0:0|0:0,0:0:0:0:
488,240,230678,2,8,L|372:208,1,100,8|0,0:0|0:0,0:0:0:0:
96,96,230971,1,0,0:0:0:0:
276,280,231117,1,0,0:0:0:0:
280,40,231263,2,0,P|220:104|216:148,1,100,8|0,0:0|0:0,0:0:0:0:
112,256,231556,6,0,P|140:332|192:352,1,100
352,248,231849,2,0,P|384:192|380:172,1,50
316,72,231995,2,0,P|272:40|236:32,1,50
116,56,232142,6,0,B|96:76|96:76|124:80|124:80|104:84|104:84|128:84|128:84|100:88|100:88|136:92|136:92|104:108|104:108|144:116|168:136|168:172|164:176,1,300
84,280,232727,5,0,0:0:0:0:
114,317,232800,1,0,0:0:0:0:
162,319,232873,1,0,0:0:0:0:
195,283,232946,1,0,0:0:0:0:
189,235,233019,1,0,0:0:0:0:
156,208,233093,1,0,0:0:0:0:
157,159,233166,1,0,0:0:0:0:
196,130,233239,1,0,0:0:0:0:
243,141,233312,1,0,0:0:0:0:
272,180,233385,1,0,0:0:0:0:
293,223,233458,1,0,0:0:0:0:
340,234,233531,1,0,0:0:0:0:
378,203,233604,1,0,0:0:0:0:
376,160,233678,1,0,0:0:0:0:
338,130,233751,1,0,0:0:0:0:
292,144,233824,1,0,0:0:0:0:
276,188,233897,5,0,0:0:0:0:
260,228,233971,1,0,0:0:0:0:
247,275,234044,1,0,0:0:0:0:
205,297,234117,1,0,0:0:0:0:
159,280,234190,1,0,0:0:0:0:
132,244,234263,1,0,0:0:0:0:
120,196,234336,1,0,0:0:0:0:
146,155,234409,1,0,0:0:0:0:
196,172,234482,1,0,0:0:0:0:
240,144,234556,1,0,0:0:0:0:
250,96,234629,1,0,0:0:0:0:
221,57,234702,1,0,0:0:0:0:
173,53,234775,1,0,0:0:0:0:
138,86,234848,1,0,0:0:0:0:
140,135,234921,1,0,0:0:0:0:
160,172,234995,1,0,0:0:0:0:
182,215,235068,5,0,0:0:0:0:
177,265,235141,1,0,0:0:0:0:
147,303,235214,1,0,0:0:0:0:
100,319,235287,1,0,0:0:0:0:
56,320,235361,1,0,0:0:0:0:
39,274,235434,1,0,0:0:0:0:
59,229,235507,1,0,0:0:0:0:
105,211,235580,1,0,0:0:0:0:
144,236,235654,1,0,0:0:0:0:
176,272,235727,1,0,0:0:0:0:
225,279,235800,1,0,0:0:0:0:
267,254,235873,1,0,0:0:0:0:
272,208,235946,6,0,P|244:136|152:216,1,239.999992675781
152,40,236385,5,0,0:0:0:0:
164,56,236458,1,0,0:0:0:0:
176,72,236531,1,0,0:0:0:0:
400,304,236678,1,0,0:0:0:0:
448,40,236824,1,0,0:0:0:0:
192,296,236971,1,0,0:0:0:0:
272,112,237117,37,0,0:0:0:0:
286,148,237190,1,0,0:0:0:0:
269,183,237263,1,0,0:0:0:0:
232,196,237336,1,0,0:0:0:0:
204,192,237410,6,0,P|192:129|212:98,1,89.9999972534181
312,36,237702,5,0,0:0:0:0:
368,320,237849,2,0,B|340:320|340:320|296:336|256:292,1,89.9999972534181
96,200,238142,1,0,0:0:0:0:
320,56,238288,2,0,B|271:55|271:55|192:68,1,89.9999972534181
64,272,238581,1,0,0:0:0:0:
432,320,238727,5,0,0:0:0:0:
432,320,238873,2,0,B|380:308|380:308|320:272,1,89.9999972534181
64,272,239166,1,0,0:0:0:0:
64,272,239312,2,0,P|52:211|83:175,1,89.9999972534181
244,64,239605,1,0,0:0:0:0:
400,264,239751,2,0,B|396:336|396:336|376:312,1,89.9999972534181
88,240,240044,5,0,0:0:0:0:
88,240,240117,1,0,0:0:0:0:
88,240,240190,1,0,0:0:0:0:
368,144,240337,1,0,0:0:0:0:
113,308,240483,1,0,0:0:0:0:
204,99,240629,2,0,L|316:79,1,89.9999972534181
460,269,240922,2,0,B|414:277|414:277|354:275,1,89.9999972534181
152,112,241215,2,0,B|124:157|124:157|112:204,1,89.9999972534181
360,28,241507,2,0,L|297:126,1,89.9999972534181
416,336,241800,2,0,P|456:292|464:248,1,89.9999972534181
206,65,242093,6,0,B|198:105|239:129|239:129|259:165|224:214,1,150.000005722046
112,321,242385,1,0,0:0:0:0:
86,290,242459,1,0,0:0:0:0:
77,248,242532,1,0,0:0:0:0:
389,112,242678,2,0,B|409:152|409:152|417:212,1,89.9999972534181
80,232,242971,2,0,P|84:160|128:136,1,89.9999972534181
432,312,243263,6,0,P|370:350|325:327,1,89.9999972534181
160,116,243556,1,0,0:0:0:0:
208,328,243702,1,0,0:0:0:0:
328,64,243849,2,0,B|356:136|356:136|368:100,1,89.9999972534181
124,48,244142,1,0,0:0:0:0:
304,296,244288,1,0,0:0:0:0:
44,72,244434,6,0,L|148:128,1,89.9999972534181
396,224,244727,2,0,L|296:184,1,89.9999972534181
184,144,245020,1,0,0:0:0:0:
192,320,245166,1,0,0:0:0:0:
240,56,245312,2,0,P|176:36|136:68,1,89.9999972534181
64,172,245605,6,0,P|116:196|144:192,3,44.999998626709
192,128,245898,5,0,0:0:0:0:
213,148,245971,1,0,0:0:0:0:
226,175,246044,1,0,0:0:0:0:
227,205,246117,1,0,0:0:0:0:
208,232,246190,1,0,0:0:0:0:
202,261,246263,1,0,0:0:0:0:
214,288,246336,1,0,0:0:0:0:
239,304,246409,1,0,0:0:0:0:
280,292,246483,6,0,B|272:244|308:228|308:228|284:208|284:208|308:196|300:136,1,179.999994506836
240,32,246776,6,0,P|200:76|228:175,1,150.000005722046
376,320,247068,1,0,0:0:0:0:
409,291,247141,1,0,0:0:0:0:
417,247,247214,1,0,0:0:0:0:
124,72,247361,2,0,B|132:112|132:112|144:132|144:132|156:176,1,89.9999972534181
349,247,247654,1,0,0:0:0:0:
220,112,247800,1,0,0:0:0:0:
448,320,247946,6,0,B|416:288|416:288|408:288|408:288|368:256,1,89.9999972534181
144,32,248239,1,0,0:0:0:0:
176,304,248385,1,0,0:0:0:0:
336,96,248532,2,0,P|276:96|208:120,1,89.9999972534181
384,288,248824,2,0,P|460:288|488:296,1,89.9999972534181
144,48,249117,6,0,B|124:100|124:100|144:168,1,89.9999972534181
136,152,249337,1,0,0:0:0:0:
144,176,249410,1,0,0:0:0:0:
304,40,249556,1,0,0:0:0:0:
459,263,249702,2,0,P|411:295|359:255,1,89.9999972534181
48,160,249995,1,0,0:0:0:0:
336,72,250142,1,0,0:0:0:0:
304,328,250288,6,0,L|288:204,1,89.9999972534181
112,120,250581,2,0,P|117:190|137:208,1,89.9999972534181
152,48,250873,2,0,P|92:32|64:48,1,89.9999972534181
260,216,251166,1,0,0:0:0:0:
224,32,251312,1,0,0:0:0:0:
48,304,251459,6,0,B|93:317|93:317|116:320|116:320|200:344,1,110.000003356934
340,240,251751,1,0,0:0:0:0:
244,92,251898,1,0,0:0:0:0:
464,112,252044,2,0,P|464:160|424:196,1,89.9999972534181
136,80,252337,1,0,0:0:0:0:
368,48,252483,1,0,0:0:0:0:
184,240,252629,2,0,L|112:344,1,89.9999972534181
200,136,252922,2,0,P|252:136|280:188,1,89.9999972534181
80,120,253215,6,0,P|60:68|76:48,3,44.999998626709
184,104,253507,5,0,0:0:0:0:
206,141,253580,1,0,0:0:0:0:
203,186,253653,1,0,0:0:0:0:
175,220,253726,1,0,0:0:0:0:
140,236,253800,1,0,0:0:0:0:
129,278,253873,1,0,0:0:0:0:
154,313,253946,1,0,0:0:0:0:
197,317,254019,1,0,0:0:0:0:
232,300,254093,1,0,0:0:0:0:
245,258,254166,1,0,0:0:0:0:
283,235,254239,1,0,0:0:0:0:
327,242,254312,1,0,0:0:0:0:
356,276,254385,1,0,0:0:0:0:
335,323,254458,1,0,0:0:0:0:
285,334,254531,1,0,0:0:0:0:
248,296,254604,5,0,0:0:0:0:
257,246,254677,1,0,0:0:0:0:
288,216,254751,1,0,0:0:0:0:
311,168,254824,1,0,0:0:0:0:
292,128,254898,1,0,0:0:0:0:
256,104,254971,5,0,0:0:0:0:
211,143,255044,1,0,0:0:0:0:
158,117,255117,1,0,0:0:0:0:
162,58,255190,1,0,0:0:0:0:
216,32,255263,1,0,0:0:0:0:
268,64,255336,1,0,0:0:0:0:
290,122,255409,1,0,0:0:0:0:
273,181,255482,5,0,0:0:0:0:
216,196,255556,1,0,0:0:0:0:
188,240,255629,1,0,0:0:0:0:
205,289,255702,1,0,0:0:0:0:
253,309,255775,1,0,0:0:0:0:
304,296,255849,5,0,0:0:0:0:
329,260,255922,1,0,0:0:0:0:
372,250,255995,1,0,0:0:0:0:
410,271,256068,1,0,0:0:0:0:
416,308,256142,6,0,P|368:344|304:312,1,100,8|0,0:0|0:0,0:0:0:0:
172,216,256434,1,0,0:0:0:0:
388,196,256581,1,0,0:0:0:0:
84,276,256727,1,0,0:0:0:0:
232,56,256873,1,0,0:0:0:0:
172,216,257020,2,0,B|208:264|208:264|228:328,1,100,8|0,0:0|0:0,0:0:0:0:
104,200,257312,2,0,P|124:144|200:148,1,100
376,128,257605,1,8,0:0:0:0:
256,264,257751,6,0,P|212:200|280:104,1,200,2|8,0:0|0:0,0:0:0:0:
392,68,258190,1,0,0:0:0:0:
372,196,258337,1,0,0:0:0:0:
128,32,258483,2,0,B|152:80|140:104|140:104|88:152|96:196|100:244,1,200,2|8,0:0|0:0,0:0:0:0:
264,316,258922,5,0,0:0:0:0:
288,128,259068,1,0,0:0:0:0:
420,204,259215,1,0,0:0:0:0:
232,212,259361,2,0,L|128:184,1,100,8|0,0:0|0:0,0:0:0:0:
278,43,259654,2,0,P|298:115|250:139,1,100
72,292,259946,1,0,0:0:0:0:
192,88,260093,1,0,0:0:0:0:
248,276,260239,2,0,L|124:204,1,100
320,272,260532,2,0,P|296:341|239:335,1,100,8|0,0:0|0:0,0:0:0:0:
368,112,260824,6,0,B|392:160|364:208|364:208|412:248|392:312,1,200,2|0,0:0|0:0,0:0:0:0:
232,84,261263,1,0,0:0:0:0:
148,264,261410,1,0,0:0:0:0:
316,80,261556,5,0,0:0:0:0:
392,268,261702,2,0,P|328:256|304:212,1,100,8|0,0:0|0:0,0:0:0:0:
184,64,261995,2,0,P|180:132|84:76,1,200,2|8,0:0|0:0,0:0:0:0:
320,308,262434,1,0,0:0:0:0:
272,48,262581,1,0,0:0:0:0:
432,208,262727,1,0,0:0:0:0:
124,148,262873,2,0,L|268:144,1,100,8|0,0:0|0:0,0:0:0:0:
436,180,263166,6,0,B|380:172|352:220|352:220|320:268|252:244,1,200,2|8,0:0|0:0,0:0:0:0:
168,124,263605,1,0,0:0:0:0:
344,96,263751,2,0,P|308:160|264:160,1,100
272,264,264044,2,0,P|204:308|204:344,1,100,8|0,0:0|0:0,0:0:0:0:
408,248,264337,1,0,0:0:0:0:
272,136,264483,1,0,0:0:0:0:
412,104,264629,1,0,0:0:0:0:
288,264,264776,1,0,0:0:0:0:
340,72,264922,5,0,0:0:0:0:
308,88,264995,1,0,0:0:0:0:
284,104,265068,5,0,0:0:0:0:
316,112,265141,1,0,0:0:0:0:
344,116,265214,1,0,0:0:0:0:
100,76,265361,1,0,0:0:0:0:
100,76,265507,6,0,P|80:164|96:200,1,100,8|0,0:0|0:0,0:0:0:0:
204,332,265800,1,0,0:0:0:0:
364,172,265946,1,0,0:0:0:0:
144,328,266093,2,0,P|184:272|244:292,1,100
428,360,266385,1,8,0:0:0:0:
128,224,266532,1,0,0:0:0:0:
412,136,266678,2,0,B|324:120|324:120|284:132,1,100
29,236,266971,2,0,B|117:220|117:220|157:232,1,100,8|0,0:0|0:0,0:0:0:0:
368,332,267263,1,0,0:0:0:0:
316,92,267410,1,0,0:0:0:0:
384,192,267556,2,0,P|452:184|464:128,1,100,8|0,0:0|0:0,0:0:0:0:
320,252,267849,6,0,P|396:276|520:232,1,200,2|0,0:0|0:0,0:0:0:0:
276,112,268288,1,0,0:0:0:0:
120,236,268434,1,0,0:0:0:0:
248,204,268581,1,0,0:0:0:0:
84,336,268727,1,0,0:0:0:0:
272,312,268873,1,0,0:0:0:0:
108,168,269020,6,0,P|196:180|224:152,1,100,8|0,0:0|0:0,0:0:0:0:
264,88,269312,1,0,0:0:0:0:
68,216,269459,2,0,P|40:168|80:112,1,100
128,60,269751,1,0,0:0:0:0:
136,228,269898,2,0,P|104:284|56:288,1,100,8|0,0:0|0:0,0:0:0:0:
128,52,270190,6,0,B|128:112|156:168|156:168|176:172|192:188|208:216|192:252,1,200,10|0,0:0|0:0,0:0:0:0:
104,336,270629,1,0,0:0:0:0:
256,140,270776,1,0,0:0:0:0:
248,336,270922,1,0,0:0:0:0:
116,240,271068,1,0,0:0:0:0:
336,232,271215,1,0,0:0:0:0:
312,80,271361,6,0,P|256:64|192:188,1,200,10|0,0:0|0:0,0:0:0:0:
392,264,271800,1,0,0:0:0:0:
256,140,271946,1,0,0:0:0:0:
484,200,272093,1,0,0:0:0:0:
208,240,272239,2,0,P|144:236|104:192,1,100,8|0,0:0|0:0,0:0:0:0:
248,308,272532,6,0,P|164:316|40:236,1,200,10|0,0:0|0:0,0:0:0:0:
64,112,272971,1,0,0:0:0:0:
184,212,273117,2,0,P|172:284|136:336,1,100
228,44,273410,1,0,0:0:0:0:
280,204,273556,2,0,P|292:276|328:328,1,100
416,92,273849,5,0,0:0:0:0:
369,74,273922,1,0,0:0:0:0:
318,70,273995,1,0,0:0:0:0:
268,80,274068,1,0,0:0:0:0:
230,112,274141,1,0,0:0:0:0:
199,151,274214,1,0,0:0:0:0:
228,256,274288,6,0,P|272:216|276:196,3,50
92,304,274581,5,0,0:0:0:0:
126,339,274654,1,0,0:0:0:0:
172,356,274727,1,0,0:0:0:0:
222,351,274800,1,0,0:0:0:0:
268,336,274873,6,0,P|316:304|328:264,1,100,2|0,0:0|0:0,0:0:0:0:
283,117,275166,5,0,0:0:0:0:
167,148,275312,1,0,0:0:0:0:
214,55,275459,1,0,0:0:0:0:
246,208,275605,5,0,0:0:0:0:
94,160,275751,1,0,0:0:0:0:
259,12,275898,1,0,0:0:0:0:
205,122,276044,5,0,0:0:0:0:
341,98,276190,1,0,0:0:0:0:
188,33,276337,1,0,0:0:0:0:
268,165,276483,1,0,0:0:0:0:
401,33,276629,5,0,0:0:0:0:
366,188,276776,1,0,0:0:0:0:
251,59,276922,1,0,0:0:0:0:
195,222,277068,1,0,0:0:0:0:
325,114,277215,5,0,0:0:0:0:
157,142,277361,1,0,0:0:0:0:
175,23,277507,1,0,0:0:0:0:
288,200,277654,5,0,0:0:0:0:
389,133,277800,1,0,0:0:0:0:
405,31,277946,1,0,0:0:0:0:
270,120,278093,5,0,0:0:0:0:
162,242,278239,1,0,0:0:0:0:
321,275,278385,1,0,0:0:0:0:
176,138,278532,1,0,0:0:0:0:
239,304,278678,5,0,0:0:0:0:
61,288,278824,1,0,0:0:0:0:
190,50,278971,1,0,0:0:0:0:
329,318,279117,5,0,0:0:0:0:
75,190,279263,1,0,0:0:0:0:
275,149,279410,1,0,0:0:0:0:
181,279,279556,1,0,0:0:0:0:
126,106,279702,1,0,0:0:0:0:
293,240,279849,5,0,0:0:0:0:
215,343,279995,1,0,0:0:0:0:
184,199,280142,1,0,0:0:0:0:
355,277,280288,5,0,0:0:0:0:
101,275,280434,1,0,0:0:0:0:
232,88,280581,1,0,0:0:0:0:
246,345,280727,5,0,0:0:0:0:
92,135,280873,1,0,0:0:0:0:
356,245,281020,1,0,0:0:0:0:
158,296,281166,1,0,0:0:0:0:
243,55,281312,1,0,0:0:0:0:
282,208,281459,1,0,0:0:0:0:
115,139,281605,5,0,0:0:0:0:
345,107,281751,1,0,0:0:0:0:
171,297,281898,5,0,0:0:0:0:
150,47,282044,1,0,0:0:0:0:
251,124,282190,5,0,0:0:0:0:
32,151,282337,1,0,0:0:0:0:
171,297,282483,5,0,0:0:0:0:
150,47,282629,1,0,0:0:0:0:
251,124,282776,5,0,0:0:0:0:
32,151,282922,1,0,0:0:0:0:
456,268,283068,6,0,P|392:240|368:200,1,100,8|0,0:0|0:0,0:0:0:0:
392,48,283361,6,0,P|360:88|320:100,1,50
288,176,283507,2,0,P|224:164|208:148,1,50
116,180,283654,2,0,P|92:128|96:100,1,50
220,40,283800,6,0,P|256:88|260:120,1,50
320,136,283946,2,0,P|316:192|296:228,1,50
280,268,284093,2,0,P|232:308|204:312,1,50
28,152,284239,6,0,P|20:212|64:128,1,300.000011444092,4|0,0:0|0:0,0:0:0:0:
484,152,284824,6,0,P|492:212|448:128,1,300.000011444092,4|0,0:0|0:0,0:0:0:0:
32,364,285410,6,0,P|164:288|112:176,1,300.000011444092,4|0,0:0|0:0,0:0:0:0:
480,20,285995,6,0,P|348:96|400:208,1,300.000011444092,4|0,0:0|0:0,0:0:0:0:
24,187,286581,6,0,B|116:216|168:147|168:147|210:207|304:187,1,300.000011444092,4|0,0:0|0:0,0:0:0:0:
487,187,287166,6,0,B|399:203|343:147|343:147|298:210|207:187,1,300.000011444092,4|0,0:0|0:0,0:0:0:0:
144,100,287751,6,0,L|140:188,1,50
228,192,287898,5,0,0:0:0:0:
228,200,287971,1,0,0:0:0:0:
228,208,288044,2,0,L|228:284,1,50
328,336,288190,2,0,L|328:264,1,50
328,96,288337,2,0,L|328:156,1,50
156,200,288483,5,0,0:0:0:0:
156,188,288556,1,0,0:0:0:0:
156,176,288629,2,0,L|156:80,1,50
264,44,288776,5,0,0:0:0:0:
280,88,288849,1,0,0:0:0:0:
264,132,288922,6,0,P|212:172|172:160,1,100,8|0,0:0|0:0,0:0:0:0:
168,164,289142,1,0,0:0:0:0:
148,168,289215,2,0,P|104:272|112:288,1,100,8|0,0:0|0:0,0:0:0:0:
372,344,289507,1,8,0:0:0:0:
176,236,289654,1,0,0:0:0:0:
176,236,289727,1,0,0:0:0:0:
176,236,289800,1,8,0:0:0:0:
440,212,289946,1,0,0:0:0:0:
440,212,290093,6,0,P|372:176|320:168,1,100,8|0,0:0|0:0,0:0:0:0:
52,180,290385,1,8,0:0:0:0:
312,232,290532,1,0,0:0:0:0:
312,232,290605,1,0,0:0:0:0:
312,232,290678,1,8,0:0:0:0:
120,248,290824,1,0,0:0:0:0:
368,152,290971,2,0,L|236:160,1,100,8|0,0:0|0:0,0:0:0:0:
436,200,291263,6,0,P|460:140|416:84,1,100,8|0,0:0|0:0,0:0:0:0:
436,108,291483,1,0,0:0:0:0:
420,108,291556,2,0,L|316:160,1,100,8|0,0:0|0:0,0:0:0:0:
140,252,291849,1,8,0:0:0:0:
272,92,291995,1,0,0:0:0:0:
196,296,292142,2,0,P|140:332|96:308,1,100,8|0,0:0|0:0,0:0:0:0:
100,128,292434,5,8,0:0:0:0:
100,128,292507,1,0,0:0:0:0:
100,128,292581,1,0,0:0:0:0:
296,244,292727,1,8,0:0:0:0:
148,240,292873,1,0,0:0:0:0:
368,104,293020,5,8,0:0:0:0:
409,129,293093,1,0,0:0:0:0:
430,174,293166,1,0,0:0:0:0:
421,223,293239,1,0,0:0:0:0:
400,268,293312,6,0,L|320:284,1,50,8|0,0:0|0:0,0:0:0:0:
224,316,293459,2,0,L|176:296,1,50
44,160,293605,6,0,B|88:132|112:188|160:172,1,110.000003356934,4|0,0:0|0:0,0:0:0:0:
380,176,293898,1,8,0:0:0:0:
180,52,294044,1,8,0:0:0:0:
48,240,294190,2,0,P|112:208|12:96,1,259.999988098145,8|0,0:0|0:0,0:0:0:0:
292,188,294629,1,8,0:0:0:0:
32,320,294776,5,0,0:0:0:0:
212,352,294922,1,8,0:0:0:0:
112,160,295068,1,0,0:0:0:0:
368,272,295215,1,8,0:0:0:0:
216,240,295361,6,8,B|232:216|232:216|200:176|200:152|224:112|248:104,1,129.999994049073
116,288,295654,1,0,0:0:0:0:
288,160,295800,1,8,0:0:0:0:
52,80,295946,6,0,P|96:120|184:72,1,129.999994049073,8|8,0:0|0:0,0:0:0:0:
276,60,296239,1,0,0:0:0:0:
360,208,296385,1,8,0:0:0:0:
80,248,296532,2,8,B|120:264|120:264|176:264|176:264|232:280,1,129.999994049073
448,312,296824,2,8,B|408:328|408:328|352:328|352:328|296:344,1,129.999994049073
72,348,297117,1,0,0:0:0:0:
72,348,297190,1,0,0:0:0:0:
72,348,297263,1,8,0:0:0:0:
272,101,297410,1,0,0:0:0:0:
236,276,297556,1,8,0:0:0:0:
208,72,297702,6,0,P|264:28|288:168,1,259.999988098145
80,200,298142,1,8,0:0:0:0:
293,229,298288,6,0,P|309:301|218:324,1,129.999994049073,0|8,0:0|0:0,0:0:0:0:
322,138,298581,2,0,P|246:140|200:198,1,129.999994049073
482,143,298873,1,0,0:0:0:0:
209,174,299020,2,0,L|67:220,1,129.999994049073,8|0,0:0|0:0,0:0:0:0:
496,104,299312,1,8,0:0:0:0:
62,103,299459,6,0,P|46:175|80:227,1,129.999994049073,0|8,0:0|0:0,0:0:0:0:
356,248,299751,1,0,0:0:0:0:
218,105,299898,1,8,0:0:0:0:
200,268,300044,1,0,0:0:0:0:
200,268,300117,1,0,0:0:0:0:
200,268,300190,1,8,0:0:0:0:
278,44,300337,6,0,P|198:24|166:169,1,259.999988098145
420,168,300776,1,8,0:0:0:0:
218,105,300922,1,0,0:0:0:0:
200,224,301068,1,8,0:0:0:0:
404,44,301215,1,0,0:0:0:0:
404,44,301288,1,0,0:0:0:0:
404,44,301361,1,8,0:0:0:0:
337,286,301507,1,0,0:0:0:0:
284,120,301654,1,8,0:0:0:0:
392,225,301800,6,0,P|424:281|365:359,1,129.999994049073,0|8,0:0|0:0,0:0:0:0:
192,344,302093,1,0,0:0:0:0:
376,96,302239,1,8,0:0:0:0:
379,304,302385,6,0,P|451:292|417:146,1,259.999988098145
148,244,302824,1,8,0:0:0:0:
352,156,302971,6,0,P|420:148|454:58,1,129.999994049073,0|8,0:0|0:0,0:0:0:0:
224,48,303263,1,0,0:0:0:0:
308,268,303410,1,8,0:0:0:0:
136,140,303556,1,0,0:0:0:0:
412,172,303702,1,8,0:0:0:0:
168,240,303849,1,0,0:0:0:0:
408,304,303995,1,8,0:0:0:0:
72,156,304142,6,0,P|80:100|162:49,1,129.999994049073,0|8,0:0|0:0,0:0:0:0:
140,344,304434,1,0,0:0:0:0:
264,136,304581,1,8,0:0:0:0:
76,252,304727,6,0,P|132:224|69:66,1,259.999988098145
240,292,305166,1,8,0:0:0:0:
293,62,305312,6,0,P|341:110|305:199,1,129.999994049073,0|8,0:0|0:0,0:0:0:0:
140,296,305605,1,0,0:0:0:0:
264,136,305751,1,8,0:0:0:0:
96,104,305898,1,0,0:0:0:0:
352,280,306044,1,8,0:0:0:0:
184,68,306190,1,0,0:0:0:0:
216,264,306337,1,8,0:0:0:0:
415,228,306483,6,8,P|431:296|367:354,1,129.999994049073
128,196,306776,2,0,L|271:237,1,129.999994049073,0|8,0:0|0:0,0:0:0:0:
416,116,307068,2,0,L|280:146,1,129.999994049073,0|8,0:0|0:0,0:0:0:0:
96,128,307361,5,0,0:0:0:0:
55,162,307434,1,0,0:0:0:0:
58,215,307507,1,8,0:0:0:0:
360,304,307654,2,0,P|368:232|329:168,1,129.999994049073,4|0,0:0|0:0,0:0:0:0:
224,60,307946,1,0,0:0:0:0:
240,276,308093,1,0,0:0:0:0:
301,113,308239,2,0,P|221:93|161:125,1,110.000003356934,4|0,0:0|0:0,0:0:0:0:
28,244,308532,1,0,0:0:0:0:
332,292,308678,1,0,0:0:0:0:
264,48,308824,2,0,P|232:112|259:185,1,110.000003356934,4|0,0:0|0:0,0:0:0:0:
460,272,309117,1,0,0:0:0:0:
368,96,309263,1,0,0:0:0:0:
280,312,309410,2,0,L|312:188,1,110.000003356934,4|0,0:0|0:0,0:0:0:0:
136,40,309702,5,0,0:0:0:0:
93,74,309775,1,0,0:0:0:0:
77,125,309848,1,0,0:0:0:0:
91,177,309921,1,0,0:0:0:0:
131,214,309994,5,0,0:0:0:0:
185,222,310067,1,0,0:0:0:0:
234,200,310141,1,0,0:0:0:0:
260,144,310215,1,0,0:0:0:0:
310,137,310288,1,0,0:0:0:0:
362,154,310361,1,0,0:0:0:0:
372,200,310434,1,0,0:0:0:0:
343,245,310507,1,0,0:0:0:0:
292,265,310580,1,0,0:0:0:0:
240,250,310653,1,0,0:0:0:0:
208,207,310726,1,0,0:0:0:0:
208,153,310799,1,0,0:0:0:0:
241,109,310873,1,0,0:0:0:0:
292,96,310946,1,0,0:0:0:0:
324,138,311019,1,0,0:0:0:0:
322,192,311092,1,0,0:0:0:0:
296,232,311166,5,0,0:0:0:0:
342,204,311239,1,0,0:0:0:0:
395,214,311312,1,0,0:0:0:0:
428,256,311385,1,0,0:0:0:0:
425,309,311458,1,0,0:0:0:0:
387,348,311531,1,0,0:0:0:0:
333,351,311605,1,0,0:0:0:0:
291,319,311678,1,0,0:0:0:0:
280,272,311751,1,0,0:0:0:0:
250,226,311824,1,0,0:0:0:0:
202,201,311897,1,0,0:0:0:0:
147,203,311970,1,0,0:0:0:0:
102,233,312043,1,0,0:0:0:0:
77,281,312116,1,0,0:0:0:0:
79,335,312190,1,0,0:0:0:0:
128,336,312263,1,0,0:0:0:0:
176,328,312337,6,0,L|308:292,1,115.000002193451,8|0,0:0|0:0,0:0:0:0:
420,240,312629,1,0,0:0:0:0:
136,104,312776,1,0,0:0:0:0:
348,48,312922,2,0,P|356:112|304:176,1,115.000002193451
140,256,313215,1,0,0:0:0:0:
400,336,313361,1,0,0:0:0:0:
72,76,313507,6,0,P|124:32|192:144,1,230.000004386902
52,284,313946,1,0,0:0:0:0:
392,192,314093,1,0,0:0:0:0:
336,328,314239,1,0,0:0:0:0:
268,84,314385,1,0,0:0:0:0:
220,272,314532,1,0,0:0:0:0:
32,184,314678,6,0,B|140:136|172:204|272:172,1,230.000004386902
424,88,315117,1,0,0:0:0:0:
108,236,315263,1,0,0:0:0:0:
240,88,315410,1,0,0:0:0:0:
212,336,315556,1,0,0:0:0:0:
100,108,315702,1,0,0:0:0:0:
376,144,315849,6,0,P|352:68|416:20,1,115.000002193451
456,216,316142,2,0,P|448:292|404:320,1,115.000002193451
152,144,316434,6,0,P|160:76|40:116,1,230.000004386902
264,280,316873,1,0,0:0:0:0:
264,280,317020,6,0,B|276:240|272:216|256:188|256:188|276:148|280:116|264:128|264:128|260:88|276:40,1,230.000004386902
432,344,317459,1,0,0:0:0:0:
152,184,317605,1,0,0:0:0:0:
440,160,317751,1,0,0:0:0:0:
256,52,317898,1,0,0:0:0:0:
300,312,318044,1,0,0:0:0:0:
136,112,318190,6,0,P|80:164|184:260,1,230.000004386902
374,183,318629,1,0,0:0:0:0:
374,183,318776,6,0,B|294:139|222:239|138:175,1,230.000004386902
64,64,319215,1,0,0:0:0:0:
64,64,319361,2,0,L|104:184,1,115.000002193451
284,316,319654,5,0,0:0:0:0:
188,116,319800,1,0,0:0:0:0:
368,232,319946,1,0,0:0:0:0:
344,52,320093,5,0,0:0:0:0:
192,268,320239,1,0,0:0:0:0:
236,88,320385,1,0,0:0:0:0:
440,272,320532,5,0,0:0:0:0:
392,302,320605,1,0,0:0:0:0:
336,297,320678,1,0,0:0:0:0:
295,258,320751,1,0,0:0:0:0:
288,202,320824,5,0,0:0:0:0:
317,154,320897,1,0,0:0:0:0:
370,134,320971,1,0,0:0:0:0:
416,160,321044,1,0,0:0:0:0:
391,210,321117,5,0,0:0:0:0:
339,232,321190,1,0,0:0:0:0:
286,215,321263,1,0,0:0:0:0:
257,166,321336,1,0,0:0:0:0:
256,112,321410,5,0,0:0:0:0:
214,75,321483,1,0,0:0:0:0:
158,81,321556,5,0,0:0:0:0:
126,127,321629,1,0,0:0:0:0:
136,176,321702,2,0,P|172:244|240:232,1,115.000002193451
376,124,321995,1,0,0:0:0:0:
376,124,322068,1,0,0:0:0:0:
376,124,322142,1,0,0:0:0:0:
104,68,322288,1,0,0:0:0:0:
204,272,322434,1,0,0:0:0:0:
268,44,322581,1,0,0:0:0:0:
268,44,322654,1,0,0:0:0:0:
268,44,322727,1,0,0:0:0:0:
252,320,322873,6,0,P|200:348|152:224,1,230.000004386902
400,168,323312,1,0,0:0:0:0:
172,100,323459,1,0,0:0:0:0:
172,100,323532,1,0,0:0:0:0:
172,100,323605,1,0,0:0:0:0:
216,328,323751,1,0,0:0:0:0:
356,252,323898,1,0,0:0:0:0:
56,200,324044,6,0,L|180:216,1,115.000002193451
456,184,324337,1,0,0:0:0:0:
456,184,324410,1,0,0:0:0:0:
456,184,324483,1,0,0:0:0:0:
224,80,324629,1,0,0:0:0:0:
280,312,324776,1,0,0:0:0:0:
116,232,324922,1,0,0:0:0:0:
116,232,324995,1,0,0:0:0:0:
116,232,325068,1,0,0:0:0:0:
392,128,325215,6,0,P|368:192|504:252,1,230.000004386902
196,200,325654,1,0,0:0:0:0:
452,200,325800,1,0,0:0:0:0:
452,200,325873,1,0,0:0:0:0:
452,200,325946,1,0,0:0:0:0:
176,264,326093,1,0,0:0:0:0:
420,292,326239,1,0,0:0:0:0:
148,184,326385,6,0,P|88:228|168:344,1,230.000004386902
304,132,326824,1,0,0:0:0:0:
416,308,326971,1,0,0:0:0:0:
148,128,327117,1,0,0:0:0:0:
256,312,327263,1,0,0:0:0:0:
256,312,327337,1,0,0:0:0:0:
256,312,327410,1,0,0:0:0:0:
404,76,327556,5,0,0:0:0:0:
96,164,327849,1,0,0:0:0:0:
396,232,328142,1,0,0:0:0:0:
396,232,328215,1,0,0:0:0:0:
396,232,328288,1,0,0:0:0:0:
92,100,328434,1,0,0:0:0:0:
212,320,328581,1,0,0:0:0:0:
456,48,328727,5,8,0:0:0:0:
427,94,328800,1,8,0:0:0:0:
413,147,328873,1,8,0:0:0:0:
414,202,328946,1,8,0:0:0:0:
436,248,329020,5,8,0:0:0:0:
388,220,329093,1,8,0:0:0:0:
335,205,329166,1,8,0:0:0:0:
280,203,329239,1,8,0:0:0:0:
226,213,329312,1,8,0:0:0:0:
176,235,329385,1,8,0:0:0:0:
133,269,329459,1,8,0:0:0:0:
116,316,329532,5,0,0:0:0:0:
157,350,329605,1,0,0:0:0:0:
211,360,329678,1,0,0:0:0:0:
262,343,329751,1,0,0:0:0:0:
299,302,329824,1,0,0:0:0:0:
296,256,329898,1,0,0:0:0:0:
288,216,329971,5,0,0:0:0:0:
267,183,330044,1,0,0:0:0:0:
235,159,330117,1,0,0:0:0:0:
197,147,330190,1,8,0:0:0:0:
157,151,330263,1,8,0:0:0:0:
121,168,330337,1,8,0:0:0:0:
104,196,330410,1,8,0:0:0:0:
88,232,330483,1,0,0:0:0:0:
89,271,330556,1,0,0:0:0:0:
108,306,330629,1,8,0:0:0:0:
141,329,330702,1,0,0:0:0:0:
180,335,330775,1,0,0:0:0:0:
218,324,330849,1,8,0:0:0:0:
247,296,330922,1,8,0:0:0:0:
261,259,330995,1,8,0:0:0:0:
257,220,331068,5,4,0:3:0:0:
116,52,350268,6,0,L|232:68,1,100
432,120,350568,2,0,L|320:152,1,100
80,244,350868,2,0,L|196:260,1,100
428,320,351168,2,0,P|428:240|404:196,1,100
280,64,351468,2,0,P|256:136|276:200,1,100
36,260,351768,2,0,B|80:256|80:256|104:260|104:260|148:256,1,100
392,212,352068,2,0,B|352:208|352:208|324:216|324:216|252:216,1,100
68,160,352368,2,0,P|104:104|167:93,1,100
165,95,352593,1,0,0:0:0:0:
191,108,352668,2,0,L|241:106,2,50
472,176,352968,6,0,L|352:176,1,100
372,276,353268,2,0,L|268:216,1,100
224,324,353568,2,0,L|180:220,1,100
60,256,353868,2,0,L|108:140,1,100
260,68,354168,2,0,B|252:128|272:148|272:148|276:188,1,100
352,304,354468,2,0,P|384:248|380:208,1,100
168,56,354768,1,0,0:0:0:0:
168,70,354843,1,0,0:0:0:0:
168,84,354918,1,0,0:0:0:0:
169,99,354993,1,0,0:0:0:0:
168,112,355068,6,0,L|168:216,1,100
284,328,355368,2,0,L|280:208,1,100
424,52,355668,2,0,L|424:188,1,100
216,312,355968,2,0,P|252:264|324:276,1,100
376,112,356268,2,0,P|444:128|492:88,1,100
64,180,356568,2,0,L|172:172,1,100
452,236,356868,2,0,L|336:256,1,100
100,248,357168,2,0,L|244:224,1,100
416,156,357468,5,0,0:0:0:0:
276,80,357618,1,0,0:0:0:0:
340,288,357768,1,0,0:0:0:0:
448,228,357918,5,0,0:0:0:0:
228,212,358068,1,0,0:0:0:0:
416,156,358218,1,0,0:0:0:0:
344,328,358368,5,0,0:0:0:0:
476,332,358518,1,0,0:0:0:0:
212,192,358668,1,0,0:0:0:0:
476,168,358818,1,0,0:0:0:0:
304,224,358968,6,0,P|244:188|244:128,1,100
104,56,359268,1,0,0:0:0:0:
104,66,359343,1,0,0:0:0:0:
104,76,359418,1,0,0:0:0:0:
104,86,359493,1,0,0:0:0:0:
104,96,359568,1,0,0:0:0:0:
104,106,359643,1,0,0:0:0:0:
104,116,359718,1,0,0:0:0:0:
104,126,359793,1,0,0:0:0:0:
104,136,359868,6,0,B|104:176|104:176|100:208|100:208|104:256,1,100
208,352,360168,2,0,L|208:232,1,100
328,60,360468,2,0,L|328:176,1,100
72,136,360768,2,0,P|120:80|176:76,1,100
332,88,361068,2,0,P|272:156|236:164,1,100
108,264,361368,2,0,P|188:244|236:260,1,100
380,328,361668,2,0,P|300:348|252:332,1,100
232,80,361968,2,0,L|168:172,1,100
164,176,362193,1,0,0:0:0:0:
160,196,362268,2,0,L|136:240,2,50
460,228,362568,6,0,P|400:248|356:240,1,100
260,136,362868,2,0,P|320:116|364:124,1,100
120,140,363168,2,0,P|60:120|16:128,1,100
200,312,363468,2,0,L|200:188,1,100
320,64,363768,2,0,L|324:184,1,100
64,264,364068,2,0,L|64:128,1,100
168,44,364368,1,0,0:0:0:0:
167,63,364443,1,0,0:0:0:0:
166,83,364518,1,0,0:0:0:0:
166,103,364593,1,0,0:0:0:0:
168,128,364668,6,0,P|168:196|204:232,1,100
332,320,364968,2,0,P|356:264|332:208,1,100
104,112,365268,2,0,P|148:64|212:88,1,100
412,120,365568,2,0,L|300:168,1,100
104,216,365868,2,0,L|232:236,1,100
392,332,366168,2,0,P|420:268|396:216,1,100
220,80,366468,2,0,B|252:112|252:112|280:128|280:128|304:152,1,100
308,356,366768,2,0,B|276:324|276:324|248:308|248:308|224:284,1,100
96,148,367068,5,0,0:0:0:0:
308,92,367218,1,0,0:0:0:0:
180,284,367368,1,0,0:0:0:0:
356,332,367518,5,0,0:0:0:0:
240,176,367668,1,0,0:0:0:0:
128,348,367818,1,0,0:0:0:0:
368,240,367968,5,0,0:0:0:0:
192,92,368118,1,0,0:0:0:0:
224,288,368268,1,0,0:0:0:0:
440,320,368414,5,0,0:0:0:0:
120,192,368560,1,0,0:0:0:0:
120,192,368633,1,0,0:0:0:0:
128,204,368707,1,0,0:0:0:0:
128,204,368780,1,0,0:0:0:0:
128,204,368853,6,0,L|180:224,1,50
260,308,368999,2,0,L|344:288,1,50
416,168,369146,2,0,P|328:176|304:212,1,100
72,248,369438,2,0,P|52:188|100:148,1,100
196,44,369731,2,0,P|216:104|168:144,1,100
336,360,370024,2,0,P|380:320|360:256,1,100
284,116,370316,1,0,0:0:0:0:
144,248,370463,1,0,0:0:0:0:
356,120,370609,2,0,P|328:56|272:48,1,100
68,188,370902,2,0,L|184:236,1,100
432,248,371194,2,0,L|312:288,1,100
192,108,371487,2,0,L|224:244,1,100
216,220,371707,1,0,0:0:0:0:
216,240,371780,2,0,L|236:304,2,50
120,76,372072,6,0,P|168:28|224:44,1,100
400,72,372365,2,0,P|352:120|296:104,1,100
100,160,372658,2,0,P|48:136|32:88,1,100
264,112,372950,2,0,P|244:180|260:252,1,100
404,344,373243,2,0,P|424:276|408:204,1,100
168,208,373536,2,0,P|204:280|256:276,1,100
360,116,373828,1,0,0:0:0:0:
128,64,373975,1,0,0:0:0:0:
464,296,374121,6,0,P|492:244|456:196,1,100
300,44,374414,1,0,0:0:0:0:
140,240,374560,1,0,0:0:0:0:
275,155,374707,2,0,B|247:127|231:127|231:127|223:111|191:71,1,100
32,72,374999,2,0,B|52:98|64:104|64:104|69:121|112:172,1,100
309,250,375292,6,0,B|296:216|296:200|296:200|280:184|265:126,1,100
56,264,375585,2,0,B|72:232|72:216|72:216|88:208|104:144,1,100
244,52,375877,1,0,0:0:0:0:
376,160,376024,1,0,0:0:0:0:
248,328,376170,2,0,P|172:280|164:252,1,100
88,84,376463,2,0,P|164:132|172:160,1,100
420,276,376755,6,0,P|385:192|359:180,1,100
172,72,377048,2,0,P|116:96|112:164,1,100
220,280,377341,1,0,0:0:0:0:
256,72,377487,1,0,0:0:0:0:
424,248,377633,6,0,B|380:208|380:208|352:256|352:256|328:224|328:224|296:252|296:252|272:232|272:232|224:264|192:260|156:248|128:224|116:192|132:152,1,419.999987182618
352,80,378658,5,0,0:0:0:0:
352,80,378731,1,0,0:0:0:0:
352,80,378804,2,0,B|355:117|348:132|348:132|357:153|360:200,1,100
256,308,379097,2,0,B|256:264|264:252|264:252|252:232|252:188,1,100
104,48,379389,2,0,B|104:80|96:96|96:96|103:109|104:184,1,100
468,264,379682,6,0,P|408:276|356:320,1,100
32,180,379975,2,0,P|80:176|144:220,1,100
468,92,380268,2,0,P|412:96|336:132,1,100
56,32,380560,2,0,P|112:32|180:56,1,100
164,56,380780,1,0,0:0:0:0:
176,68,380853,2,0,L|232:72,2,50
464,320,381146,6,0,B|424:320|392:304|392:304|364:324,1,100
64,304,381438,2,0,B|104:304|136:320|136:320|164:300,1,100
416,224,381731,2,0,P|360:240|312:240,1,100
56,128,382024,2,0,P|112:112|160:112,1,100
256,24,382316,2,0,B|255:70|248:80|248:80|256:96|256:152,1,100
384,320,382609,2,0,B|382:291|392:272|392:272|381:259|384:200,1,100
72,48,382902,2,0,B|70:89|64:104|64:104|71:123|72:192,1,100
160,328,383194,2,0,B|159:280|159:280|161:264|161:264|160:200,1,100
160,208,383413,1,0,0:0:0:0:
160,184,383487,2,0,L|160:104,2,50
384,104,383780,6,0,L|272:72,1,100
88,184,384072,2,0,L|192:136,1,100
392,264,384365,2,0,L|296:224,1,100
32,232,384658,2,0,P|16:184|32:136,1,100
448,216,384950,2,0,P|464:280|424:328,1,100
256,288,385243,2,0,B|256:248|264:232|264:232|256:208|256:184,1,100
176,40,385536,2,0,B|176:80|168:96|168:96|176:120|176:144,1,100
288,336,385828,5,12,0:0:0:0:
304,96,385975,1,0,0:0:0:0:
432,352,386121,1,12,0:0:0:0:
448,88,386268,1,0,0:0:0:0:
184,232,386414,1,12,0:0:0:0:
472,224,386560,1,0,0:0:0:0:
152,160,386707,2,12,P|104:208|120:272,1,100,12|0,0:0|0:0,0:0:0:0:
376,336,386999,5,4,0:0:0:0:
304,64,387146,1,0,0:0:0:0:
432,264,387292,1,8,0:0:0:0:
208,96,387438,1,0,0:0:0:0:
96,288,387585,1,8,0:0:0:0:
368,208,387731,5,0,0:0:0:0:
384,161,387804,1,0,0:0:0:0:
375,112,387877,1,0,0:0:0:0:
343,74,387950,1,0,0:0:0:0:
297,57,388023,1,0,0:0:0:0:
248,65,388096,1,0,0:0:0:0:
220,102,388170,6,0,B|203:134|188:142|188:142|189:158|153:223,1,115.000002193451,8|0,0:0|0:0,0:0:0:0:
278,316,388463,2,0,B|331:352|408:335|433:271|433:271|451:319|482:332,1,230.000004386902
72,224,388902,1,0,0:0:0:0:
304,264,389048,1,8,0:0:0:0:
48,128,389194,1,0,0:0:0:0:
264,80,389341,6,0,B|272:152|208:224|208:224|224:176|208:128,1,230.000004386902,10|0,0:0|0:0,0:0:0:0:
128,192,389926,1,8,0:0:0:0:
272,312,390072,1,0,0:0:0:0:
111,108,390219,2,0,P|55:148|121:296,1,230.000004386902,10|8,0:0|0:0,0:0:0:0:
408,160,390804,1,8,0:0:0:0:
256,272,390950,2,0,B|200:264|168:208,1,104.999996795654
272,104,391243,1,0,0:0:0:0:
312,352,391389,1,8,0:0:0:0:
488,128,391536,1,0,0:0:0:0:
321,234,391682,6,0,B|281:266|254:258|254:258|228:291|169:306|135:297|102:252,1,230.000004386902,10|0,0:0|0:0,0:0:0:0:
160,114,392268,2,0,B|160:186|160:186|184:234,1,104.999996795654
336,336,392560,2,0,B|336:264|336:264|312:216,1,104.999996795654
104,104,392853,6,0,P|160:144|248:56,1,209.999993591309,10|0,0:0|0:0,0:0:0:0:
224,216,393292,2,0,P|152:224|112:200,1,104.999996795654
424,176,393585,1,0,0:0:0:0:
288,352,393731,1,8,0:0:0:0:
304,56,393877,1,0,0:0:0:0:
200,288,394024,2,0,P|280:272|296:224,1,104.999996795654,8|0,0:0|0:0,0:0:0:0:
193,127,394316,1,0,0:0:0:0:
227,227,394463,2,0,L|187:107,1,104.999996795654
356,30,394755,1,0,0:0:0:0:
166,295,394902,6,0,P|144:235|235:142,1,209.999993591309
406,287,395487,1,8,0:0:0:0:
217,205,395633,2,0,B|188:188|171:172|171:172|151:169|118:149,1,104.999996795654
366,102,395926,1,0,0:0:0:0:
281,325,396072,1,8,0:0:0:0:
203,74,396219,1,0,0:0:0:0:
439,58,396365,2,0,P|446:137|301:147,1,209.999993591309,10|0,0:0|0:0,0:0:0:0:
56,112,396950,5,0,0:0:0:0:
63,121,397023,1,0,0:0:0:0:
71,130,397096,1,0,0:0:0:0:
78,140,397169,1,0,0:0:0:0:
86,149,397242,1,0,0:0:0:0:
94,158,397315,1,0,0:0:0:0:
101,168,397389,1,0,0:0:0:0:
108,176,397463,1,0,0:0:0:0:
108,176,397536,6,0,L|223:196,1,104.999996795654,2|0,0:0|0:0,0:0:0:0:
488,304,397828,2,0,B|432:328|384:320|360:264|360:264|336:312|376:344,1,209.999993591309
352,72,398268,1,0,0:0:0:0:
256,184,398414,1,0,0:0:0:0:
112,104,398560,1,0,0:0:0:0:
112,104,398707,2,0,P|128:200|168:232,1,104.999996795654
290,109,398999,6,0,P|344:129|312:253,1,209.999993591309,2|0,0:0|0:0,0:0:0:0:
92,192,399438,1,0,0:0:0:0:
289,185,399585,2,0,B|250:168|216:204|166:189,1,104.999996795654
30,84,399877,2,0,B|69:101|103:65|153:80,1,104.999996795654,10|0,0:0|0:0,0:0:0:0:
274,108,400170,2,0,P|221:148|226:208,1,104.999996795654
456,176,400463,2,0,B|423:208|423:208|403:189|403:189|369:225|300:243|276:145,1,209.999993591309
244,38,400902,1,0,0:0:0:0:
464,272,401048,6,0,B|481:339|402:369|354:337|354:337|330:369|311:373|311:373|298:357|274:353,1,259.999988098145,8|0,0:0|0:0,0:0:0:0:
64,104,401633,2,0,L|192:144,1,104.999996795654
472,272,401926,2,0,L|344:248,1,104.999996795654
80,184,402219,2,0,P|144:144|152:88,1,104.999996795654
356,96,402511,1,0,0:0:0:0:
300,343,402658,2,0,B|332:359|350:358|350:358|364:375|412:391,1,104.999996795654
416,104,402950,1,0,0:0:0:0:
152,144,403097,2,0,P|224:152|272:120,1,104.999996795654
448,168,403389,6,0,P|488:128|408:32,1,209.999993591309
192,96,403828,2,0,P|176:160|216:216,1,104.999996795654
416,104,404121,1,0,0:0:0:0:
136,48,404267,6,0,B|104:80|96:144|160:168|160:168|128:192|88:160,1,209.999993591309
272,312,404707,1,0,0:0:0:0:
464,208,404853,2,0,B|440:240|424:248|424:248|422:260|384:304,1,104.999996795654
128,312,405146,2,0,P|64:272|120:168,1,209.999993591309
312,232,405585,1,0,0:0:0:0:
208,56,405731,2,0,L|200:176,1,104.999996795654
392,336,406024,2,0,L|392:224,1,104.999996795654
208,104,406316,5,0,0:0:0:0:
156,102,406389,1,0,0:0:0:0:
111,128,406462,1,0,0:0:0:0:
87,174,406535,1,0,0:0:0:0:
92,226,406608,1,0,0:0:0:0:
216,248,406902,5,0,0:0:0:0:
254,24,407097,1,0,0:0:0:0:
405,260,407292,1,0,0:0:0:0:
168,102,407487,5,0,0:0:0:0:
438,107,407682,1,0,0:0:0:0:
227,334,407877,1,0,0:0:0:0:
246,39,408072,5,0,0:0:0:0:
386,307,408267,1,0,0:0:0:0:
86,255,408463,1,0,0:0:0:0:
392,192,408658,5,0,0:0:0:0:
392,192,408950,5,0,0:0:0:0:
212,259,409097,1,0,0:0:0:0:
29,159,409243,1,0,0:0:0:0:
256,192,409316,12,0,409828,0:0:0:0:
384,184,410707,5,4,0:0:0:0:
376,200,410999,1,4,0:0:0:0:
368,216,411292,1,4,0:0:0:0:
88,208,411585,5,0,0:0:0:0:
256,96,411731,1,0,0:0:0:0:
288,264,411877,1,0,0:0:0:0:
120,96,412024,1,0,0:0:0:0:
344,208,412170,2,0,P|368:272|328:328,1,110.000003356934
224,88,412463,1,0,0:0:0:0:
408,176,412609,1,0,0:0:0:0:
80,160,412755,6,0,P|40:96|64:48,1,110.000003356934
312,56,413048,1,0,0:0:0:0:
200,272,413194,1,0,0:0:0:0:
448,240,413341,2,0,P|488:176|448:120,1,110.000003356934
208,64,413633,2,0,B|215:104|208:120|208:120|221:136|232:176,1,110.000003356934
184,352,413926,2,0,P|128:312|128:256,1,110.000003356934
344,136,414219,5,0,0:0:0:0:
272,320,414365,1,0,0:0:0:0:
240,128,414511,1,0,0:0:0:0:
392,288,414658,1,0,0:0:0:0:
416,120,414804,1,0,0:0:0:0:
224,248,414950,1,0,0:0:0:0:
496,240,415097,1,0,0:0:0:0:
312,120,415243,1,0,0:0:0:0:
120,328,415389,1,0,0:0:0:0:
120,328,415536,6,0,B|96:272|96:272|152:256|152:256|112:216|104:176|120:128|160:88|216:88,1,330.000010070801
400,312,416267,6,0,P|336:280|336:216,1,110.000003356934
464,56,416560,1,0,0:0:0:0:
400,240,416707,1,0,0:0:0:0:
336,128,416853,1,0,0:0:0:0:
480,320,416999,1,0,0:0:0:0:
248,232,417146,2,0,L|144:144,1,110.000003356934
72,56,417438,5,0,0:0:0:0:
264,96,417585,1,0,0:0:0:0:
80,232,417731,1,0,0:0:0:0:
208,48,417877,1,0,0:0:0:0:
240,264,418024,2,0,B|279:249|304:256|304:256|322:235|360:224,1,110.000003356934
472,104,418316,2,0,B|432:118|408:112|408:112|389:132|352:144,1,110.000003356934
88,224,418609,5,0,0:0:0:0:
264,272,418755,1,0,0:0:0:0:
144,128,418902,1,0,0:0:0:0:
336,336,419048,1,0,0:0:0:0:
264,104,419194,1,0,0:0:0:0:
104,256,419341,1,0,0:0:0:0:
384,208,419487,1,0,0:0:0:0:
200,328,419633,1,0,0:0:0:0:
336,80,419780,2,0,P|304:32|224:48,1,110.000003356934
80,88,420072,6,0,L|80:152,1,55.0000016784668
32,216,420219,2,0,L|32:288,1,55.0000016784668
176,240,420365,5,0,0:0:0:0:
224,217,420438,1,0,0:0:0:0:
242,167,420511,1,0,0:0:0:0:
218,119,420584,1,0,0:0:0:0:
167,102,420657,1,0,0:0:0:0:
56,328,420804,1,0,0:0:0:0:
288,184,420950,6,0,P|240:144|184:168,1,110.000003356934
360,336,421243,2,0,B|373:297|392:288|392:288|387:268|408:224,1,110.000003356934
328,64,421536,1,0,0:0:0:0:
144,240,421682,1,0,0:0:0:0:
456,280,421828,2,0,P|456:192|416:176,1,110.000003356934
96,184,422121,2,0,P|64:232|88:288,1,110.000003356934
256,192,422414,2,0,B|252:160|264:136|264:136|255:115|256:72,1,110.000003356934
144,40,422707,1,0,0:0:0:0:
256,296,422853,1,0,0:0:0:0:
354,91,422999,2,0,P|290:67|234:131,1,110.000003356934
384,320,423292,2,0,B|404:286|403:266|403:266|424:253|448:216,1,110.000003356934
464,80,423585,5,0,0:0:0:0:
168,248,423731,1,0,0:0:0:0:
440,160,423877,1,0,0:0:0:0:
128,80,424024,1,0,0:0:0:0:
320,312,424170,1,0,0:0:0:0:
296,48,424316,1,0,0:0:0:0:
80,184,424463,6,0,P|64:104|176:56,1,220.000006713867
168,160,424902,2,0,P|192:216|72:288,1,220.000006713867
272,112,425341,1,0,0:0:0:0:
360,272,425487,1,0,0:0:0:0:
168,216,425633,2,0,B|136:192|112:192|112:192|104:168|64:136,1,110.000003356934
96,40,425926,2,0,B|128:64|152:64|152:64|160:88|200:120,1,110.000003356934
440,280,426219,6,0,P|400:344|352:344,1,110.000003356934
152,248,426511,2,0,L|264:224,1,110.000003356934
416,112,426804,2,0,L|288:96,1,110.000003356934
128,64,427097,1,0,0:0:0:0:
224,264,427243,1,0,0:0:0:0:
392,48,427389,2,0,P|464:56|488:112,1,110.000003356934
192,280,427682,1,0,0:0:0:0:
272,72,427828,1,0,0:0:0:0:
472,256,427975,6,0,B|432:280|360:272|328:216|328:216|328:272|368:296,1,220.000006713867
184,88,428414,1,0,0:0:0:0:
184,88,428560,1,0,0:0:0:0:
64,304,428707,1,0,0:0:0:0:
184,216,428853,2,0,L|96:112,1,110.000003356934
368,320,429146,1,0,0:0:0:0:
248,64,429292,6,0,P|248:128|264:160,4,55.0000016784668
136,184,429731,6,0,P|200:208|216:208,3,55.0000016784668
288,304,430024,5,0,0:0:0:0:
340,291,430097,1,0,0:0:0:0:
371,247,430170,1,0,0:0:0:0:
365,193,430243,1,0,0:0:0:0:
256,192,430316,12,0,434414,0:0:0:0:
360,336,448463,5,0,0:0:0:0:
280,224,448613,1,0,0:0:0:0:
280,112,448763,5,0,0:0:0:0:
176,160,448913,1,0,0:0:0:0:
80,120,449063,1,0,0:0:0:0:
360,56,449355,6,0,P|352:120|320:152,3,66.6666666666667
336,264,449941,1,0,0:0:0:0:
304,272,450038,1,0,0:0:0:0:
272,272,450136,1,0,0:0:0:0:
240,264,450233,2,0,P|168:258|112:216,1,133.333333333333
96,40,450623,2,0,B|168:48|168:48|240:104,1,133.333333333333
240,128,450916,2,0,L|264:192,2,66.6666666666667
280,200,451209,1,0,0:0:0:0:
288,208,451306,1,0,0:0:0:0:
304,224,451404,6,0,B|320:272|360:280|400:280|416:232|416:232|440:256|488:224,1,200
192,88,451892,1,0,0:0:0:0:
176,112,451989,1,0,0:0:0:0:
176,136,452087,1,0,0:0:0:0:
280,328,452282,2,0,P|312:240|296:176,1,133.333333333333
232,208,452575,2,0,P|227:142|257:83,1,133.333333333333
408,184,452867,2,0,P|432:136|416:88,2,66.6666666666667
408,264,453160,2,0,P|461:258|493:219,2,66.6666666666667
368,336,453453,2,0,P|418:354|464:333,2,66.6666666666667
312,288,453745,6,0,B|296:240|296:240|256:256|256:256|264:200|232:176|152:184,1,200
72,88,454233,1,0,0:0:0:0:
72,88,454331,2,0,P|56:152|80:192,1,100
360,72,454721,1,0,0:0:0:0:
349,112,454819,1,0,0:0:0:0:
336,160,454916,2,0,P|392:208|344:312,1,200
112,320,455404,5,0,0:0:0:0:
84,291,455501,1,0,0:0:0:0:
69,254,455599,1,0,0:0:0:0:
68,214,455696,1,0,0:0:0:0:
82,177,455794,1,0,0:0:0:0:
109,147,455891,1,0,0:0:0:0:
144,129,455989,1,0,0:0:0:0:
176,120,456087,6,0,B|240:144|288:56|392:144,1,200
304,304,456575,1,0,0:0:0:0:
296,272,456672,2,0,P|288:208|384:112,1,200
480,96,457160,1,0,0:0:0:0:
480,96,457258,2,0,L|264:88,1,200
64,168,457745,2,0,P|144:168|176:152,4,66.6666666666667
136,304,458233,2,0,L|208:256,1,66.6666666666667
256,288,458428,6,0,P|288:192|192:112,1,200
416,136,458916,1,0,0:0:0:0:
432,96,459014,2,0,P|376:56|312:152,1,200
224,112,459502,1,0,0:0:0:0:
224,112,459599,2,0,B|184:160|120:136|96:96|96:96|80:144|104:168,1,200
312,352,459989,5,0,0:0:0:0:
354,332,460086,1,0,0:0:0:0:
385,299,460184,1,0,0:0:0:0:
401,255,460281,1,0,0:0:0:0:
400,209,460379,1,0,0:0:0:0:
380,167,460476,1,0,0:0:0:0:
345,136,460574,1,0,0:0:0:0:
301,121,460671,1,0,0:0:0:0:
272,152,460770,6,0,P|288:208|408:160,1,200
144,96,461258,1,0,0:0:0:0:
142,130,461355,2,0,B|198:146|238:178|264:208|264:208|276:187|259:150,1,200
104,192,461843,1,0,0:0:0:0:
88,176,461941,6,0,P|72:104|184:80,1,200
255,64,462380,1,0,0:0:0:0:
255,81,462453,1,0,0:0:0:0:
255,98,462526,1,0,0:0:0:0:
256,116,462599,1,0,0:0:0:0:
256,133,462672,1,0,0:0:0:0:
257,151,462745,1,0,0:0:0:0:
257,168,462819,1,0,0:0:0:0:
258,185,462892,1,0,0:0:0:0:
259,202,462950,5,0,0:0:0:0:
289,241,463023,1,0,0:0:0:0:
320,280,463096,1,0,0:0:0:0:
137,85,463388,1,0,0:0:0:0:
351,124,463681,1,0,0:0:0:0:
336,170,463754,1,0,0:0:0:0:
294,195,463827,1,0,0:0:0:0:
246,186,463900,1,0,0:0:0:0:
216,147,463973,1,0,0:0:0:0:
284,42,464120,1,0,0:0:0:0:
365,300,464266,6,0,P|295:317|251:300,3,100
180,95,464852,1,0,0:0:0:0:
316,177,464998,1,0,0:0:0:0:
452,79,465144,1,0,0:0:0:0:
438,126,465217,1,0,0:0:0:0:
439,176,465290,1,0,0:0:0:0:
456,223,465363,1,0,0:0:0:0:
487,262,465436,1,0,0:0:0:0:
132,199,465730,5,0,0:0:0:0:
158,156,465803,1,0,0:0:0:0:
185,114,465876,1,0,0:0:0:0:
56,304,466022,1,0,0:0:0:0:
323,215,466169,1,0,0:0:0:0:
158,156,466388,5,0,0:0:0:0:
158,156,466461,1,0,0:0:0:0:
409,78,466608,1,0,0:0:0:0:
307,261,466754,1,0,0:0:0:0:
316,51,466900,1,0,0:0:0:0:
373,166,467047,5,0,0:0:0:0:
329,142,467120,1,0,0:0:0:0:
279,139,467193,1,0,0:0:0:0:
233,156,467266,1,0,0:0:0:0:
198,192,467339,1,0,0:0:0:0:
181,238,467412,1,0,0:0:0:0:
185,288,467486,1,0,0:0:0:0:
208,329,467559,1,0,0:0:0:0:
247,354,467632,1,0,0:0:0:0:
373,166,467778,5,0,0:0:0:0:
54,88,468949,5,0,0:0:0:0:
360,56,469535,5,0,0:0:0:0:
138,145,469730,1,0,0:0:0:0:
436,215,469925,1,0,0:0:0:0:
296,320,470120,2,0,L|162:300,1,100
66,255,470413,1,0,0:0:0:0:
66,255,470486,1,0,0:0:0:0:
66,255,470559,1,0,0:0:0:0:
329,75,470705,2,0,L|370:181,1,100
440,352,470998,1,0,0:0:0:0:
224,136,471144,1,0,0:0:0:0:
406,37,471291,6,0,P|401:111|349:145,1,100
40,88,471583,1,0,0:0:0:0:
112,216,471730,1,0,0:0:0:0:
188,333,471876,1,0,0:0:0:0:
209,287,471949,1,0,0:0:0:0:
230,242,472022,1,0,0:0:0:0:
252,197,472095,1,0,0:0:0:0:
273,152,472168,1,0,0:0:0:0:
65,333,472461,6,0,L|134:215,1,100
176,88,472754,1,0,0:0:0:0:
336,96,472900,1,0,0:0:0:0:
480,104,473047,1,0,0:0:0:0:
120,312,473193,1,0,0:0:0:0:
377,240,473339,2,0,P|386:333|372:347,1,100
241,200,473632,2,0,B|230:167|215:156|215:156|217:128|201:69,1,100
480,256,473925,2,0,P|487:342|366:352,1,200
176,80,474364,1,0,0:0:0:0:
424,304,474510,1,0,0:0:0:0:
368,48,474656,1,0,0:0:0:0:
163,288,474803,6,0,B|154:248|180:215|211:188|266:210|266:210|282:164|311:144,1,200
328,56,475242,1,0,0:0:0:0:
447,311,475388,2,0,P|375:327|335:303,1,100
112,160,475681,1,0,0:0:0:0:
344,152,475827,1,0,0:0:0:0:
80,224,475974,2,0,P|40:176|56:120,1,100
200,48,476266,1,0,0:0:0:0:
408,192,476413,1,0,0:0:0:0:
408,192,476559,6,0,P|368:232|272:136,1,200
368,56,476998,1,0,0:0:0:0:
192,304,477144,2,0,B|224:232|168:176|168:176|192:88,1,200
296,24,477583,1,0,0:0:0:0:
400,192,477730,2,0,P|336:232|280:224,1,100
104,120,478022,2,0,P|168:88|224:104,1,100
336,304,478315,2,0,P|256:304|232:192,1,200
400,80,478754,1,0,0:0:0:0:
400,80,478900,2,0,B|312:56|272:120|192:88,1,200
48,40,479339,1,0,0:0:0:0:
221,158,479486,6,0,P|277:134|228:19,1,200
7,243,479925,1,0,0:0:0:0:
200,224,480071,1,0,0:0:0:0:
392,272,480217,1,0,0:0:0:0:
272,128,480364,1,0,0:0:0:0:
312,344,480510,1,0,0:0:0:0:
71,214,480656,2,0,P|38:155|142:94,1,200
271,239,481096,1,0,0:0:0:0:
271,239,481242,6,0,B|241:201|241:201|213:219|213:219|184:158|105:147|75:160,1,200
197,349,481681,1,0,0:0:0:0:
332,102,481827,2,0,P|364:165|251:229,1,200
93,77,482266,1,0,0:0:0:0:
288,164,482413,1,0,0:0:0:0:
18,155,482559,1,0,0:0:0:0:
272,318,482705,1,0,0:0:0:0:
170,157,482852,1,0,0:0:0:0:
138,317,482998,5,0,0:0:0:0:
372,218,483291,1,0,0:0:0:0:
85,184,483583,1,0,0:0:0:0:
256,301,483876,5,0,0:0:0:0:
193,111,484022,1,0,0:0:0:0:
443,77,484169,1,0,0:0:0:0:
443,77,484315,1,0,0:0:0:0:
166,200,484461,1,0,0:0:0:0:
423,264,484608,5,0,0:0:0:0:
423,264,484681,1,0,0:0:0:0:
423,264,484754,1,0,0:0:0:0:
112,40,484900,1,0,0:0:0:0:
112,40,485047,1,0,0:0:0:0:
279,325,485193,1,0,0:0:0:0:
279,325,485339,1,0,0:0:0:0:
421,77,485486,5,0,0:0:0:0:
421,77,485559,1,0,0:0:0:0:
421,77,485632,1,0,0:0:0:0:
48,208,485778,1,0,0:0:0:0:
469,211,485925,2,0,B|415:174|306:240|240:157,1,200
120,71,486364,1,0,0:0:0:0:
334,327,486510,6,0,P|423:283|379:140,1,270.000001029968
129,95,486949,2,0,B|184:172|295:147|368:265,1,270.000001029968
32,328,487388,1,0,0:0:0:0:
392,32,487535,1,0,0:0:0:0:
304,336,487681,2,0,B|380:303|452:322|492:366|492:366|475:297|429:285,1,270.000001029968
216,160,488120,1,0,0:0:0:0:
480,72,488266,1,0,0:0:0:0:
336,344,488413,1,0,0:0:0:0:
116,86,488559,1,0,0:0:0:0:
462,195,488705,1,0,0:0:0:0:
146,275,488852,6,0,P|80:261|141:76,1,270.000001029968
456,279,489291,2,0,B|473:205|465:148|421:94|421:94|456:97|486:132|479:177,1,270.000001029968
112,48,489730,1,0,0:0:0:0:
257,322,489876,1,0,0:0:0:0:
337,32,490022,2,0,B|294:80|213:76|213:76|181:153|106:156,1,270.000001029968
425,337,490461,1,0,0:0:0:0:
106,254,490608,2,0,P|51:216|135:65,1,270.000001029968
251,228,491193,6,0,B|308:272|394:256|446:198|446:198|452:240|407:269,1,270.000001029968
243,35,491632,1,0,0:0:0:0:
163,261,491778,1,0,0:0:0:0:
456,56,491925,1,0,0:0:0:0:
376,344,492071,1,0,0:0:0:0:
144,109,492217,1,0,0:0:0:0:
144,109,492364,6,0,B|274:77|236:235|428:169,1,270.000001029968
47,307,492803,1,0,0:0:0:0:
47,307,492949,6,0,B|95:362|195:318|177:255|177:255|197:228|223:235|223:235|239:202|268:184,1,270.000001029968
349,82,493388,1,0,0:0:0:0:
419,334,493535,5,0,0:0:0:0:
146,118,493681,1,0,0:0:0:0:
419,334,493827,1,0,0:0:0:0:
246,74,493974,1,0,0:0:0:0:
419,334,494120,1,0,0:0:0:0:
379,73,494266,5,0,0:0:0:0:
270,333,494413,1,0,0:0:0:0:
446,94,494559,1,0,0:0:0:0:
103,192,494705,5,0,0:0:0:0:
143,227,494778,1,0,0:0:0:0:
197,227,494851,1,0,0:0:0:0:
239,193,494924,1,0,0:0:0:0:
249,140,494997,1,0,0:0:0:0:
223,93,495070,1,0,0:0:0:0:
170,74,495144,1,0,0:0:0:0:
139,131,495217,1,0,0:0:0:0:
150,194,495290,1,0,0:0:0:0:
199,237,495363,1,0,0:0:0:0:
264,240,495436,1,0,0:0:0:0:
316,202,495509,1,0,0:0:0:0:
343,145,495583,1,0,0:0:0:0:
406,137,495656,1,0,0:0:0:0:
455,179,495729,1,0,0:0:0:0:
458,243,495802,1,0,0:0:0:0:
424,296,495876,6,0,B|332:287|332:287|246:303|246:303|139:300,1,270.000001029968
24,56,496315,1,0,0:0:0:0:
400,136,496461,1,0,0:0:0:0:
56,216,496608,1,0,0:0:0:0:
352,336,496754,1,0,0:0:0:0:
352,336,496827,1,0,0:0:0:0:
352,336,496900,1,0,0:0:0:0:
115,65,497047,6,0,B|150:145|282:120|314:72|314:72|322:104|274:140,1,270.000001029968
464,304,497486,1,0,0:0:0:0:
464,304,497632,1,0,0:0:0:0:
464,304,497705,1,0,0:0:0:0:
464,304,497778,1,0,0:0:0:0:
150,132,497925,1,0,0:0:0:0:
448,144,498071,1,0,0:0:0:0:
133,62,498217,6,0,B|61:77|51:186|136:209|136:209|125:244|111:262|111:262|142:308|131:311,1,270.000001029968
120,272,498583,1,0,0:0:0:0:
120,272,498656,1,0,0:0:0:0:
344,104,498803,1,0,0:0:0:0:
416,336,498949,1,0,0:0:0:0:
200,96,499095,1,0,0:0:0:0:
200,96,499169,1,0,0:0:0:0:
200,96,499242,1,0,0:0:0:0:
496,352,499388,2,0,L|354:368,1,135.000000514984
88,160,499681,2,0,L|247:189,1,135.000000514984
481,65,499974,6,0,B|409:65|409:65|281:88|281:88|186:86,1,270.000001029968
16,56,500413,1,0,0:0:0:0:
158,268,500559,6,0,P|158:204|330:204,1,270.000001029968
368,352,500998,1,0,0:0:0:0:
240,240,501144,1,0,0:0:0:0:
336,80,501291,1,0,0:0:0:0:
408,208,501437,1,0,0:0:0:0:
176,64,501583,1,0,0:0:0:0:
80,248,501730,5,0,0:0:0:0:
304,176,502022,1,0,0:0:0:0:
56,72,502315,1,0,0:0:0:0:
56,72,502388,1,0,0:0:0:0:
56,72,502461,1,0,0:0:0:0:
216,272,502608,5,0,0:0:0:0:
192,48,502754,1,0,0:0:0:0:
48,320,502900,1,0,0:0:0:0:
90,269,502973,1,0,0:0:0:0:
146,234,503046,1,0,0:0:0:0:
210,218,503119,1,0,0:0:0:0:
275,223,503192,1,0,0:0:0:0:
336,248,503265,1,0,0:0:0:0:
387,290,503339,1,0,0:0:0:0:
432,336,503413,1,0,0:0:0:0:
488,360,503486,5,0,0:0:0:0:
458,301,503559,1,0,0:0:0:0:
444,236,503632,1,0,0:0:0:0:
446,170,503705,1,0,0:0:0:0:
464,107,503778,1,0,0:0:0:0:
480,48,503852,1,0,0:0:0:0:
414,39,503925,1,0,0:0:0:0:
352,59,503998,1,0,0:0:0:0:
320,112,504071,5,0,0:0:0:0:
259,124,504144,1,0,0:0:0:0:
224,179,504217,1,0,0:0:0:0:
230,243,504290,1,0,0:0:0:0:
276,290,504363,1,0,0:0:0:0:
340,298,504437,1,0,0:0:0:0:
398,270,504510,1,0,0:0:0:0:
414,206,504583,1,0,0:0:0:0:
391,144,504656,1,0,0:0:0:0:
40,64,505242,6,0,L|168:96,1,115.000002193451
440,184,505535,1,0,0:0:0:0:
176,272,505681,1,0,0:0:0:0:
352,80,505827,1,0,0:0:0:0:
352,80,505900,1,0,0:0:0:0:
352,80,505974,1,0,0:0:0:0:
112,296,506120,2,0,P|184:344|240:304,1,115.000002193451
424,248,506413,5,0,0:0:0:0:
152,64,506559,1,0,0:0:0:0:
192,208,506705,2,0,L|320:152,1,115.000002193451
464,64,506998,1,0,0:0:0:0:
464,64,507071,1,0,0:0:0:0:
464,64,507144,1,0,0:0:0:0:
416,312,507291,1,0,0:0:0:0:
176,96,507437,1,0,0:0:0:0:
376,176,507583,6,0,P|336:232|272:224,1,115.000002193451
72,160,507876,1,0,0:0:0:0:
296,112,508022,1,0,0:0:0:0:
80,296,508169,1,0,0:0:0:0:
80,296,508242,1,0,0:0:0:0:
80,296,508315,1,0,0:0:0:0:
360,192,508461,2,0,L|264:272,1,115.000002193451
490,84,508754,5,0,0:0:0:0:
96,104,508900,1,0,0:0:0:0:
224,336,509047,2,0,P|280:368|328:360,1,115.000002193451
240,48,509339,1,0,0:0:0:0:
240,48,509413,1,0,0:0:0:0:
240,48,509486,1,0,0:0:0:0:
256,272,509632,1,0,0:0:0:0:
400,32,509778,1,0,0:0:0:0:
56,168,509925,6,0,P|64:232|144:272,1,115.000002193451
368,256,510217,1,0,0:0:0:0:
160,128,510364,1,0,0:0:0:0:
312,144,510510,1,0,0:0:0:0:
312,144,510583,1,0,0:0:0:0:
312,144,510656,1,0,0:0:0:0:
18,231,510803,1,0,0:0:0:0:
251,48,510949,1,0,0:0:0:0:
119,100,511095,6,0,L|172:240,1,115.000002193451
348,306,511388,2,0,L|288:186,1,115.000002193451
353,34,511681,2,0,L|419:147,1,115.000002193451
500,323,511974,1,0,0:0:0:0:
183,193,512120,1,0,0:0:0:0:
369,180,512266,6,0,P|374:253|325:302,1,115.000002193451
283,63,512559,1,0,0:0:0:0:
90,293,512705,1,0,0:0:0:0:
471,308,512852,1,0,0:0:0:0:
183,89,512998,1,0,0:0:0:0:
372,337,513144,1,0,0:0:0:0:
453,106,513291,1,0,0:0:0:0:
169,296,513437,5,0,0:0:0:0:
220,272,513510,1,0,0:0:0:0:
249,223,513583,1,0,0:0:0:0:
244,167,513656,1,0,0:0:0:0:
207,124,513729,1,0,0:0:0:0:
152,110,513802,1,0,0:0:0:0:
100,130,513876,1,0,0:0:0:0:
68,177,513949,1,0,0:0:0:0:
66,233,514022,6,0,L|270:267,1,172.500003290176
245,264,514315,6,0,L|266:136,1,115.000002193451
294,328,514608,6,0,P|224:337|176:295,1,115.000002193451
90,110,514900,1,0,0:0:0:0:
383,206,515047,1,0,0:0:0:0:
79,298,515193,1,0,0:0:0:0:
79,298,515266,1,0,0:0:0:0:
79,298,515339,1,0,0:0:0:0:
461,161,515486,2,0,P|466:235|432:271,1,115.000002193451
168,106,515778,5,0,0:0:0:0:
168,106,515852,1,0,0:0:0:0:
168,106,515925,1,0,0:0:0:0:
364,337,516071,1,0,0:0:0:0:
323,51,516217,1,0,0:0:0:0:
170,319,516364,1,0,0:0:0:0:
222,338,516437,1,0,0:0:0:0:
273,315,516510,1,0,0:0:0:0:
441,115,516656,1,0,0:0:0:0:
105,182,516803,1,0,0:0:0:0:
456,296,516949,6,0,P|371:301|326:273,1,115.000002193451
159,52,517242,1,0,0:0:0:0:
412,169,517388,1,0,0:0:0:0:
127,277,517535,1,0,0:0:0:0:
127,277,517608,1,0,0:0:0:0:
127,277,517681,1,0,0:0:0:0:
408,35,517827,2,0,L|316:142,1,115.000002193451
107,133,518120,5,0,0:0:0:0:
119,144,518193,1,0,0:0:0:0:
131,155,518266,1,0,0:0:0:0:
143,167,518339,1,0,0:0:0:0:
155,178,518412,1,0,0:0:0:0:
356,315,518559,1,0,0:0:0:0:
376,121,518705,1,0,0:0:0:0:
363,109,518778,1,0,0:0:0:0:
351,98,518851,1,0,0:0:0:0:
339,86,518924,1,0,0:0:0:0:
327,75,518997,1,0,0:0:0:0:
101,79,519144,5,0,0:0:0:0:
65,123,519217,1,0,0:0:0:0:
65,179,519290,5,0,0:0:0:0:
101,223,519363,1,0,0:0:0:0:
156,235,519436,1,0,0:0:0:0:
206,210,519509,1,0,0:0:0:0:
230,158,519583,1,0,0:0:0:0:
211,106,519656,1,0,0:0:0:0:
248,64,519729,1,0,0:0:0:0:
304,54,519802,1,0,0:0:0:0:
354,80,519875,1,0,0:0:0:0:
377,132,519948,1,0,0:0:0:0:
364,187,520021,1,0,0:0:0:0:
319,224,520095,1,0,0:0:0:0:
302,277,520168,1,0,0:0:0:0:
326,328,520241,1,0,0:0:0:0:
378,349,520314,1,0,0:0:0:0:
431,329,520387,1,0,0:0:0:0:
456,279,520460,5,0,0:0:0:0:
440,226,520535,1,0,0:0:0:0:
411,169,520608,1,0,0:0:0:0:
363,129,520681,1,0,0:0:0:0:
303,108,520754,1,0,0:0:0:0:
241,115,520827,1,0,0:0:0:0:
185,144,520900,1,0,0:0:0:0:
145,193,520974,1,0,0:0:0:0:
125,250,521047,1,0,0:0:0:0:
156,304,521120,1,0,0:0:0:0:
211,334,521193,1,0,0:0:0:0:
273,331,521266,1,0,0:0:0:0:
325,296,521339,5,0,0:0:0:0:
98,55,521632,6,0,B|57:95|68:167|113:197|183:200|240:147|240:147|250:225|250:225|314:195|360:200|360:200|372:240|405:262,1,517.500009870529
136,329,522803,6,0,B|95:296|71:270|84:204|115:177|191:165|191:165|149:142|174:116|174:116|149:109|148:109|148:109|178:87|159:31,1,400
460,185,523974,5,0,0:0:0:0:
421,230,524047,1,0,0:0:0:0:
367,257,524120,1,0,0:0:0:0:
308,262,524193,1,0,0:0:0:0:
251,244,524266,1,0,0:0:0:0:
205,206,524339,1,0,0:0:0:0:
177,154,524413,1,0,0:0:0:0:
174,88,524486,1,0,0:0:0:0:
229,61,524559,1,0,0:0:0:0:
291,66,524632,1,0,0:0:0:0:
342,100,524705,1,0,0:0:0:0:
369,156,524778,1,0,0:0:0:0:
366,217,524851,5,0,0:0:0:0:
332,269,524925,1,0,0:0:0:0:
277,297,524998,1,0,0:0:0:0:
215,294,525071,1,0,0:0:0:0:
165,260,525144,5,0,0:0:0:0:
133,206,525217,1,0,0:0:0:0:
135,144,525290,1,0,0:0:0:0:
168,92,525363,1,0,0:0:0:0:
223,65,525436,5,0,0:0:0:0:
285,71,525509,1,0,0:0:0:0:
334,108,525583,1,0,0:0:0:0:
365,163,525656,1,0,0:0:0:0:
360,223,525730,5,0,0:0:0:0:
423,199,525803,1,0,0:0:0:0:
456,141,525876,1,0,0:0:0:0:
443,75,525949,1,0,0:0:0:0:
390,33,526022,5,0,0:0:0:0:
323,35,526095,1,0,0:0:0:0:
273,80,526169,1,0,0:0:0:0:
265,147,526242,1,0,0:0:0:0:
295,208,526315,5,0,0:0:0:0:
7,278,526900,5,0,0:0:0:0:
501,112,527095,1,0,0:0:0:0:
0,44,527291,1,0,0:0:0:0:
512,264,527486,1,0,0:0:0:0:
