osu file format v14

[General]
AudioFilename: audio.mp3
AudioLeadIn: 0
PreviewTime: 132333
Countdown: 1
SampleSet: Soft
StackLeniency: 0.3
Mode: 0
LetterboxInBreaks: 0
WidescreenStoryboard: 0

[Editor]
Bookmarks: 1269,8544,18649,28754,38859,59070,69017,91912,112122,122228,132333,152386,172754,190438,195491,206386,216807
DistanceSpacing: 0.2
BeatDivisor: 3
GridSize: 16
TimelineZoom: 3.099999

[Metadata]
Title:Syakunetsu No Rengoku Ni Bara Wa...
TitleUnicode:灼熱の煉獄に薔薇は…
Artist:Imperial Circus Dead Decadence
ArtistUnicode:Imperial Circus Dead Decadence
Creator:Sing
Version:Insane
Source:
Tags:icdd rock osu mappers guild mpg featured artist fa vinxis deetz
BeatmapID:2019487
BeatmapSetID:964680

[Difficulty]
HPDrainRate:6
CircleSize:4
OverallDifficulty:8
ApproachRate:9
SliderMultiplier:1.9
SliderTickRate:1

[Events]
//Background and Video events
0,0,"69726122_p0.jpg",0,0
//Break Periods
//Storyboard Layer 0 (Background)
//Storyboard Layer 1 (Fail)
//Storyboard Layer 2 (Pass)
//Storyboard Layer 3 (Foreground)
//Storyboard Sound Samples

[TimingPoints]
1269,677.966101694915,3,2,1,30,1,0
1269,-166.666666666667,3,2,1,30,0,0
5336,-83.3333333333333,3,2,1,30,0,0
8544,315.789473684211,4,2,1,40,1,0
8544,-66.6666666666667,4,2,1,40,0,0
11386,-100,4,2,1,40,0,0
12175,-66.6666666666667,4,2,1,40,0,0
16754,-100,4,2,1,40,0,0
18649,-66.6666666666667,4,2,1,50,0,0
28754,-100,4,2,1,40,0,0
38859,-76.9230769230769,4,2,1,50,0,0
48965,-90.9090909090909,4,2,1,40,0,0
59070,-100,4,2,1,40,0,0
69017,-66.6666666666667,4,2,1,60,0,1
78333,-76.9230769230769,4,2,1,60,0,1
79122,-90.9090909090909,4,2,1,60,0,1
89386,-90.9090909090909,4,2,1,40,0,0
91912,-66.6666666666667,4,2,1,60,0,1
92070,-100,4,2,1,60,0,1
92386,-66.6666666666667,4,2,1,60,0,1
92544,-100,4,2,1,60,0,1
92859,-66.6666666666667,4,2,1,60,0,1
93017,-100,4,2,1,60,0,1
93491,-133.333333333333,4,2,1,60,0,1
94438,-100,4,2,1,60,0,1
94596,-133.333333333333,4,2,1,60,0,1
94912,-100,4,2,1,60,0,1
95070,-133.333333333333,4,2,1,60,0,1
95386,-100,4,2,1,60,0,1
95544,-133.333333333333,4,2,1,60,0,1
96017,-100,4,2,1,60,0,1
96333,-133.333333333333,4,2,1,60,0,1
96965,-66.6666666666667,4,2,1,60,0,1
97754,-100,4,2,1,60,0,1
97912,-133.333333333333,4,2,1,60,0,1
98070,-200,4,2,1,60,0,1
98544,-133.333333333333,4,2,1,60,0,1
99175,-100,4,2,1,60,0,1
99491,-66.6666666666667,4,2,1,60,0,1
102017,-100,4,2,1,60,0,1
102649,-90.9090909090909,4,2,1,60,0,1
103280,-83.3333333333333,4,2,1,60,0,1
103596,-76.9230769230769,4,2,1,60,0,1
104544,-100,4,2,1,60,0,1
107386,-76.9230769230769,4,2,1,60,0,1
108333,-66.6666666666667,4,2,1,60,0,1
112122,-100,4,2,1,40,0,0
121912,-76.9230769230769,4,2,1,40,0,0
122228,-66.6666666666667,4,2,1,50,0,0
132333,-83.3333333333333,4,2,1,40,0,0
150017,-100,4,2,1,40,0,0
151280,-83.3333333333333,4,2,1,40,0,0
152386,-66.6666666666667,4,2,1,40,0,1
161701,-76.9230769230769,4,2,1,40,0,1
162491,-90.9090909090909,4,2,1,40,0,1
172754,-90.9090909090909,4,2,1,40,0,0
173701,-66.6666666666667,4,2,1,40,0,0
175754,-76.9230769230769,4,2,1,40,0,0
176070,-90.9090909090909,4,2,1,40,0,0
176544,-66.6666666666667,4,2,1,40,0,0
176859,-90.9090909090909,4,2,1,40,0,0
177807,-100,4,2,1,40,0,0
182859,-125,4,2,1,50,0,1
187912,-100,4,2,1,40,0,0
189175,-83.3333333333333,4,2,1,40,0,0
195491,-66.6666666666667,4,2,1,40,0,0
198333,-100,4,2,1,40,0,0
199122,-66.6666666666667,4,2,1,40,0,0
203701,-100,4,2,1,40,0,0
204333,-66.6666666666667,4,2,1,40,0,0
206386,-250,4,2,1,40,0,0

[Colours]
Combo1 : 255,128,192
Combo2 : 255,128,64
Combo3 : 128,64,64

[HitObjects]
310,256,1269,6,0,P|319:277|355:289,1,56.9999982604981,2|2,0:0|0:0,0:0:0:0:
394,170,1946,2,0,P|376:185|376:222,1,56.9999982604981,2|2,0:0|0:0,0:0:0:0:
501,223,2624,2,0,P|481:211|445:222,1,56.9999982604981,2|2,0:0|0:0,0:0:0:0:
483,341,3302,2,0,P|488:318|465:287,1,56.9999982604981,2|2,0:0|0:0,0:0:0:0:
312,360,3980,6,0,P|367:368|408:332,1,113.999996520996,2|2,0:0|0:0,0:0:0:0:
310,256,4997,1,2,0:0:0:0:
241,295,5336,6,2,P|231:280|230:262,2,28.4999991302491
258,337,8544,6,0,B|233:354|233:354|88:331,1,142.500005435944,4|0,1:0|1:0,0:0:0:0:
122,336,9649,2,0,B|115:330|110:315|110:315|162:88|162:88|152:69|135:57,1,285.000010871888,4|0,1:0|1:0,0:0:0:0:
145,65,10754,1,8,0:0:0:0:
157,267,10912,1,0,1:0:0:0:
224,79,11070,6,0,B|244:97|244:97|209:219,1,142.500005435944,4|0,1:0|1:0,0:0:0:0:
144,254,11307,1,0,0:0:0:0:
134,244,11386,2,0,L|86:277,3,47.5,0|0|0|0,1:0|1:0|1:0|1:0,0:0:0:0:
243,284,11701,2,0,L|205:328,1,47.5,0|0,1:0|1:0,0:0:0:0:
358,295,11859,2,0,L|333:347,1,47.5,0|0,1:0|1:0,0:0:0:0:
511,322,12017,5,0,1:0:0:0:
511,322,12096,1,0,1:0:0:0:
511,322,12175,2,0,B|478:322|478:322|421:202,1,142.500005435944,4|0,1:0|0:0,0:0:0:0:
292,109,12491,2,0,B|259:109|259:109|202:229,1,142.500005435944,0|0,1:0|1:0,0:0:0:0:
512,133,12807,2,0,L|342:156,1,142.500005435944,4|0,1:0|1:0,0:0:0:0:
374,142,13044,1,0,1:0:0:0:
379,132,13122,2,0,L|364:45,1,71.2500027179719,0|0,1:0|1:0,0:0:0:0:
294,32,13280,2,0,B|270:65|270:65|305:188|305:188|281:234,1,213.750008153916,0|0,1:0|0:0,0:0:0:0:
203,362,13596,6,0,B|106:334|106:334|69:368,1,142.500005435944,4|0,1:0|1:0,0:0:0:0:
4,375,13912,1,4,0:0:0:0:
4,375,14228,1,4,0:0:0:0:
4,375,14544,1,4,0:0:0:0:
75,362,14701,2,0,B|103:331|103:331|75:234,1,142.500005435944,4|0,1:0|0:0,0:0:0:0:
44,113,15017,5,0,1:0:0:0:
0,175,15175,2,0,B|63:160|63:160|125:21|125:21|199:8,2,285.000010871888,8|8|0,0:0|0:0|1:0,0:0:0:0:
35,245,15886,1,0,1:0:0:0:
35,245,15965,2,0,L|115:225,1,71.2500027179719,0|0,1:0|1:0,0:0:0:0:
194,88,16122,6,0,B|177:179|177:179|204:226,1,142.500005435944,4|0,1:0|1:0,0:0:0:0:
208,230,16359,1,0,1:0:0:0:
214,238,16438,1,0,1:0:0:0:
270,161,16596,1,0,1:0:0:0:
270,161,16675,1,0,1:0:0:0:
270,161,16754,2,0,P|293:188|307:216,1,47.5,0|0,1:0|0:0,0:0:0:0:
342,100,16912,2,0,P|354:131|357:164,1,47.5,0|0,1:0|1:0,0:0:0:0:
418,63,17070,1,0,1:0:0:0:
374,228,17228,5,4,1:0:0:0:
138,156,17859,1,0,1:0:0:0:
138,156,17938,1,0,1:0:0:0:
138,156,18017,1,0,1:0:0:0:
156,233,18175,1,0,1:0:0:0:
19,188,18333,2,0,B|-9:223|-9:223|6:289,1,95,0|0,1:0|1:0,0:0:0:0:
75,246,18649,6,0,L|53:66,1,142.500005435944,4|8,1:0|0:0,0:0:0:0:
151,149,18965,2,0,L|173:-31,1,142.500005435944,0|8,1:0|0:0,0:0:0:0:
168,7,19280,6,0,B|199:1|199:1|248:46,2,71.2500027179719,0|0|8,1:0|0:0|0:0,0:0:0:0:
272,152,19517,2,0,B|260:113|260:113|230:104,2,71.2500027179719,0|0|0,0:0|1:0|0:0,0:0:0:0:
303,43,19754,5,8,0:0:0:0:
303,43,19833,1,0,0:0:0:0:
303,43,19912,2,0,P|380:37|462:26,1,142.500005435944,0|8,1:0|0:0,0:0:0:0:
506,175,20228,2,0,P|435:166|364:160,1,142.500005435944,0|8,1:0|0:0,0:0:0:0:
298,245,20544,5,2,1:2:0:0:
260,145,20701,1,10,0:2:0:0:
327,61,20859,1,2,1:2:0:0:
365,161,21017,1,10,0:2:0:0:
214,220,21175,6,0,B|230:318|230:318|201:362,1,142.500005435944,0|8,1:0|0:0,0:0:0:0:
91,203,21491,2,0,B|139:289|139:289|127:340,1,142.500005435944,0|8,1:0|0:0,0:0:0:0:
54,340,21807,2,0,L|225:364,2,142.500005435944,0|8|0,1:0|0:0|1:0,0:0:0:0:
214,220,22280,6,0,L|43:244,1,142.500005435944,8|0,0:0|1:0,0:0:0:0:
60,232,22517,1,0,1:0:0:0:
47,224,22596,2,0,B|29:199|29:199|65:68,1,142.500005435944,8|0,0:0|1:0,0:0:0:0:
132,128,22912,1,8,0:0:0:0:
166,58,23070,6,0,P|178:127|192:229,1,142.500005435944,2|10,1:2|0:2,0:0:0:0:
301,194,23386,2,0,P|289:263|275:365,1,142.500005435944,2|10,1:2|0:2,0:0:0:0:
511,336,23701,6,0,B|480:357|480:357|354:310,1,142.500005435944,4|8,1:0|0:0,0:0:0:0:
388,332,23938,1,0,0:0:0:0:
395,344,24017,2,0,P|400:298|414:259,3,71.2500027179719,0|0|8|0,1:0|0:0|0:0|0:0,0:0:0:0:
301,194,24333,2,0,P|319:248|313:307,2,95.0000036239625,0|0|0,1:0|0:0|0:0,0:0:0:0:
214,378,24649,2,0,B|193:356|193:356|211:276,2,95.0000036239625,0|0|0,1:0|0:0|0:0,0:0:0:0:
155,235,24965,6,0,B|148:125|148:125|89:95,1,142.500005435944,0|0,1:0|0:0,0:0:0:0:
105,105,25201,1,0,0:0:0:0:
91,100,25280,2,0,L|252:68,1,142.500005435944,0|8,1:0|0:0,0:0:0:0:
445,133,25596,5,2,1:2:0:0:
343,111,25754,1,10,0:2:0:0:
291,22,25912,1,2,1:2:0:0:
189,0,26070,1,10,0:2:0:0:
230,72,26228,6,0,B|214:173|214:173|259:220,1,142.500005435944,4|8,1:0|0:0,0:0:0:0:
64,30,26544,2,0,B|100:125|100:125|163:143,1,142.500005435944,0|8,1:0|0:0,0:0:0:0:
361,182,26859,2,0,B|296:261|296:261|312:324,2,142.500005435944,4|8|0,1:0|0:0|1:0,0:0:0:0:
507,348,27333,6,0,L|376:277,1,142.500005435944,8|0,0:0|1:0,0:0:0:0:
388,293,27570,1,0,1:0:0:0:
394,305,27649,1,8,0:0:0:0:
361,182,27807,2,0,L|215:211,1,142.500005435944,0|8,1:0|0:0,0:0:0:0:
234,216,28044,1,0,1:0:0:0:
246,221,28122,2,0,P|258:171|259:127,1,71.2500027179719,2|0,1:2|0:0,0:0:0:0:
157,164,28280,2,0,P|159:125|144:70,1,71.2500027179719,10|0,0:2|1:0,0:0:0:0:
66,144,28438,1,2,1:2:0:0:
30,73,28596,5,10,0:2:0:0:
30,73,28675,1,0,0:0:0:0:
30,73,28754,1,4,1:0:0:0:
50,149,28912,1,0,0:0:0:0:
1,212,29070,2,0,P|11:262|25:319,1,95,8|0,0:0|0:0,0:0:0:0:
223,115,29386,1,0,1:0:0:0:
149,145,29544,2,0,P|134:187|116:249,1,95,0|8,1:0|0:0,0:0:0:0:
174,374,29859,6,0,B|159:350|159:350|54:363,1,95,0|0,1:0|0:0,0:0:0:0:
17,367,30175,1,0,1:0:0:0:
260,330,30333,2,0,B|251:279|251:279|97:228,1,190,8|0,0:0|1:0,0:0:0:0:
58,280,30807,1,0,1:0:0:0:
31,140,30965,1,8,0:0:0:0:
139,156,31122,6,0,B|182:145|182:145|213:39|213:39|275:25,1,190,0|0,1:0|1:0,0:0:0:0:
310,182,31596,2,0,B|289:174|289:174|276:140|271:79,1,95,8|0,0:0|0:0,0:0:0:0:
86,0,31912,2,0,B|107:8|107:8|119:47|125:103,1,95,0|0,1:0|1:0,0:0:0:0:
238,21,32228,1,8,0:0:0:0:
139,156,32386,6,0,B|112:305|112:305|160:333,1,190,0|0,1:0|1:0,0:0:0:0:
159,328,32780,1,0,1:0:0:0:
172,331,32859,1,8,0:0:0:0:
245,284,33017,2,0,P|260:338|257:395,1,95,0|2,1:0|1:2,0:0:0:0:
339,314,33333,5,2,1:2:0:0:
339,314,33412,1,2,1:2:0:0:
339,314,33491,1,10,0:2:0:0:
354,168,33649,1,2,1:2:0:0:
481,272,33807,5,4,1:0:0:0:
405,252,33965,1,0,0:0:0:0:
337,304,34123,2,0,L|230:280,1,95,8|0,0:0|0:0,0:0:0:0:
474,65,34439,1,0,1:0:0:0:
444,139,34597,2,0,L|340:172,1,95,0|8,1:0|0:0,0:0:0:0:
147,20,34912,6,0,B|188:22|188:22|210:109,1,95,0|0,1:0|0:0,0:0:0:0:
269,27,35228,1,0,1:0:0:0:
75,110,35386,2,0,B|122:103|122:103|190:238,1,190,8|0,0:0|1:0,0:0:0:0:
145,293,35859,1,0,1:0:0:0:
11,267,36017,1,8,0:0:0:0:
113,369,36175,6,0,B|164:378|164:378|234:330|234:330|328:343,1,190,0|0,1:0|1:0,0:0:0:0:
360,369,36649,2,0,B|378:340|378:340|370:311|352:257,1,95,8|0,0:0|0:0,0:0:0:0:
144,205,36965,2,0,B|126:234|126:234|133:263|152:317,1,95,0|0,1:0|1:0,0:0:0:0:
309,226,37280,1,8,0:0:0:0:
225,122,37438,6,0,B|247:143|247:143|216:299,1,190,0|0,1:0|1:0,0:0:0:0:
224,311,37833,1,0,1:0:0:0:
231,323,37912,1,8,0:0:0:0:
134,211,38070,1,2,1:2:0:0:
378,173,38386,5,0,1:0:0:0:
378,173,38465,1,0,1:0:0:0:
378,173,38544,2,0,B|350:157|350:157|374:40,1,142.5,4|0,0:0|0:0,0:0:0:0:
372,48,38859,6,0,L|442:39,1,61.7499971733095,4|0,1:0|0:0,0:0:0:0:
507,178,39017,2,0,P|442:173|380:156,1,123.499994346619,8|0,0:0|1:0,0:0:0:0:
341,318,39333,2,0,P|403:303|468:296,1,123.499994346619,8|0,0:0|1:0,0:0:0:0:
267,287,39649,1,8,0:0:0:0:
267,287,39728,1,0,0:0:0:0:
267,287,39807,2,0,L|261:359,1,61.7499971733095,0|0,1:0|0:0,0:0:0:0:
184,366,39965,6,0,B|156:344|156:344|173:224,1,123.499994346619,8|0,0:0|1:0,0:0:0:0:
171,244,40201,1,0,1:0:0:0:
173,232,40280,1,8,0:0:0:0:
0,307,40438,2,0,B|28:285|28:285|11:165,1,123.499994346619,0|8,1:0|0:0,0:0:0:0:
193,142,40754,5,2,1:2:0:0:
113,64,40912,1,10,0:2:0:0:
13,113,41070,1,2,1:2:0:0:
101,194,41228,1,10,0:2:0:0:
121,68,41386,6,0,P|123:129|110:199,1,123.499994346619,0|8,1:0|0:0,0:0:0:0:
277,276,41701,2,0,P|267:215|267:154,1,123.499994346619,0|8,1:0|0:0,0:0:0:0:
277,146,41938,1,0,0:0:0:0:
286,137,42017,1,0,1:0:0:0:
198,261,42175,2,0,L|115:274,1,61.7499971733095,8|0,0:0|0:0,0:0:0:0:
157,346,42333,2,0,L|218:336,3,61.7499971733095,0|0|8|0,1:0|0:0|0:0|0:0,0:0:0:0:
292,275,42649,5,0,1:0:0:0:
292,275,42728,1,0,1:0:0:0:
292,275,42807,2,0,B|310:303|310:303|417:331,1,123.499994346619,8|0,0:0|1:0,0:0:0:0:
371,161,43122,2,0,B|372:194|372:194|451:273,1,123.499994346619,8|2,0:0|1:2,0:0:0:0:
293,179,43438,6,0,P|260:195|215:197,1,61.7499971733095,10|0,0:2|0:0,0:0:0:0:
451,149,43596,2,0,P|482:135|511:135,1,61.7499971733095,2|0,1:2|0:0,0:0:0:0:
366,140,43754,1,10,0:2:0:0:
186,37,43912,6,0,B|156:66|156:66|176:167,1,123.499994346619,4|8,1:0|0:0,0:0:0:0:
317,259,44228,2,0,B|306:218|306:218|209:185,1,123.499994346619,0|8,1:0|0:0,0:0:0:0:
59,261,44544,2,0,B|99:272|99:272|176:204,1,123.499994346619,0|8,1:0|0:0,0:0:0:0:
79,50,44859,1,0,1:0:0:0:
12,86,45017,6,0,P|-2:151|-2:222,1,123.499994346619,8|0,0:0|1:0,0:0:0:0:
59,261,45254,1,0,1:0:0:0:
59,261,45333,2,0,P|66:307|79:334,1,61.7499971733095,8|0,0:0|0:0,0:0:0:0:
142,347,45491,1,0,1:0:0:0:
142,347,45649,1,8,0:0:0:0:
173,128,45807,5,2,1:2:0:0:
91,178,45965,1,10,0:2:0:0:
237,238,46122,1,2,1:2:0:0:
319,188,46280,5,10,0:2:0:0:
319,188,46359,1,0,0:0:0:0:
319,188,46438,2,0,L|328:117,1,61.7499971733095,4|0,1:0|0:0,0:0:0:0:
403,170,46596,2,0,L|412:99,1,61.7499971733095,8|0,0:0|0:0,0:0:0:0:
270,67,46754,1,0,1:0:0:0:
310,273,46912,1,8,0:0:0:0:
222,142,47070,6,0,B|162:131|162:131|96:191,1,123.499994346619,4|8,1:0|0:0,0:0:0:0:
43,152,47386,1,0,1:0:0:0:
168,252,47544,6,0,L|310:271,1,123.499994346619,8|0,0:0|0:0,0:0:0:0:
310,273,47780,1,0,1:0:0:0:
310,273,47859,2,0,B|327:296|327:296|313:353,1,61.7499971733095,8|0,0:0|1:0,0:0:0:0:
488,117,48017,6,0,L|346:136,1,123.499994346619,0|8,1:0|0:0,0:0:0:0:
346,138,48253,1,0,1:0:0:0:
346,138,48333,2,0,B|329:161|329:161|343:218,1,61.7499971733095,2|0,1:2|1:0,0:0:0:0:
394,361,48491,5,10,0:2:0:0:
394,361,48570,1,0,1:0:0:0:
394,361,48649,1,2,1:2:0:0:
417,286,48807,1,10,0:2:0:0:
231,304,48965,5,4,1:0:0:0:
189,194,49122,2,0,L|178:245,1,52.2500015945435,8|0,0:0|0:0,0:0:0:0:
177,245,49280,2,0,P|121:253|68:264,1,104.500003189087,0|8,1:0|0:0,0:0:0:0:
8,155,49596,2,0,P|68:163|117:173,1,104.500003189087,0|8,1:0|0:0,0:0:0:0:
181,71,49912,2,0,P|126:75|71:89,1,104.500003189087,0|8,1:0|0:0,0:0:0:0:
277,180,50228,5,0,1:0:0:0:
277,180,50307,1,0,1:0:0:0:
277,180,50386,1,8,0:0:0:0:
362,65,50544,2,0,B|379:114|379:114|345:175,1,104.500003189087,0|8,1:0|0:0,0:0:0:0:
294,15,50859,5,2,1:2:0:0:
457,66,51017,1,10,0:2:0:0:
293,104,51175,1,2,1:2:0:0:
456,155,51333,1,10,0:2:0:0:
333,235,51491,6,0,P|345:296|347:361,1,104.500003189087,0|8,1:0|0:0,0:0:0:0:
178,384,51807,2,0,B|209:353|209:353|296:358,1,104.500003189087,0|8,1:0|0:0,0:0:0:0:
512,264,52122,2,0,B|481:295|481:295|394:290,1,104.500003189087,0|8,1:0|0:0,0:0:0:0:
158,248,52438,2,0,B|193:222|193:222|278:242,1,104.500003189087,0|8,1:0|0:0,0:0:0:0:
396,180,52754,5,0,1:0:0:0:
396,180,52833,1,0,1:0:0:0:
396,180,52912,1,8,0:0:0:0:
382,103,53070,2,0,P|371:52|364:-13,1,104.500003189087,0|8,1:0|0:0,0:0:0:0:
172,141,53386,5,2,1:2:0:0:
333,235,53544,1,10,0:2:0:0:
212,306,53701,1,2,1:2:0:0:
297,162,53859,1,10,0:2:0:0:
140,267,54017,6,0,B|123:299|123:299|141:381,1,104.500003189087,4|8,1:0|0:0,0:0:0:0:
15,169,54333,2,0,B|32:137|32:137|14:55,1,104.500003189087,0|8,1:0|0:0,0:0:0:0:
164,191,54649,2,0,B|136:189|101:183|101:183|55:254|55:254|24:244|-34:244,1,209.000006378174,0|0,1:0|1:0,0:0:0:0:
140,267,55122,6,0,L|281:280,1,104.500003189087,8|0,0:0|1:0,0:0:0:0:
423,245,55438,1,8,0:0:0:0:
423,245,55517,1,0,0:0:0:0:
423,245,55596,2,0,L|401:322,1,52.2500015945435,0|0,1:0|0:0,0:0:0:0:
322,277,55754,2,0,L|344:354,1,52.2500015945435,8|0,0:0|0:0,0:0:0:0:
494,296,55912,5,2,1:2:0:0:
308,194,56070,1,10,0:2:0:0:
402,371,56228,1,2,1:2:0:0:
388,162,56386,1,10,0:2:0:0:
208,283,56544,6,0,B|239:263|239:263|221:168,1,104.500003189087,0|8,1:0|0:0,0:0:0:0:
85,166,56859,2,0,B|86:202|86:202|178:234,1,104.500003189087,0|8,1:0|0:0,0:0:0:0:
247,117,57175,2,0,B|214:100|214:100|140:163,1,104.500003189087,0|8,1:0|0:0,0:0:0:0:
69,286,57491,1,0,1:0:0:0:
9,126,57649,1,8,0:0:0:0:
85,166,57807,6,0,L|90:103,3,52.2500015945435,0|0|8|0,1:0|1:0|0:0|1:0,0:0:0:0:
178,140,58122,2,0,L|163:21,1,104.500003189087,0|8,1:0|0:0,0:0:0:0:
182,43,58359,1,0,1:0:0:0:
199,49,58438,6,0,L|251:44,3,52.2500015945435,2|0|10|0,1:2|1:0|0:2|1:0,0:0:0:0:
278,136,58754,2,0,L|397:151,1,104.500003189087,2|10,1:2|0:2,0:0:0:0:
375,132,58990,1,0,0:0:0:0:
371,114,59070,5,4,1:0:0:0:
414,45,59228,1,0,0:0:0:0:
489,79,59386,2,0,P|496:125|511:170,1,95,8|0,0:0|0:0,0:0:0:0:
339,317,59702,1,0,1:0:0:0:
413,287,59860,2,0,P|426:237|446:183,1,95,0|8,1:0|0:0,0:0:0:0:
314,19,60175,6,0,B|329:43|329:43|434:30,1,95,0|0,1:0|0:0,0:0:0:0:
471,26,60491,1,0,1:0:0:0:
224,50,60649,2,0,B|233:101|233:101|387:152,1,190,8|0,0:0|1:0,0:0:0:0:
454,104,61123,1,0,1:0:0:0:
458,248,61281,1,8,0:0:0:0:
373,228,61438,6,0,B|330:239|330:239|299:345|299:345|237:359,1,190,0|0,1:0|1:0,0:0:0:0:
202,202,61912,2,0,B|223:210|223:210|232:243|241:305,1,95,8|0,0:0|0:0,0:0:0:0:
426,384,62228,2,0,B|405:376|405:376|396:341|387:281,1,95,0|0,1:0|1:0,0:0:0:0:
274,363,62544,1,8,0:0:0:0:
373,228,62702,6,0,B|400:79|400:79|352:51,1,190,0|0,1:0|1:0,0:0:0:0:
353,56,63096,1,0,1:0:0:0:
340,53,63175,1,8,0:0:0:0:
258,105,63333,2,0,P|260:58|246:-6,1,95,0|2,1:0|1:2,0:0:0:0:
173,70,63649,5,2,1:2:0:0:
173,70,63728,1,2,1:2:0:0:
173,70,63807,1,10,0:2:0:0:
158,216,63965,1,2,1:2:0:0:
31,112,64123,5,4,1:0:0:0:
107,132,64281,1,0,0:0:0:0:
170,83,64439,2,0,P|216:97|277:107,1,95,8|0,0:0|0:0,0:0:0:0:
38,319,64755,1,0,1:0:0:0:
69,247,64913,2,0,P|117:224|173:214,1,95,0|8,1:0|0:0,0:0:0:0:
365,364,65228,6,0,B|324:362|324:362|302:275,1,95,0|0,1:0|0:0,0:0:0:0:
243,357,65544,1,0,1:0:0:0:
437,274,65702,2,0,B|390:281|390:281|322:146,1,190,8|0,0:0|1:0,0:0:0:0:
367,91,66175,1,0,1:0:0:0:
501,117,66333,1,8,0:0:0:0:
399,15,66491,6,0,B|348:6|348:6|278:54|278:54|184:41,1,190,0|0,1:0|1:0,0:0:0:0:
152,15,66965,2,0,B|134:44|134:44|137:73|160:127,1,95,8|0,0:0|0:0,0:0:0:0:
368,179,67281,2,0,B|386:150|386:150|380:123|360:67,1,95,0|0,1:0|1:0,0:0:0:0:
203,158,67596,1,8,0:0:0:0:
287,262,67754,6,0,B|265:241|265:241|296:85,1,190,0|0,1:0|1:0,0:0:0:0:
288,73,68149,1,0,1:0:0:0:
281,61,68228,1,8,0:0:0:0:
378,173,68386,1,2,1:2:0:0:
131,211,69017,6,0,B|99:357|99:357|89:322|59:269,1,213.750008153916,4|0,1:0|0:0,0:0:0:0:
75,298,69333,2,0,L|172:289,1,71.2500027179719,0|0,1:0|0:0,0:0:0:0:
198,160,69491,2,0,B|159:123|159:123|62:140,1,142.500005435944,8|0,0:0|0:0,0:0:0:0:
203,355,69807,5,0,1:0:0:0:
0,274,69965,1,0,1:0:0:0:
228,275,70122,1,8,0:0:0:0:
53,216,70280,6,0,B|50:181|39:152|39:152|94:84|94:84|84:59|82:14,1,213.750008153916,0|0,1:0|0:0,0:0:0:0:
83,25,70596,2,0,L|155:40,1,71.2500027179719,0|0,1:0|0:0,0:0:0:0:
127,176,70754,1,8,0:0:0:0:
356,183,70912,6,0,B|352:152|352:152|160:111,1,213.750008153916,0|0,1:0|0:0,0:0:0:0:
173,113,71228,2,0,B|220:104|220:104|254:131,1,71.2500027179719,0|0,1:0|0:0,0:0:0:0:
201,198,71386,1,8,0:0:0:0:
445,131,71544,6,0,B|396:36|396:36|270:57,1,213.750008153916,0|0,1:0|0:0,0:0:0:0:
290,53,71859,2,0,L|344:116,1,71.2500027179719,0|0,1:0|0:0,0:0:0:0:
318,254,72017,2,0,B|370:268|370:268|454:211,1,142.500005435944,8|0,0:0|0:0,0:0:0:0:
436,328,72333,5,0,1:0:0:0:
237,284,72491,1,0,1:0:0:0:
497,275,72649,1,8,0:0:0:0:
352,345,72807,6,0,P|270:333|111:299,1,213.750008153916,0|0,1:0|0:0,0:0:0:0:
142,307,73122,2,0,B|124:323|124:323|135:384,1,71.2500027179719,0|0,1:0|0:0,0:0:0:0:
56,357,73280,1,8,0:0:0:0:
212,352,73438,6,0,B|228:196|228:196|173:164,1,213.750008153916,0|0,1:0|0:0,0:0:0:0:
110,197,73754,1,0,1:0:0:0:
103,184,73833,1,0,1:0:0:0:
102,169,73912,1,8,0:0:0:0:
282,61,74070,6,0,B|260:53|230:41|230:41|145:97|145:97|123:85|80:75,1,213.750008153916,4|0,1:0|0:0,0:0:0:0:
93,79,74386,2,0,L|168:35,1,71.2500027179719,0|0,1:0|0:0,0:0:0:0:
243,132,74544,2,0,B|190:195|190:195|216:271,1,142.500005435944,8|0,0:0|0:0,0:0:0:0:
332,115,74859,5,0,1:0:0:0:
102,169,75017,1,0,1:0:0:0:
282,279,75175,1,8,0:0:0:0:
175,336,75333,6,0,B|249:321|317:296|317:296|337:317|407:356,1,213.750008153916,0|0,1:0|0:0,0:0:0:0:
371,335,75649,2,0,B|365:315|365:315|406:252,1,71.2500027179719,0|0,1:0|0:0,0:0:0:0:
454,336,75807,1,8,0:0:0:0:
422,94,75965,6,0,B|400:144|389:183|389:183|340:196|340:196|326:224|304:255,1,213.750008153916,0|0,1:0|0:0,0:0:0:0:
305,255,76280,2,0,L|286:172,1,71.2500027179719,0|0,1:0|0:0,0:0:0:0:
332,115,76438,1,8,0:0:0:0:
209,231,76596,6,0,B|67:208|67:208|96:236|107:280,1,213.750008153916,0|0,1:0|0:0,0:0:0:0:
104,267,76912,2,0,L|123:182,1,71.2500027179719,0|0,1:0|0:0,0:0:0:0:
0,125,77070,2,0,B|100:90|100:90|87:114|81:146,1,142.500005435944,8|0,0:0|0:0,0:0:0:0:
12,273,77386,5,0,1:0:0:0:
171,123,77544,1,0,1:0:0:0:
178,310,77701,1,8,0:0:0:0:
209,231,77859,6,0,B|252:224|286:208|286:208|335:258|335:258|367:254|409:260,1,213.750008153916,0|0,1:0|0:0,0:0:0:0:
397,258,78175,2,0,B|412:245|412:245|481:254,1,71.2500027179719,0|0,1:0|0:0,0:0:0:0:
385,341,78333,6,0,B|298:337|298:337|268:292,1,123.499994346619,8|2,0:0|1:0,0:0:0:0:
253,118,78649,2,0,B|340:122|340:122|370:167,1,123.499994346619,0|0,0:0|1:0,0:0:0:0:
366,163,78886,1,0,0:0:0:0:
372,173,78965,1,8,0:0:0:0:
111,341,79122,6,0,B|167:329|167:329|169:241|169:241|200:227|233:201,1,209.000006378174,4|0,1:0|1:0,0:0:0:0:
94,263,79596,2,0,B|72:199|72:199|86:158,1,104.500003189087,8|0,0:0|0:0,0:0:0:0:
250,294,79912,5,0,1:0:0:0:
99,352,80070,1,0,1:0:0:0:
193,358,80228,1,8,0:0:0:0:
94,263,80386,6,0,B|71:137|71:137|2:122,1,156.750004783631,0|0,1:0|0:0,0:0:0:0:
42,130,80701,2,0,B|118:115|118:115|147:68,1,104.500003189087,0|8,1:0|0:0,0:0:0:0:
292,3,81017,2,0,B|216:18|216:18|187:65,1,104.500003189087,0|0,1:0|0:0,0:0:0:0:
158,190,81333,1,0,1:0:0:0:
65,46,81491,1,8,0:0:0:0:
212,120,81649,6,0,B|303:127|358:125|358:125|369:98|392:40,1,209.000006378174,0|0,1:0|1:0,0:0:0:0:
443,233,82122,2,0,B|425:162|425:162|444:112,1,104.500003189087,8|0,0:0|0:0,0:0:0:0:
361,204,82438,5,0,1:0:0:0:
512,180,82596,1,0,1:0:0:0:
344,207,82754,1,8,0:0:0:0:
453,20,82912,6,0,B|435:75|438:131|438:131|399:94|335:92,1,209.000006378174,0|0,1:0|1:0,0:0:0:0:
174,206,83386,1,8,0:0:0:0:
275,259,83544,2,0,B|248:228|248:228|269:140,1,104.500003189087,0|0,1:0|0:0,0:0:0:0:
122,139,83859,1,0,1:0:0:0:
122,139,83938,1,0,1:0:0:0:
122,139,84017,1,8,0:0:0:0:
347,96,84175,6,0,B|316:83|286:66|286:66|219:94|219:94|192:74|145:53,1,209.000006378174,4|0,1:0|1:0,0:0:0:0:
40,83,84649,2,0,B|81:62|81:62|80:-31,1,104.500003189087,8|0,0:0|0:0,0:0:0:0:
122,139,84965,5,0,1:0:0:0:
102,219,85122,1,0,1:0:0:0:
82,300,85280,1,8,0:0:0:0:
187,206,85438,6,0,B|199:315|199:315|286:346,1,156.750004783631,0|0,1:0|0:0,0:0:0:0:
243,330,85754,2,0,P|183:332|118:347,1,104.500003189087,0|8,1:0|0:0,0:0:0:0:
274,196,86070,2,0,P|335:196|398:178,1,104.500003189087,0|0,1:0|0:0,0:0:0:0:
316,376,86386,1,0,1:0:0:0:
333,278,86544,1,8,0:0:0:0:
304,359,86701,6,0,L|92:328,1,209.000006378174,0|0,1:0|1:0,0:0:0:0:
23,364,87175,2,0,B|14:309|14:309|54:251,1,104.500003189087,8|0,0:0|0:0,0:0:0:0:
17,93,87491,5,0,1:0:0:0:
76,147,87649,1,0,1:0:0:0:
9,104,87807,1,8,0:0:0:0:
116,228,87965,6,0,B|87:186|87:186|115:80|115:80|183:67,1,209.000006378174,0|0,1:0|1:0,0:0:0:0:
187,158,88438,1,8,0:0:0:0:
225,15,88596,6,0,B|279:30|279:30|288:70|288:70|363:87|363:87|398:61,1,209.000006378174,2|0,1:0|1:0,0:0:0:0:
403,56,88991,1,0,1:0:0:0:
415,46,89070,1,8,0:0:0:0:
380,169,89228,1,0,1:0:0:0:
256,192,89386,5,6,1:2:0:0:
256,192,89701,1,6,0:0:0:0:
256,192,90017,1,6,0:0:0:0:
256,192,90333,1,6,0:0:0:0:
319,238,90491,6,0,L|330:297,2,52.2500015945435,2|0|0,1:2|1:0|0:0,0:0:0:0:
177,157,90754,5,0,1:0:0:0:
215,265,90965,2,0,L|205:322,3,52.2500015945435,0|0|0|0,1:0|1:0|1:0|0:0,0:0:0:0:
103,267,91280,5,0,1:0:0:0:
96,278,91358,1,0,1:0:0:0:
90,289,91437,1,0,1:0:0:0:
83,301,91516,1,0,1:0:0:0:
77,312,91595,1,0,1:0:0:0:
2,275,91754,1,0,1:0:0:0:
50,200,91912,6,0,L|27:115,1,71.2500027179719,6|0,1:0|0:0,0:0:0:0:
124,163,92070,2,0,L|132:111,3,47.5,10|2|2|0,0:1|0:1|1:0|0:0,0:0:0:0:
187,247,92386,6,0,L|209:332,1,71.2500027179719,8|0,0:0|0:0,0:0:0:0:
269,242,92544,2,0,L|301:283,3,47.5,2|2|8|0,1:0|0:1|0:0|0:0,0:0:0:0:
356,210,92859,6,0,L|435:221,1,71.2500027179719,0|0,1:0|0:0,0:0:0:0:
294,154,93017,2,0,L|234:141,1,47.5,10|2,0:1|0:1,0:0:0:0:
360,106,93175,5,2,1:0:0:0:
360,106,93254,1,0,1:0:0:0:
360,106,93333,1,8,0:0:0:0:
305,40,93491,2,0,L|257:33,2,35.625001358986,2|2|10,1:0|0:1|0:1,0:0:0:0:
435,139,93807,5,2,1:2:0:0:
456,65,93965,1,10,0:2:0:0:
294,154,94122,1,2,1:2:0:0:
316,238,94280,5,10,0:2:0:0:
316,238,94359,1,0,0:0:0:0:
316,238,94438,2,0,L|309:295,1,47.5,2|0,1:0|0:0,0:0:0:0:
391,263,94596,2,0,L|398:302,3,35.625001358986,10|2|2|0,0:1|0:1|1:0|0:0,0:0:0:0:
245,321,94912,6,0,L|252:378,1,47.5,8|0,0:0|0:0,0:0:0:0:
170,346,95070,2,0,L|163:385,3,35.625001358986,2|2|10|0,1:0|0:1|0:1|0:0,0:0:0:0:
115,285,95386,6,0,L|54:300,1,47.5,0|0,1:0|0:0,0:0:0:0:
177,236,95544,2,0,L|218:242,1,35.625001358986,10|2,0:1|0:1,0:0:0:0:
127,172,95701,5,2,1:0:0:0:
127,172,95780,1,0,1:0:0:0:
127,172,95859,1,8,0:0:0:0:
181,109,96017,2,0,L|163:12,1,95,2|8,1:0|0:0,0:0:0:0:
51,138,96333,2,0,L|62:58,2,71.2500027179719,2|10|2,1:2|0:2|1:2,0:0:0:0:
130,185,96807,1,10,0:2:0:0:
94,264,96965,6,0,B|134:270|158:266|158:266|194:340|194:340|230:341|275:359,1,213.750008153916,6|0,1:0|0:0,0:0:0:0:
376,384,97280,2,0,B|386:250|386:250|362:282|316:302,1,213.750008153916,2|0,1:0|0:0,0:0:0:0:
240,244,97596,6,0,P|273:235|309:217,1,71.2500027179719,2|2,1:0|0:1,0:0:0:0:
280,129,97754,2,0,P|253:159|223:171,1,47.5,10|2,0:1|0:1,0:0:0:0:
179,108,97912,2,0,P|198:101|218:87,1,35.625001358986,2|2,1:0|0:1,0:0:0:0:
171,17,98070,2,0,P|161:36|147:54,1,23.75,10|2,0:1|0:1,0:0:0:0:
93,3,98228,5,2,1:0:0:0:
93,3,98307,1,0,1:0:0:0:
93,3,98386,1,10,0:1:0:0:
75,115,98544,2,0,L|82:74,2,35.625001358986,2|2|8,1:0|0:1|0:0,0:0:0:0:
301,19,98859,5,2,1:2:0:0:
243,166,99017,1,10,0:2:0:0:
310,95,99175,2,0,L|316:161,2,47.5,2|0|10,1:2|0:0|0:2,0:0:0:0:
486,200,99491,6,0,B|456:153|456:153|351:176|351:176|311:140,1,213.750008153916,6|0,1:0|0:0,0:0:0:0:
313,142,99807,2,0,B|365:122|365:122|435:204|435:204|488:199,1,213.750008153916,0|0,1:0|0:0,0:0:0:0:
337,292,100122,6,0,B|297:278|297:278|292:226,2,95.0000036239625,6|0|0,1:0|0:0|0:0,0:0:0:0:
512,384,100438,2,0,L|352:354,1,142.500005435944,2|8,1:0|0:0,0:0:0:0:
216,263,100754,5,0,1:0:0:0:
216,263,100833,1,0,1:0:0:0:
216,263,100912,2,0,L|207:344,1,71.2500027179719,8|0,0:0|1:0,0:0:0:0:
139,374,101070,1,0,1:0:0:0:
79,235,101228,5,8,0:0:0:0:
79,235,101307,1,0,1:0:0:0:
79,235,101386,2,0,L|91:308,1,71.2500027179719,2|0,1:2|0:0,0:0:0:0:
278,213,101544,5,10,0:0:0:0:
278,213,101622,1,0,1:0:0:0:
278,213,101701,2,0,P|258:189|204:184,2,71.2500027179719,2|0|10,1:2|0:0|0:2,0:0:0:0:
0,164,102017,6,0,P|62:156|114:138,1,95,6|8,1:0|0:0,0:0:0:0:
234,60,102333,2,0,P|172:68|120:86,1,95,0|8,1:0|0:0,0:0:0:0:
167,204,102649,6,0,L|191:330,1,104.500003189087,2|8,1:0|0:0,0:0:0:0:
282,330,102965,2,0,L|262:227,1,104.500003189087,0|8,1:0|0:0,0:0:0:0:
353,57,103280,6,0,P|410:59|481:82,1,113.999996520996,2|8,1:0|0:0,0:0:0:0:
263,90,103596,6,0,P|181:86|124:71,1,123.499994346619,2|8,1:0|0:0,0:0:0:0:
337,142,103912,5,2,1:2:0:0:
337,142,103991,1,0,0:0:0:0:
337,142,104070,1,10,0:2:0:0:
420,154,104228,1,2,1:2:0:0:
464,229,104386,1,10,0:2:0:0:
364,234,104544,6,0,P|324:280|306:333,1,95,2|8,1:0|0:0,0:0:0:0:
132,283,104859,2,0,P|130:343|151:396,1,95,2|8,1:0|0:0,0:0:0:0:
219,321,105175,5,2,1:0:0:0:
49,369,105333,1,10,0:1:0:0:
203,238,105491,5,2,1:0:0:0:
69,215,105649,1,10,0:1:0:0:
174,158,105807,5,2,1:0:0:0:
157,150,105886,1,0,1:0:0:0:
138,141,105965,1,10,0:1:0:0:
217,82,106122,5,2,1:0:0:0:
183,60,106280,1,10,0:1:0:0:
254,4,106438,6,0,B|302:3|302:3|345:62,1,95,2|10,1:2|0:2,0:0:0:0:
512,160,106754,2,0,L|346:145,1,142.5,2|0,1:2|0:0,0:0:0:0:
301,113,107070,5,6,1:0:0:0:
301,113,107149,1,2,0:1:0:0:
301,113,107228,2,0,L|291:173,1,47.5,10|2,0:1|0:1,0:0:0:0:
224,201,107386,6,0,L|235:277,3,61.7499971733095,2|2|10|2,1:0|0:1|0:1|0:1,0:0:0:0:
126,240,107701,2,0,L|162:307,3,61.7499971733095,2|2|10|2,1:0|0:1|0:1|0:1,0:0:0:0:
47,310,108017,2,0,L|104:361,3,61.7499971733095,2|2|10|2,1:0|0:1|0:1|0:1,0:0:0:0:
195,377,108333,6,0,P|237:361|258:301,3,71.2500027179719,2|2|10|2,1:0|1:1|0:0|0:1,0:0:0:0:
328,326,108649,2,0,P|325:281|275:242,3,71.2500027179719,2|2|10|2,1:0|0:1|0:1|0:1,0:0:0:0:
320,183,108965,2,0,P|276:171|224:207,3,71.2500027179719,2|0|10|0,1:2|0:0|0:2|0:0,0:0:0:0:
182,146,109280,2,0,P|157:183|175:244,3,71.2500027179719,0|0|10|0,0:0|0:0|0:2|0:0,0:0:0:0:
183,293,109596,6,0,B|132:314|132:314|42:263,1,142.500005435944,6|8,1:0|0:0,0:0:0:0:
0,113,109912,2,0,B|51:134|51:134|141:83,1,142.500005435944,0|8,1:0|0:0,0:0:0:0:
225,144,110228,6,0,B|211:84|211:84|224:70|224:70|206:-16,1,142.500005435944,6|10,1:0|0:0,0:0:0:0:
311,222,110544,2,0,B|324:162|324:162|311:148|311:148|329:61,1,142.500005435944,6|10,1:0|0:0,0:0:0:0:
386,41,110859,5,0,1:0:0:0:
420,40,110937,1,0,1:0:0:0:
447,62,111017,2,0,P|466:108|444:143,1,71.2500027179719,8|0,0:0|1:0,0:0:0:0:
480,200,111175,2,0,P|454:285|458:363,1,142.500005435944,0|8,1:0|0:0,0:0:0:0:
466,348,111412,1,0,1:0:0:0:
475,364,111491,6,0,L|373:353,1,71.2500027179719,2|0,1:2|0:0,0:0:0:0:
327,347,111649,1,10,0:2:0:0:
327,347,111728,1,0,1:0:0:0:
327,347,111807,2,0,L|319:265,1,71.2500027179719,2|0,1:2|0:0,0:0:0:0:
216,256,111965,2,0,L|222:326,1,71.2500027179719,10|0,0:2|0:0,0:0:0:0:
87,333,112122,5,4,1:0:0:0:
63,241,112280,1,0,0:0:0:0:
1,172,112438,2,0,P|16:127|25:65,1,95,8|0,0:0|0:0,0:0:0:0:
223,269,112754,1,0,1:0:0:0:
149,239,112912,2,0,P|136:189|116:135,1,95,0|8,1:0|0:0,0:0:0:0:
174,10,113228,6,0,B|159:34|159:34|54:21,1,95,0|0,1:0|0:0,0:0:0:0:
17,17,113543,1,0,1:0:0:0:
260,54,113701,2,0,B|251:105|251:105|97:156,1,190,8|0,0:0|1:0,0:0:0:0:
58,104,114175,1,0,1:0:0:0:
31,244,114333,1,8,0:0:0:0:
139,228,114491,6,0,B|182:239|182:239|213:345|213:345|275:359,1,190,0|0,1:0|1:0,0:0:0:0:
310,202,114964,2,0,B|289:210|289:210|280:243|271:305,1,95,8|0,0:0|0:0,0:0:0:0:
86,384,115280,2,0,B|107:376|107:376|116:341|125:281,1,95,0|0,1:0|1:0,0:0:0:0:
238,363,115596,1,8,0:0:0:0:
139,228,115754,6,0,B|112:79|112:79|160:51,1,190,0|0,1:0|1:0,0:0:0:0:
159,56,116148,1,0,1:0:0:0:
172,53,116227,1,8,0:0:0:0:
254,105,116386,2,0,P|252:58|266:-6,1,95,0|2,1:0|1:2,0:0:0:0:
339,70,116701,5,2,1:2:0:0:
339,70,116780,1,2,1:2:0:0:
339,70,116859,1,10,0:2:0:0:
354,216,117017,1,2,1:2:0:0:
481,112,117175,5,4,1:0:0:0:
405,132,117333,1,0,0:0:0:0:
342,83,117491,2,0,P|296:97|235:107,1,95,8|0,0:0|0:0,0:0:0:0:
474,319,117807,1,0,1:0:0:0:
443,247,117965,2,0,P|395:224|339:214,1,95,0|8,1:0|0:0,0:0:0:0:
147,364,118280,6,0,B|188:362|188:362|210:275,1,95,0|0,1:0|0:0,0:0:0:0:
269,357,118596,1,0,1:0:0:0:
75,274,118754,2,0,B|122:281|122:281|190:146,1,190,8|0,0:0|1:0,0:0:0:0:
145,91,119227,1,0,1:0:0:0:
11,117,119385,1,8,0:0:0:0:
113,15,119543,6,0,B|164:6|164:6|234:54|234:54|328:41,1,190,0|0,1:0|1:0,0:0:0:0:
360,15,120017,2,0,B|378:44|378:44|375:73|352:127,1,95,8|0,0:0|0:0,0:0:0:0:
144,179,120333,2,0,B|126:150|126:150|132:123|152:67,1,95,0|0,1:0|1:0,0:0:0:0:
309,158,120648,1,8,0:0:0:0:
225,262,120806,6,0,B|247:241|247:241|216:85,1,190,0|0,1:0|1:0,0:0:0:0:
224,73,121201,1,0,1:0:0:0:
231,61,121280,1,8,0:0:0:0:
134,173,121438,1,2,1:2:0:0:
361,235,121754,5,0,1:0:0:0:
361,235,121833,1,0,1:0:0:0:
361,235,121912,2,0,B|314:210|243:206|243:206|275:192|302:171,1,185.249991519928,4|0,0:0|0:0,0:0:0:0:
437,138,122228,6,0,L|459:318,1,142.500005435944,4|8,1:0|0:0,0:0:0:0:
361,235,122544,2,0,L|339:415,1,142.500005435944,0|8,1:0|0:0,0:0:0:0:
344,377,122859,2,0,B|313:383|313:383|264:338,2,71.2500027179719,0|0|8,1:0|0:0|0:0,0:0:0:0:
240,232,123096,2,0,B|252:271|252:271|282:280,2,71.2500027179719,0|0|0,0:0|1:0|0:0,0:0:0:0:
209,341,123333,5,8,0:0:0:0:
209,341,123412,1,0,0:0:0:0:
209,341,123491,2,0,P|153:343|101:358,2,71.2500027179719,0|0|8,1:0|1:0|0:0,0:0:0:0:
0,245,123807,2,0,P|72:257|142:261,1,142.500005435944,0|8,1:0|0:0,0:0:0:0:
214,139,124123,5,2,1:2:0:0:
252,239,124280,1,10,0:2:0:0:
185,323,124438,1,2,1:2:0:0:
147,223,124596,1,10,0:2:0:0:
298,164,124754,6,0,B|282:66|282:66|311:22,1,142.500005435944,0|8,1:0|0:0,0:0:0:0:
421,181,125070,2,0,B|373:95|373:95|385:44,1,142.500005435944,0|8,1:0|0:0,0:0:0:0:
458,44,125386,2,0,L|287:20,2,142.500005435944,0|8|0,1:0|0:0|1:0,0:0:0:0:
298,164,125859,6,0,L|469:140,1,142.500005435944,8|0,0:0|1:0,0:0:0:0:
452,152,126096,1,0,1:0:0:0:
465,160,126175,2,0,B|483:185|483:185|447:316,1,142.500005435944,8|0,0:0|1:0,0:0:0:0:
380,256,126491,1,8,0:0:0:0:
346,326,126649,6,0,P|334:257|320:155,1,142.500005435944,2|10,1:2|0:2,0:0:0:0:
211,190,126965,2,0,P|223:121|237:19,1,142.500005435944,2|8,1:2|0:0,0:0:0:0:
1,48,127280,6,0,B|32:27|32:27|158:74,1,142.500005435944,4|8,1:0|0:0,0:0:0:0:
124,52,127517,1,0,0:0:0:0:
117,40,127596,2,0,P|112:86|98:125,3,71.2500027179719,0|0|8|0,1:0|0:0|0:0|0:0,0:0:0:0:
211,190,127912,2,0,P|193:136|199:77,2,95.0000036239625,0|0|0,1:0|0:0|0:0,0:0:0:0:
298,6,128228,2,0,B|319:28|319:28|301:108,2,95.0000036239625,0|0|0,1:0|0:0|0:0,0:0:0:0:
357,149,128544,6,0,B|364:259|364:259|423:289,1,142.500005435944,0|0,1:0|0:0,0:0:0:0:
407,279,128780,1,0,0:0:0:0:
421,284,128859,2,0,L|260:316,1,142.500005435944,0|8,1:0|0:0,0:0:0:0:
67,251,129175,5,2,1:2:0:0:
169,273,129333,1,10,0:2:0:0:
221,362,129491,1,2,1:2:0:0:
323,384,129649,1,10,0:2:0:0:
282,312,129807,6,0,B|298:211|298:211|253:164,1,142.500005435944,4|8,1:0|0:0,0:0:0:0:
448,354,130122,2,0,B|412:259|412:259|349:241,1,142.500005435944,0|8,1:0|0:0,0:0:0:0:
151,202,130438,2,0,B|216:123|216:123|200:60,2,142.500005435944,4|8|0,1:0|0:0|1:0,0:0:0:0:
5,36,130912,6,0,L|136:107,1,142.500005435944,12|0,0:0|1:0,0:0:0:0:
124,91,131149,1,0,1:0:0:0:
118,79,131228,1,8,0:0:0:0:
151,202,131386,2,0,L|297:173,1,142.500005435944,0|8,1:0|0:0,0:0:0:0:
278,168,131623,1,0,1:0:0:0:
266,163,131701,2,0,P|254:213|253:257,1,71.2500027179719,2|0,1:2|1:0,0:0:0:0:
355,220,131859,2,0,P|353:259|368:314,1,71.2500027179719,10|0,0:2|1:0,0:0:0:0:
512,279,132017,6,0,P|444:284|488:214,1,142.500005435944,2|10,1:2|0:2,0:0:0:0:
458,23,132333,6,0,B|338:47|338:47|318:109,1,170.999994781494,4|0,1:0|0:0,0:0:0:0:
323,93,132649,2,0,B|310:149|310:149|340:201,1,113.999996520996,8|0,0:0|0:0,0:0:0:0:
288,259,132965,5,0,1:0:0:0:
510,292,133122,1,0,1:0:0:0:
325,334,133280,1,8,0:0:0:0:
437,258,133438,6,0,B|440:227|455:191|455:191|397:136|397:136|414:101|413:46,1,227.999993041992,0|0,1:0|1:0,0:0:0:0:
245,22,133912,2,0,P|297:4|306:104,1,170.999994781494,8|0,0:0|0:0,0:0:0:0:
308,87,134228,5,0,1:0:0:0:
238,205,134386,1,0,1:0:0:0:
102,182,134544,1,8,0:0:0:0:
112,35,134701,6,0,P|126:140|141:292,1,227.999993041992,4|0,1:0|1:0,0:0:0:0:
60,323,135175,2,0,B|165:354|165:354|218:302,1,170.999994781494,8|0,0:0|0:0,0:0:0:0:
217,324,135491,5,0,1:0:0:0:
284,262,135649,1,0,1:0:0:0:
368,296,135807,1,8,0:0:0:0:
493,139,135965,6,0,B|516:283|516:283|486:250|430:227,1,227.999993041992,0|0,1:0|1:0,0:0:0:0:
438,232,136359,1,0,1:0:0:0:
426,230,136438,1,8,0:0:0:0:
350,183,136596,1,0,1:0:0:0:
395,75,136754,5,0,1:0:0:0:
332,11,136912,1,0,1:0:0:0:
332,11,136991,1,0,1:0:0:0:
332,11,137070,1,8,0:0:0:0:
246,41,137228,1,0,1:0:0:0:
219,199,137386,6,0,L|21:178,1,170.999994781494,4|0,1:0|0:0,0:0:0:0:
48,180,137701,2,0,B|70:159|70:159|49:73,1,113.999996520996,8|0,0:0|0:0,0:0:0:0:
163,33,138017,5,0,1:0:0:0:
129,224,138175,1,0,1:0:0:0:
83,1,138333,1,8,0:0:0:0:
266,127,138491,6,0,B|302:106|326:67|326:67|359:222,1,227.999993041992,0|0,1:0|1:0,0:0:0:0:
265,379,138965,2,0,B|307:283|234:304|274:208,1,170.999994781494,8|0,0:0|0:0,0:0:0:0:
279,231,139280,5,0,1:0:0:0:
415,288,139438,1,0,1:0:0:0:
197,327,139596,1,8,0:0:0:0:
37,136,139754,6,0,P|118:127|174:261,1,227.999993041992,4|0,1:0|1:0,0:0:0:0:
29,378,140228,2,0,B|7:326|7:326|40:260,1,113.999996520996,8|0,0:0|0:0,0:0:0:0:
230,353,140544,5,0,1:0:0:0:
98,330,140701,1,0,1:0:0:0:
261,273,140859,1,8,0:0:0:0:
130,145,141017,6,0,B|165:139|194:122|194:122|238:194|238:194|285:187|329:214,1,227.999993041992,0|0,1:0|1:0,0:0:0:0:
322,209,141412,1,0,1:0:0:0:
331,215,141491,1,8,0:0:0:0:
407,157,141649,2,0,P|411:220|420:291,1,113.999996520996,0|0,1:0|1:0,0:0:0:0:
502,201,141965,5,0,1:0:0:0:
502,201,142044,1,0,1:0:0:0:
502,201,142122,1,8,0:0:0:0:
325,123,142280,1,0,1:0:0:0:
300,289,142438,6,0,B|257:274|257:274|161:371|161:371|74:345,2,227.999993041992,4|8|0,1:0|0:0|1:0,0:0:0:0:
342,357,143228,1,0,1:0:0:0:
289,196,143386,1,8,0:0:0:0:
138,281,143544,6,0,P|58:255|58:106,1,227.999993041992,0|0,1:0|1:0,0:0:0:0:
188,0,144017,2,0,B|237:31|237:31|208:157,1,170.999994781494,8|0,0:0|0:0,0:0:0:0:
197,151,144333,5,0,1:0:0:0:
322,96,144491,1,0,1:0:0:0:
402,206,144649,1,8,0:0:0:0:
487,60,144807,5,4,1:0:0:0:
480,237,144965,2,0,B|491:180|491:180|454:136,1,113.999996520996,2|0,0:0|1:0,0:0:0:0:
253,221,145280,2,0,B|308:230|308:230|337:281|337:281|401:291,1,170.999994781494,8|0,0:0|0:0,0:0:0:0:
410,291,145596,1,0,1:0:0:0:
252,300,145754,1,0,1:0:0:0:
467,367,145912,1,8,0:0:0:0:
329,360,146070,6,0,L|332:114,1,227.999993041992,0|0,1:0|1:0,0:0:0:0:
333,114,146465,1,0,1:0:0:0:
334,96,146544,1,8,0:0:0:0:
214,278,146701,2,0,L|197:161,1,113.999996520996,0|0,1:0|1:0,0:0:0:0:
107,256,147017,1,0,1:0:0:0:
102,239,147096,1,0,1:0:0:0:
97,222,147175,1,8,0:0:0:0:
20,265,147333,5,0,1:0:0:0:
24,344,147491,2,0,P|76:375|143:361,1,113.999996520996,4|0,1:0|1:0,0:0:0:0:
189,232,147807,2,0,P|274:236|371:350,1,227.999993041992,8|4,0:0|1:2,0:0:0:0:
439,374,148280,2,0,P|491:344|513:279,1,113.999996520996,0|12,1:0|0:0,0:0:0:0:
512,135,148596,6,0,B|461:129|461:129|404:234|404:234|342:226,1,227.999993041992,0|0,1:0|1:0,0:0:0:0:
335,225,148991,1,0,1:0:0:0:
323,223,149070,1,12,0:0:0:0:
271,122,149228,2,0,L|283:60,2,56.9999982604981,0|0|4,1:0|1:0|1:2,0:0:0:0:
173,195,149544,1,0,1:0:0:0:
110,130,149701,5,12,0:0:0:0:
110,130,149780,1,0,1:0:0:0:
110,130,149859,1,4,1:0:0:0:
110,130,149938,1,0,0:0:0:0:
110,130,150017,2,0,L|13:153,1,95,4|2,1:0|0:0,0:0:0:0:
194,214,150333,2,0,L|97:237,1,95,2|2,0:0|0:0,0:0:0:0:
318,214,150649,6,0,L|415:237,1,95,10|10,0:0|0:0,0:0:0:0:
402,130,150965,2,0,L|499:153,1,95,10|10,0:0|0:0,0:0:0:0:
256,16,151280,6,0,P|253:75|254:140,1,113.999996520996,10|10,0:0|0:0,0:0:0:0:
175,44,151596,2,0,P|161:79|152:108,1,56.9999982604981,0|0,1:0|1:0,0:0:0:0:
80,141,151754,1,0,1:0:0:0:
80,141,151833,1,0,1:0:0:0:
80,141,151912,2,0,P|93:176|102:205,1,56.9999982604981,0|0,1:0|1:0,0:0:0:0:
188,186,152070,2,0,P|176:253|170:320,1,113.999996520996,0|0,1:0|1:0,0:0:0:0:
381,173,152386,6,0,B|413:27|413:27|423:62|453:115,1,213.750008153916,4|0,1:0|0:0,0:0:0:0:
437,86,152702,2,0,L|340:95,1,71.2500027179719,0|0,1:0|0:0,0:0:0:0:
314,224,152860,2,0,B|353:261|353:261|450:244,1,142.500005435944,8|0,0:0|0:0,0:0:0:0:
309,29,153176,5,0,1:0:0:0:
512,110,153334,1,0,1:0:0:0:
284,109,153491,1,8,0:0:0:0:
459,168,153649,6,0,B|462:203|473:232|473:232|418:300|418:300|428:325|430:370,1,213.750008153916,0|0,1:0|0:0,0:0:0:0:
429,359,153965,2,0,L|357:344,1,71.2500027179719,0|0,1:0|0:0,0:0:0:0:
385,208,154123,1,8,0:0:0:0:
156,201,154281,6,0,B|160:232|160:232|352:273,1,213.750008153916,0|0,1:0|0:0,0:0:0:0:
339,271,154597,2,0,B|292:280|292:280|258:253,1,71.2500027179719,0|0,1:0|0:0,0:0:0:0:
311,186,154755,1,8,0:0:0:0:
67,253,154913,6,0,B|116:348|116:348|242:327,1,213.750008153916,0|0,1:0|0:0,0:0:0:0:
222,331,155228,2,0,L|168:268,1,71.2500027179719,0|0,1:0|0:0,0:0:0:0:
194,130,155386,2,0,B|142:116|142:116|58:173,1,142.500005435944,8|0,0:0|0:0,0:0:0:0:
76,56,155702,5,0,1:0:0:0:
275,100,155860,1,0,1:0:0:0:
15,109,156018,1,8,0:0:0:0:
160,39,156176,6,0,P|242:51|401:85,1,213.750008153916,0|0,1:0|0:0,0:0:0:0:
370,77,156491,2,0,B|388:61|388:61|377:0,1,71.2500027179719,0|0,1:0|0:0,0:0:0:0:
456,27,156649,1,8,0:0:0:0:
300,32,156807,6,0,B|284:188|284:188|339:220,1,213.750008153916,0|0,1:0|0:0,0:0:0:0:
402,187,157123,1,0,1:0:0:0:
409,200,157202,1,0,1:0:0:0:
410,215,157281,1,8,0:0:0:0:
230,323,157439,6,0,B|252:331|282:343|282:343|367:287|367:287|389:299|432:309,1,213.750008153916,4|0,1:0|0:0,0:0:0:0:
419,305,157755,2,0,L|344:349,1,71.2500027179719,0|0,1:0|0:0,0:0:0:0:
269,252,157913,2,0,B|322:189|322:189|296:113,1,142.500005435944,8|0,0:0|0:0,0:0:0:0:
180,269,158228,5,0,1:0:0:0:
410,215,158386,1,0,1:0:0:0:
230,105,158544,1,8,0:0:0:0:
337,48,158702,6,0,B|263:63|195:88|195:88|175:67|105:28,1,213.750008153916,0|0,1:0|0:0,0:0:0:0:
141,49,159018,2,0,B|147:69|147:69|106:132,1,71.2500027179719,0|0,1:0|0:0,0:0:0:0:
58,48,159176,1,8,0:0:0:0:
90,290,159334,6,0,B|112:240|123:201|123:201|172:188|172:188|186:160|208:129,1,213.750008153916,0|0,1:0|0:0,0:0:0:0:
207,129,159649,2,0,L|226:212,1,71.2500027179719,0|0,1:0|0:0,0:0:0:0:
180,269,159807,1,8,0:0:0:0:
303,153,159965,6,0,B|445:176|445:176|416:148|405:104,1,213.750008153916,0|0,1:0|0:0,0:0:0:0:
408,117,160281,2,0,L|389:202,1,71.2500027179719,0|0,1:0|0:0,0:0:0:0:
512,259,160439,2,0,B|412:294|412:294|425:270|431:238,1,142.500005435944,8|0,0:0|0:0,0:0:0:0:
500,111,160755,5,0,1:0:0:0:
341,261,160913,1,0,1:0:0:0:
334,74,161070,1,8,0:0:0:0:
303,153,161228,6,0,B|260:160|226:176|226:176|177:126|177:126|145:130|103:124,1,213.750008153916,0|0,1:0|0:0,0:0:0:0:
115,126,161544,2,0,B|100:139|100:139|31:130,1,71.2500027179719,0|0,1:0|0:0,0:0:0:0:
74,56,161701,5,8,0:0:0:0:
153,6,161859,2,0,B|185:40|227:56|227:56|219:136|182:223,1,246.999988693238,2|0,1:0|1:0,0:0:0:0:
181,217,162254,1,0,0:0:0:0:
171,224,162334,1,8,0:0:0:0:
401,43,162491,6,0,B|345:55|345:55|343:143|343:143|312:157|279:183,1,209.000006378174,4|0,1:0|1:0,0:0:0:0:
418,121,162965,2,0,B|440:185|440:185|426:226,1,104.500003189087,8|0,0:0|0:0,0:0:0:0:
262,90,163281,5,0,1:0:0:0:
413,32,163439,1,0,1:0:0:0:
319,26,163597,1,8,0:0:0:0:
418,121,163755,6,0,B|441:247|441:247|510:262,1,156.750004783631,0|0,1:0|0:0,0:0:0:0:
469,253,164070,2,0,B|393:268|393:268|364:315,1,104.500003189087,0|8,1:0|0:0,0:0:0:0:
220,381,164386,2,0,B|296:366|296:366|325:319,1,104.500003189087,0|0,1:0|0:0,0:0:0:0:
354,194,164702,1,0,1:0:0:0:
447,338,164860,1,8,0:0:0:0:
300,264,165018,6,0,B|209:257|154:259|154:259|143:286|120:344,1,209.000006378174,0|0,1:0|1:0,0:0:0:0:
69,151,165491,2,0,B|87:222|87:222|68:272,1,104.500003189087,8|0,0:0|0:0,0:0:0:0:
151,180,165807,5,0,1:0:0:0:
0,204,165965,1,0,1:0:0:0:
168,177,166123,1,8,0:0:0:0:
59,364,166281,6,0,B|77:309|74:253|74:253|113:290|177:292,1,209.000006378174,0|0,1:0|1:0,0:0:0:0:
338,178,166755,1,8,0:0:0:0:
237,125,166913,2,0,B|264:156|264:156|243:244,1,104.500003189087,0|0,1:0|0:0,0:0:0:0:
390,245,167228,1,0,1:0:0:0:
390,245,167307,1,0,1:0:0:0:
390,245,167386,1,8,0:0:0:0:
165,288,167544,6,0,B|196:301|226:318|226:318|293:290|293:290|320:310|367:331,1,209.000006378174,4|0,1:0|1:0,0:0:0:0:
472,301,168018,2,0,B|431:322|431:322|432:415,1,104.500003189087,8|0,0:0|0:0,0:0:0:0:
390,245,168334,5,0,1:0:0:0:
410,165,168491,1,0,1:0:0:0:
430,84,168649,1,8,0:0:0:0:
325,178,168807,6,0,B|313:69|313:69|226:38,1,156.750004783631,0|0,1:0|0:0,0:0:0:0:
269,54,169123,2,0,P|329:52|394:37,1,104.500003189087,0|8,1:0|0:0,0:0:0:0:
238,188,169439,2,0,P|177:188|114:206,1,104.500003189087,0|0,1:0|0:0,0:0:0:0:
196,8,169755,1,0,1:0:0:0:
179,106,169913,1,8,0:0:0:0:
208,25,170070,6,0,L|420:56,1,209.000006378174,0|0,1:0|1:0,0:0:0:0:
489,20,170544,2,0,B|498:75|498:75|458:133,1,104.500003189087,8|0,0:0|0:0,0:0:0:0:
495,291,170860,5,0,1:0:0:0:
436,237,171018,1,0,1:0:0:0:
503,280,171176,1,8,0:0:0:0:
396,156,171334,6,0,B|425:198|425:198|397:304|397:304|329:317,1,209.000006378174,0|0,1:0|1:0,0:0:0:0:
325,226,171807,1,8,0:0:0:0:
287,369,171965,6,0,B|233:354|233:354|224:314|224:314|149:297|149:297|114:323,1,209.000006378174,2|0,1:0|1:0,0:0:0:0:
109,328,172360,1,0,1:0:0:0:
97,338,172439,1,8,0:0:0:0:
132,215,172597,1,0,1:0:0:0:
256,192,172755,5,4,1:0:0:0:
256,192,173701,2,0,B|311:179|311:179|424:311|424:311|509:295,1,285.000010871888,0|0,1:0|1:0,0:0:0:0:
477,300,175280,6,0,P|415:252|393:148,1,142.500005435944,4|0,1:0|1:0,0:0:0:0:
391,179,175517,1,0,1:0:0:0:
392,164,175596,1,0,1:0:0:0:
289,206,175754,2,0,P|295:133|328:76,1,123.499994346619,0|0,1:0|1:0,0:0:0:0:
215,82,176070,2,0,P|248:33|299:4,1,104.500003189087,0|0,1:0|1:0,0:0:0:0:
78,48,176386,5,0,1:0:0:0:
78,48,176465,1,0,1:0:0:0:
78,48,176544,2,0,B|120:47|120:47|145:168|145:168|101:192,1,213.750008153916,4|0,1:0|0:0,0:0:0:0:
29,176,176859,6,0,L|15:258,3,52.2500015945435,0|0|0|0,1:0|1:0|1:0|1:0,0:0:0:0:
90,332,177175,2,0,L|76:250,3,52.2500015945435,0|0|0|0,1:0|1:0|1:0|1:0,0:0:0:0:
174,210,177491,2,0,L|160:292,3,52.2500015945435,0|0|0|0,1:0|1:0|1:0|1:0,0:0:0:0:
229,322,177807,6,0,P|296:256|411:279,1,190,4|4,1:2|0:0,0:0:0:0:
512,141,178280,1,0,1:0:0:0:
441,329,178438,2,0,B|478:268|478:268|446:190,1,142.5,12|0,0:0|0:0,0:0:0:0:
444,191,178754,1,4,1:2:0:0:
301,92,178912,1,8,0:0:0:0:
245,150,179070,2,0,L|267:260,1,95,4|8,0:0|0:0,0:0:0:0:
132,361,179386,5,4,1:2:0:0:
153,268,179544,1,0,1:0:0:0:
68,306,179701,2,0,P|39:232|45:152,1,142.5,12|0,0:0|0:0,0:0:0:0:
56,168,180017,1,4,1:2:0:0:
37,74,180175,1,0,1:0:0:0:
122,110,180333,6,0,L|194:96,2,63.3333333333333,8|8|8,0:0|0:0|0:0,0:0:0:0:
232,202,180649,2,0,L|170:190,2,63.3333333333333,8|8|8,0:0|0:0|0:0,0:0:0:0:
262,83,180965,6,0,L|334:69,2,63.3333333333333,8|8|8,0:0|0:0|0:0,0:0:0:0:
372,229,181280,2,0,L|310:217,2,63.3333333333333,8|8|8,0:0|0:0|0:0,0:0:0:0:
381,15,181596,6,0,B|415:35|415:35|399:151,2,126.666666666667,0|0|0,1:0|1:0|1:0,0:0:0:0:
454,265,182228,6,0,P|457:233|466:184,1,63.3333333333333,8|8,0:0|0:0,0:0:0:0:
372,229,182438,2,0,P|366:309|354:371,1,126.666666666667,8|0,0:0|1:0,0:0:0:0:
90,362,182859,6,0,L|275:336,1,152,4|0,1:0|0:0,0:0:0:0:
240,340,183280,2,0,L|252:222,1,101.333333333333,0|8,1:0|0:0,0:0:0:0:
48,291,183701,2,0,L|36:172,1,101.333333333333,0|0,1:0|1:0,0:0:0:0:
278,130,184122,6,0,P|219:147|188:197,2,101.333333333333,0|0|0,1:0|1:0|1:0,0:0:0:0:
342,177,184754,1,8,0:0:0:0:
112,156,185070,2,0,P|90:134|84:107,2,50.6666666666667,0|0|0,1:0|1:0|1:0,0:0:0:0:
148,46,185386,6,0,P|187:111|169:251,1,202.666666666667,4|0,1:0|1:0,0:0:0:0:
4,98,186017,2,0,P|60:103|115:155,2,101.333333333333,8|0|0,0:0|1:0|1:0,0:0:0:0:
242,322,186649,5,0,1:0:0:0:
269,226,186859,5,0,1:0:0:0:
362,189,187070,5,0,1:0:0:0:
381,193,187175,1,0,1:0:0:0:
398,203,187280,1,8,0:0:0:0:
512,193,187491,6,0,P|468:236|453:295,1,101.333333333333,0|0,1:0|1:0,0:0:0:0:
314,384,187912,6,0,L|484:362,2,126.666666666667,6|2|2,1:2|0:0|0:0,0:0:0:0:
207,308,188544,2,0,L|44:325,2,126.666666666667,2|2|2,0:0|0:0|0:0,0:0:0:0:
370,112,189175,6,0,P|331:186|333:279,2,151.999995361328,6|2|2,1:2|0:0|0:0,0:0:0:0:
195,215,189807,2,0,P|189:130|153:61,2,151.999995361328,2|2|2,0:0|0:0|0:0,0:0:0:0:
256,32,190438,5,4,1:0:0:0:
256,192,190517,12,0,195175,0:0:0:0:
254,47,195491,6,0,B|279:30|279:30|424:53,1,142.500005435944,4|0,1:0|1:0,0:0:0:0:
390,48,196596,2,0,B|397:54|402:69|402:69|350:296|350:296|360:315|377:327,1,285.000010871888,4|0,1:0|1:0,0:0:0:0:
366,318,197701,1,8,0:0:0:0:
355,117,197859,1,0,1:0:0:0:
288,305,198017,6,0,B|268:287|268:287|303:165,1,142.500005435944,4|0,1:0|1:0,0:0:0:0:
368,130,198254,1,0,0:0:0:0:
378,140,198333,2,0,L|414:118,3,31.6666666666667,0|0|0|0,1:0|1:0|0:0|0:0,0:0:0:0:
276,67,198649,2,0,L|314:23,1,47.5,0|0,1:0|1:0,0:0:0:0:
144,92,198807,2,0,L|169:40,1,47.5,0|0,1:0|1:0,0:0:0:0:
1,62,198964,5,0,1:0:0:0:
1,62,199043,1,0,1:0:0:0:
1,62,199122,2,0,B|34:62|34:62|91:182,1,142.500005435944,4|0,1:0|0:0,0:0:0:0:
220,275,199438,2,0,B|253:275|253:275|310:155,1,142.500005435944,0|0,1:0|1:0,0:0:0:0:
0,251,199754,2,0,L|170:228,1,142.500005435944,4|0,1:0|1:0,0:0:0:0:
138,242,199991,1,0,1:0:0:0:
133,252,200070,2,0,L|148:339,1,71.2500027179719,0|0,1:0|1:0,0:0:0:0:
218,352,200228,2,0,B|242:319|242:319|207:196|207:196|231:150,1,213.750008153916,0|0,1:0|0:0,0:0:0:0:
309,22,200543,6,0,B|406:50|406:50|443:16,1,142.500005435944,4|0,1:0|1:0,0:0:0:0:
508,9,200859,1,4,0:0:0:0:
508,9,201175,1,4,0:0:0:0:
508,9,201491,1,4,0:0:0:0:
437,22,201649,2,0,B|409:53|409:53|437:150,1,142.500005435944,4|0,1:0|0:0,0:0:0:0:
468,271,201964,5,0,1:0:0:0:
512,209,202122,2,0,B|449:224|449:224|387:363|387:363|313:376,2,285.000010871888,8|8|0,0:0|0:0|1:0,0:0:0:0:
477,139,202833,1,0,1:0:0:0:
477,139,202912,2,0,L|397:159,1,71.2500027179719,0|0,1:0|1:0,0:0:0:0:
318,296,203070,6,0,B|335:205|335:205|308:158,1,142.500005435944,4|0,1:0|1:0,0:0:0:0:
304,154,203306,1,0,1:0:0:0:
298,146,203385,1,0,1:0:0:0:
242,223,203543,1,0,1:0:0:0:
242,223,203622,1,0,1:0:0:0:
242,223,203701,2,0,P|219:196|205:168,1,47.5,0|0,1:0|0:0,0:0:0:0:
170,284,203859,2,0,P|158:253|155:220,1,47.5,0|0,1:0|1:0,0:0:0:0:
94,321,204017,1,0,1:0:0:0:
138,156,204175,5,4,1:0:0:0:
208,35,204333,2,0,P|300:38|344:121,1,142.500005435944,0|0,1:0|1:0,0:0:0:0:
343,61,204570,1,0,1:0:0:0:
355,53,204649,2,0,L|350:151,1,71.2500027179719,0|0,1:0|1:0,0:0:0:0:
479,101,204807,1,0,1:0:0:0:
479,101,204886,1,0,1:0:0:0:
479,101,204965,2,0,L|484:199,1,71.2500027179719,0|0,1:0|1:0,0:0:0:0:
401,194,205122,2,0,L|396:292,2,71.2500027179719,0|0|0,1:0|1:0|0:0,0:0:0:0:
63,346,205517,5,0,1:0:0:0:
63,346,205596,2,0,B|151:334|151:334|173:274,1,142.500005435944,4|0,1:0|1:0,0:0:0:0:
169,283,206070,6,0,B|138:260|138:260|174:52|174:52|128:19,1,285.000010871888,0|4,1:0|1:0,0:0:0:0:
256,192,206465,12,0,216807,0:0:0:0:
